<?xml version="1.0" standalone="no"?>
<!DOCTYPE svg PUBLIC "-//W3C//DTD SVG 1.1//EN" "http://www.w3.org/Graphics/SVG/1.1/DTD/svg11.dtd" >
<svg xmlns="http://www.w3.org/2000/svg" xmlns:xlink="http://www.w3.org/1999/xlink" version="1.1">
<metadata>
Created by FontForge 20170731 at Wed Nov 21 02:44:48 2012
 By Aleksey,,,
Copyright (c) Olivier Gourvat - Mostardesign Studio, 2012. All rights reserved.
</metadata>
<defs>
<font id="SofiaProRegularCondensed" horiz-adv-x="480" >
  <font-face 
    font-family="Sofia Pro Regular Condensed"
    font-weight="400"
    font-stretch="condensed"
    units-per-em="1000"
    panose-1="2 11 0 0 0 0 0 0 0 0"
    ascent="750"
    descent="-250"
    x-height="467"
    cap-height="689"
    bbox="-142 -255 969 985"
    underline-thickness="50"
    underline-position="-200"
    unicode-range="U+0020-FB04"
  />
<missing-glyph horiz-adv-x="575" 
d="M50 0v665h475v-665h-475zM155 431h62q0 37 21 60t53 23t56 -20.5t24 -52.5q0 -30 -24 -50q-15 -17 -33 -21q-45 -13 -69 -38t-24 -72v-38h62v38q0 22 12.5 32.5t37.5 17.5q43 13 71 48t28 83q0 60 -41.5 97.5t-99.5 37.5q-57 0 -96.5 -40t-39.5 -105zM207 131
q0 -18 13.5 -30.5t32.5 -12.5q18 0 31.5 12.5t13.5 30.5t-13.5 30.5t-31.5 12.5q-19 0 -32.5 -12.5t-13.5 -30.5z" />
    <glyph glyph-name="f_f" unicode="ff" horiz-adv-x="579" 
d="M589 721v-80h-31q-24 0 -40.5 -8t-25.5 -19t-13.5 -29.5t-5.5 -34t-1 -36.5v-47h91v-71h-91v-396h-87v396h-205v-396h-87v396h-76v71h76v47q0 207 156 207h55v-80h-38q-24 0 -40.5 -8t-25.5 -19t-13.5 -29.5t-5.5 -34t-1 -36.5v-47h205v47q0 207 156 207h48z" />
    <glyph glyph-name="fi" unicode="fi" horiz-adv-x="495" 
d="M349 396h-169v-396h-87v396h-76v71h76v47q0 207 156 207h24v-80h-7q-24 0 -40.5 -8t-25.5 -19t-13.5 -29.5t-5.5 -34t-1 -36.5v-47h256v-467h-87v396zM333 638q0 25 17.5 42t41.5 17q25 0 41.5 -17t16.5 -42t-16.5 -42t-41.5 -17q-24 0 -41.5 17t-17.5 42z" />
    <glyph glyph-name="fl" unicode="fl" horiz-adv-x="496" 
d="M349 0v638q-32 7 -64 7q-37 0 -60.5 -11t-32 -33.5t-10.5 -39.5t-2 -47v-47h91v-71h-91v-396h-87v396h-76v71h76v47q0 101 42.5 154t149.5 53q62 0 151 -19v-702h-87z" />
    <glyph glyph-name="f_f_i" unicode="ffi" horiz-adv-x="787" 
d="M641 396h-169v-396h-87v396h-205v-396h-87v396h-76v71h76v47q0 207 156 207h56v-80h-39q-24 0 -40.5 -8t-25.5 -19t-13.5 -29.5t-5.5 -34t-1 -36.5v-47h205v47q0 207 156 207h35v-80h-18q-24 0 -40.5 -8t-25.5 -19t-13.5 -29.5t-5.5 -34t-1 -36.5v-47h256v-467h-87v396z
M625 638q0 25 17.5 42t41.5 17q25 0 41.5 -17t16.5 -42t-16.5 -42t-41.5 -17q-24 0 -41.5 17t-17.5 42z" />
    <glyph glyph-name="f_f_l" unicode="ffl" horiz-adv-x="788" 
d="M641 0v638q-31 7 -64 7q-37 0 -60.5 -11t-32 -33.5t-10.5 -39.5t-2 -47v-47h91v-71h-91v-396h-87v396h-205v-396h-87v396h-76v71h76v47q0 207 156 207h69v-80h-52q-24 0 -40.5 -8t-25.5 -19t-13.5 -29.5t-5.5 -34t-1 -36.5v-47h205v47q0 101 42.5 154t149.5 53
q62 0 151 -19v-702h-87z" />
    <glyph glyph-name="f_f_j" unicode="ffj" horiz-adv-x="788" 
d="M572 721v-80h-14q-24 0 -40.5 -8t-25.5 -19t-13.5 -29.5t-5.5 -34t-1 -36.5v-47h257v-496q0 -198 -148 -198h-58v83h52q67 0 67 116v424h-170v-396h-87v396h-205v-396h-87v396h-76v71h76v47q0 207 156 207h55v-80h-38q-24 0 -40.5 -8t-25.5 -19t-13.5 -29.5t-5.5 -34
t-1 -36.5v-47h205v47q0 207 156 207h31zM626 638q0 25 17.5 42t41.5 17t41 -17t17 -42t-17 -42t-41 -17t-41.5 17t-17.5 42z" />
    <glyph glyph-name="f_j" unicode="fj" horiz-adv-x="496" 
d="M231 -227v83h52q67 0 67 116v424h-170v-396h-87v396h-76v71h76v47q0 207 156 207h28v-80h-11q-24 0 -40.5 -8t-25.5 -19t-13.5 -29.5t-5.5 -34t-1 -36.5v-47h257v-496q0 -198 -148 -198h-58zM334 638q0 25 17.5 42t41.5 17t41 -17t17 -42t-17 -42t-41 -17t-41.5 17
t-17.5 42z" />
    <glyph glyph-name=".notdef" horiz-adv-x="575" 
d="M50 0v665h475v-665h-475zM155 431h62q0 37 21 60t53 23t56 -20.5t24 -52.5q0 -30 -24 -50q-15 -17 -33 -21q-45 -13 -69 -38t-24 -72v-38h62v38q0 22 12.5 32.5t37.5 17.5q43 13 71 48t28 83q0 60 -41.5 97.5t-99.5 37.5q-57 0 -96.5 -40t-39.5 -105zM207 131
q0 -18 13.5 -30.5t32.5 -12.5q18 0 31.5 12.5t13.5 30.5t-13.5 30.5t-31.5 12.5q-19 0 -32.5 -12.5t-13.5 -30.5z" />
    <glyph glyph-name=".null" horiz-adv-x="0" 
 />
    <glyph glyph-name="nonmarkingreturn" horiz-adv-x="333" 
 />
    <glyph glyph-name="space" unicode=" " horiz-adv-x="217" 
 />
    <glyph glyph-name="exclam" unicode="!" horiz-adv-x="229" 
d="M161 689l-11 -504h-71l-12 504h94zM55 52q0 27 17.5 45t42.5 18q26 0 43.5 -18t17.5 -45t-17.5 -44.5t-43.5 -17.5q-25 0 -42.5 17.5t-17.5 44.5z" />
    <glyph glyph-name="quotedbl" unicode="&#x22;" horiz-adv-x="312" 
d="M60 721h70v-288h-70v288zM182 721h70v-288h-70v288z" />
    <glyph glyph-name="numbersign" unicode="#" horiz-adv-x="571" 
d="M453 515h89l-20 -79h-90l-40 -181h89l-20 -79h-89l-42 -176h-80l41 176h-93l-42 -176h-79l41 176h-88l19 79h89l39 181h-86l18 79h89l41 174h81l-41 -174h93l41 174h81zM258 436l-40 -181h93l40 181h-93z" />
    <glyph glyph-name="dollar" unicode="$" horiz-adv-x="487" 
d="M268 -9v-111h-55v112q-83 9 -129.5 69t-47.5 137h87q1 -50 31.5 -86t87.5 -36q58 0 90 29.5t36 72.5q5 95 -104 123l-76 22q-147 44 -147 177q0 81 47 135t125 61v99h55v-101q72 -10 117 -63.5t45 -135.5h-87q0 51 -30.5 83t-76.5 32q-52 0 -80 -30.5t-28 -79.5
q0 -68 85 -94l75 -21q175 -46 167 -214q-7 -71 -55 -122t-132 -58z" />
    <glyph glyph-name="percent" unicode="%" horiz-adv-x="580" 
d="M461 673l-279 -673h-54l280 673h53zM30 539q0 54 33 90t79 36t79.5 -36t33.5 -90q0 -55 -33.5 -90.5t-79.5 -35.5t-79 35.5t-33 90.5zM89 539q0 -27 14 -44.5t39 -17.5t39.5 17.5t14.5 44.5q0 26 -14.5 43t-39.5 17t-39 -17t-14 -43zM325 116q0 54 33 90t79 36t79.5 -36
t33.5 -90q0 -55 -33.5 -90.5t-79.5 -35.5t-79 35.5t-33 90.5zM384 116q0 -27 14 -44.5t39 -17.5t39.5 17.5t14.5 44.5q0 26 -14.5 43t-39.5 17t-39 -17t-14 -43z" />
    <glyph glyph-name="ampersand" unicode="&#x26;" horiz-adv-x="591" 
d="M543 -10q-52 0 -89.5 21t-53.5 58q-16 -36 -59 -57.5t-90 -21.5q-99 0 -154.5 62.5t-55.5 162.5q0 56 30.5 107.5t75.5 76.5q-26 17 -42 54.5t-16 74.5q0 72 51 123.5t119 51.5q103 0 148 -91l-70 -41q-14 27 -31 38.5t-47 11.5q-32 0 -56.5 -28t-24.5 -65
q0 -38 23 -67.5t55 -29.5h114v91h82v-92h76v-71h-76v-144q0 -68 18.5 -107.5t72.5 -39.5h19v-78h-19zM370 359h-93q-70 0 -108.5 -42.5t-38.5 -101.5q0 -62 34 -102t87 -40q57 0 87 38.5t32 97.5v150z" />
    <glyph glyph-name="quotesingle" unicode="'" horiz-adv-x="190" 
d="M60 721h70v-288h-70v288z" />
    <glyph glyph-name="parenleft" unicode="(" horiz-adv-x="329" 
d="M36 232q0 211 77 338t191 127v-66q-75 0 -133 -115.5t-58 -283.5t58 -283.5t133 -115.5v-66q-114 0 -191 127t-77 338z" />
    <glyph glyph-name="parenright" unicode=")" horiz-adv-x="329" 
d="M293 232q0 -211 -77 -338t-191 -127v66q75 0 133 115.5t58 283.5t-58 283.5t-133 115.5v66q114 0 191 -127t77 -338z" />
    <glyph glyph-name="asterisk" unicode="*" horiz-adv-x="396" 
d="M136 346l-57 51l75 109l-115 33l22 75l108 -52l-9 135h77l-10 -135l109 52l21 -75l-112 -31l74 -112l-58 -48l-60 117z" />
    <glyph glyph-name="plus" unicode="+" horiz-adv-x="443" 
d="M177 305v156h89v-156h135v-89h-135v-155h-89v155h-135v89h135z" />
    <glyph glyph-name="comma" unicode="," horiz-adv-x="219" 
d="M53 -148l-61 23q79 102 76 240h92q-5 -83 -39 -156.5t-68 -106.5z" />
    <glyph glyph-name="hyphen" unicode="-" horiz-adv-x="415" 
d="M55 277h305v-81h-305v81z" />
    <glyph glyph-name="period" unicode="." horiz-adv-x="225" 
d="M52 52q0 27 17.5 45t42.5 18q26 0 43.5 -18t17.5 -45t-17.5 -44.5t-43.5 -17.5q-25 0 -42.5 17.5t-17.5 44.5z" />
    <glyph glyph-name="slash" unicode="/" horiz-adv-x="458" 
d="M435 742l-336 -770h-75l336 770h75z" />
    <glyph glyph-name="zero" unicode="0" horiz-adv-x="522" 
d="M50 325q0 336 212 336q210 0 210 -336q0 -335 -210 -335q-212 0 -212 335zM137 325q0 -250 125 -250q124 0 124 250q0 251 -124 251q-125 0 -125 -251z" />
    <glyph glyph-name="one" unicode="1" horiz-adv-x="296" 
d="M132 0v539l-103 -42v88l189 80v-665h-86z" />
    <glyph glyph-name="two" unicode="2" horiz-adv-x="452" 
d="M46 39l226 322q40 55 40 107q0 47 -27.5 78t-66.5 31q-36 0 -64 -30.5t-34 -79.5l-81 23q11 78 61 124.5t118 46.5q76 0 128 -54t52 -139t-62 -169l-152 -212h221v-87h-359v39z" />
    <glyph glyph-name="three" unicode="3" horiz-adv-x="463" 
d="M331 181q0 57 -30.5 92t-80.5 35h-50v79h33q32 0 54.5 11t32 28.5t13 32t3.5 29.5q0 39 -26 65.5t-65 26.5q-56 0 -93 -65l-57 52q21 43 64 69t91 26q78 0 127.5 -52.5t47.5 -121.5q0 -41 -23.5 -82.5t-55.5 -55.5q46 -15 74 -65t28 -104q0 -84 -56.5 -137.5
t-146.5 -53.5q-63 0 -112.5 39.5t-72.5 97.5l71 48q8 -39 42.5 -70.5t71.5 -31.5q52 0 84 30.5t32 77.5z" />
    <glyph glyph-name="four" unicode="4" horiz-adv-x="501" 
d="M389 134v-134h-86v134h-288l308 518h66v-433h80v-85h-80zM149 219h154v262z" />
    <glyph glyph-name="five" unicode="5" horiz-adv-x="485" 
d="M34 131l75 47q34 -102 115 -102q65 0 100.5 38t35.5 96q0 61 -33 95t-83 34q-29 0 -55 -11.5t-65 -45.5l-66 46l48 324h306v-86h-233l-34 -196q44 49 120 49q72 0 125.5 -53.5t53.5 -155.5q0 -99 -61.5 -159.5t-158.5 -60.5q-65 0 -115 37t-75 104z" />
    <glyph glyph-name="six" unicode="6" horiz-adv-x="493" 
d="M132 312q10 44 51.5 73.5t91.5 29.5q75 0 127.5 -65t49.5 -152q-4 -88 -59.5 -148t-130.5 -60q-111 0 -162 92t-51 242q0 73 11.5 131.5t36 105.5t67 73t99.5 26q123 0 171 -125l-72 -40q-32 83 -99 83q-72 0 -104 -76t-27 -190zM154 212q0 -55 31 -96t73 -41q44 0 76 36
t32 91q0 58 -28.5 89.5t-72.5 33.5q-42 2 -75.5 -30t-35.5 -83z" />
    <glyph glyph-name="seven" unicode="7" horiz-adv-x="448" 
d="M441 653l-304 -653h-100l265 568h-254v85h393z" />
    <glyph glyph-name="eight" unicode="8" horiz-adv-x="478" 
d="M238 409h5q27 0 45 26t18 59q0 40 -19 62.5t-48 22.5t-48 -23.5t-19 -61.5q0 -33 18 -59t45 -26h3zM239 -10q-86 0 -141 55.5t-55 152.5q0 56 30 104.5t75 67.5q-25 16 -44 52.5t-19 72.5q0 69 44 117.5t110 48.5t110 -48.5t44 -117.5q0 -36 -19 -72.5t-44 -52.5
q45 -19 75 -67.5t30 -104.5q0 -97 -55 -152.5t-141 -55.5zM245 331h-3h-9q-43 0 -73 -38t-30 -89q0 -58 31 -96t78 -38t78 38t31 96q0 51 -30 89t-73 38z" />
    <glyph glyph-name="nine" unicode="9" horiz-adv-x="493" 
d="M361 338q-10 -44 -51.5 -73.5t-91.5 -29.5q-75 0 -127.5 65t-49.5 152q4 88 59.5 148t130.5 60q111 0 162 -92t51 -242q0 -73 -11.5 -131.5t-36 -105.5t-67 -73t-99.5 -26q-123 0 -171 125l72 40q32 -83 99 -83q72 0 104 76t27 190zM339 438q0 55 -31 96t-73 41
q-44 0 -76 -36t-32 -91q0 -58 28.5 -89.5t72.5 -33.5q42 -2 75.5 30t35.5 83z" />
    <glyph glyph-name="colon" unicode=":" horiz-adv-x="231" 
d="M55 52q0 27 17.5 45t42.5 18q26 0 43.5 -18t17.5 -45t-17.5 -44.5t-43.5 -17.5q-25 0 -42.5 17.5t-17.5 44.5zM55 414q0 27 17.5 45t42.5 18q26 0 43.5 -18t17.5 -45t-17.5 -44.5t-43.5 -17.5q-25 0 -42.5 17.5t-17.5 44.5z" />
    <glyph glyph-name="semicolon" unicode=";" horiz-adv-x="241" 
d="M64 414q0 27 17.5 45t42.5 18q26 0 43.5 -18t17.5 -45t-17.5 -44.5t-43.5 -17.5q-25 0 -42.5 17.5t-17.5 44.5zM64 -148l-61 23q79 102 76 240h92q-5 -83 -39 -156.5t-68 -106.5z" />
    <glyph glyph-name="less" unicode="&#x3c;" horiz-adv-x="528" 
d="M474 35l-441 197v73l441 198v-93l-342 -141l342 -143v-91z" />
    <glyph glyph-name="equal" unicode="=" horiz-adv-x="519" 
d="M59 390h401v-80h-401v80zM59 197h401v-80h-401v80z" />
    <glyph glyph-name="greater" unicode="&#x3e;" horiz-adv-x="528" 
d="M495 232l-441 -197v91l342 143l-342 141v93l441 -198v-73z" />
    <glyph glyph-name="question" unicode="?" horiz-adv-x="416" 
d="M117 498h-83q0 93 49 146t123 53q75 0 127 -51.5t52 -138.5q0 -70 -36 -122.5t-89 -71.5q-29 -10 -43.5 -25t-14.5 -48l-1 -55h-85v55q0 66 30 102t87 57q27 8 47 40t20 68q0 47 -28 75t-66 28q-37 0 -63 -29.5t-26 -82.5zM98 52q0 27 17.5 45t42.5 18q26 0 43.5 -18
t17.5 -45t-17.5 -44.5t-43.5 -17.5q-25 0 -42.5 17.5t-17.5 44.5z" />
    <glyph glyph-name="at" unicode="@" horiz-adv-x="840" 
d="M512 263q0 54 -30.5 91.5t-74.5 37.5q-43 0 -73.5 -37.5t-30.5 -91.5q0 -53 30.5 -90.5t73.5 -37.5q48 0 70 18v-71q-20 -18 -70 -18q-72 0 -123.5 58.5t-51.5 140.5q0 83 51.5 141.5t123.5 58.5t122 -55q51 -56 53 -136v-145q0 -66 57 -66q27 0 47.5 21.5t31 55.5
t15.5 68.5t5 68.5q0 150 -95.5 250.5t-226.5 100.5q-128 0 -217.5 -107.5t-89.5 -260.5t89.5 -259t217.5 -106h24v-71h-24q-158 0 -267.5 127t-109.5 309t110 310.5t267 128.5q160 0 276.5 -121.5t116.5 -300.5q0 -47 -9.5 -94.5t-29 -91t-53.5 -71t-78 -27.5
q-56 0 -91.5 33.5t-35.5 109.5v129z" />
    <glyph glyph-name="A" unicode="A" horiz-adv-x="552" 
d="M182 254h189l-94 321zM396 175h-239l-57 -175h-94l223 689h95l222 -689h-93z" />
    <glyph glyph-name="B" unicode="B" horiz-adv-x="535" 
d="M466 511q0 -46 -21.5 -88t-61.5 -59q49 -9 81.5 -59.5t32.5 -105.5q0 -84 -48 -141.5t-128 -57.5h-245v689h226q76 0 120 -48t44 -130zM166 400h122q44 0 65.5 32t21.5 76q0 42 -24 68.5t-69 26.5h-116v-203zM302 322h-136v-235h141q48 0 73.5 31.5t25.5 81.5
q0 47 -27 84.5t-77 37.5z" />
    <glyph glyph-name="C" unicode="C" horiz-adv-x="568" 
d="M40 343q0 163 80 258.5t208 95.5q137 0 222 -119l-65 -57q-65 90 -157 90q-90 0 -144.5 -71.5t-54.5 -196.5t54.5 -196t144.5 -71q92 0 157 90l65 -57q-85 -119 -222 -119q-128 0 -208 95t-80 258z" />
    <glyph glyph-name="D" unicode="D" horiz-adv-x="617" 
d="M308 0h-232v689h232q124 0 196 -97.5t72 -248.5q0 -150 -72 -246.5t-196 -96.5zM165 87h143q86 0 132.5 71.5t46.5 184.5q0 114 -47 186.5t-132 72.5h-143v-515z" />
    <glyph glyph-name="E" unicode="E" horiz-adv-x="482" 
d="M76 689h357v-86h-268v-220h234v-83h-234v-213h276v-87h-365v689z" />
    <glyph glyph-name="F" unicode="F" horiz-adv-x="450" 
d="M76 689h352v-86h-263v-220h212v-83h-212v-300h-89v689z" />
    <glyph glyph-name="G" unicode="G" horiz-adv-x="631" 
d="M546 597l-60 -66q-27 38 -66 57.5t-78 19.5q-93 0 -153.5 -70t-60.5 -195q0 -123 56 -193.5t147 -70.5q159 0 181 185h-165v81h259q0 -175 -75.5 -265t-199.5 -90q-127 0 -209.5 99t-82.5 254q0 162 86 258t217 96q61 0 114.5 -26.5t89.5 -73.5z" />
    <glyph glyph-name="H" unicode="H" horiz-adv-x="604" 
d="M528 689v-689h-90v300h-273v-300h-89v689h89v-306h273v306h90z" />
    <glyph glyph-name="I" unicode="I" horiz-adv-x="241" 
d="M76 689h89v-689h-89v689z" />
    <glyph glyph-name="J" unicode="J" horiz-adv-x="241" 
d="M-93 -221l8 82q21 -9 72 -9q89 0 89 139v698h89v-698q0 -224 -185 -224q-41 0 -73 12z" />
    <glyph glyph-name="K" unicode="K" horiz-adv-x="487" 
d="M226 344l272 -344h-110l-223 279v-279h-89v689h89v-288l185 288h101z" />
    <glyph glyph-name="L" unicode="L" horiz-adv-x="423" 
d="M76 689h89v-602h239v-87h-328v689z" />
    <glyph glyph-name="M" unicode="M" horiz-adv-x="794" 
d="M397 185l201 504h83l71 -689h-88l-52 507l-174 -431h-80l-177 430l-51 -506h-88l71 689h82z" />
    <glyph glyph-name="N" unicode="N" horiz-adv-x="583" 
d="M507 0h-84l-258 509v-509h-89v689h87l255 -505v505h89v-689z" />
    <glyph glyph-name="O" unicode="O" horiz-adv-x="678" 
d="M339 78q91 0 151 73t60 192q0 120 -60 193t-151 73t-151 -73t-60 -193q0 -119 60 -192t151 -73zM339 -10q-129 0 -214.5 97t-85.5 256t85.5 256.5t214.5 97.5t214.5 -97.5t85.5 -256.5t-85.5 -256t-214.5 -97z" />
    <glyph glyph-name="P" unicode="P" horiz-adv-x="518" 
d="M76 689h234q93 0 139.5 -63t46.5 -153t-46.5 -152.5t-139.5 -62.5h-144v-258h-90v689zM299 603h-133v-258h129q58 0 85 37t27 91t-26.5 92t-81.5 38z" />
    <glyph glyph-name="Q" unicode="Q" horiz-adv-x="678" 
d="M494 -111l-62 116q-43 -15 -93 -15q-129 0 -214.5 97t-85.5 256t85.5 256.5t214.5 97.5t214.5 -97.5t85.5 -256.5q0 -101 -36.5 -179.5t-100.5 -123.5l61 -113zM339 78q26 0 50 6l-66 125l69 39l68 -128q90 74 90 223q0 120 -60 193t-151 73t-151 -73t-60 -193
q0 -119 60 -192t151 -73z" />
    <glyph glyph-name="R" unicode="R" horiz-adv-x="537" 
d="M76 689h234q93 0 137.5 -62.5t44.5 -153.5q0 -82 -36.5 -141.5t-112.5 -71.5l156 -260h-104l-151 258h-78v-258h-90v689zM299 603h-133v-258h129q57 0 82.5 36.5t25.5 91.5q0 54 -24.5 92t-79.5 38z" />
    <glyph glyph-name="S" unicode="S" horiz-adv-x="494" 
d="M41 198h87q1 -50 31.5 -86t87.5 -36q58 0 90 29.5t36 72.5q5 95 -104 123l-76 22q-147 44 -147 177q0 87 54 142t141 55q84 0 139 -55.5t55 -146.5h-87q0 51 -30.5 83t-76.5 32q-52 0 -80 -30.5t-28 -79.5q0 -68 85 -94l75 -21q175 -46 167 -214q-7 -76 -62 -128.5
t-151 -52.5t-150.5 62t-55.5 146z" />
    <glyph glyph-name="T" unicode="T" horiz-adv-x="485" 
d="M20 689h445v-86h-178v-603h-89v603h-178v86z" />
    <glyph glyph-name="U" unicode="U" horiz-adv-x="578" 
d="M289 80q55 0 92.5 36t37.5 104v469h89v-469q0 -108 -62.5 -169t-156.5 -61q-93 0 -156 61t-63 169v469h89v-469q0 -68 37.5 -104t92.5 -36z" />
    <glyph glyph-name="V" unicode="V" horiz-adv-x="479" 
d="M112 689l128 -527l127 527h92l-176 -689h-86l-177 689h92z" />
    <glyph glyph-name="W" unicode="W" horiz-adv-x="766" 
d="M663 689h95l-198 -689h-79l-99 410l-97 -410h-79l-198 689h95l142 -521l103 428h70l103 -428z" />
    <glyph glyph-name="X" unicode="X" horiz-adv-x="522" 
d="M313 370l204 -370h-103l-153 291l-153 -291h-103l204 370l-182 319h104l130 -240l131 240h103z" />
    <glyph glyph-name="Y" unicode="Y" horiz-adv-x="534" 
d="M313 0h-92v317l-221 372h103l164 -283l166 283h103l-224 -372h1v-317z" />
    <glyph glyph-name="Z" unicode="Z" horiz-adv-x="486" 
d="M31 79l309 529h-297v81h407v-79l-315 -529h315v-81h-419v79z" />
    <glyph glyph-name="bracketleft" unicode="[" horiz-adv-x="278" 
d="M68 -227v916h181v-71h-98v-774h98v-71h-181z" />
    <glyph glyph-name="backslash" unicode="\" horiz-adv-x="458" 
d="M359 -28l-336 770h75l336 -770h-75z" />
    <glyph glyph-name="bracketright" unicode="]" horiz-adv-x="278" 
d="M210 689v-916h-181v71h98v774h-98v71h181z" />
    <glyph glyph-name="underscore" unicode="_" horiz-adv-x="594" 
d="M54 -28h486v-68h-486v68z" />
    <glyph glyph-name="grave" unicode="`" horiz-adv-x="435" 
d="M216 544l-107 154h103l78 -154h-74z" />
    <glyph glyph-name="a" unicode="a" horiz-adv-x="522" 
d="M375 0v76q-44 -86 -143 -86q-85 0 -141.5 67.5t-56.5 176.5q0 110 56 176.5t142 66.5q45 0 85 -20t58 -65v75h87v-467h-87zM375 235q0 71 -39 112.5t-89 41.5q-52 0 -88.5 -43t-36.5 -111t36.5 -112.5t88.5 -44.5q53 0 90.5 42.5t37.5 114.5z" />
    <glyph glyph-name="b" unicode="b" horiz-adv-x="522" 
d="M147 76v-76h-87v721h87v-329q20 41 60.5 63t83.5 22q86 0 141 -66.5t55 -176.5q0 -109 -56 -176.5t-141 -67.5q-46 0 -88.5 22t-54.5 64zM147 235q0 -72 37.5 -114.5t90.5 -42.5q52 0 88 44.5t36 112.5t-36 111t-88 43q-50 0 -89 -41.5t-39 -112.5z" />
    <glyph glyph-name="c" unicode="c" horiz-adv-x="432" 
d="M34 235q0 108 62.5 175t152.5 67q99 0 157 -75l-62 -62q-43 50 -95 50q-53 0 -90 -43t-37 -112t37.5 -114t89.5 -45q53 0 95 52l63 -62q-59 -76 -158 -76q-89 0 -152 68.5t-63 176.5z" />
    <glyph glyph-name="d" unicode="d" horiz-adv-x="522" 
d="M375 0v76q-12 -42 -54.5 -64t-88.5 -22q-85 0 -141 67.5t-56 176.5q0 110 55 176.5t141 66.5q43 0 83.5 -22t60.5 -63v329h87v-721h-87zM375 235q0 71 -39 112.5t-89 41.5q-52 0 -88 -43t-36 -111t36 -112.5t88 -44.5q53 0 90.5 42.5t37.5 114.5z" />
    <glyph glyph-name="e" unicode="e" horiz-adv-x="490" 
d="M128 265h243q-9 62 -41 93.5t-80 31.5t-80 -31.5t-42 -93.5zM461 235q0 -26 -1 -36h-332q8 -57 42 -89.5t83 -32.5q36 0 67 17.5t48 52.5l78 -34q-26 -59 -79 -91t-117 -32q-92 0 -154 68t-62 177t61.5 175.5t154.5 66.5q92 0 151.5 -66.5t59.5 -175.5z" />
    <glyph glyph-name="f" unicode="f" horiz-adv-x="287" 
d="M297 721v-80h-31q-24 0 -40.5 -8t-25.5 -19t-13.5 -29.5t-5.5 -34t-1 -36.5v-47h91v-71h-91v-396h-87v396h-76v71h76v47q0 207 156 207h48z" />
    <glyph glyph-name="g" unicode="g" horiz-adv-x="522" 
d="M375 76q-18 -43 -57.5 -64.5t-85.5 -21.5q-86 0 -142 66.5t-56 175.5q0 110 56 177.5t142 67.5q44 0 84 -20t59 -61v71h87v-396q0 -304 -223 -304q-59 0 -108 32.5t-77 92.5l75 38q38 -79 109 -79q137 0 137 225zM375 233q0 72 -37.5 115t-90.5 43q-52 0 -88.5 -45.5
t-36.5 -112.5q0 -70 36.5 -113.5t88.5 -43.5q50 0 89 43.5t39 113.5z" />
    <glyph glyph-name="h" unicode="h" horiz-adv-x="495" 
d="M147 242v-242h-87v721h87v-325q39 82 128 82q77 0 121.5 -55t43.5 -152v-271h-87v265q0 57 -27 91t-70 34q-52 0 -80.5 -37.5t-28.5 -110.5z" />
    <glyph glyph-name="i" unicode="i" horiz-adv-x="207" 
d="M44 638q0 25 17.5 42t41.5 17q25 0 41.5 -17t16.5 -42t-16.5 -42t-41.5 -17q-24 0 -41.5 17t-17.5 42zM147 467h-87v-467h87v467z" />
    <glyph glyph-name="j" unicode="j" horiz-adv-x="207" 
d="M-59 -227v83h52q67 0 67 116v495h87v-496q0 -198 -148 -198h-58zM44 638q0 25 17.5 42t41.5 17t41 -17t17 -42t-17 -42t-41 -17t-41.5 17t-17.5 42z" />
    <glyph glyph-name="k" unicode="k" horiz-adv-x="422" 
d="M147 218v-218h-87v721h87v-407l129 153h108l-171 -202l212 -265h-105z" />
    <glyph glyph-name="l" unicode="l" horiz-adv-x="207" 
d="M60 721h87v-721h-87v721z" />
    <glyph glyph-name="m" unicode="m" horiz-adv-x="749" 
d="M515 388q-42 0 -68 -32.5t-26 -89.5v-266h-87v272q0 57 -25 86.5t-69 29.5q-41 0 -67 -33t-26 -90v-265h-87v467h87v-71q15 41 46.5 61t66.5 20q99 0 135 -89q38 89 141 89q77 0 117.5 -54t40.5 -153v-270h-87v269q0 56 -25 87.5t-67 31.5z" />
    <glyph glyph-name="n" unicode="n" horiz-adv-x="488" 
d="M147 260v-260h-87v467h87v-71q15 41 50.5 61t77.5 20q76 0 117 -54t41 -153v-270h-87v246q0 74 -24.5 108t-74.5 34q-44 0 -72 -32t-28 -96z" />
    <glyph glyph-name="o" unicode="o" horiz-adv-x="494" 
d="M247 -10q-89 0 -151 68.5t-62 176.5t61.5 175t151.5 67t151.5 -67t61.5 -175t-62 -176.5t-151 -68.5zM247 77q52 0 89 44t37 114q0 69 -36.5 112t-89.5 43t-89.5 -43t-36.5 -112q0 -70 36.5 -114t89.5 -44z" />
    <glyph glyph-name="p" unicode="p" horiz-adv-x="518" 
d="M147 467v-71q18 40 58 60.5t83 20.5q85 0 140.5 -67.5t55.5 -177.5q0 -109 -55.5 -175.5t-140.5 -66.5q-106 0 -141 86v-303h-87v694h87zM147 231q0 -71 38 -112.5t88 -41.5q52 0 87.5 43t35.5 111q0 69 -35.5 114t-87.5 45t-89 -43.5t-37 -115.5z" />
    <glyph glyph-name="q" unicode="q" horiz-adv-x="518" 
d="M371 396v71h87v-694h-87v303q-35 -86 -141 -86q-85 0 -140.5 66.5t-55.5 175.5q0 110 55.5 177.5t140.5 67.5q43 0 83 -20.5t58 -60.5zM371 231q0 72 -37 115.5t-89 43.5t-87.5 -45t-35.5 -114q0 -68 35.5 -111t87.5 -43q50 0 88 41.5t38 112.5z" />
    <glyph glyph-name="r" unicode="r" horiz-adv-x="334" 
d="M147 193v-193h-87v467h87v-104q11 52 40.5 83t64.5 31q49 0 74 -19l-13 -86q-31 18 -62 18q-104 0 -104 -197z" />
    <glyph glyph-name="s" unicode="s" horiz-adv-x="374" 
d="M329 341h-87q-8 55 -56 55q-45 0 -57 -38q-8 -23 2 -41q12 -19 44 -30l60 -18q107 -31 107 -140q0 -63 -46 -101t-112 -38q-60 0 -106 40t-47 108l87 -1q1 -30 19.5 -48.5t46.5 -18.5q33 0 54 17t21 44q0 41 -45 54l-63 19q-39 12 -59.5 27.5t-37.5 49.5q-22 47 -5 101
q12 40 48.5 67.5t89.5 27.5q55 0 94.5 -31.5t46.5 -94.5q1 -7 1 -10z" />
    <glyph glyph-name="t" unicode="t" horiz-adv-x="277" 
d="M176 467h84v-71h-84v-396h-87v396h-72v71h72v176h87v-176z" />
    <glyph glyph-name="u" unicode="u" horiz-adv-x="488" 
d="M341 207v260h87v-467h-87v63q-16 -36 -52 -54.5t-76 -18.5q-76 0 -117 54t-41 153v270h87v-246q0 -76 21 -111t70 -35q50 0 79 33.5t29 98.5z" />
    <glyph glyph-name="v" unicode="v" horiz-adv-x="435" 
d="M10 467h96l112 -355l109 355h98l-165 -467h-85z" />
    <glyph glyph-name="w" unicode="w" horiz-adv-x="674" 
d="M513 0h-74l-103 342l-100 -342h-73l-151 467h95l92 -322l92 322h89l93 -321l92 321h95z" />
    <glyph glyph-name="x" unicode="x" horiz-adv-x="432" 
d="M33 467h105l77 -149l79 149h105l-130 -211l157 -256h-104l-107 195l-107 -195h-103l157 256z" />
    <glyph glyph-name="y" unicode="y" horiz-adv-x="434" 
d="M178 -227h-91l83 241l-159 453h93l114 -331l114 331h92z" />
    <glyph glyph-name="z" unicode="z" horiz-adv-x="427" 
d="M390 467v-74l-248 -311h248v-82h-359v74l243 311h-230v82h346z" />
    <glyph glyph-name="braceleft" unicode="{" horiz-adv-x="324" 
d="M162 143v-174q0 -54 21.5 -90.5t65.5 -36.5h48v-69h-45q-84 0 -128 50t-44 146v174q0 20 -16 39t-36 19v67q20 0 36 19t16 39v176q0 95 44 145t128 50h45v-69h-48q-44 0 -65.5 -36t-21.5 -90v-176q0 -69 -59 -92q30 -10 44.5 -36t14.5 -55z" />
    <glyph glyph-name="bar" unicode="|" horiz-adv-x="191" 
d="M123 795v-914h-55v914h55z" />
    <glyph glyph-name="braceright" unicode="}" horiz-adv-x="324" 
d="M162 -31v174q0 29 14.5 55t44.5 36q-59 23 -59 92v176q0 54 -21.5 90t-65.5 36h-48v69h45q84 0 128 -50t44 -145v-176q0 -20 16 -39t36 -19v-67q-20 0 -36 -19t-16 -39v-174q0 -96 -44 -146t-128 -50h-45v69h48q44 0 65.5 36.5t21.5 90.5z" />
    <glyph glyph-name="exclamdown" unicode="&#xa1;" horiz-adv-x="210" 
d="M140 277l11 -504h-94l12 504h71zM45 415q0 27 17.5 44.5t42.5 17.5q26 0 43.5 -17.5t17.5 -44.5t-17.5 -45t-43.5 -18q-25 0 -42.5 18t-17.5 45z" />
    <glyph glyph-name="cent" unicode="&#xa2;" horiz-adv-x="448" 
d="M270 -9v-118h-55v121q-77 14 -127.5 79.5t-50.5 161.5t50.5 160.5t127.5 77.5v102h55v-99q87 -8 139 -74l-62 -62q-43 50 -95 50q-53 0 -90 -43t-37 -112t37.5 -114t89.5 -45q53 0 95 52l63 -62q-52 -67 -140 -75z" />
    <glyph glyph-name="sterling" unicode="&#xa3;" horiz-adv-x="538" 
d="M114 348v154q0 86 53.5 140.5t126.5 54.5t123 -55t50 -148h-81q-2 44 -25.5 80t-66.5 36q-38 0 -65.5 -31.5t-27.5 -76.5v-154h130v-61h-130v-203h183q31 0 31 32v47h84v-51q0 -112 -97 -112h-366v84h78v203h-65v61h65z" />
    <glyph glyph-name="currency" unicode="&#xa4;" horiz-adv-x="519" 
d="M164 339q0 -50 28 -86t67 -36q40 0 68.5 36t28.5 86t-28.5 86.5t-68.5 36.5q-39 0 -67 -36.5t-28 -86.5zM168 173l-60 -72l-51 60l60 71q-29 50 -29 107q0 56 30 108l-61 71l51 60l61 -73q37 30 90 30q52 0 91 -30l61 73l50 -60l-59 -71q29 -53 29 -108q0 -57 -29 -107
l59 -71l-50 -60l-61 73q-39 -30 -91 -30q-51 0 -91 29z" />
    <glyph glyph-name="yen" unicode="&#xa5;" horiz-adv-x="591" 
d="M341 0h-92v130h-157v53h157v87h-157v53h153l-217 366h103l164 -283l166 283h103l-221 -366h150v-53h-152v-87h152v-53h-152v-130z" />
    <glyph glyph-name="brokenbar" unicode="&#xa6;" horiz-adv-x="193" 
d="M69 406v389h55v-389h-55zM124 268v-387h-55v387h55z" />
    <glyph glyph-name="section" unicode="&#xa7;" horiz-adv-x="444" 
d="M131 502v-160q0 -49 26.5 -78.5t63.5 -29.5q24 0 52 14v-91q-27 -9 -52 -9q-73 0 -123 53.5t-50 140.5v160q0 87 50 141t123 54q57 0 101 -33t62 -95l-78 -23q-24 69 -85 69q-37 0 -63.5 -32t-26.5 -81zM313 78v160q0 49 -26.5 78.5t-63.5 29.5q-24 0 -52 -14v91
q27 9 52 9q73 0 123 -53.5t50 -140.5v-160q0 -87 -50 -141t-123 -54q-57 0 -101 33t-62 95l78 23q24 -69 85 -69q37 0 63.5 32t26.5 81z" />
    <glyph glyph-name="dieresis" unicode="&#xa8;" horiz-adv-x="468" 
d="M101 608q0 24 16.5 40.5t39.5 16.5t39.5 -16.5t16.5 -40.5t-16.5 -40.5t-39.5 -16.5t-39.5 16.5t-16.5 40.5zM255 608q0 24 16.5 40.5t39.5 16.5t39.5 -16.5t16.5 -40.5t-16.5 -40.5t-39.5 -16.5t-39.5 16.5t-16.5 40.5z" />
    <glyph glyph-name="copyright" unicode="&#xa9;" horiz-adv-x="698" 
d="M42 343q0 146 90 250t216 104q127 0 217.5 -104t90.5 -250t-90.5 -249.5t-217.5 -103.5q-126 0 -216 103.5t-90 249.5zM91 343q0 -123 75.5 -212t181.5 -89q107 0 183 89t76 212t-76 212.5t-183 89.5q-106 0 -181.5 -89.5t-75.5 -212.5zM185 339q0 -89 45 -142t115 -53
q79 0 129 74l-47 40q-36 -52 -82 -52q-43 0 -69 35.5t-26 97.5t26 97.5t69 35.5q47 0 82 -52l47 41q-52 73 -129 73q-70 0 -115 -53t-45 -142z" />
    <glyph glyph-name="ordfeminine" unicode="&#xaa;" horiz-adv-x="447" 
d="M307 325v51q-13 -27 -38 -42.5t-54 -15.5q-62 0 -108 48t-46 123t45.5 122.5t108.5 47.5t92 -56v49h66v-327h-66zM307 490q0 50 -26.5 78.5t-61.5 28.5q-36 0 -61.5 -29.5t-25.5 -77.5t25.5 -79t61.5 -31q37 0 62.5 29.5t25.5 80.5zM72 230v45h300v-45h-300z" />
    <glyph glyph-name="guillemotleft" unicode="&#xab;" horiz-adv-x="436" 
d="M37 233l117 207h77l-116 -207l118 -207h-79zM201 233l117 207h77l-116 -207l118 -207h-79z" />
    <glyph glyph-name="logicalnot" unicode="&#xac;" horiz-adv-x="547" 
d="M485 359v-241h-78v160h-348v81h426z" />
    <glyph glyph-name="registered" unicode="&#xae;" horiz-adv-x="698" 
d="M368 531h-132v-382h65v136h29l79 -136h75l-84 140q73 21 73 118q0 52 -25.5 88t-79.5 36zM301 467h62q24 0 35 -17.5t11 -42.5q0 -58 -47 -58h-61v118zM42 343q0 146 90 250t216 104q127 0 217.5 -104t90.5 -250t-90.5 -249.5t-217.5 -103.5q-126 0 -216 103.5t-90 249.5
zM91 343q0 -123 75.5 -212t181.5 -89q107 0 183 89t76 212t-76 212.5t-183 89.5q-106 0 -181.5 -89.5t-75.5 -212.5z" />
    <glyph glyph-name="macron" unicode="&#xaf;" horiz-adv-x="418" 
d="M97 646h224v-80h-224v80z" />
    <glyph glyph-name="degree" unicode="&#xb0;" horiz-adv-x="329" 
d="M41 566q0 54 36 92.5t87 38.5t87.5 -38.5t36.5 -92.5t-36.5 -92.5t-87.5 -38.5t-87 38.5t-36 92.5zM102 566q0 -32 18.5 -54.5t43.5 -22.5q26 0 44.5 23t18.5 54t-18.5 54t-44.5 23q-25 0 -43.5 -22.5t-18.5 -54.5z" />
    <glyph glyph-name="plusminus" unicode="&#xb1;" horiz-adv-x="463" 
d="M186 346v136h90v-136h132v-84h-132v-139h-90v139h-131v84h131zM408 0h-353v76h353v-76z" />
    <glyph glyph-name="twosuperior" unicode="&#xb2;" horiz-adv-x="287" 
d="M25 495v38l140 182q31 39 31 64q0 26 -16 42t-41 16q-19 0 -35 -15.5t-20 -40.5l-58 10q10 48 41.5 77.5t71.5 29.5q53 0 86 -32.5t33 -86.5q0 -44 -44 -102l-97 -123h140v-59h-232z" />
    <glyph glyph-name="threesuperior" unicode="&#xb3;" horiz-adv-x="292" 
d="M189 792q0 20 -14 34.5t-36 14.5q-39 0 -52 -42l-52 26q11 34 39.5 53.5t64.5 19.5q51 0 81.5 -28.5t30.5 -77.5q0 -61 -57 -85q36 -7 54.5 -38t18.5 -61q0 -56 -38.5 -89.5t-95.5 -33.5q-37 0 -70 22t-48 64l56 26q6 -25 24.5 -39t37.5 -14q30 0 51 17.5t21 46.5
q0 31 -19 51t-47 20h-39v52h29q32 0 46 20t14 41z" />
    <glyph glyph-name="acute" unicode="&#xb4;" horiz-adv-x="435" 
d="M286 698l-107 -154h-74l78 154h103z" />
    <glyph glyph-name="mu" unicode="&#xb5;" horiz-adv-x="486" 
d="M152 17v-138h-84v588h87v-270q1 -55 24.5 -86.5t62.5 -31.5q44 0 73.5 30.5t29.5 94.5v263h87v-467h-87v76q-26 -86 -119 -86q-47 0 -74 27z" />
    <glyph glyph-name="paragraph" unicode="&#xb6;" horiz-adv-x="541" 
d="M249 689v-753h-80v408q-58 5 -99 54.5t-41 117.5q0 72 43.5 122.5t106.5 50.5h70zM305 689h84q50 0 85.5 -40.5t35.5 -96.5v-85h-75v85q0 21 -9.5 37t-23.5 16h-17v-654q0 -51 -36.5 -92.5t-84.5 -44.5h-95v71h95q15 0 28 16t13 35v753z" />
    <glyph glyph-name="periodcentered" unicode="&#xb7;" horiz-adv-x="231" 
d="M55 251q0 27 17.5 45t42.5 18t43 -18t18 -45t-18 -44.5t-43 -17.5t-42.5 17.5t-17.5 44.5z" />
    <glyph glyph-name="cedilla" unicode="&#xb8;" horiz-adv-x="444" 
d="M210 32h45q59 -67 59 -139q0 -43 -26.5 -70t-67.5 -27q-45 0 -71 34.5t-21 82.5l61 -7q0 -19 8 -33.5t23 -14.5q14 0 23.5 9t9.5 26q0 55 -43 139z" />
    <glyph glyph-name="onesuperior" unicode="&#xb9;" horiz-adv-x="225" 
d="M102 495v315l-72 -31v61l134 62v-407h-62z" />
    <glyph glyph-name="ordmasculine" unicode="&#xba;" horiz-adv-x="437" 
d="M219 318q-64 0 -111 48t-47 124q0 75 47 122t111 47t110.5 -47t46.5 -122q0 -76 -46.5 -124t-110.5 -48zM219 379q36 0 62.5 31t26.5 80q0 47 -26.5 77.5t-62.5 30.5q-37 0 -64 -30.5t-27 -77.5q0 -49 27 -80t64 -31zM69 230v45h300v-45h-300z" />
    <glyph glyph-name="guillemotright" unicode="&#xbb;" horiz-adv-x="436" 
d="M282 440l117 -207l-117 -207h-79l118 207l-116 207h77zM118 440l117 -207l-117 -207h-79l118 207l-116 207h77z" />
    <glyph glyph-name="onequarter" unicode="&#xbc;" horiz-adv-x="715" 
d="M567 670l-382 -680h-57l383 680h56zM103 257v315l-72 -31v61l134 62v-407h-62zM620 79v-79h-62v79h-180l193 317h49v-263h61v-54h-61zM467 133h91v147z" />
    <glyph glyph-name="onehalf" unicode="&#xbd;" horiz-adv-x="762" 
d="M567 670l-382 -680h-57l383 680h56zM103 257v315l-72 -31v61l134 62v-407h-62zM489 0v38l140 182q31 39 31 64q0 26 -16 42t-41 16q-19 0 -35 -15.5t-20 -40.5l-58 10q10 48 41.5 77.5t71.5 29.5q53 0 86 -32.5t33 -86.5q0 -44 -44 -102l-97 -123h140v-59h-232z" />
    <glyph glyph-name="threequarters" unicode="&#xbe;" horiz-adv-x="808" 
d="M651 670l-382 -680h-57l383 680h56zM714 79v-79h-62v79h-180l193 317h49v-263h61v-54h-61zM561 133h91v147zM206 554q0 20 -14 34.5t-36 14.5q-39 0 -52 -42l-52 26q11 34 39.5 53.5t64.5 19.5q51 0 81.5 -28.5t30.5 -77.5q0 -61 -57 -85q36 -7 54.5 -38t18.5 -61
q0 -56 -38.5 -89.5t-95.5 -33.5q-37 0 -70 22t-48 64l56 26q6 -25 24.5 -39t37.5 -14q30 0 51 17.5t21 46.5q0 31 -19 51t-47 20h-39v52h29q32 0 46 20t14 41z" />
    <glyph glyph-name="questiondown" unicode="&#xbf;" horiz-adv-x="408" 
d="M296 -34h83q0 -93 -49 -146t-123 -53q-75 0 -127 51.5t-52 138.5q0 70 36 122.5t89 71.5q29 10 43.5 25t14.5 48l1 55h85v-55q0 -66 -30 -102t-87 -57q-27 -8 -47 -40t-20 -68q0 -47 28.5 -75t65.5 -28t63 29.5t26 82.5zM315 415q0 -27 -17.5 -45t-42.5 -18
q-26 0 -43.5 18t-17.5 45t17.5 44.5t43.5 17.5q25 0 42.5 -17.5t17.5 -44.5z" />
    <glyph glyph-name="Agrave" unicode="&#xc0;" horiz-adv-x="552" 
d="M182 254h189l-94 321zM396 175h-239l-57 -175h-94l223 689h95l222 -689h-93zM237 766l-107 154h103l78 -154h-74z" />
    <glyph glyph-name="Aacute" unicode="&#xc1;" horiz-adv-x="552" 
d="M371 254h-189l95 321zM157 175h239l57 -175h93l-222 689h-95l-223 -689h94zM431 920l-107 -154h-74l78 154h103z" />
    <glyph glyph-name="Acircumflex" unicode="&#xc2;" horiz-adv-x="552" 
d="M182 254h189l-94 321zM396 175h-239l-57 -175h-94l223 689h95l222 -689h-93zM351 765l-75 88l-74 -88h-78l109 154h87l108 -154h-77z" />
    <glyph glyph-name="Atilde" unicode="&#xc3;" horiz-adv-x="552" 
d="M182 254h189l-94 321zM396 175h-239l-57 -175h-94l223 689h95l222 -689h-93zM336 890h62q-3 -61 -25.5 -87.5t-53.5 -26.5q-19 0 -43.5 19t-33.5 19q-25 0 -26 -41h-62q3 61 26.5 87.5t54.5 26.5q19 0 43 -19t32 -19q25 0 26 41z" />
    <glyph glyph-name="Adieresis" unicode="&#xc4;" horiz-adv-x="552" 
d="M371 254h-189l95 321zM157 175h239l57 -175h93l-222 689h-95l-223 -689h94zM143 830q0 24 16.5 40.5t39.5 16.5t39.5 -16.5t16.5 -40.5t-16.5 -40.5t-39.5 -16.5t-39.5 16.5t-16.5 40.5zM297 830q0 24 16.5 40.5t39.5 16.5t39.5 -16.5t16.5 -40.5t-16.5 -40.5
t-39.5 -16.5t-39.5 16.5t-16.5 40.5z" />
    <glyph glyph-name="Aring" unicode="&#xc5;" horiz-adv-x="552" 
d="M371 254h-189l95 321zM157 175h239l57 -175h93l-222 689h-95l-223 -689h94zM178 860q0 44 28 73.5t68 29.5q41 0 70 -29.5t29 -73.5q0 -43 -29 -71t-70 -28q-40 0 -68 28t-28 71zM223 861q0 -23 15 -38t36 -15q22 0 37.5 15t15.5 38q0 24 -15.5 39.5t-37.5 15.5
q-21 0 -36 -15.5t-15 -39.5z" />
    <glyph glyph-name="AE" unicode="&#xc6;" horiz-adv-x="831" 
d="M400 689h382v-86h-268v-220h234v-83h-234v-213h276v-87h-365v175h-227l-103 -175h-101zM241 248h184v327z" />
    <glyph glyph-name="Ccedilla" unicode="&#xc7;" horiz-adv-x="568" 
d="M40 343q0 163 80 258.5t208 95.5q137 0 222 -119l-65 -57q-65 90 -157 90q-90 0 -144.5 -71.5t-54.5 -196.5t54.5 -196t144.5 -71q92 0 157 90l65 -57q-77 -108 -199 -118q30 -51 30 -98q0 -43 -26.5 -70t-67.5 -27q-45 0 -71 34.5t-21 82.5l61 -7q0 -19 8 -33.5
t23 -14.5q14 0 23.5 9t9.5 26q0 46 -24 99q-115 11 -185.5 105t-70.5 246z" />
    <glyph glyph-name="Egrave" unicode="&#xc8;" horiz-adv-x="482" 
d="M76 689h357v-86h-268v-220h234v-83h-234v-213h276v-87h-365v689zM230 766l-107 154h103l78 -154h-74z" />
    <glyph glyph-name="Eacute" unicode="&#xc9;" horiz-adv-x="482" 
d="M433 689h-357v-689h365v87h-276v213h234v83h-234v220h268v86zM370 920l-107 -154h-74l78 154h103z" />
    <glyph glyph-name="Ecircumflex" unicode="&#xca;" horiz-adv-x="482" 
d="M76 689h357v-86h-268v-220h234v-83h-234v-213h276v-87h-365v689zM316 765l-75 88l-74 -88h-78l109 154h87l108 -154h-77z" />
    <glyph glyph-name="Edieresis" unicode="&#xcb;" horiz-adv-x="482" 
d="M433 689h-357v-689h365v87h-276v213h234v83h-234v220h268v86zM116 830q0 24 16 40.5t40 16.5q23 0 39.5 -16.5t16.5 -40.5t-16.5 -40.5t-39.5 -16.5q-24 0 -40 16.5t-16 40.5zM270 830q0 24 16 40.5t40 16.5t40 -16.5t16 -40.5t-16 -40.5t-40 -16.5t-40 16.5t-16 40.5z
" />
    <glyph glyph-name="Igrave" unicode="&#xcc;" horiz-adv-x="241" 
d="M76 689h89v-689h-89v689zM91 766l-107 154h103l78 -154h-74z" />
    <glyph glyph-name="Iacute" unicode="&#xcd;" horiz-adv-x="241" 
d="M165 689h-89v-689h89v689zM257 920l-107 -154h-74l78 154h103z" />
    <glyph glyph-name="Icircumflex" unicode="&#xce;" horiz-adv-x="241" 
d="M76 689h89v-689h-89v689zM196 765l-75 88l-74 -88h-78l109 154h87l108 -154h-77z" />
    <glyph glyph-name="Idieresis" unicode="&#xcf;" horiz-adv-x="241" 
d="M165 689h-89v-689h89v689zM-12 830q0 24 16 40.5t40 16.5q23 0 39.5 -16.5t16.5 -40.5t-16.5 -40.5t-39.5 -16.5q-24 0 -40 16.5t-16 40.5zM142 830q0 24 16 40.5t40 16.5t40 -16.5t16 -40.5t-16 -40.5t-40 -16.5t-40 16.5t-16 40.5z" />
    <glyph glyph-name="Eth" unicode="&#xd0;" horiz-adv-x="623" 
d="M314 0h-232v302h-84v64h84v323h232q124 0 196 -97.5t72 -248.5q0 -150 -72 -246.5t-196 -96.5zM171 366h156v-64h-156v-215h143q86 0 132.5 71.5t46.5 184.5q0 114 -47 186.5t-132 72.5h-143v-236z" />
    <glyph glyph-name="Ntilde" unicode="&#xd1;" horiz-adv-x="583" 
d="M507 0h-84l-258 509v-509h-89v689h87l255 -505v505h89v-689zM351 890h62q-3 -61 -25.5 -87.5t-53.5 -26.5q-19 0 -43.5 19t-33.5 19q-25 0 -26 -41h-62q3 61 26.5 87.5t54.5 26.5q19 0 43 -19t32 -19q25 0 26 41z" />
    <glyph glyph-name="Ograve" unicode="&#xd2;" horiz-adv-x="678" 
d="M339 78q91 0 151 73t60 192q0 120 -60 193t-151 73t-151 -73t-60 -193q0 -119 60 -192t151 -73zM339 -10q-129 0 -214.5 97t-85.5 256t85.5 256.5t214.5 97.5t214.5 -97.5t85.5 -256.5t-85.5 -256t-214.5 -97zM299 766l-107 154h103l78 -154h-74z" />
    <glyph glyph-name="Oacute" unicode="&#xd3;" horiz-adv-x="678" 
d="M339 78q91 0 151 73t60 192q0 120 -60 193t-151 73t-151 -73t-60 -193q0 -119 60 -192t151 -73zM339 -10q-129 0 -214.5 97t-85.5 256t85.5 256.5t214.5 97.5t214.5 -97.5t85.5 -256.5t-85.5 -256t-214.5 -97zM471 920l-107 -154h-74l78 154h103z" />
    <glyph glyph-name="Ocircumflex" unicode="&#xd4;" horiz-adv-x="678" 
d="M339 78q91 0 151 73t60 192q0 120 -60 193t-151 73t-151 -73t-60 -193q0 -119 60 -192t151 -73zM339 -10q-129 0 -214.5 97t-85.5 256t85.5 256.5t214.5 97.5t214.5 -97.5t85.5 -256.5t-85.5 -256t-214.5 -97zM415 765l-75 88l-74 -88h-78l109 154h87l108 -154h-77z" />
    <glyph glyph-name="Otilde" unicode="&#xd5;" horiz-adv-x="678" 
d="M339 78q91 0 151 73t60 192q0 120 -60 193t-151 73t-151 -73t-60 -193q0 -119 60 -192t151 -73zM339 -10q-129 0 -214.5 97t-85.5 256t85.5 256.5t214.5 97.5t214.5 -97.5t85.5 -256.5t-85.5 -256t-214.5 -97zM400 890h62q-3 -61 -25.5 -87.5t-53.5 -26.5q-19 0 -43.5 19
t-33.5 19q-25 0 -26 -41h-62q3 61 26.5 87.5t54.5 26.5q19 0 43 -19t32 -19q25 0 26 41z" />
    <glyph glyph-name="Odieresis" unicode="&#xd6;" horiz-adv-x="678" 
d="M339 78q91 0 151 73t60 192q0 120 -60 193t-151 73t-151 -73t-60 -193q0 -119 60 -192t151 -73zM339 -10q-129 0 -214.5 97t-85.5 256t85.5 256.5t214.5 97.5t214.5 -97.5t85.5 -256.5t-85.5 -256t-214.5 -97zM207 830q0 24 16.5 40.5t39.5 16.5t39.5 -16.5t16.5 -40.5
t-16.5 -40.5t-39.5 -16.5t-39.5 16.5t-16.5 40.5zM361 830q0 24 16.5 40.5t39.5 16.5t39.5 -16.5t16.5 -40.5t-16.5 -40.5t-39.5 -16.5t-39.5 16.5t-16.5 40.5z" />
    <glyph glyph-name="multiply" unicode="&#xd7;" horiz-adv-x="423" 
d="M156 273l-106 124l56 65l105 -123l107 125l55 -68l-106 -123l106 -124l-55 -68l-107 126q-102 -121 -105 -124l-56 65z" />
    <glyph glyph-name="Oslash" unicode="&#xd8;" horiz-adv-x="676" 
d="M636 666l-70 -84q72 -98 72 -239q0 -159 -85.5 -256t-214.5 -97q-116 0 -196 77l-61 -73l-41 37l65 79q-67 94 -67 233q0 159 85.5 256.5t214.5 97.5q111 0 191 -74l66 79zM165 182l307 372q-57 55 -134 55q-91 0 -151 -73t-60 -193q0 -93 38 -161zM507 510l-308 -373
q57 -59 139 -59q91 0 151 73t60 192q0 96 -42 167z" />
    <glyph glyph-name="Ugrave" unicode="&#xd9;" horiz-adv-x="578" 
d="M289 80q55 0 92.5 36t37.5 104v469h89v-469q0 -108 -62.5 -169t-156.5 -61q-93 0 -156 61t-63 169v469h89v-469q0 -68 37.5 -104t92.5 -36zM259 766l-107 154h103l78 -154h-74z" />
    <glyph glyph-name="Uacute" unicode="&#xda;" horiz-adv-x="578" 
d="M289 80q55 0 92.5 36t37.5 104v469h89v-469q0 -108 -62.5 -169t-156.5 -61q-93 0 -156 61t-63 169v469h89v-469q0 -68 37.5 -104t92.5 -36zM421 920l-107 -154h-74l78 154h103z" />
    <glyph glyph-name="Ucircumflex" unicode="&#xdb;" horiz-adv-x="578" 
d="M289 80q55 0 92.5 36t37.5 104v469h89v-469q0 -108 -62.5 -169t-156.5 -61q-93 0 -156 61t-63 169v469h89v-469q0 -68 37.5 -104t92.5 -36zM364 765l-75 88l-74 -88h-78l109 154h87l108 -154h-77z" />
    <glyph glyph-name="Udieresis" unicode="&#xdc;" horiz-adv-x="578" 
d="M289 80q55 0 92.5 36t37.5 104v469h89v-469q0 -108 -62.5 -169t-156.5 -61q-93 0 -156 61t-63 169v469h89v-469q0 -68 37.5 -104t92.5 -36zM156 830q0 24 16 40.5t40 16.5q23 0 39.5 -16.5t16.5 -40.5t-16.5 -40.5t-39.5 -16.5q-24 0 -40 16.5t-16 40.5zM310 830
q0 24 16 40.5t40 16.5t40 -16.5t16 -40.5t-16 -40.5t-40 -16.5t-40 16.5t-16 40.5z" />
    <glyph glyph-name="Yacute" unicode="&#xdd;" horiz-adv-x="534" 
d="M313 0h-92v317l-221 372h103l164 -283l166 283h103l-224 -372h1v-317zM391 920l-107 -154h-74l78 154h103z" />
    <glyph glyph-name="Thorn" unicode="&#xde;" horiz-adv-x="496" 
d="M287 132h-122v-132h-89v689h89v-129h122q79 0 131.5 -58.5t52.5 -153.5q0 -96 -52.5 -156t-131.5 -60zM165 222h122q40 0 68 35.5t28 90.5q0 57 -29.5 91t-73.5 34h-115v-251z" />
    <glyph glyph-name="germandbls" unicode="&#xdf;" horiz-adv-x="492" 
d="M187 5v79q34 -14 64 -14q51 0 87.5 45t36.5 103q0 56 -38 104t-86 48h-37v74h36q39 0 58.5 32.5t19.5 75.5q0 36 -24 61t-58 27h-9q-39 0 -65.5 -34.5t-26.5 -91.5v-514h-85v514q0 97 49 152t128 55h9q69 0 117.5 -49t48.5 -120q0 -44 -19.5 -84.5t-53.5 -58.5
q49 -15 84.5 -73t35.5 -118q0 -96 -59 -162t-148 -66q-25 0 -65 15z" />
    <glyph glyph-name="agrave" unicode="&#xe0;" horiz-adv-x="522" 
d="M257 544l-107 154h103l78 -154h-74zM375 0v76q-44 -86 -143 -86q-85 0 -141.5 67.5t-56.5 176.5q0 110 56 176.5t142 66.5q45 0 85 -20t58 -65v75h87v-467h-87zM375 235q0 71 -39 112.5t-89 41.5q-52 0 -88.5 -43t-36.5 -111t36.5 -112.5t88.5 -44.5q53 0 90.5 42.5
t37.5 114.5z" />
    <glyph glyph-name="aacute" unicode="&#xe1;" horiz-adv-x="522" 
d="M393 698l-107 -154h-74l78 154h103zM375 0v76q-44 -86 -143 -86q-85 0 -141.5 67.5t-56.5 176.5q0 110 56 176.5t142 66.5q45 0 85 -20t58 -65v75h87v-467h-87zM375 235q0 71 -39 112.5t-89 41.5q-52 0 -88.5 -43t-36.5 -111t36.5 -112.5t88.5 -44.5q53 0 90.5 42.5
t37.5 114.5z" />
    <glyph glyph-name="acircumflex" unicode="&#xe2;" horiz-adv-x="522" 
d="M336 543l-75 88l-74 -88h-78l109 154h87l108 -154h-77zM375 0v76q-44 -86 -143 -86q-85 0 -141.5 67.5t-56.5 176.5q0 110 56 176.5t142 66.5q45 0 85 -20t58 -65v75h87v-467h-87zM375 235q0 71 -39 112.5t-89 41.5q-52 0 -88.5 -43t-36.5 -111t36.5 -112.5t88.5 -44.5
q53 0 90.5 42.5t37.5 114.5z" />
    <glyph glyph-name="atilde" unicode="&#xe3;" horiz-adv-x="522" 
d="M321 668h62q-3 -61 -25.5 -87.5t-53.5 -26.5q-19 0 -43.5 19t-33.5 19q-25 0 -26 -41h-62q3 61 26.5 87.5t54.5 26.5q19 0 43 -19t32 -19q25 0 26 41zM375 0v76q-44 -86 -143 -86q-85 0 -141.5 67.5t-56.5 176.5q0 110 56 176.5t142 66.5q45 0 85 -20t58 -65v75h87v-467
h-87zM375 235q0 71 -39 112.5t-89 41.5q-52 0 -88.5 -43t-36.5 -111t36.5 -112.5t88.5 -44.5q53 0 90.5 42.5t37.5 114.5z" />
    <glyph glyph-name="adieresis" unicode="&#xe4;" horiz-adv-x="522" 
d="M128 608q0 24 16 40.5t40 16.5q23 0 39.5 -16.5t16.5 -40.5t-16.5 -40.5t-39.5 -16.5q-24 0 -40 16.5t-16 40.5zM282 608q0 24 16 40.5t40 16.5t40 -16.5t16 -40.5t-16 -40.5t-40 -16.5t-40 16.5t-16 40.5zM375 0v76q-44 -86 -143 -86q-85 0 -141.5 67.5t-56.5 176.5
q0 110 56 176.5t142 66.5q45 0 85 -20t58 -65v75h87v-467h-87zM375 235q0 71 -39 112.5t-89 41.5q-52 0 -88.5 -43t-36.5 -111t36.5 -112.5t88.5 -44.5q53 0 90.5 42.5t37.5 114.5z" />
    <glyph glyph-name="aring" unicode="&#xe5;" horiz-adv-x="522" 
d="M163 638q0 44 28 73.5t68 29.5q41 0 70 -29.5t29 -73.5q0 -43 -29 -71t-70 -28q-40 0 -68 28t-28 71zM208 639q0 -23 15 -38t36 -15q22 0 37.5 15t15.5 38q0 24 -15.5 39.5t-37.5 15.5q-21 0 -36 -15.5t-15 -39.5zM375 0v76q-44 -86 -143 -86q-85 0 -141.5 67.5
t-56.5 176.5q0 110 56 176.5t142 66.5q45 0 85 -20t58 -65v75h87v-467h-87zM375 235q0 71 -39 112.5t-89 41.5q-52 0 -88.5 -43t-36.5 -111t36.5 -112.5t88.5 -44.5q53 0 90.5 42.5t37.5 114.5z" />
    <glyph glyph-name="ae" unicode="&#xe6;" horiz-adv-x="834" 
d="M462 49v-49h-87v76q-44 -86 -143 -86q-85 0 -141.5 67.5t-56.5 176.5q0 110 56 176.5t142 66.5q45 0 85 -20t58 -65v75h87v-52q22 30 62 46t78 16q88 0 145.5 -66.5t57.5 -175.5q0 -26 -1 -36h-336q7 -55 47.5 -88.5t89.5 -33.5q76 0 110 70l75 -34q-25 -59 -75.5 -91
t-112.5 -32q-41 0 -81.5 14.5t-58.5 44.5zM375 235q0 71 -39 112.5t-89 41.5q-52 0 -88.5 -43t-36.5 -111t36.5 -112.5t88.5 -44.5q53 0 90.5 42.5t37.5 114.5zM468 265h250q-8 62 -39 93.5t-77 31.5q-49 0 -87 -32.5t-47 -92.5z" />
    <glyph glyph-name="ccedilla" unicode="&#xe7;" horiz-adv-x="432" 
d="M278 -8q30 -51 30 -99q0 -43 -26.5 -70t-67.5 -27q-45 0 -71 34.5t-21 82.5l61 -7q0 -19 8 -33.5t23 -14.5q14 0 23.5 9t9.5 26q0 46 -24 99q-80 9 -134.5 76t-54.5 167q0 108 62.5 175t152.5 67q99 0 157 -75l-62 -62q-43 50 -95 50q-53 0 -90 -43t-37 -112t37.5 -114
t89.5 -45q53 0 95 52l63 -62q-49 -63 -129 -74z" />
    <glyph glyph-name="egrave" unicode="&#xe8;" horiz-adv-x="490" 
d="M206 544l-107 154h103l78 -154h-74zM128 265h243q-9 62 -41 93.5t-80 31.5t-80 -31.5t-42 -93.5zM461 235q0 -26 -1 -36h-332q8 -57 42 -89.5t83 -32.5q36 0 67 17.5t48 52.5l78 -34q-26 -59 -79 -91t-117 -32q-92 0 -154 68t-62 177t61.5 175.5t154.5 66.5
q92 0 151.5 -66.5t59.5 -175.5z" />
    <glyph glyph-name="eacute" unicode="&#xe9;" horiz-adv-x="490" 
d="M385 698l-107 -154h-74l78 154h103zM371 265h-243q10 62 42 93.5t80 31.5t80 -31.5t41 -93.5zM461 235q0 109 -59.5 175.5t-151.5 66.5q-93 0 -154.5 -66.5t-61.5 -175.5t62 -177t154 -68q64 0 117 32t79 91l-78 34q-17 -35 -48 -52.5t-67 -17.5q-49 0 -83 32.5t-42 89.5
h332q1 10 1 36z" />
    <glyph glyph-name="ecircumflex" unicode="&#xea;" horiz-adv-x="490" 
d="M324 543l-75 88l-74 -88h-78l109 154h87l108 -154h-77zM128 265h243q-9 62 -41 93.5t-80 31.5t-80 -31.5t-42 -93.5zM461 235q0 -26 -1 -36h-332q8 -57 42 -89.5t83 -32.5q36 0 67 17.5t48 52.5l78 -34q-26 -59 -79 -91t-117 -32q-92 0 -154 68t-62 177t61.5 175.5
t154.5 66.5q92 0 151.5 -66.5t59.5 -175.5z" />
    <glyph glyph-name="edieresis" unicode="&#xeb;" horiz-adv-x="490" 
d="M116 608q0 24 16 40.5t40 16.5q23 0 39.5 -16.5t16.5 -40.5t-16.5 -40.5t-39.5 -16.5q-24 0 -40 16.5t-16 40.5zM270 608q0 24 16 40.5t40 16.5t40 -16.5t16 -40.5t-16 -40.5t-40 -16.5t-40 16.5t-16 40.5zM371 265h-243q10 62 42 93.5t80 31.5t80 -31.5t41 -93.5z
M461 235q0 109 -59.5 175.5t-151.5 66.5q-93 0 -154.5 -66.5t-61.5 -175.5t62 -177t154 -68q64 0 117 32t79 91l-78 34q-17 -35 -48 -52.5t-67 -17.5q-49 0 -83 32.5t-42 89.5h332q1 10 1 36z" />
    <glyph glyph-name="igrave" unicode="&#xec;" horiz-adv-x="206" 
d="M146 467v-467h-86v467h86zM73 544l-107 154h103l78 -154h-74z" />
    <glyph glyph-name="iacute" unicode="&#xed;" horiz-adv-x="206" 
d="M146 0v467h-86v-467h86zM241 698l-107 -154h-74l78 154h103z" />
    <glyph glyph-name="icircumflex" unicode="&#xee;" horiz-adv-x="206" 
d="M146 467v-467h-86v467h86zM178 543l-75 88l-74 -88h-78l109 154h87l108 -154h-77z" />
    <glyph glyph-name="idieresis" unicode="&#xef;" horiz-adv-x="206" 
d="M146 0v467h-86v-467h86zM-30 608q0 24 16 40.5t40 16.5q23 0 39.5 -16.5t16.5 -40.5t-16.5 -40.5t-39.5 -16.5q-24 0 -40 16.5t-16 40.5zM124 608q0 24 16 40.5t40 16.5t40 -16.5t16 -40.5t-16 -40.5t-40 -16.5t-40 16.5t-16 40.5z" />
    <glyph glyph-name="eth" unicode="&#xf0;" horiz-adv-x="493" 
d="M231 477q15 0 25 -2l-66 89l-72 -52l-26 38l71 53l-63 86h105l32 -46l55 40l28 -36l-60 -44l157 -222q42 -66 42 -146q0 -108 -62 -176.5t-151 -68.5t-151 68.5t-62 176.5q0 105 62 173.5t136 68.5zM246 77q52 0 89 44t37 114q0 69 -36.5 112t-89.5 43t-89.5 -43
t-36.5 -112q0 -70 36.5 -114t89.5 -44z" />
    <glyph glyph-name="ntilde" unicode="&#xf1;" horiz-adv-x="488" 
d="M302 668h62q-3 -61 -25.5 -87.5t-53.5 -26.5q-19 0 -43.5 19t-33.5 19q-25 0 -26 -41h-62q3 61 26.5 87.5t54.5 26.5q19 0 43 -19t32 -19q25 0 26 41zM147 260v-260h-87v467h87v-71q15 41 50.5 61t77.5 20q76 0 117 -54t41 -153v-270h-87v246q0 74 -24.5 108t-74.5 34
q-44 0 -72 -32t-28 -96z" />
    <glyph glyph-name="ograve" unicode="&#xf2;" horiz-adv-x="494" 
d="M247 -10q-89 0 -151 68.5t-62 176.5t61.5 175t151.5 67t151.5 -67t61.5 -175t-62 -176.5t-151 -68.5zM247 77q52 0 89 44t37 114q0 69 -36.5 112t-89.5 43t-89.5 -43t-36.5 -112q0 -70 36.5 -114t89.5 -44zM206 544l-107 154h103l78 -154h-74z" />
    <glyph glyph-name="oacute" unicode="&#xf3;" horiz-adv-x="494" 
d="M247 -10q89 0 151 68.5t62 176.5t-61.5 175t-151.5 67t-151.5 -67t-61.5 -175t62 -176.5t151 -68.5zM247 77q-53 0 -89.5 44t-36.5 114q0 69 36.5 112t89.5 43t89.5 -43t36.5 -112q0 -70 -37 -114t-89 -44zM385 698l-107 -154h-74l78 154h103z" />
    <glyph glyph-name="ocircumflex" unicode="&#xf4;" horiz-adv-x="494" 
d="M247 -10q-89 0 -151 68.5t-62 176.5t61.5 175t151.5 67t151.5 -67t61.5 -175t-62 -176.5t-151 -68.5zM247 77q52 0 89 44t37 114q0 69 -36.5 112t-89.5 43t-89.5 -43t-36.5 -112q0 -70 36.5 -114t89.5 -44zM322 543l-75 88l-74 -88h-78l109 154h87l108 -154h-77z" />
    <glyph glyph-name="otilde" unicode="&#xf5;" horiz-adv-x="494" 
d="M247 -10q-89 0 -151 68.5t-62 176.5t61.5 175t151.5 67t151.5 -67t61.5 -175t-62 -176.5t-151 -68.5zM247 77q52 0 89 44t37 114q0 69 -36.5 112t-89.5 43t-89.5 -43t-36.5 -112q0 -70 36.5 -114t89.5 -44zM307 668h62q-3 -61 -25.5 -87.5t-53.5 -26.5q-19 0 -43.5 19
t-33.5 19q-25 0 -26 -41h-62q3 61 26.5 87.5t54.5 26.5q19 0 43 -19t32 -19q25 0 26 41z" />
    <glyph glyph-name="odieresis" unicode="&#xf6;" horiz-adv-x="494" 
d="M247 -10q89 0 151 68.5t62 176.5t-61.5 175t-151.5 67t-151.5 -67t-61.5 -175t62 -176.5t151 -68.5zM247 77q-53 0 -89.5 44t-36.5 114q0 69 36.5 112t89.5 43t89.5 -43t36.5 -112q0 -70 -37 -114t-89 -44zM114 608q0 24 16 40.5t40 16.5q23 0 39.5 -16.5t16.5 -40.5
t-16.5 -40.5t-39.5 -16.5q-24 0 -40 16.5t-16 40.5zM268 608q0 24 16 40.5t40 16.5t40 -16.5t16 -40.5t-16 -40.5t-40 -16.5t-40 16.5t-16 40.5z" />
    <glyph glyph-name="divide" unicode="&#xf7;" horiz-adv-x="437" 
d="M158 90q0 27 17.5 45t42.5 18t43 -18t18 -45t-18 -44.5t-43 -17.5t-42.5 17.5t-17.5 44.5zM158 424q0 27 17.5 44.5t42.5 17.5t43 -17.5t18 -44.5t-18 -45t-43 -18t-42.5 18t-17.5 45zM49 214h339v83h-339v-83z" />
    <glyph glyph-name="oslash" unicode="&#xf8;" horiz-adv-x="492" 
d="M118 36l-45 -55l-41 37l48 58q-47 66 -47 159q0 108 61.5 175t151.5 67q73 0 128 -46l45 55l41 -36l-48 -58q47 -66 47 -157q0 -108 -62 -176.5t-151 -68.5q-73 0 -128 46zM246 390q-53 0 -89.5 -43t-36.5 -112q0 -48 19 -88l179 216q-33 27 -72 27zM246 77q52 0 89 44
t37 114q0 45 -20 85l-178 -216q32 -27 72 -27z" />
    <glyph glyph-name="ugrave" unicode="&#xf9;" horiz-adv-x="488" 
d="M211 544l-107 154h103l78 -154h-74zM341 207v260h87v-467h-87v63q-16 -36 -52 -54.5t-76 -18.5q-76 0 -117 54t-41 153v270h87v-246q0 -76 21 -111t70 -35q50 0 79 33.5t29 98.5z" />
    <glyph glyph-name="uacute" unicode="&#xfa;" horiz-adv-x="488" 
d="M368 698l-107 -154h-74l78 154h103zM341 207v260h87v-467h-87v63q-16 -36 -52 -54.5t-76 -18.5q-76 0 -117 54t-41 153v270h87v-246q0 -76 21 -111t70 -35q50 0 79 33.5t29 98.5z" />
    <glyph glyph-name="ucircumflex" unicode="&#xfb;" horiz-adv-x="488" 
d="M316 543l-75 88l-74 -88h-78l109 154h87l108 -154h-77zM341 207v260h87v-467h-87v63q-16 -36 -52 -54.5t-76 -18.5q-76 0 -117 54t-41 153v270h87v-246q0 -76 21 -111t70 -35q50 0 79 33.5t29 98.5z" />
    <glyph glyph-name="udieresis" unicode="&#xfc;" horiz-adv-x="488" 
d="M108 608q0 24 16 40.5t40 16.5q23 0 39.5 -16.5t16.5 -40.5t-16.5 -40.5t-39.5 -16.5q-24 0 -40 16.5t-16 40.5zM262 608q0 24 16 40.5t40 16.5t40 -16.5t16 -40.5t-16 -40.5t-40 -16.5t-40 16.5t-16 40.5zM341 207v260h87v-467h-87v63q-16 -36 -52 -54.5t-76 -18.5
q-76 0 -117 54t-41 153v270h87v-246q0 -76 21 -111t70 -35q50 0 79 33.5t29 98.5z" />
    <glyph glyph-name="yacute" unicode="&#xfd;" horiz-adv-x="434" 
d="M87 -227h91l246 694h-92l-114 -331l-114 331h-93l159 -453zM338 698l-107 -154h-74l78 154h103z" />
    <glyph glyph-name="thorn" unicode="&#xfe;" horiz-adv-x="522" 
d="M147 86v-313h-87v948h87v-336q16 43 56.5 67.5t90.5 24.5q86 0 139.5 -66t53.5 -177q0 -110 -54.5 -177t-139.5 -67q-45 0 -89.5 25.5t-56.5 70.5zM147 235q0 -72 37.5 -114.5t90.5 -42.5q52 0 88 44.5t36 112.5t-36 111t-88 43q-50 0 -89 -41.5t-39 -112.5z" />
    <glyph glyph-name="ydieresis" unicode="&#xff;" horiz-adv-x="434" 
d="M87 -227h91l246 694h-92l-114 -331l-114 331h-93l159 -453zM85 608q0 24 16.5 40.5t39.5 16.5t39.5 -16.5t16.5 -40.5t-16.5 -40.5t-39.5 -16.5t-39.5 16.5t-16.5 40.5zM239 608q0 24 16.5 40.5t39.5 16.5t39.5 -16.5t16.5 -40.5t-16.5 -40.5t-39.5 -16.5t-39.5 16.5
t-16.5 40.5z" />
    <glyph glyph-name="Amacron" unicode="&#x100;" horiz-adv-x="552" 
d="M182 254h189l-94 321zM396 175h-239l-57 -175h-94l223 689h95l222 -689h-93zM164 882h224v-80h-224v80z" />
    <glyph glyph-name="amacron" unicode="&#x101;" horiz-adv-x="522" 
d="M149 660h224v-80h-224v80zM375 0v76q-44 -86 -143 -86q-85 0 -141.5 67.5t-56.5 176.5q0 110 56 176.5t142 66.5q45 0 85 -20t58 -65v75h87v-467h-87zM375 235q0 71 -39 112.5t-89 41.5q-52 0 -88.5 -43t-36.5 -111t36.5 -112.5t88.5 -44.5q53 0 90.5 42.5t37.5 114.5z
" />
    <glyph glyph-name="Abreve" unicode="&#x102;" horiz-adv-x="552" 
d="M371 254h-189l95 321zM157 175h239l57 -175h93l-222 689h-95l-223 -689h94zM160 890h69q0 -26 12.5 -42.5t34.5 -16.5t34 18t12 41h70q0 -59 -31.5 -93.5t-84.5 -34.5q-58 0 -87 37t-29 91z" />
    <glyph glyph-name="abreve" unicode="&#x103;" horiz-adv-x="522" 
d="M145 668h69q0 -26 12.5 -42.5t34.5 -16.5t34 18t12 41h70q0 -59 -31.5 -93.5t-84.5 -34.5q-58 0 -87 37t-29 91zM375 0v76q-44 -86 -143 -86q-85 0 -141.5 67.5t-56.5 176.5q0 110 56 176.5t142 66.5q45 0 85 -20t58 -65v75h87v-467h-87zM375 235q0 71 -39 112.5
t-89 41.5q-52 0 -88.5 -43t-36.5 -111t36.5 -112.5t88.5 -44.5q53 0 90.5 42.5t37.5 114.5z" />
    <glyph glyph-name="Aogonek" unicode="&#x104;" horiz-adv-x="552" 
d="M182 254h189l-94 321zM452 0l-56 175h-239l-57 -175h-94l223 689h95l222 -689h-41q-27 -56 -27 -107q0 -17 9.5 -26t23.5 -9q15 0 23 14.5t8 33.5l61 7q5 -48 -21 -82.5t-71 -34.5q-41 0 -67.5 27t-26.5 70q0 53 35 107z" />
    <glyph glyph-name="aogonek" unicode="&#x105;" horiz-adv-x="522" 
d="M375 0v76q-44 -86 -143 -86q-85 0 -141.5 67.5t-56.5 176.5q0 110 56 176.5t142 66.5q45 0 85 -20t58 -65v75h87v-467h-34q-27 -56 -27 -107q0 -17 9.5 -26t23.5 -9q15 0 23 14.5t8 33.5l61 7q5 -48 -21 -82.5t-71 -34.5q-41 0 -67.5 27t-26.5 70q0 53 35 107zM375 235
q0 71 -39 112.5t-89 41.5q-52 0 -88.5 -43t-36.5 -111t36.5 -112.5t88.5 -44.5q53 0 90.5 42.5t37.5 114.5z" />
    <glyph glyph-name="Cacute" unicode="&#x106;" horiz-adv-x="568" 
d="M40 343q0 -163 80 -258t208 -95q137 0 222 119l-65 57q-65 -90 -157 -90q-90 0 -144.5 71t-54.5 196t54.5 196.5t144.5 71.5q92 0 157 -90l65 57q-85 119 -222 119q-128 0 -208 -95.5t-80 -258.5zM452 920l-107 -154h-74l78 154h103z" />
    <glyph glyph-name="cacute" unicode="&#x107;" horiz-adv-x="432" 
d="M34 235q0 108 62.5 175t152.5 67q99 0 157 -75l-62 -62q-43 50 -95 50q-53 0 -90 -43t-37 -112t37.5 -114t89.5 -45q53 0 95 52l63 -62q-59 -76 -158 -76q-89 0 -152 68.5t-63 176.5zM379 698l-107 -154h-74l78 154h103z" />
    <glyph glyph-name="Ccircumflex" unicode="&#x108;" horiz-adv-x="568" 
d="M40 343q0 163 80 258.5t208 95.5q137 0 222 -119l-65 -57q-65 90 -157 90q-90 0 -144.5 -71.5t-54.5 -196.5t54.5 -196t144.5 -71q92 0 157 90l65 -57q-85 -119 -222 -119q-128 0 -208 95t-80 258zM403 765l-75 88l-74 -88h-78l109 154h87l108 -154h-77z" />
    <glyph glyph-name="ccircumflex" unicode="&#x109;" horiz-adv-x="432" 
d="M34 235q0 108 62.5 175t152.5 67q99 0 157 -75l-62 -62q-43 50 -95 50q-53 0 -90 -43t-37 -112t37.5 -114t89.5 -45q53 0 95 52l63 -62q-59 -76 -158 -76q-89 0 -152 68.5t-63 176.5zM312 543l-75 88l-74 -88h-78l109 154h87l108 -154h-77z" />
    <glyph glyph-name="Cdotaccent" unicode="&#x10a;" horiz-adv-x="568" 
d="M40 343q0 -163 80 -258t208 -95q137 0 222 119l-65 57q-65 -90 -157 -90q-90 0 -144.5 71t-54.5 196t54.5 196.5t144.5 71.5q92 0 157 -90l65 57q-85 119 -222 119q-128 0 -208 -95.5t-80 -258.5zM262 830q0 25 17.5 42t41.5 17q25 0 41.5 -17t16.5 -42t-16.5 -42
t-41.5 -17q-24 0 -41.5 17t-17.5 42z" />
    <glyph glyph-name="cdotaccent" unicode="&#x10b;" horiz-adv-x="432" 
d="M34 235q0 108 62.5 175t152.5 67q99 0 157 -75l-62 -62q-43 50 -95 50q-53 0 -90 -43t-37 -112t37.5 -114t89.5 -45q53 0 95 52l63 -62q-59 -76 -158 -76q-89 0 -152 68.5t-63 176.5zM180 608q0 25 17.5 42t41.5 17q25 0 41.5 -17t16.5 -42t-16.5 -42t-41.5 -17
q-24 0 -41.5 17t-17.5 42z" />
    <glyph glyph-name="Ccaron" unicode="&#x10c;" horiz-adv-x="568" 
d="M40 343q0 -163 80 -258t208 -95q137 0 222 119l-65 57q-65 -90 -157 -90q-90 0 -144.5 71t-54.5 196t54.5 196.5t144.5 71.5q92 0 157 -90l65 57q-85 119 -222 119q-128 0 -208 -95.5t-80 -258.5zM318 831l75 88h77l-108 -154h-87l-109 154h78z" />
    <glyph glyph-name="ccaron" unicode="&#x10d;" horiz-adv-x="432" 
d="M34 235q0 108 62.5 175t152.5 67q99 0 157 -75l-62 -62q-43 50 -95 50q-53 0 -90 -43t-37 -112t37.5 -114t89.5 -45q53 0 95 52l63 -62q-59 -76 -158 -76q-89 0 -152 68.5t-63 176.5zM239 609l75 88h77l-108 -154h-87l-109 154h78z" />
    <glyph glyph-name="Dcaron" unicode="&#x10e;" horiz-adv-x="617" 
d="M76 0h232q124 0 196 96.5t72 246.5q0 151 -72 248.5t-196 97.5h-232v-689zM308 87h-143v515h143q85 0 132 -72.5t47 -186.5q0 -113 -46.5 -184.5t-132.5 -71.5zM283 831l75 88h77l-108 -154h-87l-109 154h78z" />
    <glyph glyph-name="dcaron" unicode="&#x10f;" horiz-adv-x="522" 
d="M552 528l-53 20q63 59 52 173h95q1 -125 -94 -193zM375 0v76q-12 -42 -54.5 -64t-88.5 -22q-85 0 -141 67.5t-56 176.5q0 110 55 176.5t141 66.5q43 0 83.5 -22t60.5 -63v329h87v-721h-87zM375 235q0 71 -39 112.5t-89 41.5q-52 0 -88 -43t-36 -111t36 -112.5t88 -44.5
q53 0 90.5 42.5t37.5 114.5z" />
    <glyph glyph-name="Dcroat" unicode="&#x110;" horiz-adv-x="623" 
d="M314 0h-232v302h-84v64h84v323h232q124 0 196 -97.5t72 -248.5q0 -150 -72 -246.5t-196 -96.5zM171 366h156v-64h-156v-215h143q86 0 132.5 71.5t46.5 184.5q0 114 -47 186.5t-132 72.5h-143v-236z" />
    <glyph glyph-name="dcroat" unicode="&#x111;" horiz-adv-x="522" 
d="M375 235q0 71 -39 112.5t-89 41.5q-52 0 -88 -43t-36 -111t36 -112.5t88 -44.5q53 0 90.5 42.5t37.5 114.5zM375 392v167h-146v57h146v105h87v-105h62v-57h-62v-559h-87v76q-12 -42 -54.5 -64t-88.5 -22q-85 0 -141 67.5t-56 176.5q0 110 55 176.5t141 66.5
q43 0 83.5 -22t60.5 -63z" />
    <glyph glyph-name="Emacron" unicode="&#x112;" horiz-adv-x="482" 
d="M76 689h357v-86h-268v-220h234v-83h-234v-213h276v-87h-365v689zM137 868h224v-80h-224v80z" />
    <glyph glyph-name="emacron" unicode="&#x113;" horiz-adv-x="490" 
d="M142 646h224v-80h-224v80zM128 265h243q-9 62 -41 93.5t-80 31.5t-80 -31.5t-42 -93.5zM461 235q0 -26 -1 -36h-332q8 -57 42 -89.5t83 -32.5q36 0 67 17.5t48 52.5l78 -34q-26 -59 -79 -91t-117 -32q-92 0 -154 68t-62 177t61.5 175.5t154.5 66.5q92 0 151.5 -66.5
t59.5 -175.5z" />
    <glyph glyph-name="Ebreve" unicode="&#x114;" horiz-adv-x="482" 
d="M433 689h-357v-689h365v87h-276v213h234v83h-234v220h268v86zM133 890h69q0 -26 12.5 -42.5t34.5 -16.5t34 18t12 41h70q0 -59 -31.5 -93.5t-84.5 -34.5q-58 0 -87 37t-29 91z" />
    <glyph glyph-name="ebreve" unicode="&#x115;" horiz-adv-x="490" 
d="M133 668h69q0 -26 12.5 -42.5t34.5 -16.5t34 18t12 41h70q0 -59 -31.5 -93.5t-84.5 -34.5q-58 0 -87 37t-29 91zM371 265h-243q10 62 42 93.5t80 31.5t80 -31.5t41 -93.5zM461 235q0 109 -59.5 175.5t-151.5 66.5q-93 0 -154.5 -66.5t-61.5 -175.5t62 -177t154 -68
q64 0 117 32t79 91l-78 34q-17 -35 -48 -52.5t-67 -17.5q-49 0 -83 32.5t-42 89.5h332q1 10 1 36z" />
    <glyph glyph-name="Edotaccent" unicode="&#x116;" horiz-adv-x="482" 
d="M433 689h-357v-689h365v87h-276v213h234v83h-234v220h268v86zM202 830q0 25 17.5 42t41.5 17q25 0 41.5 -17t16.5 -42t-16.5 -42t-41.5 -17q-24 0 -41.5 17t-17.5 42z" />
    <glyph glyph-name="edotaccent" unicode="&#x117;" horiz-adv-x="490" 
d="M191 608q0 25 17.5 42t41.5 17q25 0 41.5 -17t16.5 -42t-16.5 -42t-41.5 -17q-24 0 -41.5 17t-17.5 42zM371 265h-243q10 62 42 93.5t80 31.5t80 -31.5t41 -93.5zM461 235q0 109 -59.5 175.5t-151.5 66.5q-93 0 -154.5 -66.5t-61.5 -175.5t62 -177t154 -68q64 0 117 32
t79 91l-78 34q-17 -35 -48 -52.5t-67 -17.5q-49 0 -83 32.5t-42 89.5h332q1 10 1 36z" />
    <glyph glyph-name="Eogonek" unicode="&#x118;" horiz-adv-x="482" 
d="M387 0h-311v689h357v-86h-268v-220h234v-83h-234v-213h276v-87q-28 -58 -28 -107q0 -17 9.5 -26t23.5 -9q15 0 23 14.5t8 33.5l61 7q5 -48 -21 -82.5t-71 -34.5q-41 0 -67.5 27t-26.5 70q0 53 35 107z" />
    <glyph glyph-name="eogonek" unicode="&#x119;" horiz-adv-x="490" 
d="M368 147l75 -35q-12 -20 -36 -51.5t-36.5 -50.5t-23.5 -51t-11 -66q0 -17 9.5 -26t23.5 -9q15 0 23 14.5t8 33.5l61 7q5 -48 -21 -82.5t-71 -34.5q-41 0 -67.5 27t-26.5 70q0 52 32 104q-27 -7 -57 -7q-92 0 -154 68t-62 177t61.5 175.5t154.5 66.5q92 0 151.5 -66.5
t59.5 -175.5q0 -26 -1 -36h-332q8 -57 42 -89.5t83 -32.5q36 0 67 17.5t48 52.5zM128 265h243q-9 62 -41 93.5t-80 31.5t-80 -31.5t-42 -93.5z" />
    <glyph glyph-name="Ecaron" unicode="&#x11a;" horiz-adv-x="482" 
d="M433 689h-357v-689h365v87h-276v213h234v83h-234v220h268v86zM248 831l75 88h77l-108 -154h-87l-109 154h78z" />
    <glyph glyph-name="ecaron" unicode="&#x11b;" horiz-adv-x="490" 
d="M249 609l75 88h77l-108 -154h-87l-109 154h78zM371 265h-243q10 62 42 93.5t80 31.5t80 -31.5t41 -93.5zM461 235q0 109 -59.5 175.5t-151.5 66.5q-93 0 -154.5 -66.5t-61.5 -175.5t62 -177t154 -68q64 0 117 32t79 91l-78 34q-17 -35 -48 -52.5t-67 -17.5
q-49 0 -83 32.5t-42 89.5h332q1 10 1 36z" />
    <glyph glyph-name="Gcircumflex" unicode="&#x11c;" horiz-adv-x="631" 
d="M546 597l-60 -66q-27 38 -66 57.5t-78 19.5q-93 0 -153.5 -70t-60.5 -195q0 -123 56 -193.5t147 -70.5q159 0 181 185h-165v81h259q0 -175 -75.5 -265t-199.5 -90q-127 0 -209.5 99t-82.5 254q0 162 86 258t217 96q61 0 114.5 -26.5t89.5 -73.5zM399 765l-75 88l-74 -88
h-78l109 154h87l108 -154h-77z" />
    <glyph glyph-name="gcircumflex" unicode="&#x11d;" horiz-adv-x="522" 
d="M335 543l-75 88l-74 -88h-78l109 154h87l108 -154h-77zM375 76q-18 -43 -57.5 -64.5t-85.5 -21.5q-86 0 -142 66.5t-56 175.5q0 110 56 177.5t142 67.5q44 0 84 -20t59 -61v71h87v-396q0 -304 -223 -304q-59 0 -108 32.5t-77 92.5l75 38q38 -79 109 -79q137 0 137 225z
M375 233q0 72 -37.5 115t-90.5 43q-52 0 -88.5 -45.5t-36.5 -112.5q0 -70 36.5 -113.5t88.5 -43.5q50 0 89 43.5t39 113.5z" />
    <glyph glyph-name="Gbreve" unicode="&#x11e;" horiz-adv-x="631" 
d="M486 531l60 66q-36 47 -89.5 73.5t-114.5 26.5q-131 0 -217 -96t-86 -258q0 -155 82.5 -254t209.5 -99q124 0 199.5 90t75.5 265h-259v-81h165q-22 -185 -181 -185q-91 0 -147 70.5t-56 193.5q0 125 60.5 195t153.5 70q39 0 78 -19.5t66 -57.5zM216 890h69
q0 -26 12.5 -42.5t34.5 -16.5t34 18t12 41h70q0 -59 -31.5 -93.5t-84.5 -34.5q-58 0 -87 37t-29 91z" />
    <glyph glyph-name="gbreve" unicode="&#x11f;" horiz-adv-x="522" 
d="M144 668h69q0 -26 12.5 -42.5t34.5 -16.5t34 18t12 41h70q0 -59 -31.5 -93.5t-84.5 -34.5q-58 0 -87 37t-29 91zM375 76q0 -225 -137 -225q-71 0 -109 79l-75 -38q28 -60 77 -92.5t108 -32.5q223 0 223 304v396h-87v-71q-19 41 -59 61t-84 20q-86 0 -142 -67.5
t-56 -177.5q0 -109 56 -175.5t142 -66.5q46 0 85.5 21.5t57.5 64.5zM375 233q0 -70 -39 -113.5t-89 -43.5q-52 0 -88.5 43.5t-36.5 113.5q0 67 36.5 112.5t88.5 45.5q53 0 90.5 -43t37.5 -115z" />
    <glyph glyph-name="Gdotaccent" unicode="&#x120;" horiz-adv-x="631" 
d="M486 531l60 66q-36 47 -89.5 73.5t-114.5 26.5q-131 0 -217 -96t-86 -258q0 -155 82.5 -254t209.5 -99q124 0 199.5 90t75.5 265h-259v-81h165q-22 -185 -181 -185q-91 0 -147 70.5t-56 193.5q0 125 60.5 195t153.5 70q39 0 78 -19.5t66 -57.5zM257 830q0 25 17.5 42
t41.5 17q25 0 41.5 -17t16.5 -42t-16.5 -42t-41.5 -17q-24 0 -41.5 17t-17.5 42z" />
    <glyph glyph-name="gdotaccent" unicode="&#x121;" horiz-adv-x="522" 
d="M202 608q0 25 17.5 42t41.5 17q25 0 41.5 -17t16.5 -42t-16.5 -42t-41.5 -17q-24 0 -41.5 17t-17.5 42zM375 76q0 -225 -137 -225q-71 0 -109 79l-75 -38q28 -60 77 -92.5t108 -32.5q223 0 223 304v396h-87v-71q-19 41 -59 61t-84 20q-86 0 -142 -67.5t-56 -177.5
q0 -109 56 -175.5t142 -66.5q46 0 85.5 21.5t57.5 64.5zM375 233q0 -70 -39 -113.5t-89 -43.5q-52 0 -88.5 43.5t-36.5 113.5q0 67 36.5 112.5t88.5 45.5q53 0 90.5 -43t37.5 -115z" />
    <glyph glyph-name="Gcommaaccent" unicode="&#x122;" horiz-adv-x="631" 
d="M546 597l-60 -66q-27 38 -66 57.5t-78 19.5q-93 0 -153.5 -70t-60.5 -195q0 -123 56 -193.5t147 -70.5q159 0 181 185h-165v81h259q0 -175 -75.5 -265t-199.5 -90q-127 0 -209.5 99t-82.5 254q0 162 86 258t217 96q61 0 114.5 -26.5t89.5 -73.5zM249 -255l-24 39
q47 13 64.5 59t-9.5 100h83q31 -62 -6 -121.5t-108 -76.5z" />
    <glyph glyph-name="gcommaaccent" unicode="&#x123;" horiz-adv-x="522" 
d="M326 756l24 -39q-47 -13 -64.5 -59t9.5 -100h-83q-31 62 6 121.5t108 76.5zM375 76q0 -225 -137 -225q-71 0 -109 79l-75 -38q28 -60 77 -92.5t108 -32.5q223 0 223 304v396h-87v-71q-19 41 -59 61t-84 20q-86 0 -142 -67.5t-56 -177.5q0 -109 56 -175.5t142 -66.5
q46 0 85.5 21.5t57.5 64.5zM375 233q0 -70 -39 -113.5t-89 -43.5q-52 0 -88.5 43.5t-36.5 113.5q0 67 36.5 112.5t88.5 45.5q53 0 90.5 -43t37.5 -115z" />
    <glyph glyph-name="Hcircumflex" unicode="&#x124;" horiz-adv-x="604" 
d="M528 689v-689h-90v300h-273v-300h-89v689h89v-306h273v306h90zM377 765l-75 88l-74 -88h-78l109 154h87l108 -154h-77z" />
    <glyph glyph-name="hcircumflex" unicode="&#x125;" horiz-adv-x="495" 
d="M178 765l-75 88l-74 -88h-78l109 154h87l108 -154h-77zM147 242v-242h-87v721h87v-325q39 82 128 82q77 0 121.5 -55t43.5 -152v-271h-87v265q0 57 -27 91t-70 34q-52 0 -80.5 -37.5t-28.5 -110.5z" />
    <glyph glyph-name="Hbar" unicode="&#x126;" horiz-adv-x="613" 
d="M80 507h-55v57h55v125h89v-125h273v125h90v-125h62v-57h-62v-507h-90v300h-273v-300h-89v507zM169 383h273v124h-273v-124z" />
    <glyph glyph-name="hbar" unicode="&#x127;" horiz-adv-x="495" 
d="M60 0v561h-71v55h71v105h87v-105h137v-55h-137v-165q39 82 128 82q77 0 121.5 -55t43.5 -152v-271h-87v265q0 57 -27 91t-70 34q-52 0 -80.5 -37.5t-28.5 -110.5v-242h-87z" />
    <glyph glyph-name="Itilde" unicode="&#x128;" horiz-adv-x="241" 
d="M76 689h89v-689h-89v689zM181 890h62q-3 -61 -25.5 -87.5t-53.5 -26.5q-19 0 -43.5 19t-33.5 19q-25 0 -26 -41h-62q3 61 26.5 87.5t54.5 26.5q19 0 43 -19t32 -19q25 0 26 41z" />
    <glyph glyph-name="itilde" unicode="&#x129;" horiz-adv-x="206" 
d="M146 467v-467h-86v467h86zM163 668h62q-3 -61 -25.5 -87.5t-53.5 -26.5q-19 0 -43.5 19t-33.5 19q-25 0 -26 -41h-62q3 61 26.5 87.5t54.5 26.5q19 0 43 -19t32 -19q25 0 26 41z" />
    <glyph glyph-name="Imacron" unicode="&#x12a;" horiz-adv-x="241" 
d="M76 689h89v-689h-89v689zM9 868h224v-80h-224v80z" />
    <glyph glyph-name="imacron" unicode="&#x12b;" horiz-adv-x="206" 
d="M146 467v-467h-86v467h86zM-9 646h224v-80h-224v80z" />
    <glyph glyph-name="Ibreve" unicode="&#x12c;" horiz-adv-x="241" 
d="M165 689h-89v-689h89v689zM5 890h69q0 -26 12.5 -42.5t34.5 -16.5t34 18t12 41h70q0 -59 -31.5 -93.5t-84.5 -34.5q-58 0 -87 37t-29 91z" />
    <glyph glyph-name="ibreve" unicode="&#x12d;" horiz-adv-x="206" 
d="M146 0v467h-86v-467h86zM-13 668h69q0 -26 12.5 -42.5t34.5 -16.5t34 18t12 41h70q0 -59 -31.5 -93.5t-84.5 -34.5q-58 0 -87 37t-29 91z" />
    <glyph glyph-name="Iogonek" unicode="&#x12e;" horiz-adv-x="241" 
d="M165 0h-35q-27 -56 -27 -107q0 -17 9.5 -26t23.5 -9q15 0 23 14.5t8 33.5l61 7q5 -48 -21 -82.5t-71 -34.5q-41 0 -67.5 27t-26.5 70q0 53 34 107v689h89v-689z" />
    <glyph glyph-name="iogonek" unicode="&#x12f;" horiz-adv-x="207" 
d="M147 0h-34q-27 -56 -27 -107q0 -17 9.5 -26t23.5 -9q15 0 23 14.5t8 33.5l61 7q5 -48 -21 -82.5t-71 -34.5q-41 0 -67.5 27t-26.5 70q0 53 35 107v467h87v-467zM44 638q0 25 17.5 42t41.5 17q25 0 41.5 -17t16.5 -42t-16.5 -42t-41.5 -17q-24 0 -41.5 17t-17.5 42z" />
    <glyph glyph-name="Idotaccent" unicode="&#x130;" horiz-adv-x="241" 
d="M165 689h-89v-689h89v689zM62 830q0 25 17.5 42t41.5 17q25 0 41.5 -17t16.5 -42t-16.5 -42t-41.5 -17q-24 0 -41.5 17t-17.5 42z" />
    <glyph glyph-name="dotlessi" unicode="&#x131;" horiz-adv-x="207" 
d="M60 467h87v-467h-87v467z" />
    <glyph glyph-name="IJ" unicode="&#x132;" horiz-adv-x="482" 
d="M76 689h89v-689h-89v689zM148 -221l8 82q21 -9 72 -9q89 0 89 139v698h89v-698q0 -224 -185 -224q-41 0 -73 12z" />
    <glyph glyph-name="ij" unicode="&#x133;" horiz-adv-x="414" 
d="M44 638q0 25 17.5 42t41.5 17q25 0 41.5 -17t16.5 -42t-16.5 -42t-41.5 -17q-24 0 -41.5 17t-17.5 42zM147 467h-87v-467h87v467zM148 -227v83h52q67 0 67 116v495h87v-496q0 -198 -148 -198h-58zM251 638q0 25 17.5 42t41.5 17t41 -17t17 -42t-17 -42t-41 -17t-41.5 17
t-17.5 42z" />
    <glyph glyph-name="Jcircumflex" unicode="&#x134;" horiz-adv-x="241" 
d="M-93 -221l8 82q21 -9 72 -9q89 0 89 139v698h89v-698q0 -224 -185 -224q-41 0 -73 12zM196 765l-75 88l-74 -88h-78l109 154h87l108 -154h-77z" />
    <glyph glyph-name="jcircumflex" unicode="&#x135;" horiz-adv-x="207" 
d="M-59 -227v83h52q67 0 67 116v495h87v-496q0 -198 -148 -198h-58zM178 543l-75 88l-74 -88h-78l109 154h87l108 -154h-77z" />
    <glyph glyph-name="Kcommaaccent" unicode="&#x136;" horiz-adv-x="487" 
d="M226 344l272 -344h-110l-223 279v-279h-89v689h89v-288l185 288h101zM180 -255l-24 39q47 13 64.5 59t-9.5 100h83q31 -62 -6 -121.5t-108 -76.5z" />
    <glyph glyph-name="kcommaaccent" unicode="&#x137;" horiz-adv-x="422" 
d="M147 218v-218h-87v721h87v-407l129 153h108l-171 -202l212 -265h-105zM140 -255l-24 39q47 13 64.5 59t-9.5 100h83q31 -62 -6 -121.5t-108 -76.5z" />
    <glyph glyph-name="kgreenlandic" unicode="&#x138;" horiz-adv-x="413" 
d="M146 176v-176h-86v467h86v-176l142 176h104l-185 -231l202 -236h-109z" />
    <glyph glyph-name="Lacute" unicode="&#x139;" horiz-adv-x="423" 
d="M165 689h-89v-689h328v87h-239v602zM258 920l-107 -154h-74l78 154h103z" />
    <glyph glyph-name="lacute" unicode="&#x13a;" horiz-adv-x="207" 
d="M147 721h-87v-721h87v721zM245 920l-107 -154h-74l78 154h103z" />
    <glyph glyph-name="Lcommaaccent" unicode="&#x13b;" horiz-adv-x="423" 
d="M76 689h89v-602h239v-87h-328v689zM145 -255l-24 39q47 13 64.5 59t-9.5 100h83q31 -62 -6 -121.5t-108 -76.5z" />
    <glyph glyph-name="lcommaaccent" unicode="&#x13c;" horiz-adv-x="207" 
d="M60 721h87v-721h-87v721zM29 -255l-24 39q47 13 64.5 59t-9.5 100h83q31 -62 -6 -121.5t-108 -76.5z" />
    <glyph glyph-name="Lcaron" unicode="&#x13d;" horiz-adv-x="423" 
d="M165 689h-89v-689h328v87h-239v602zM282 466l-52 21q54 91 53 210h81q-6 -79 -29.5 -140.5t-52.5 -90.5z" />
    <glyph glyph-name="lcaron" unicode="&#x13e;" horiz-adv-x="207" 
d="M60 721h87v-721h-87v721zM242 490l-52 21q54 91 53 210h81q-6 -79 -29.5 -140.5t-52.5 -90.5z" />
    <glyph glyph-name="Ldot" unicode="&#x13f;" horiz-adv-x="423" 
d="M76 689h89v-602h239v-87h-328v689zM227 251q0 27 17.5 45t42.5 18t43 -18t18 -45t-18 -44.5t-43 -17.5t-42.5 17.5t-17.5 44.5z" />
    <glyph glyph-name="ldot" unicode="&#x140;" horiz-adv-x="296" 
d="M60 721h87v-721h-87v721zM191 251q0 27 17.5 45t42.5 18t43 -18t18 -45t-18 -44.5t-43 -17.5t-42.5 17.5t-17.5 44.5z" />
    <glyph glyph-name="Lslash" unicode="&#x141;" horiz-adv-x="430" 
d="M83 689h89v-222l90 66v-66l-90 -66v-314h239v-87h-328v336l-69 -50v66l69 50v287z" />
    <glyph glyph-name="lslash" unicode="&#x142;" horiz-adv-x="230" 
d="M74 336l-69 -50v66l69 50v319h87v-255l92 67v-66l-92 -67v-400h-87v336z" />
    <glyph glyph-name="Nacute" unicode="&#x143;" horiz-adv-x="583" 
d="M423 0h84v689h-89v-505l-255 505h-87v-689h89v509zM432 920l-107 -154h-74l78 154h103z" />
    <glyph glyph-name="nacute" unicode="&#x144;" horiz-adv-x="488" 
d="M365 698l-107 -154h-74l78 154h103zM147 260v-260h-87v467h87v-71q15 41 50.5 61t77.5 20q76 0 117 -54t41 -153v-270h-87v246q0 74 -24.5 108t-74.5 34q-44 0 -72 -32t-28 -96z" />
    <glyph glyph-name="Ncommaaccent" unicode="&#x145;" horiz-adv-x="583" 
d="M507 0h-84l-258 509v-509h-89v689h87l255 -505v505h89v-689zM206 -255l-24 39q47 13 64.5 59t-9.5 100h83q31 -62 -6 -121.5t-108 -76.5z" />
    <glyph glyph-name="ncommaaccent" unicode="&#x146;" horiz-adv-x="488" 
d="M162 -255l-24 39q47 13 64.5 59t-9.5 100h83q31 -62 -6 -121.5t-108 -76.5zM147 260v-260h-87v467h87v-71q15 41 50.5 61t77.5 20q76 0 117 -54t41 -153v-270h-87v246q0 74 -24.5 108t-74.5 34q-44 0 -72 -32t-28 -96z" />
    <glyph glyph-name="Ncaron" unicode="&#x147;" horiz-adv-x="583" 
d="M423 0h84v689h-89v-505l-255 505h-87v-689h89v509zM291 831l75 88h77l-108 -154h-87l-109 154h78z" />
    <glyph glyph-name="ncaron" unicode="&#x148;" horiz-adv-x="488" 
d="M239 609l75 88h77l-108 -154h-87l-109 154h78zM147 260v-260h-87v467h87v-71q15 41 50.5 61t77.5 20q76 0 117 -54t41 -153v-270h-87v246q0 74 -24.5 108t-74.5 34q-44 0 -72 -32t-28 -96z" />
    <glyph glyph-name="napostrophe" unicode="&#x149;" horiz-adv-x="488" 
d="M4 468l-56 21q40 66 44 113q0 33 -4 59h85q1 -125 -69 -193zM147 260v-260h-87v467h87v-71q15 41 50.5 61t77.5 20q76 0 117 -54t41 -153v-270h-87v246q0 74 -24.5 108t-74.5 34q-44 0 -72 -32t-28 -96z" />
    <glyph glyph-name="Eng" unicode="&#x14a;" horiz-adv-x="583" 
d="M507 689v-689q0 -247 -186 -247q-33 0 -69 12l7 86q18 -11 56 -11q47 0 75 32t28.5 73t-14.5 81l-239 483v-509h-89v689h87l255 -519v519h89z" />
    <glyph glyph-name="eng" unicode="&#x14b;" horiz-adv-x="488" 
d="M147 260v-260h-87v467h87v-71q15 41 50.5 61t77.5 20q76 0 117 -54t41 -153v-256q0 -233 -182 -233q-29 0 -67 11l7 80q29 -9 60 -9q48 0 71 39t24 98v246q0 74 -24.5 108t-74.5 34q-44 0 -72 -32t-28 -96z" />
    <glyph glyph-name="Omacron" unicode="&#x14c;" horiz-adv-x="678" 
d="M339 78q91 0 151 73t60 192q0 120 -60 193t-151 73t-151 -73t-60 -193q0 -119 60 -192t151 -73zM339 -10q-129 0 -214.5 97t-85.5 256t85.5 256.5t214.5 97.5t214.5 -97.5t85.5 -256.5t-85.5 -256t-214.5 -97zM228 868h224v-80h-224v80z" />
    <glyph glyph-name="omacron" unicode="&#x14d;" horiz-adv-x="494" 
d="M247 -10q-89 0 -151 68.5t-62 176.5t61.5 175t151.5 67t151.5 -67t61.5 -175t-62 -176.5t-151 -68.5zM247 77q52 0 89 44t37 114q0 69 -36.5 112t-89.5 43t-89.5 -43t-36.5 -112q0 -70 36.5 -114t89.5 -44zM135 646h224v-80h-224v80z" />
    <glyph glyph-name="Obreve" unicode="&#x14e;" horiz-adv-x="678" 
d="M339 78q91 0 151 73t60 192q0 120 -60 193t-151 73t-151 -73t-60 -193q0 -119 60 -192t151 -73zM339 -10q-129 0 -214.5 97t-85.5 256t85.5 256.5t214.5 97.5t214.5 -97.5t85.5 -256.5t-85.5 -256t-214.5 -97zM224 890h69q0 -26 12.5 -42.5t34.5 -16.5t34 18t12 41h70
q0 -59 -31.5 -93.5t-84.5 -34.5q-58 0 -87 37t-29 91z" />
    <glyph glyph-name="obreve" unicode="&#x14f;" horiz-adv-x="494" 
d="M247 -10q89 0 151 68.5t62 176.5t-61.5 175t-151.5 67t-151.5 -67t-61.5 -175t62 -176.5t151 -68.5zM247 77q-53 0 -89.5 44t-36.5 114q0 69 36.5 112t89.5 43t89.5 -43t36.5 -112q0 -70 -37 -114t-89 -44zM131 668h69q0 -26 12.5 -42.5t34.5 -16.5t34 18t12 41h70
q0 -59 -31.5 -93.5t-84.5 -34.5q-58 0 -87 37t-29 91z" />
    <glyph glyph-name="Ohungarumlaut" unicode="&#x150;" horiz-adv-x="678" 
d="M339 78q91 0 151 73t60 192q0 120 -60 193t-151 73t-151 -73t-60 -193q0 -119 60 -192t151 -73zM339 -10q-129 0 -214.5 97t-85.5 256t85.5 256.5t214.5 97.5t214.5 -97.5t85.5 -256.5t-85.5 -256t-214.5 -97zM392 923l-78 -154h-76l68 154h86zM527 923l-98 -154h-73
l76 154h95z" />
    <glyph glyph-name="ohungarumlaut" unicode="&#x151;" horiz-adv-x="494" 
d="M247 -10q89 0 151 68.5t62 176.5t-61.5 175t-151.5 67t-151.5 -67t-61.5 -175t62 -176.5t151 -68.5zM247 77q-53 0 -89.5 44t-36.5 114q0 69 36.5 112t89.5 43t89.5 -43t36.5 -112q0 -70 -37 -114t-89 -44zM298 701l-78 -154h-76l68 154h86zM433 701l-98 -154h-73l76 154
h95z" />
    <glyph glyph-name="OE" unicode="&#x152;" horiz-adv-x="886" 
d="M480 135v417q-54 57 -141 57q-91 0 -151 -73t-60 -193q0 -119 60 -192t151 -73q88 0 141 57zM480 652v37h357v-86h-268v-220h234v-83h-234v-213h276v-87h-365v40q-61 -50 -141 -50q-129 0 -214.5 97t-85.5 256t85.5 256.5t214.5 97.5q79 0 141 -45z" />
    <glyph glyph-name="oe" unicode="&#x153;" horiz-adv-x="830" 
d="M801 235q0 -26 -1 -36h-332q8 -57 42 -89.5t83 -32.5q36 0 67 17.5t48 52.5l78 -34q-26 -59 -79 -91t-117 -32q-112 0 -174 92q-62 -92 -169 -92q-89 0 -151 68.5t-62 176.5t61.5 175t151.5 67q108 0 169 -91q61 91 174 91q92 0 151.5 -66.5t59.5 -175.5zM247 77
q52 0 89 44t37 114q0 69 -36.5 112t-89.5 43t-89.5 -43t-36.5 -112q0 -70 36.5 -114t89.5 -44zM468 265h243q-9 62 -41 93.5t-80 31.5t-80 -31.5t-42 -93.5z" />
    <glyph glyph-name="Racute" unicode="&#x154;" horiz-adv-x="537" 
d="M310 689h-234v-689h90v258h78l151 -258h104l-156 260q76 12 112.5 71.5t36.5 141.5q0 91 -44.5 153.5t-137.5 62.5zM166 603h133q55 0 79.5 -38t24.5 -92q0 -55 -25.5 -91.5t-82.5 -36.5h-129v258zM381 920l-107 -154h-74l78 154h103z" />
    <glyph glyph-name="racute" unicode="&#x155;" horiz-adv-x="334" 
d="M259 698l-107 -154h-74l78 154h103zM147 0v193q0 197 104 197q31 0 62 -18l13 86q-25 19 -74 19q-35 0 -64.5 -31t-40.5 -83v104h-87v-467h87z" />
    <glyph glyph-name="Rcommaaccent" unicode="&#x156;" horiz-adv-x="537" 
d="M76 689h234q93 0 137.5 -62.5t44.5 -153.5q0 -82 -36.5 -141.5t-112.5 -71.5l156 -260h-104l-151 258h-78v-258h-90v689zM299 603h-133v-258h129q57 0 82.5 36.5t25.5 91.5q0 54 -24.5 92t-79.5 38zM180 -255l-24 39q47 13 64.5 59t-9.5 100h83q31 -62 -6 -121.5
t-108 -76.5z" />
    <glyph glyph-name="rcommaaccent" unicode="&#x157;" horiz-adv-x="334" 
d="M28 -255l-24 39q47 13 64.5 59t-9.5 100h83q31 -62 -6 -121.5t-108 -76.5zM147 193v-193h-87v467h87v-104q11 52 40.5 83t64.5 31q49 0 74 -19l-13 -86q-31 18 -62 18q-104 0 -104 -197z" />
    <glyph glyph-name="Rcaron" unicode="&#x158;" horiz-adv-x="537" 
d="M310 689h-234v-689h90v258h78l151 -258h104l-156 260q76 12 112.5 71.5t36.5 141.5q0 91 -44.5 153.5t-137.5 62.5zM166 603h133q55 0 79.5 -38t24.5 -92q0 -55 -25.5 -91.5t-82.5 -36.5h-129v258zM264 831l75 88h77l-108 -154h-87l-109 154h78z" />
    <glyph glyph-name="rcaron" unicode="&#x159;" horiz-adv-x="334" 
d="M178 609l75 88h77l-108 -154h-87l-109 154h78zM147 0v193q0 197 104 197q31 0 62 -18l13 86q-25 19 -74 19q-35 0 -64.5 -31t-40.5 -83v104h-87v-467h87z" />
    <glyph glyph-name="Sacute" unicode="&#x15a;" horiz-adv-x="494" 
d="M41 198q1 -84 55.5 -146t150.5 -62t151 52.5t62 128.5q8 168 -167 214l-75 21q-85 26 -85 94q0 49 28 79.5t80 30.5q46 0 76.5 -32t30.5 -83h87q0 91 -55 146.5t-139 55.5q-87 0 -141 -55t-54 -142q0 -133 147 -177l76 -22q109 -28 104 -123q-4 -43 -36 -72.5t-90 -29.5
q-57 0 -87.5 36t-31.5 86h-87zM378 920l-107 -154h-74l78 154h103z" />
    <glyph glyph-name="sacute" unicode="&#x15b;" horiz-adv-x="374" 
d="M329 341l-1 10q-7 63 -46.5 94.5t-94.5 31.5q-53 0 -89.5 -27.5t-48.5 -67.5q-17 -54 5 -101q17 -34 37.5 -49.5t59.5 -27.5l63 -19q45 -13 45 -54q0 -27 -21 -44t-54 -17q-28 0 -46.5 18.5t-19.5 48.5l-87 1q1 -68 47 -108t106 -40q66 0 112 38t46 101q0 109 -107 140
l-60 18q-32 11 -44 30q-10 18 -2 41q12 38 57 38q48 0 56 -55h87zM310 698l-107 -154h-74l78 154h103z" />
    <glyph glyph-name="Scircumflex" unicode="&#x15c;" horiz-adv-x="494" 
d="M41 198h87q1 -50 31.5 -86t87.5 -36q58 0 90 29.5t36 72.5q5 95 -104 123l-76 22q-147 44 -147 177q0 87 54 142t141 55q84 0 139 -55.5t55 -146.5h-87q0 51 -30.5 83t-76.5 32q-52 0 -80 -30.5t-28 -79.5q0 -68 85 -94l75 -21q175 -46 167 -214q-7 -76 -62 -128.5
t-151 -52.5t-150.5 62t-55.5 146zM320 765l-75 88l-74 -88h-78l109 154h87l108 -154h-77z" />
    <glyph glyph-name="scircumflex" unicode="&#x15d;" horiz-adv-x="374" 
d="M329 341h-87q-8 55 -56 55q-45 0 -57 -38q-8 -23 2 -41q12 -19 44 -30l60 -18q107 -31 107 -140q0 -63 -46 -101t-112 -38q-60 0 -106 40t-47 108l87 -1q1 -30 19.5 -48.5t46.5 -18.5q33 0 54 17t21 44q0 41 -45 54l-63 19q-39 12 -59.5 27.5t-37.5 49.5q-22 47 -5 101
q12 40 48.5 67.5t89.5 27.5q55 0 94.5 -31.5t46.5 -94.5q1 -7 1 -10zM264 543l-75 88l-74 -88h-78l109 154h87l108 -154h-77z" />
    <glyph glyph-name="Scedilla" unicode="&#x15e;" horiz-adv-x="495" 
d="M41 198h87q1 -50 31.5 -86t87.5 -36q58 0 90 29.5t36 72.5q5 95 -104 123l-76 22q-147 44 -147 177q0 87 54 142t141 55q84 0 139 -55.5t55 -146.5h-87q0 51 -30.5 83t-76.5 32q-52 0 -80 -30.5t-28 -79.5q0 -68 85 -94l75 -21q175 -46 167 -214q-6 -68 -51 -117.5
t-123 -60.5q31 -52 31 -100q0 -43 -26.5 -70t-67.5 -27q-45 0 -71 34.5t-21 82.5l61 -7q0 -19 8 -33.5t23 -14.5q14 0 23.5 9t9.5 26q0 45 -23 98q-90 5 -140.5 65.5t-51.5 141.5z" />
    <glyph glyph-name="scedilla" unicode="&#x15f;" horiz-adv-x="374" 
d="M329 341h-87q-8 55 -56 55q-45 0 -57 -38q-8 -23 2 -41q12 -19 44 -30l60 -18q107 -31 107 -140q0 -49 -29 -83.5t-75 -47.5q33 -54 33 -105q0 -43 -26.5 -70t-67.5 -27q-45 0 -71 34.5t-21 82.5l61 -7q0 -19 8 -33.5t23 -14.5q14 0 23.5 9t9.5 26q0 44 -23 97h-3
q-60 0 -106 40t-47 108l87 -1q1 -30 19.5 -48.5t46.5 -18.5q33 0 54 17t21 44q0 41 -45 54l-63 19q-39 12 -59.5 27.5t-37.5 49.5q-22 47 -5 101q12 40 48.5 67.5t89.5 27.5q55 0 94.5 -31.5t46.5 -94.5q1 -7 1 -10z" />
    <glyph glyph-name="Scaron" unicode="&#x160;" horiz-adv-x="494" 
d="M41 198q1 -84 55.5 -146t150.5 -62t151 52.5t62 128.5q8 168 -167 214l-75 21q-85 26 -85 94q0 49 28 79.5t80 30.5q46 0 76.5 -32t30.5 -83h87q0 91 -55 146.5t-139 55.5q-87 0 -141 -55t-54 -142q0 -133 147 -177l76 -22q109 -28 104 -123q-4 -43 -36 -72.5t-90 -29.5
q-57 0 -87.5 36t-31.5 86h-87zM245 831l75 88h77l-108 -154h-87l-109 154h78z" />
    <glyph glyph-name="scaron" unicode="&#x161;" horiz-adv-x="374" 
d="M329 341l-1 10q-7 63 -46.5 94.5t-94.5 31.5q-53 0 -89.5 -27.5t-48.5 -67.5q-17 -54 5 -101q17 -34 37.5 -49.5t59.5 -27.5l63 -19q45 -13 45 -54q0 -27 -21 -44t-54 -17q-28 0 -46.5 18.5t-19.5 48.5l-87 1q1 -68 47 -108t106 -40q66 0 112 38t46 101q0 109 -107 140
l-60 18q-32 11 -44 30q-10 18 -2 41q12 38 57 38q48 0 56 -55h87zM189 609l75 88h77l-108 -154h-87l-109 154h78z" />
    <glyph glyph-name="Tcommaaccent" unicode="&#x162;" horiz-adv-x="485" 
d="M20 689h445v-86h-178v-603h-89v603h-178v86zM167 -255l-24 39q47 13 64.5 59t-9.5 100h83q31 -62 -6 -121.5t-108 -76.5z" />
    <glyph glyph-name="tcommaaccent" unicode="&#x163;" horiz-adv-x="277" 
d="M176 467h84v-71h-84v-396h-87v396h-72v71h72v176h87v-176zM59 -255l-24 39q47 13 64.5 59t-9.5 100h83q31 -62 -6 -121.5t-108 -76.5z" />
    <glyph glyph-name="Tcaron" unicode="&#x164;" horiz-adv-x="485" 
d="M465 689h-445v-86h178v-603h89v603h178v86zM242 831l75 88h77l-108 -154h-87l-109 154h78z" />
    <glyph glyph-name="tcaron" unicode="&#x165;" horiz-adv-x="277" 
d="M260 467h-84v176h-87v-176h-72v-71h72v-396h87v396h84v71zM271 541l-52 21q54 91 53 210h81q-6 -79 -29.5 -140.5t-52.5 -90.5z" />
    <glyph glyph-name="Tbar" unicode="&#x166;" horiz-adv-x="485" 
d="M20 689h445v-86h-178v-220h122v-66h-122v-317h-89v317h-118v66h118v220h-178v86z" />
    <glyph glyph-name="tbar" unicode="&#x167;" horiz-adv-x="281" 
d="M91 214h-60v54h60v128h-72v71h72v176h87v-176h84v-71h-84v-128h65v-54h-65v-214h-87v214z" />
    <glyph glyph-name="Utilde" unicode="&#x168;" horiz-adv-x="578" 
d="M289 80q55 0 92.5 36t37.5 104v469h89v-469q0 -108 -62.5 -169t-156.5 -61q-93 0 -156 61t-63 169v469h89v-469q0 -68 37.5 -104t92.5 -36zM349 890h62q-3 -61 -25.5 -87.5t-53.5 -26.5q-19 0 -43.5 19t-33.5 19q-25 0 -26 -41h-62q3 61 26.5 87.5t54.5 26.5q19 0 43 -19
t32 -19q25 0 26 41z" />
    <glyph glyph-name="utilde" unicode="&#x169;" horiz-adv-x="488" 
d="M301 668h62q-3 -61 -25.5 -87.5t-53.5 -26.5q-19 0 -43.5 19t-33.5 19q-25 0 -26 -41h-62q3 61 26.5 87.5t54.5 26.5q19 0 43 -19t32 -19q25 0 26 41zM341 207v260h87v-467h-87v63q-16 -36 -52 -54.5t-76 -18.5q-76 0 -117 54t-41 153v270h87v-246q0 -76 21 -111t70 -35
q50 0 79 33.5t29 98.5z" />
    <glyph glyph-name="Umacron" unicode="&#x16a;" horiz-adv-x="578" 
d="M289 80q55 0 92.5 36t37.5 104v469h89v-469q0 -108 -62.5 -169t-156.5 -61q-93 0 -156 61t-63 169v469h89v-469q0 -68 37.5 -104t92.5 -36zM177 868h224v-80h-224v80z" />
    <glyph glyph-name="umacron" unicode="&#x16b;" horiz-adv-x="488" 
d="M129 646h224v-80h-224v80zM341 207v260h87v-467h-87v63q-16 -36 -52 -54.5t-76 -18.5q-76 0 -117 54t-41 153v270h87v-246q0 -76 21 -111t70 -35q50 0 79 33.5t29 98.5z" />
    <glyph glyph-name="Ubreve" unicode="&#x16c;" horiz-adv-x="578" 
d="M289 80q55 0 92.5 36t37.5 104v469h89v-469q0 -108 -62.5 -169t-156.5 -61q-93 0 -156 61t-63 169v469h89v-469q0 -68 37.5 -104t92.5 -36zM173 890h69q0 -26 12.5 -42.5t34.5 -16.5t34 18t12 41h70q0 -59 -31.5 -93.5t-84.5 -34.5q-58 0 -87 37t-29 91z" />
    <glyph glyph-name="ubreve" unicode="&#x16d;" horiz-adv-x="488" 
d="M125 668h69q0 -26 12.5 -42.5t34.5 -16.5t34 18t12 41h70q0 -59 -31.5 -93.5t-84.5 -34.5q-58 0 -87 37t-29 91zM341 207v260h87v-467h-87v63q-16 -36 -52 -54.5t-76 -18.5q-76 0 -117 54t-41 153v270h87v-246q0 -76 21 -111t70 -35q50 0 79 33.5t29 98.5z" />
    <glyph glyph-name="Uring" unicode="&#x16e;" horiz-adv-x="578" 
d="M289 80q55 0 92.5 36t37.5 104v469h89v-469q0 -108 -62.5 -169t-156.5 -61q-93 0 -156 61t-63 169v469h89v-469q0 -68 37.5 -104t92.5 -36zM191 860q0 44 28 73.5t68 29.5q41 0 70 -29.5t29 -73.5q0 -43 -29 -71t-70 -28q-40 0 -68 28t-28 71zM236 861q0 -23 15 -38
t36 -15q22 0 37.5 15t15.5 38q0 24 -15.5 39.5t-37.5 15.5q-21 0 -36 -15.5t-15 -39.5z" />
    <glyph glyph-name="uring" unicode="&#x16f;" horiz-adv-x="488" 
d="M143 638q0 44 28 73.5t68 29.5q41 0 70 -29.5t29 -73.5q0 -43 -29 -71t-70 -28q-40 0 -68 28t-28 71zM188 639q0 -23 15 -38t36 -15q22 0 37.5 15t15.5 38q0 24 -15.5 39.5t-37.5 15.5q-21 0 -36 -15.5t-15 -39.5zM341 207v260h87v-467h-87v63q-16 -36 -52 -54.5
t-76 -18.5q-76 0 -117 54t-41 153v270h87v-246q0 -76 21 -111t70 -35q50 0 79 33.5t29 98.5z" />
    <glyph glyph-name="Uhungarumlaut" unicode="&#x170;" horiz-adv-x="578" 
d="M289 80q55 0 92.5 36t37.5 104v469h89v-469q0 -108 -62.5 -169t-156.5 -61q-93 0 -156 61t-63 169v469h89v-469q0 -68 37.5 -104t92.5 -36zM332 923l-78 -154h-76l68 154h86zM467 923l-98 -154h-73l76 154h95z" />
    <glyph glyph-name="uhungarumlaut" unicode="&#x171;" horiz-adv-x="488" 
d="M288 701l-78 -154h-76l68 154h86zM423 701l-98 -154h-73l76 154h95zM341 207v260h87v-467h-87v63q-16 -36 -52 -54.5t-76 -18.5q-76 0 -117 54t-41 153v270h87v-246q0 -76 21 -111t70 -35q50 0 79 33.5t29 98.5z" />
    <glyph glyph-name="Uogonek" unicode="&#x172;" horiz-adv-x="580" 
d="M290 80q55 0 92.5 36t37.5 104v469h89v-469q0 -103 -56.5 -163t-144.5 -66q-23 -53 -23 -98q0 -17 9.5 -26t23.5 -9q15 0 23 14.5t8 33.5l61 7q5 -48 -21 -82.5t-71 -34.5q-41 0 -67.5 27t-26.5 70q0 49 30 100q-80 11 -131.5 70.5t-51.5 156.5v469h89v-469
q0 -68 37.5 -104t92.5 -36z" />
    <glyph glyph-name="uogonek" unicode="&#x173;" horiz-adv-x="488" 
d="M341 207v260h87v-467h-35q-27 -56 -27 -107q0 -17 9.5 -26t23.5 -9q15 0 23 14.5t8 33.5l61 7q5 -48 -21 -82.5t-71 -34.5q-41 0 -67.5 27t-26.5 70q0 54 36 107v63q-16 -36 -52 -54.5t-76 -18.5q-76 0 -117 54t-41 153v270h87v-246q0 -76 21 -111t70 -35q50 0 79 33.5
t29 98.5z" />
    <glyph glyph-name="Wcircumflex" unicode="&#x174;" horiz-adv-x="766" 
d="M663 689h95l-198 -689h-79l-99 410l-97 -410h-79l-198 689h95l142 -521l103 428h70l103 -428zM458 765l-75 88l-74 -88h-78l109 154h87l108 -154h-77z" />
    <glyph glyph-name="wcircumflex" unicode="&#x175;" horiz-adv-x="674" 
d="M513 0h-74l-103 342l-100 -342h-73l-151 467h95l92 -322l92 322h89l93 -321l92 321h95zM411 543l-75 88l-74 -88h-78l109 154h87l108 -154h-77z" />
    <glyph glyph-name="Ycircumflex" unicode="&#x176;" horiz-adv-x="534" 
d="M313 0h-92v317l-221 372h103l164 -283l166 283h103l-224 -372h1v-317zM342 765l-75 88l-74 -88h-78l109 154h87l108 -154h-77z" />
    <glyph glyph-name="ycircumflex" unicode="&#x177;" horiz-adv-x="434" 
d="M178 -227h-91l83 241l-159 453h93l114 -331l114 331h92zM293 543l-75 88l-74 -88h-78l109 154h87l108 -154h-77z" />
    <glyph glyph-name="Ydieresis" unicode="&#x178;" horiz-adv-x="534" 
d="M313 0h-92v317l-221 372h103l164 -283l166 283h103l-224 -372h1v-317zM134 830q0 24 16 40.5t40 16.5q23 0 39.5 -16.5t16.5 -40.5t-16.5 -40.5t-39.5 -16.5q-24 0 -40 16.5t-16 40.5zM288 830q0 24 16 40.5t40 16.5t40 -16.5t16 -40.5t-16 -40.5t-40 -16.5t-40 16.5
t-16 40.5z" />
    <glyph glyph-name="Zacute" unicode="&#x179;" horiz-adv-x="486" 
d="M31 79l309 529h-297v81h407v-79l-315 -529h315v-81h-419v79zM368 920l-107 -154h-74l78 154h103z" />
    <glyph glyph-name="zacute" unicode="&#x17a;" horiz-adv-x="427" 
d="M390 393v74h-346v-82h230l-243 -311v-74h359v82h-248zM338 698l-107 -154h-74l78 154h103z" />
    <glyph glyph-name="Zdotaccent" unicode="&#x17b;" horiz-adv-x="486" 
d="M31 79l309 529h-297v81h407v-79l-315 -529h315v-81h-419v79zM185 830q0 25 17.5 42t41.5 17q25 0 41.5 -17t16.5 -42t-16.5 -42t-41.5 -17q-24 0 -41.5 17t-17.5 42z" />
    <glyph glyph-name="zdotaccent" unicode="&#x17c;" horiz-adv-x="427" 
d="M390 393v74h-346v-82h230l-243 -311v-74h359v82h-248zM155 608q0 25 17.5 42t41.5 17q25 0 41.5 -17t16.5 -42t-16.5 -42t-41.5 -17q-24 0 -41.5 17t-17.5 42z" />
    <glyph glyph-name="Zcaron" unicode="&#x17d;" horiz-adv-x="486" 
d="M31 79l309 529h-297v81h407v-79l-315 -529h315v-81h-419v79zM243 831l75 88h77l-108 -154h-87l-109 154h78z" />
    <glyph glyph-name="zcaron" unicode="&#x17e;" horiz-adv-x="427" 
d="M390 393v74h-346v-82h230l-243 -311v-74h359v82h-248zM214 609l75 88h77l-108 -154h-87l-109 154h78z" />
    <glyph glyph-name="longs" unicode="&#x17f;" horiz-adv-x="259" 
d="M297 721v-80h-31q-24 0 -40.5 -8t-25.5 -19t-13.5 -29.5t-5.5 -34t-1 -36.5v-514h-87v396h-76v71h76v47q0 207 156 207h48z" />
    <glyph glyph-name="florin" unicode="&#x192;" horiz-adv-x="517" 
d="M181 97l48 264h-76l9 59h76l9 47q39 207 195 207h48l-15 -73h-31q-29 0 -50 -11.5t-32.5 -34t-17 -41.5t-10.5 -47l-9 -47h91l-9 -59h-91l-48 -264q-39 -207 -195 -207h-48l15 73h31q29 0 50 11.5t32.5 34t17 41.5t10.5 47z" />
    <glyph glyph-name="Aringacute" unicode="&#x1fa;" horiz-adv-x="552" 
d="M327 680l219 -680h-93l-57 175h-239l-57 -175h-94l221 682q-45 28 -45 85q0 38 21.5 66t54.5 35l60 117h103l-91 -130q47 -30 47 -88q0 -59 -50 -87zM182 254h189l-94 321zM227 768q0 -23 15 -38t36 -15q22 0 37.5 15t15.5 38q0 24 -15.5 39.5t-37.5 15.5
q-21 0 -36 -15.5t-15 -39.5z" />
    <glyph glyph-name="aringacute" unicode="&#x1fb;" horiz-adv-x="522" 
d="M402 856l-91 -130q47 -30 47 -88q0 -43 -29 -71t-70 -28q-40 0 -68 28t-28 71q0 38 21.5 66t54.5 35l60 117h103zM208 639q0 -23 15 -38t36 -15q22 0 37.5 15t15.5 38q0 24 -15.5 39.5t-37.5 15.5q-21 0 -36 -15.5t-15 -39.5zM375 0v76q-44 -86 -143 -86
q-85 0 -141.5 67.5t-56.5 176.5q0 110 56 176.5t142 66.5q45 0 85 -20t58 -65v75h87v-467h-87zM375 235q0 71 -39 112.5t-89 41.5q-52 0 -88.5 -43t-36.5 -111t36.5 -112.5t88.5 -44.5q53 0 90.5 42.5t37.5 114.5z" />
    <glyph glyph-name="AEacute" unicode="&#x1fc;" horiz-adv-x="831" 
d="M782 689h-382l-406 -689h101l103 175h227v-175h365v87h-276v213h234v83h-234v220h268v86zM425 248h-184l184 327v-327zM695 920l-107 -154h-74l78 154h103z" />
    <glyph glyph-name="aeacute" unicode="&#x1fd;" horiz-adv-x="834" 
d="M560 698l-107 -154h-74l78 154h103zM462 49v-49h-87v76q-44 -86 -143 -86q-85 0 -141.5 67.5t-56.5 176.5q0 110 56 176.5t142 66.5q45 0 85 -20t58 -65v75h87v-52q22 30 62 46t78 16q88 0 145.5 -66.5t57.5 -175.5q0 -26 -1 -36h-336q7 -55 47.5 -88.5t89.5 -33.5
q76 0 110 70l75 -34q-25 -59 -75.5 -91t-112.5 -32q-41 0 -81.5 14.5t-58.5 44.5zM375 235q0 71 -39 112.5t-89 41.5q-52 0 -88.5 -43t-36.5 -111t36.5 -112.5t88.5 -44.5q53 0 90.5 42.5t37.5 114.5zM468 265h250q-8 62 -39 93.5t-77 31.5q-49 0 -87 -32.5t-47 -92.5z" />
    <glyph glyph-name="Oslashacute" unicode="&#x1fe;" horiz-adv-x="676" 
d="M479 920l-107 -154h-74l78 154h103zM566 582l70 84l-41 36l-66 -79q-80 74 -191 74q-129 0 -214.5 -97.5t-85.5 -256.5q0 -139 67 -233l-65 -79l41 -37l61 73q80 -77 196 -77q129 0 214.5 97t85.5 256q0 141 -72 239zM472 554l-307 -372q-38 68 -38 161q0 120 60 193
t151 73q77 0 134 -55zM199 137l308 373q42 -71 42 -167q0 -119 -60 -192t-151 -73q-82 0 -139 59z" />
    <glyph glyph-name="oslashacute" unicode="&#x1ff;" horiz-adv-x="492" 
d="M386 698l-107 -154h-74l78 154h103zM73 -19l45 55q55 -46 128 -46q89 0 151 68.5t62 176.5q0 91 -47 157l48 58l-41 36l-45 -55q-55 46 -128 46q-90 0 -151.5 -67t-61.5 -175q0 -93 47 -159l-48 -58zM246 390q39 0 72 -27l-179 -216q-19 40 -19 88q0 69 36.5 112t89.5 43
zM246 77q-40 0 -72 27l178 216q20 -40 20 -85q0 -70 -37 -114t-89 -44z" />
    <glyph glyph-name="Scommaaccent" unicode="&#x218;" horiz-adv-x="494" 
d="M41 198h87q1 -50 31.5 -86t87.5 -36q58 0 90 29.5t36 72.5q5 95 -104 123l-76 22q-147 44 -147 177q0 87 54 142t141 55q84 0 139 -55.5t55 -146.5h-87q0 51 -30.5 83t-76.5 32q-52 0 -80 -30.5t-28 -79.5q0 -68 85 -94l75 -21q175 -46 167 -214q-7 -76 -62 -128.5
t-151 -52.5t-150.5 62t-55.5 146zM168 -255l-24 39q47 13 64.5 59t-9.5 100h83q31 -62 -6 -121.5t-108 -76.5z" />
    <glyph glyph-name="scommaaccent" unicode="&#x219;" horiz-adv-x="374" 
d="M329 341h-87q-8 55 -56 55q-45 0 -57 -38q-8 -23 2 -41q12 -19 44 -30l60 -18q107 -31 107 -140q0 -63 -46 -101t-112 -38q-60 0 -106 40t-47 108l87 -1q1 -30 19.5 -48.5t46.5 -18.5q33 0 54 17t21 44q0 41 -45 54l-63 19q-39 12 -59.5 27.5t-37.5 49.5q-22 47 -5 101
q12 40 48.5 67.5t89.5 27.5q55 0 94.5 -31.5t46.5 -94.5q1 -7 1 -10zM114 -255l-24 39q47 13 64.5 59t-9.5 100h83q31 -62 -6 -121.5t-108 -76.5z" />
    <glyph glyph-name="circumflex" unicode="&#x2c6;" horiz-adv-x="474" 
d="M312 543l-75 88l-74 -88h-78l109 154h87l108 -154h-77z" />
    <glyph glyph-name="caron" unicode="&#x2c7;" horiz-adv-x="474" 
d="M237 609l75 88h77l-108 -154h-87l-109 154h78z" />
    <glyph glyph-name="breve" unicode="&#x2d8;" horiz-adv-x="409" 
d="M88 668h69q0 -26 12.5 -42.5t34.5 -16.5t34 18t12 41h70q0 -59 -31.5 -93.5t-84.5 -34.5q-58 0 -87 37t-29 91z" />
    <glyph glyph-name="dotaccent" unicode="&#x2d9;" horiz-adv-x="447" 
d="M165 608q0 25 17.5 42t41.5 17q25 0 41.5 -17t16.5 -42t-16.5 -42t-41.5 -17q-24 0 -41.5 17t-17.5 42z" />
    <glyph glyph-name="ring" unicode="&#x2da;" horiz-adv-x="451" 
d="M128 638q0 44 28 73.5t68 29.5q41 0 70 -29.5t29 -73.5q0 -43 -29 -71t-70 -28q-40 0 -68 28t-28 71zM173 639q0 -23 15 -38t36 -15q22 0 37.5 15t15.5 38q0 24 -15.5 39.5t-37.5 15.5q-21 0 -36 -15.5t-15 -39.5z" />
    <glyph glyph-name="ogonek" unicode="&#x2db;" horiz-adv-x="444" 
d="M226 32q-43 -84 -43 -139q0 -17 9.5 -26t23.5 -9q15 0 23 14.5t8 33.5l61 7q5 -48 -21 -82.5t-71 -34.5q-41 0 -67.5 27t-26.5 70q0 72 59 139h45z" />
    <glyph glyph-name="tilde" unicode="&#x2dc;" horiz-adv-x="362" 
d="M241 668h62q-3 -61 -25.5 -87.5t-53.5 -26.5q-19 0 -43.5 19t-33.5 19q-25 0 -26 -41h-62q3 61 26.5 87.5t54.5 26.5q19 0 43 -19t32 -19q25 0 26 41z" />
    <glyph glyph-name="hungarumlaut" unicode="&#x2dd;" horiz-adv-x="411" 
d="M222 701l-78 -154h-76l68 154h86zM357 701l-98 -154h-73l76 154h95z" />
    <glyph glyph-name="Wgrave" unicode="&#x1e80;" horiz-adv-x="766" 
d="M663 689h95l-198 -689h-79l-99 410l-97 -410h-79l-198 689h95l142 -521l103 428h70l103 -428zM347 766l-107 154h103l78 -154h-74z" />
    <glyph glyph-name="wgrave" unicode="&#x1e81;" horiz-adv-x="674" 
d="M513 0h-74l-103 342l-100 -342h-73l-151 467h95l92 -322l92 322h89l93 -321l92 321h95zM296 544l-107 154h103l78 -154h-74z" />
    <glyph glyph-name="Wacute" unicode="&#x1e82;" horiz-adv-x="766" 
d="M758 689h-95l-142 -521l-103 428h-70l-103 -428l-142 521h-95l198 -689h79l97 410l99 -410h79zM548 920l-107 -154h-74l78 154h103z" />
    <glyph glyph-name="wacute" unicode="&#x1e83;" horiz-adv-x="674" 
d="M439 0h74l147 467h-95l-92 -321l-93 321h-89l-92 -322l-92 322h-95l151 -467h73l100 342zM487 698l-107 -154h-74l78 154h103z" />
    <glyph glyph-name="Wdieresis" unicode="&#x1e84;" horiz-adv-x="766" 
d="M758 689h-95l-142 -521l-103 428h-70l-103 -428l-142 521h-95l198 -689h79l97 410l99 -410h79zM250 830q0 24 16 40.5t40 16.5q23 0 39.5 -16.5t16.5 -40.5t-16.5 -40.5t-39.5 -16.5q-24 0 -40 16.5t-16 40.5zM404 830q0 24 16 40.5t40 16.5t40 -16.5t16 -40.5t-16 -40.5
t-40 -16.5t-40 16.5t-16 40.5z" />
    <glyph glyph-name="wdieresis" unicode="&#x1e85;" horiz-adv-x="674" 
d="M439 0h74l147 467h-95l-92 -321l-93 321h-89l-92 -322l-92 322h-95l151 -467h73l100 342zM203 608q0 24 16.5 40.5t39.5 16.5t39.5 -16.5t16.5 -40.5t-16.5 -40.5t-39.5 -16.5t-39.5 16.5t-16.5 40.5zM357 608q0 24 16.5 40.5t39.5 16.5t39.5 -16.5t16.5 -40.5
t-16.5 -40.5t-39.5 -16.5t-39.5 16.5t-16.5 40.5z" />
    <glyph glyph-name="Ygrave" unicode="&#x1ef2;" horiz-adv-x="534" 
d="M313 0h-92v317l-221 372h103l164 -283l166 283h103l-224 -372h1v-317zM245 766l-107 154h103l78 -154h-74z" />
    <glyph glyph-name="ygrave" unicode="&#x1ef3;" horiz-adv-x="434" 
d="M178 -227h-91l83 241l-159 453h93l114 -331l114 331h92zM192 544l-107 154h103l78 -154h-74z" />
    <glyph glyph-name="thinspace" unicode="&#x2009;" horiz-adv-x="12" 
 />
    <glyph glyph-name="endash" unicode="&#x2013;" horiz-adv-x="505" 
d="M55 276h395v-81h-395v81z" />
    <glyph glyph-name="emdash" unicode="&#x2014;" horiz-adv-x="650" 
d="M57 273h536v-78h-536v78z" />
    <glyph glyph-name="quoteleft" unicode="&#x2018;" horiz-adv-x="212" 
d="M130 689l50 -21q-53 -89 -52 -210h-81q6 79 29.5 141t53.5 90z" />
    <glyph glyph-name="quoteright" unicode="&#x2019;" horiz-adv-x="209" 
d="M90 453l-52 21q54 91 53 210h81q-6 -79 -29.5 -140.5t-52.5 -90.5z" />
    <glyph glyph-name="quotesinglbase" unicode="&#x201a;" horiz-adv-x="206" 
d="M70 -66l-50 21q53 92 52 210h81q-6 -79 -29.5 -141t-53.5 -90z" />
    <glyph glyph-name="quotedblleft" unicode="&#x201c;" horiz-adv-x="339" 
d="M130 690l50 -21q-53 -89 -52 -210h-81q6 79 29.5 141t53.5 90zM257 690l50 -21q-54 -91 -53 -210h-80q5 78 29 140t54 91z" />
    <glyph glyph-name="quotedblright" unicode="&#x201d;" horiz-adv-x="337" 
d="M217 458l-50 21q53 88 53 210h80q-6 -79 -29.5 -141t-53.5 -90zM90 458l-50 21q54 91 53 210h80q-5 -78 -29 -140t-54 -91z" />
    <glyph glyph-name="quotedblbase" unicode="&#x201e;" horiz-adv-x="333" 
d="M196 -66l-50 21q54 91 53 210h81q-6 -78 -30 -140t-54 -91zM70 -66l-50 21q53 92 52 210h81q-6 -79 -29.5 -141t-53.5 -90z" />
    <glyph glyph-name="dagger" unicode="&#x2020;" horiz-adv-x="357" 
d="M221 497h103v-71h-103v-547h-86v547h-102v71h102v179h86v-179z" />
    <glyph glyph-name="daggerdbl" unicode="&#x2021;" horiz-adv-x="379" 
d="M232 497h103v-71h-103v-254h103v-70h-103v-223h-86v223h-102v70h102v254h-102v71h102v179h86v-179z" />
    <glyph glyph-name="bullet" unicode="&#x2022;" horiz-adv-x="400" 
d="M68 239q0 61 38.5 101.5t93.5 40.5t93.5 -40.5t38.5 -101.5t-38.5 -102t-93.5 -41t-93.5 41t-38.5 102z" />
    <glyph glyph-name="ellipsis" unicode="&#x2026;" horiz-adv-x="609" 
d="M52 52q0 27 17.5 45t42.5 18q26 0 43.5 -18t17.5 -45t-17.5 -44.5t-43.5 -17.5q-25 0 -42.5 17.5t-17.5 44.5zM244 52q0 27 17.5 45t42.5 18q26 0 43.5 -18t17.5 -45t-17.5 -44.5t-43.5 -17.5q-25 0 -42.5 17.5t-17.5 44.5zM436 52q0 27 17.5 45t42.5 18q26 0 43.5 -18
t17.5 -45t-17.5 -44.5t-43.5 -17.5q-25 0 -42.5 17.5t-17.5 44.5z" />
    <glyph glyph-name="perthousand" unicode="&#x2030;" horiz-adv-x="850" 
d="M463 673l-279 -673h-54l280 673h53zM32 539q0 54 33 90t79 36t79.5 -36t33.5 -90q0 -55 -33.5 -90.5t-79.5 -35.5t-79 35.5t-33 90.5zM91 539q0 -27 14 -44.5t39 -17.5t39.5 17.5t14.5 44.5q0 26 -14.5 43t-39.5 17t-39 -17t-14 -43zM327 116q0 54 33 90t79 36t79.5 -36
t33.5 -90q0 -55 -33.5 -90.5t-79.5 -35.5t-79 35.5t-33 90.5zM386 116q0 -27 14 -44.5t39 -17.5t39.5 17.5t14.5 44.5q0 26 -14.5 43t-39.5 17t-39 -17t-14 -43zM596 116q0 54 33 90t79 36t79.5 -36t33.5 -90q0 -55 -33.5 -90.5t-79.5 -35.5t-79 35.5t-33 90.5zM655 116
q0 -27 14 -44.5t39 -17.5t39.5 17.5t14.5 44.5q0 26 -14.5 43t-39.5 17t-39 -17t-14 -43z" />
    <glyph glyph-name="guilsinglleft" unicode="&#x2039;" horiz-adv-x="272" 
d="M37 233l117 207h77l-116 -207l118 -207h-79z" />
    <glyph glyph-name="guilsinglright" unicode="&#x203a;" horiz-adv-x="272" 
d="M118 440l117 -207l-117 -207h-79l118 207l-116 207h77z" />
    <glyph glyph-name="fraction" unicode="&#x2044;" horiz-adv-x="160" 
d="M297 670l-382 -680h-57l383 680h56z" />
    <glyph glyph-name="zerosuperior" unicode="&#x2070;" horiz-adv-x="319" 
d="M28 691q0 206 131 206q132 0 132 -206t-132 -206q-131 0 -131 206zM90 691q0 -147 69 -147q70 0 70 147q0 146 -70 146q-69 0 -69 -146z" />
    <glyph glyph-name="foursuperior" unicode="&#x2074;" horiz-adv-x="328" 
d="M250 574v-79h-62v79h-180l193 317h49v-263h61v-54h-61zM97 628h91v147z" />
    <glyph glyph-name="fivesuperior" unicode="&#x2075;" horiz-adv-x="305" 
d="M18 575l58 20q8 -23 27.5 -36t40.5 -13q36 0 57 20t21 55q-1 37 -22 57.5t-48 20.5q-38 0 -74 -35l-46 27l31 200h194v-61h-144l-16 -107q33 30 77 30q43 0 76 -35t33 -97q0 -63 -37.5 -99.5t-101.5 -36.5q-40 0 -76 24t-50 66z" />
    <glyph glyph-name="sixsuperior" unicode="&#x2076;" horiz-adv-x="305" 
d="M97 616q0 -29 18.5 -50.5t44.5 -21.5q24 0 43 19.5t19 52.5q0 34 -18.5 51.5t-42.5 17.5q-27 0 -45.5 -19.5t-18.5 -49.5zM89 691q6 21 27.5 38.5t52.5 17.5q48 0 82 -38.5t33 -94.5q-2 -57 -35 -93t-88 -36q-69 0 -101 56.5t-32 148.5q0 93 32 150.5t102 57.5
q76 0 105 -73l-56 -22q-14 34 -49 34q-73 0 -73 -146z" />
    <glyph glyph-name="sevensuperior" unicode="&#x2077;" horiz-adv-x="276" 
d="M275 891l-186 -396h-69l158 335h-150v61h247z" />
    <glyph glyph-name="eightsuperior" unicode="&#x2078;" horiz-adv-x="300" 
d="M150 838q-15 0 -26.5 -11.5t-11.5 -34.5q0 -21 10 -34t27 -13q18 0 28.5 13t10.5 34q0 23 -11.5 34.5t-26.5 11.5zM150 485q-54 0 -89.5 34.5t-35.5 94.5q0 72 61 105q-36 27 -36 74q0 43 29 73.5t71 30.5t71 -30.5t29 -73.5q0 -47 -36 -74q61 -33 61 -105
q0 -60 -35.5 -94.5t-89.5 -34.5zM153 692h-6q-26 0 -43 -22.5t-17 -51.5q0 -33 17.5 -54t45.5 -21t45.5 21t17.5 54q0 29 -16.5 51.5t-43.5 22.5z" />
    <glyph glyph-name="ninesuperior" unicode="&#x2079;" horiz-adv-x="305" 
d="M209 767q0 29 -18.5 50.5t-44.5 21.5q-24 0 -43 -19.5t-19 -52.5q0 -34 18.5 -51.5t42.5 -17.5q27 0 45.5 19.5t18.5 49.5zM217 692q-6 -21 -27.5 -38.5t-52.5 -17.5q-48 0 -82 38.5t-33 94.5q2 57 35 93t88 36q69 0 101 -56.5t32 -148.5q0 -93 -32 -150.5t-102 -57.5
q-76 0 -105 73l56 22q14 -34 49 -34q73 0 73 146z" />
    <glyph glyph-name="zeroinferior" unicode="&#x2080;" horiz-adv-x="319" 
d="M28 11q0 206 131 206q132 0 132 -206t-132 -206q-131 0 -131 206zM90 11q0 -147 69 -147q70 0 70 147q0 146 -70 146q-69 0 -69 -146z" />
    <glyph glyph-name="oneinferior" unicode="&#x2081;" horiz-adv-x="225" 
d="M102 -185v315l-72 -31v61l134 62v-407h-62z" />
    <glyph glyph-name="twoinferior" unicode="&#x2082;" horiz-adv-x="285" 
d="M24 -185v38l140 182q31 39 31 64q0 26 -16 42t-41 16q-19 0 -35 -15.5t-20 -40.5l-58 10q10 48 41.5 77.5t71.5 29.5q53 0 86 -32.5t33 -86.5q0 -44 -44 -102l-97 -123h140v-59h-232z" />
    <glyph glyph-name="threeinferior" unicode="&#x2083;" horiz-adv-x="292" 
d="M189 112q0 20 -14 34.5t-36 14.5q-39 0 -52 -42l-52 26q11 34 39.5 53.5t64.5 19.5q51 0 81.5 -28.5t30.5 -77.5q0 -61 -57 -85q36 -7 54.5 -38t18.5 -61q0 -56 -38.5 -89.5t-95.5 -33.5q-37 0 -70 22t-48 64l56 26q6 -25 24.5 -39t37.5 -14q30 0 51 17.5t21 46.5
q0 31 -19 51t-47 20h-39v52h29q32 0 46 20t14 41z" />
    <glyph glyph-name="fourinferior" unicode="&#x2084;" horiz-adv-x="328" 
d="M250 -106v-79h-62v79h-180l193 317h49v-263h61v-54h-61zM97 -52h91v147z" />
    <glyph glyph-name="fiveinferior" unicode="&#x2085;" horiz-adv-x="304" 
d="M18 -105l58 20q8 -23 27.5 -36t40.5 -13q36 0 57 20t21 55q-1 37 -22 57.5t-48 20.5q-38 0 -74 -35l-46 27l31 200h194v-61h-144l-16 -107q33 30 77 30q43 0 76 -35t33 -97q0 -63 -37.5 -99.5t-101.5 -36.5q-40 0 -76 24t-50 66z" />
    <glyph glyph-name="sixinferior" unicode="&#x2086;" horiz-adv-x="305" 
d="M97 -64q0 -29 18.5 -50.5t44.5 -21.5q24 0 43 19.5t19 52.5q0 34 -18.5 51.5t-42.5 17.5q-27 0 -45.5 -19.5t-18.5 -49.5zM89 11q6 21 27.5 38.5t52.5 17.5q48 0 82 -38.5t33 -94.5q-2 -57 -35 -93t-88 -36q-69 0 -101 56.5t-32 148.5q0 93 32 150.5t102 57.5
q76 0 105 -73l-56 -22q-14 34 -49 34q-73 0 -73 -146z" />
    <glyph glyph-name="seveninferior" unicode="&#x2087;" horiz-adv-x="275" 
d="M274 211l-186 -396h-69l158 335h-150v61h247z" />
    <glyph glyph-name="eightinferior" unicode="&#x2088;" horiz-adv-x="300" 
d="M150 158q-15 0 -26.5 -11.5t-11.5 -34.5q0 -21 10 -34t27 -13q18 0 28.5 13t10.5 34q0 23 -11.5 34.5t-26.5 11.5zM150 -195q-54 0 -89.5 34.5t-35.5 94.5q0 72 61 105q-36 27 -36 74q0 43 29 73.5t71 30.5t71 -30.5t29 -73.5q0 -47 -36 -74q61 -33 61 -105
q0 -60 -35.5 -94.5t-89.5 -34.5zM153 12h-6q-26 0 -43 -22.5t-17 -51.5q0 -33 17.5 -54t45.5 -21t45.5 21t17.5 54q0 29 -16.5 51.5t-43.5 22.5z" />
    <glyph glyph-name="nineinferior" unicode="&#x2089;" horiz-adv-x="305" 
d="M209 87q0 29 -18.5 50.5t-44.5 21.5q-24 0 -43 -19.5t-19 -52.5q0 -34 18.5 -51.5t42.5 -17.5q27 0 45.5 19.5t18.5 49.5zM217 12q-6 -21 -27.5 -38.5t-52.5 -17.5q-48 0 -82 38.5t-33 94.5q2 57 35 93t88 36q69 0 101 -56.5t32 -148.5q0 -93 -32 -150.5t-102 -57.5
q-76 0 -105 73l56 22q14 -34 49 -34q73 0 73 146z" />
    <glyph glyph-name="colonmonetary" unicode="&#x20a1;" horiz-adv-x="581" 
d="M39 343q0 152 71 246.5t187 105.5l34 112l49 -20l-28 -92q35 -3 63 -13l27 88l49 -19l-28 -92q48 -29 86 -81l-65 -57q-25 33 -48 50l-149 -491q17 -4 40 -4q92 0 157 90l65 -57q-85 -119 -222 -119q-30 0 -65 7l-33 -108l-49 20l32 104q-24 10 -57 36l-37 -123l-49 19
l44 147q-74 94 -74 251zM327 611h-1l-142 -467q22 -28 54 -46l152 501q-30 12 -63 12zM128 343q0 -77 21 -134l119 393q-65 -21 -102.5 -89t-37.5 -170z" />
    <glyph glyph-name="lira" unicode="&#x20a4;" horiz-adv-x="540" 
d="M117 397v105q0 100 51 147.5t129 47.5q74 0 123 -50.5t49 -142.5h-84q-3 48 -28.5 79t-67.5 27q-37 -3 -61.5 -29t-24.5 -79v-105h130v-49h-130v-69h130v-49h-130v-144h196q16 0 16 22v57h86v-45q0 -53 -22 -86.5t-64 -33.5h-376v86h78v144h-64v49h64v69h-64v49h64z" />
    <glyph glyph-name="uni20A6" unicode="&#x20a6;" horiz-adv-x="645" 
d="M535 305h69v-55h-69v-250h-84l-127 250h-131v-250h-89v250h-60v55h60v74h-60v55h60v255h87l129 -255h126v255h89v-255h69v-55h-69v-74zM193 379v-74h103l-37 74h-66zM347 379l38 -74h61v74h-99zM193 509v-75h38zM412 250l34 -66v66h-34z" />
    <glyph glyph-name="peseta" unicode="&#x20a7;" horiz-adv-x="635" 
d="M109 689h234q69 0 112.5 -36t61.5 -95h85v-55h-75q2 -20 2 -30q0 -13 -1 -19h74v-55h-82q-16 -64 -60 -102.5t-117 -38.5h-144v-258h-90v399h-67v55h67v49h-67v55h67v131zM440 473q0 10 -2 30h-239v-49h240q0 3 0.5 9t0.5 10zM199 345h129q68 0 95 54h-224v-54zM332 603
h-133v-45h219q-29 45 -86 45z" />
    <glyph glyph-name="rupee" unicode="&#x20a8;" horiz-adv-x="572" 
d="M52 602v87h485v-55h-183q37 -43 47 -111h136v-55h-132q-2 -81 -38.5 -139t-110.5 -69l156 -260h-104l-151 258h-105v87h156q104 0 108 123h-264v55h258q-20 75 -89 79h-169z" />
    <glyph glyph-name="uni20A9" unicode="&#x20a9;" horiz-adv-x="835" 
d="M697 689h95l-59 -205h56v-55h-72l-29 -100h101v-55h-117l-78 -274h-79l-66 274h-65l-65 -274h-79l-79 274h-115v55h99l-28 100h-71v55h55l-59 205h95l56 -205h162l27 112h70l27 -112h162zM492 429l24 -100h83l27 100h-134zM208 429l27 -100h82l24 100h-133zM529 274
l26 -106l29 106h-55zM250 274l29 -106l25 106h-54zM416 410l-19 -81h38z" />
    <glyph glyph-name="afii57636" unicode="&#x20aa;" horiz-adv-x="656" 
d="M442 332v-167h-85v167q0 50 -27.5 83.5t-71.5 33.5h-94v-449h-86v538h180q82 0 133 -59t51 -147zM214 206v167h85v-167q0 -50 27.5 -83.5t71.5 -33.5h94v449h86v-538h-180q-82 0 -133 59t-51 147z" />
    <glyph glyph-name="Euro" unicode="&#x20ac;" horiz-adv-x="657" 
d="M440 358h-401v51h85q24 112 98.5 185.5t174.5 73.5q123 0 213 -109l-57 -57q-72 83 -156 83q-65 0 -117 -51.5t-64 -124.5h224v-51zM39 296h401v-50h-224q11 -69 64 -120.5t117 -51.5q87 0 157 84l56 -58q-90 -109 -213 -109q-99 0 -173.5 72.5t-98.5 182.5h-86v50z" />
    <glyph glyph-name="uni2113" unicode="&#x2113;" horiz-adv-x="333" 
d="M203 82h71v-82h-96q-122 0 -122 159v379q0 159 122 159q119 0 119 -159v-167q0 -88 -35 -131t-120 -44v-51q2 -30 15 -46.5t46 -16.5zM142 277q27 1 42 5.5t21 19t7 23.5t1 34v178q0 77 -35 77q-36 0 -36 -77v-260z" />
    <glyph glyph-name="afii61352" unicode="&#x2116;" horiz-adv-x="838" 
d="M569 311v47h225v-47h-225zM427 0h84v652h-89v-478l-257 478h-87v-652h89v482zM569 536q0 54 33 90t79 36t79.5 -36t33.5 -90q0 -55 -33.5 -90.5t-79.5 -35.5t-79 35.5t-33 90.5zM628 536q0 -27 14 -44.5t39 -17.5t39.5 17.5t14.5 44.5q0 26 -14.5 43t-39.5 17t-39 -17
t-14 -43z" />
    <glyph glyph-name="trademark" unicode="&#x2122;" horiz-adv-x="737" 
d="M52 689h329l102 -266l103 266h55l39 -382h-59l-26 264l-85 -223h-53l-87 221l-25 -262h-61l34 330h-104v-330h-61v330h-101v52z" />
    <glyph glyph-name="estimated" unicode="&#x212e;" horiz-adv-x="630" 
d="M596 279h-429v-193q66 -63 152 -63q76 0 123 33t87 94l31 -19q-44 -68 -99 -104.5t-142 -36.5q-119 0 -195 84.5t-76 205.5q0 123 75 206.5t200 83.5q124 0 198.5 -84.5t74.5 -206.5zM476 312v163q-68 62 -153 62q-96 0 -156 -62v-163h309z" />
    <glyph glyph-name="minus" unicode="&#x2212;" horiz-adv-x="492" 
d="M59 305h374v-78h-374v78z" />
    <glyph glyph-name="notequal" unicode="&#x2260;" horiz-adv-x="507" 
d="M270 197h184v-80h-220l-46 -117h-60l46 117h-121v80h157l44 113h-201v80h237l46 110h60l-46 -110h104v-80h-140z" />
    <glyph glyph-name="lessequal" unicode="&#x2264;" horiz-adv-x="559" 
d="M56 75h437v-75h-437v75zM493 124l-441 197v73l441 198v-93l-342 -141l342 -143v-91z" />
    <glyph glyph-name="greaterequal" unicode="&#x2265;" horiz-adv-x="559" 
d="M503 75h-437v-75h437v75zM507 321l-441 -197v91l342 143l-342 141v93l441 -198v-73z" />
    <glyph glyph-name="commaaccent" unicode="&#xf6c3;" horiz-adv-x="235" 
d="M59 -255l-24 39q47 13 64.5 59t-9.5 100h83q31 -62 -6 -121.5t-108 -76.5z" />
    <glyph glyph-name="rupiah" unicode="&#xf6dd;" horiz-adv-x="998" 
d="M62 689h234q93 0 137.5 -62.5t44.5 -153.5q0 -82 -36.5 -141.5t-112.5 -71.5l156 -260h-104l-151 258h-78v-258h-90v689zM285 603h-133v-258h129q57 0 82.5 36.5t25.5 91.5q0 54 -24.5 92t-79.5 38zM632 467v-71q18 41 54.5 61t78.5 20q86 0 145 -68t59 -177
q0 -108 -59 -175t-145 -67q-98 0 -133 86v-303h-87v694h87zM632 231q0 -71 38 -112.5t88 -41.5q52 0 87.5 43t35.5 111q0 69 -35.5 114t-87.5 45t-89 -43.5t-37 -115.5z" />
    <glyph glyph-name="apple" unicode="&#xf8ff;" horiz-adv-x="750" 
d="M553 152q0 75 -40.5 118t-98.5 51q34 90 74 165l15 -195h75l-26 334h-73q-65 -121 -94 -203q-25 71 -94 203h-73l-26 -334h75l15 195q28 -51 74 -163q-62 -8 -105.5 -50.5t-43.5 -120.5h76q0 51 30 78.5t68 27.5t67.5 -27.5t29.5 -78.5h75zM135 0v690h502v-690h-502z
M180 82v-39h8v27l9 -27h7l10 28v-28h8v39h-12l-9 -27l-9 27h-12zM244 83q-19 0 -19 -21q0 -20 19 -20q9 0 14.5 6t5.5 14q0 21 -20 21zM244 49q-10 0 -10 13q0 14 10 14q11 0 11 -14q0 -13 -11 -13zM272 56h-8q0 -14 17 -14q16 0 16 13q0 8 -11 11q-12 3 -12 6q0 4 6 4
q7 0 7 -6h9q0 13 -16 13q-15 0 -15 -12q0 -9 13 -11q11 -3 11 -6q0 -5 -8 -5q-9 0 -9 7zM308 75v-32h9v32h12v7h-33v-7h12zM337 82l-15 -39h9l3 9h14l3 -9h9l-14 39h-9zM346 58h-10l5 14zM361 82v-39h9v15h8q7 0 7 -7q0 -6 1 -8h9q-2 4 -2 9q0 8 -6 9v1q7 1 7 9q0 11 -12 11
h-21zM370 64v11h9q6 0 6 -5q0 -6 -6 -6h-9zM398 82v-39h17q18 0 18 20q0 19 -18 19h-17zM407 50v25h6q11 0 11 -13q0 -12 -10 -12h-7zM436 82v-39h30v7h-22v10h19v7h-19v8h21v7h-29zM475 56h-9q0 -14 17 -14q16 0 16 13q0 8 -11 11q-12 3 -12 6q0 4 6 4q7 0 8 -6h8
q0 13 -16 13q-15 0 -15 -12q0 -9 13 -11q11 -3 11 -6q0 -5 -8 -5t-8 7zM502 82v-39h8v39h-8zM543 47l1 -4h6v21h-17v-6h9q-2 -9 -9 -9q-11 0 -11 13q0 14 11 14q7 0 8 -7h8q-2 14 -16 14q-20 0 -20 -21q0 -20 20 -20q5 0 10 5zM554 82v-39h8v26l16 -26h9v39h-8v-26l-17 26
h-8z" />
    <glyph glyph-name="published" horiz-adv-x="698" 
d="M380 467h-62v-118h61q47 0 47 58q0 25 -11 42.5t-35 17.5zM42 343q0 146 90 250t216 104q127 0 217.5 -104t90.5 -250t-90.5 -249.5t-217.5 -103.5q-126 0 -216 103.5t-90 249.5zM91 343q0 -123 75.5 -212t181.5 -89q107 0 183 89t76 212t-76 212.5t-183 89.5
q-106 0 -181.5 -89.5t-75.5 -212.5zM385 285h-67v-136h-65v382h132q54 0 79.5 -36t25.5 -88t-25.5 -87.5t-79.5 -34.5z" />
    <glyph glyph-name="frenchfranc" horiz-adv-x="631" 
d="M409 170v-170h-87v361h-151v-361h-89v689h352v-86h-263v-159h233v-104q11 50 48.5 82t74.5 32q49 0 74 -19l-13 -86q-31 18 -62 18q-55 0 -86 -52t-31 -145z" />
    <glyph glyph-name="parenleft.case" horiz-adv-x="328" 
d="M36 342q0 211 77 338t191 127v-66q-75 0 -133 -115.5t-58 -283.5t58 -283.5t133 -115.5v-66q-114 0 -191 127t-77 338z" />
    <glyph glyph-name="parenright.case" horiz-adv-x="328" 
d="M292 342q0 -211 -77 -338t-191 -127v66q75 0 133 115.5t58 283.5t-58 283.5t-133 115.5v66q114 0 191 -127t77 -338z" />
    <glyph glyph-name="hyphen.case" horiz-adv-x="415" 
d="M55 384h305v-81h-305v81z" />
    <glyph glyph-name="at.case" horiz-adv-x="840" 
d="M512 221v129q0 54 -30.5 91.5t-74.5 37.5q-43 0 -73.5 -37.5t-30.5 -91.5q0 -53 30.5 -90.5t73.5 -37.5q48 0 70 18v-71q-20 -18 -70 -18q-72 0 -123.5 58.5t-51.5 140.5q0 83 51.5 141.5t123.5 58.5t122 -55q51 -56 53 -136v-145q0 -66 57 -66q27 0 47.5 21.5t31 55.5
t15.5 68.5t5 68.5q0 150 -95.5 250.5t-226.5 100.5q-128 0 -217.5 -107.5t-89.5 -260.5t89.5 -259t217.5 -106h24v-71h-24q-158 0 -267.5 127t-109.5 309t110 310.5t267 128.5q160 0 276.5 -121.5t116.5 -300.5q0 -47 -9.5 -94.5t-29 -91t-53.5 -71t-78 -27.5
q-56 0 -91.5 33.5t-35.5 109.5z" />
    <glyph glyph-name="bracketleft.case" horiz-adv-x="278" 
d="M68 -117v916h181v-71h-98v-774h98v-71h-181z" />
    <glyph glyph-name="bracketright.case" horiz-adv-x="278" 
d="M210 799v-916h-181v71h98v774h-98v71h181z" />
    <glyph glyph-name="braceleft.case" horiz-adv-x="324" 
d="M162 253v-174q0 -54 21.5 -90.5t65.5 -36.5h48v-69h-45q-84 0 -128 50t-44 146v174q0 20 -16 39t-36 19v67q20 0 36 19t16 39v176q0 95 44 145t128 50h45v-69h-48q-44 0 -65.5 -36t-21.5 -90v-176q0 -69 -59 -92q30 -10 44.5 -36t14.5 -55z" />
    <glyph glyph-name="braceright.case" horiz-adv-x="324" 
d="M162 79v174q0 29 14.5 55t44.5 36q-59 23 -59 92v176q0 54 -21.5 90t-65.5 36h-48v69h45q84 0 128 -50t44 -145v-176q0 -20 16 -39t36 -19v-67q-20 0 -36 -19t-16 -39v-174q0 -96 -44 -146t-128 -50h-45v69h48q44 0 65.5 36.5t21.5 90.5z" />
    <glyph glyph-name="exclamdown.case" horiz-adv-x="224" 
d="M147 504l11 -504h-94l12 504h71zM52 635q0 27 17.5 44.5t42.5 17.5q26 0 43.5 -17.5t17.5 -44.5t-17.5 -45t-43.5 -18q-25 0 -42.5 18t-17.5 45z" />
    <glyph glyph-name="guillemotleft.case" horiz-adv-x="455" 
d="M44 344l117 207h77l-116 -207l118 -207h-79zM208 344l117 207h77l-116 -207l118 -207h-79z" />
    <glyph glyph-name="periodcentered.case" horiz-adv-x="229" 
d="M54 344q0 27 17.5 45t42.5 18t43 -18t18 -45t-18 -44.5t-43 -17.5t-42.5 17.5t-17.5 44.5z" />
    <glyph glyph-name="guillemotright.case" horiz-adv-x="455" 
d="M294 551l117 -207l-117 -207h-79l118 207l-116 207h77zM130 551l117 -207l-117 -207h-79l118 207l-116 207h77z" />
    <glyph glyph-name="questiondown.case" horiz-adv-x="416" 
d="M299 189h83q0 -93 -49 -146t-123 -53q-75 0 -127 51.5t-52 138.5q0 70 36 122.5t89 71.5q29 10 43.5 25t14.5 48l1 55h85v-55q0 -66 -30 -102t-87 -57q-27 -8 -47 -40t-20 -68q0 -46 28 -74.5t66 -28.5q37 0 63 29.5t26 82.5zM318 635q0 -27 -17.5 -45t-42.5 -18
q-26 0 -43.5 18t-17.5 45t17.5 44.5t43.5 17.5q25 0 42.5 -17.5t17.5 -44.5z" />
    <glyph glyph-name="endash.case" horiz-adv-x="505" 
d="M55 385h395v-81h-395v81z" />
    <glyph glyph-name="emdash.case" horiz-adv-x="646" 
d="M55 383h536v-78h-536v78z" />
    <glyph glyph-name="bullet.case" horiz-adv-x="402" 
d="M69 344q0 61 38.5 101.5t93.5 40.5t93.5 -40.5t38.5 -101.5t-38.5 -102t-93.5 -41t-93.5 41t-38.5 102z" />
    <glyph glyph-name="guilsinglleft.case" horiz-adv-x="291" 
d="M44 344l117 207h77l-116 -207l118 -207h-79z" />
    <glyph glyph-name="guilsinglright.case" horiz-adv-x="291" 
d="M130 551l117 -207l-117 -207h-79l118 207l-116 207h77z" />
    <glyph glyph-name="cent.case" horiz-adv-x="450" 
d="M269 116v-116h-55v119q-77 14 -127.5 79.5t-50.5 161.5t50.5 160.5t127.5 77.5v99h55v-96q87 -8 139 -74l-62 -62q-43 50 -95 50q-53 0 -90 -43t-37 -112t37.5 -114t89.5 -45q53 0 95 52l63 -62q-52 -67 -140 -75z" />
    <glyph glyph-name="zero.tnum" 
d="M29 325q0 336 212 336q210 0 210 -336q0 -335 -210 -335q-212 0 -212 335zM116 325q0 -250 125 -250q124 0 124 250q0 251 -124 251q-125 0 -125 -251z" />
    <glyph glyph-name="one.tnum" 
d="M224 0v539l-103 -42v88l189 80v-665h-86z" />
    <glyph glyph-name="two.tnum" 
d="M60 39l226 322q40 55 40 107q0 47 -27.5 78t-66.5 31q-36 0 -64 -30.5t-34 -79.5l-81 23q11 78 61 124.5t118 46.5q76 0 128 -54t52 -139t-62 -169l-152 -212h221v-87h-359v39z" />
    <glyph glyph-name="three.tnum" 
d="M339 181q0 57 -30.5 92t-80.5 35h-50v79h33q32 0 54.5 11t32 28.5t13 32t3.5 29.5q0 39 -26 65.5t-65 26.5q-56 0 -93 -65l-57 52q21 43 64 69t91 26q78 0 127.5 -52.5t47.5 -121.5q0 -41 -23.5 -82.5t-55.5 -55.5q46 -15 74 -65t28 -104q0 -84 -56.5 -137.5
t-146.5 -53.5q-63 0 -112.5 39.5t-72.5 97.5l71 48q8 -39 42.5 -70.5t71.5 -31.5q52 0 84 30.5t32 77.5z" />
    <glyph glyph-name="four.tnum" 
d="M378 134v-134h-86v134h-288l308 518h66v-433h80v-85h-80zM138 219h154v262z" />
    <glyph glyph-name="five.tnum" 
d="M31 131l75 47q34 -102 115 -102q65 0 100.5 38t35.5 96q0 61 -33 95t-83 34q-29 0 -55 -11.5t-65 -45.5l-66 46l48 324h306v-86h-233l-34 -196q44 49 120 49q72 0 125.5 -53.5t53.5 -155.5q0 -99 -61.5 -159.5t-158.5 -60.5q-65 0 -115 37t-75 104z" />
    <glyph glyph-name="six.tnum" 
d="M125 312q10 44 51.5 73.5t91.5 29.5q75 0 127.5 -65t49.5 -152q-4 -88 -59.5 -148t-130.5 -60q-111 0 -162 92t-51 242q0 73 11.5 131.5t36 105.5t67 73t99.5 26q123 0 171 -125l-72 -40q-32 83 -99 83q-72 0 -104 -76t-27 -190zM147 212q0 -55 31 -96t73 -41q44 0 76 36
t32 91q0 58 -28.5 89.5t-72.5 33.5q-42 2 -75.5 -30t-35.5 -83z" />
    <glyph glyph-name="seven.tnum" 
d="M457 653l-304 -653h-100l265 568h-254v85h393z" />
    <glyph glyph-name="eight.tnum" 
d="M239 409h5q27 0 45 26t18 59q0 40 -19 62.5t-48 22.5t-48 -23.5t-19 -61.5q0 -33 18 -59t45 -26h3zM240 -10q-86 0 -141 55.5t-55 152.5q0 56 30 104.5t75 67.5q-25 16 -44 52.5t-19 72.5q0 69 44 117.5t110 48.5t110 -48.5t44 -117.5q0 -36 -19 -72.5t-44 -52.5
q45 -19 75 -67.5t30 -104.5q0 -97 -55 -152.5t-141 -55.5zM246 331h-3h-9q-43 0 -73 -38t-30 -89q0 -58 31 -96t78 -38t78 38t31 96q0 51 -30 89t-73 38z" />
    <glyph glyph-name="nine.tnum" 
d="M354 338q-10 -44 -51.5 -73.5t-91.5 -29.5q-75 0 -127.5 65t-49.5 152q4 88 59.5 148t130.5 60q111 0 162 -92t51 -242q0 -73 -11.5 -131.5t-36 -105.5t-67 -73t-99.5 -26q-123 0 -171 125l75 40q32 -83 96 -83q72 0 104 76t27 190zM332 438q0 55 -31 96t-73 41
q-44 0 -76 -36t-32 -91q0 -58 28.5 -89.5t72.5 -33.5q42 -2 75.5 30t35.5 83z" />
    <glyph glyph-name="zero.taboldstyle" 
d="M239 -10q-91 0 -156 72t-65 186q0 115 64.5 186t156.5 71t157 -71t65 -186q0 -114 -65 -186t-157 -72zM239 70q55 0 93.5 50t38.5 128t-38.5 127t-93.5 49t-93 -49t-38 -127t38 -128t93 -50z" />
    <glyph glyph-name="one.taboldstyle" 
d="M331 521v-521h-87v382l-140 -74v87z" />
    <glyph glyph-name="two.taboldstyle" 
d="M74 0v38l187 224q29 36 42 58t13 42q0 29 -21.5 49.5t-53.5 20.5t-58 -22.5t-27 -60.5l-76 17q6 67 52.5 107.5t109.5 40.5q69 0 114 -42.5t45 -109.5q0 -40 -17.5 -72t-59.5 -83l-108 -120h177v-87h-319z" />
    <glyph glyph-name="six.taboldstyle" 
d="M125 312q10 44 51.5 73.5t91.5 29.5q75 0 127.5 -65t49.5 -152q-4 -88 -59.5 -148t-130.5 -60q-111 0 -162 92t-51 242q0 73 11.5 131.5t36 105.5t67 73t99.5 26q123 0 171 -125l-72 -40q-32 83 -99 83q-72 0 -104 -76t-27 -190zM147 212q0 -55 31 -96t73 -41q44 0 76 36
t32 91q0 58 -28.5 89.5t-72.5 33.5q-42 2 -75.5 -30t-35.5 -83z" />
    <glyph glyph-name="eight.taboldstyle" 
d="M239 409h5q27 0 45 26t18 59q0 40 -19 62.5t-48 22.5t-48 -23.5t-19 -61.5q0 -33 18 -59t45 -26h3zM240 -10q-86 0 -141 55.5t-55 152.5q0 56 30 104.5t75 67.5q-25 16 -44 52.5t-19 72.5q0 69 44 117.5t110 48.5t110 -48.5t44 -117.5q0 -36 -19 -72.5t-44 -52.5
q45 -19 75 -67.5t30 -104.5q0 -97 -55 -152.5t-141 -55.5zM246 331h-3h-9q-43 0 -73 -38t-30 -89q0 -58 31 -96t78 -38t78 38t31 96q0 51 -30 89t-73 38z" />
    <glyph glyph-name="three.taboldstyle" 
d="M340 -4q0 57 -30.5 92t-80.5 35h-50v79h33q32 0 54.5 11t32 28.5t13 32t3.5 29.5q0 39 -26 65.5t-65 26.5q-56 0 -93 -65l-57 52q21 43 64 69t91 26q78 0 127.5 -52.5t47.5 -121.5q0 -41 -23.5 -82.5t-55.5 -55.5q46 -15 74 -65t28 -104q0 -84 -56.5 -137.5t-146.5 -53.5
q-63 0 -112.5 39.5t-72.5 97.5l71 48q8 -39 42.5 -70.5t71.5 -31.5q52 0 84 30.5t32 77.5z" />
    <glyph glyph-name="four.taboldstyle" 
d="M378 -53v-134h-86v134h-288l308 518h66v-433h80v-85h-80zM138 32h154v262z" />
    <glyph glyph-name="five.taboldstyle" 
d="M32 -54l75 47q34 -102 115 -102q65 0 100.5 38t35.5 96q0 61 -33 95t-83 34q-29 0 -55 -11.5t-65 -45.5l-66 46l48 324h306v-86h-233l-34 -196q44 49 120 49q72 0 125.5 -53.5t53.5 -155.5q0 -99 -61.5 -159.5t-158.5 -60.5q-65 0 -115 37t-75 104z" />
    <glyph glyph-name="seven.taboldstyle" 
d="M456 466l-304 -653h-100l265 568h-254v85h393z" />
    <glyph glyph-name="nine.taboldstyle" 
d="M356 155q-10 -44 -51.5 -73.5t-91.5 -29.5q-75 0 -127.5 65t-49.5 152q4 88 59.5 148t130.5 60q111 0 162 -92t51 -242q0 -73 -11.5 -131.5t-36 -105.5t-67 -73t-99.5 -26q-123 0 -171 125l72 40q32 -83 99 -83q72 0 104 76t27 190zM334 255q0 55 -31 96t-73 41
q-44 0 -76 -36t-32 -91q0 -58 28.5 -89.5t72.5 -33.5q42 -2 75.5 30t35.5 83z" />
    <glyph glyph-name="zero.oldstyle" horiz-adv-x="523" 
d="M261 -10q-91 0 -156 72t-65 186q0 115 64.5 186t156.5 71t157 -71t65 -186q0 -114 -65 -186t-157 -72zM261 70q55 0 93.5 50t38.5 128t-38.5 127t-93.5 49t-93 -49t-38 -127t38 -128t93 -50z" />
    <glyph glyph-name="one.oldstyle" horiz-adv-x="339" 
d="M261 521v-521h-87v382l-140 -74v87z" />
    <glyph glyph-name="two.oldstyle" horiz-adv-x="411" 
d="M40 0v38l187 224q29 36 42 58t13 42q0 29 -21.5 49.5t-53.5 20.5t-58 -22.5t-27 -60.5l-76 17q6 67 52.5 107.5t109.5 40.5q69 0 114 -42.5t45 -109.5q0 -40 -17.5 -72t-59.5 -83l-108 -120h177v-87h-319z" />
    <glyph glyph-name="three.oldstyle" horiz-adv-x="445" 
d="M323 -4q0 57 -30.5 92t-80.5 35h-50v79h33q32 0 54.5 11t32 28.5t13 32t3.5 29.5q0 39 -26 65.5t-65 26.5q-56 0 -93 -65l-57 52q21 43 64 69t91 26q78 0 127.5 -52.5t47.5 -121.5q0 -41 -23.5 -82.5t-55.5 -55.5q46 -15 74 -65t28 -104q0 -84 -56.5 -137.5t-146.5 -53.5
q-63 0 -112.5 39.5t-72.5 97.5l71 48q8 -39 42.5 -70.5t71.5 -31.5q52 0 84 30.5t32 77.5z" />
    <glyph glyph-name="four.oldstyle" horiz-adv-x="489" 
d="M383 -53v-134h-86v134h-288l308 518h66v-433h80v-85h-80zM143 32h154v262z" />
    <glyph glyph-name="five.oldstyle" horiz-adv-x="472" 
d="M28 -54l75 47q34 -102 115 -102q65 0 100.5 38t35.5 96q0 61 -33 95t-83 34q-29 0 -55 -11.5t-65 -45.5l-66 46l48 324h306v-86h-233l-34 -196q44 49 120 49q72 0 125.5 -53.5t53.5 -155.5q0 -99 -61.5 -159.5t-158.5 -60.5q-65 0 -115 37t-75 104z" />
    <glyph glyph-name="six.oldstyle" horiz-adv-x="493" 
d="M132 312q10 44 51.5 73.5t91.5 29.5q75 0 127.5 -65t49.5 -152q-4 -88 -59.5 -148t-130.5 -60q-111 0 -162 92t-51 242q0 73 11.5 131.5t36 105.5t67 73t99.5 26q123 0 171 -125l-72 -40q-32 83 -99 83q-72 0 -104 -76t-27 -190zM154 212q0 -55 31 -96t73 -41q44 0 76 36
t32 91q0 58 -28.5 89.5t-72.5 33.5q-42 2 -75.5 -30t-35.5 -83z" />
    <glyph glyph-name="seven.oldstyle" horiz-adv-x="429" 
d="M431 466l-304 -653h-100l265 568h-254v85h393z" />
    <glyph glyph-name="eight.oldstyle" horiz-adv-x="478" 
d="M238 409h5q27 0 45 26t18 59q0 40 -19 62.5t-48 22.5t-48 -23.5t-19 -61.5q0 -33 18 -59t45 -26h3zM239 -10q-86 0 -141 55.5t-55 152.5q0 56 30 104.5t75 67.5q-25 16 -44 52.5t-19 72.5q0 69 44 117.5t110 48.5t110 -48.5t44 -117.5q0 -36 -19 -72.5t-44 -52.5
q45 -19 75 -67.5t30 -104.5q0 -97 -55 -152.5t-141 -55.5zM245 331h-3h-9q-43 0 -73 -38t-30 -89q0 -58 31 -96t78 -38t78 38t31 96q0 51 -30 89t-73 38z" />
    <glyph glyph-name="nine.oldstyle" horiz-adv-x="475" 
d="M354 155q-10 -44 -51.5 -73.5t-91.5 -29.5q-75 0 -127.5 65t-49.5 152q4 88 59.5 148t130.5 60q111 0 162 -92t51 -242q0 -73 -11.5 -131.5t-36 -105.5t-67 -73t-99.5 -26q-123 0 -171 125l72 40q32 -83 99 -83q72 0 104 76t27 190zM332 255q0 55 -31 96t-73 41
q-44 0 -76 -36t-32 -91q0 -58 28.5 -89.5t72.5 -33.5q42 -2 75.5 30t35.5 83z" />
    <glyph glyph-name="Lslash.sc" horiz-adv-x="375" 
d="M76 584h83v-183l78 57v-64l-78 -57v-258h202v-79h-285v276l-56 -41v64l56 41v244z" />
    <glyph glyph-name="Zcaron.sc" horiz-adv-x="432" 
d="M217 707l59 70h75l-95 -135h-79l-97 135h77zM33 69l258 441h-247v74h350v-70l-261 -440h261v-74h-361v69z" />
    <glyph glyph-name="exclam.sc" horiz-adv-x="234" 
d="M161 584l-9 -429h-70l-10 429h89zM62 46q0 24 16 40.5t39 16.5t39.5 -16.5t16.5 -40.5q0 -23 -16.5 -39t-39.5 -16t-39 16t-16 39z" />
    <glyph glyph-name="ampersand.sc" horiz-adv-x="530" 
d="M479 -9q-88 0 -120 59q-18 -25 -56.5 -42.5t-73.5 -17.5q-91 0 -140 50t-49 144q0 46 30.5 91.5t73.5 62.5q-58 43 -58 108q0 63 42.5 106.5t108.5 43.5q43 0 79.5 -21t54.5 -60l-67 -39q-22 45 -67 45q-28 0 -47 -22t-19 -53q0 -30 18 -54.5t42 -24.5h98v77h79v-78h63
v-65h-63v-117q0 -57 14.5 -89t56.5 -32h21v-72h-21zM329 301h-80q-56 0 -90 -35t-34 -82q0 -58 27.5 -88t76.5 -30q48 0 74 29t26 84v122z" />
    <glyph glyph-name="question.sc" horiz-adv-x="375" 
d="M114 418h-80q0 80 44.5 126t109.5 46t111 -44t46 -118q0 -58 -34 -103.5t-81 -61.5q-22 -8 -33.5 -20t-11.5 -39l-1 -49h-81v49q0 57 26 88t75 49q21 6 40 32.5t19 54.5q0 38 -23 60.5t-52 22.5q-30 0 -52 -24.5t-22 -68.5zM88 46q0 24 16 40.5t39 16.5t39.5 -16.5
t16.5 -40.5q0 -23 -16.5 -39t-39.5 -16t-39 16t-16 39z" />
    <glyph glyph-name="A.sc" horiz-adv-x="489" 
d="M171 219h148l-73 267zM341 147h-192l-49 -147h-88l189 584h88l188 -584h-88z" />
    <glyph glyph-name="B.sc" horiz-adv-x="472" 
d="M407 431q0 -36 -16.5 -70t-47.5 -52q41 -9 66 -51t25 -88q0 -72 -41.5 -121t-111.5 -49h-210v584h194q66 0 104 -41t38 -112zM156 342h97q34 0 51.5 26t17.5 61q0 34 -19 55.5t-54 21.5h-93v-164zM265 271h-109v-192h113q39 0 58.5 25.5t19.5 66.5q0 38 -21 69t-61 31z
" />
    <glyph glyph-name="C.sc" horiz-adv-x="501" 
d="M40 291q0 138 68.5 218.5t178.5 80.5q118 0 192 -102l-62 -54q-53 78 -130 78q-74 0 -118 -59.5t-44 -161.5q0 -103 44 -162.5t118 -59.5q76 0 130 78l62 -53q-76 -104 -192 -104q-110 0 -178.5 81.5t-68.5 219.5z" />
    <glyph glyph-name="D.sc" horiz-adv-x="541" 
d="M270 0h-199v584h199q107 0 168.5 -82.5t61.5 -210.5t-61.5 -209.5t-168.5 -81.5zM155 79h115q70 0 108 59t38 153t-38.5 154.5t-107.5 60.5h-115v-427z" />
    <glyph glyph-name="E.sc" horiz-adv-x="428" 
d="M71 584h309v-78h-225v-178h196v-76h-196v-173h232v-79h-316v584z" />
    <glyph glyph-name="F.sc" horiz-adv-x="400" 
d="M71 584h305v-78h-221v-178h178v-76h-178v-252h-84v584z" />
    <glyph glyph-name="G.sc" horiz-adv-x="553" 
d="M476 504l-58 -63q-47 69 -119 69q-76 0 -125.5 -58t-49.5 -161q0 -102 45.5 -161t119.5 -59q128 0 147 150h-138v74h227q0 -149 -65 -227t-171 -78q-108 0 -179 84.5t-71 216.5q0 137 74 218t186 81q111 0 177 -86z" />
    <glyph glyph-name="H.sc" horiz-adv-x="531" 
d="M460 584v-584h-86v252h-219v-252h-84v584h84v-256h219v256h86z" />
    <glyph glyph-name="I.sc" horiz-adv-x="226" 
d="M71 584h84v-584h-84v584z" />
    <glyph glyph-name="J.sc" horiz-adv-x="226" 
d="M-71 -185l8 77q23 -10 64 -10q70 0 70 113v589h84v-589q0 -190 -160 -190q-42 0 -66 10z" />
    <glyph glyph-name="K.sc" horiz-adv-x="434" 
d="M206 291l231 -291h-103l-179 228v-228h-84v584h84v-236l148 236h94z" />
    <glyph glyph-name="L.sc" horiz-adv-x="370" 
d="M71 584h83v-505h202v-79h-285v584z" />
    <glyph glyph-name="M.sc" horiz-adv-x="691" 
d="M345 166l165 418h79l59 -584h-84l-41 407l-144 -343h-67l-145 344l-41 -408h-83l59 584h78z" />
    <glyph glyph-name="N.sc" horiz-adv-x="513" 
d="M442 0h-78l-209 411v-411h-84v584h81l205 -409v409h85v-584z" />
    <glyph glyph-name="O.sc" horiz-adv-x="592" 
d="M296 70q75 0 124 61t49 160t-49 159.5t-124 60.5q-74 0 -123 -60.5t-49 -159.5t49 -160t123 -61zM296 -10q-110 0 -183.5 83t-73.5 218q0 134 73.5 216.5t183.5 82.5q111 0 184 -82.5t73 -216.5q0 -135 -73 -218t-184 -83z" />
    <glyph glyph-name="P.sc" horiz-adv-x="458" 
d="M71 584h201q81 0 121 -53.5t40 -130.5q0 -78 -40 -131t-121 -53h-116v-216h-85v584zM262 506h-106v-211h103q46 0 67.5 30.5t21.5 74.5t-21 75t-65 31z" />
    <glyph glyph-name="Q.sc" horiz-adv-x="592" 
d="M425 -95l-53 97q-38 -12 -76 -12q-110 0 -183.5 83t-73.5 218q0 134 73.5 216.5t183.5 82.5q111 0 184 -82.5t73 -216.5q0 -85 -30.5 -151t-84.5 -104l52 -95zM296 70q16 0 38 5l-56 106l65 36l57 -107q69 59 69 181q0 99 -49 159.5t-124 60.5q-74 0 -123 -60.5
t-49 -159.5t49 -160t123 -61z" />
    <glyph glyph-name="R.sc" horiz-adv-x="474" 
d="M71 584h201q81 0 119 -53t38 -131q0 -70 -29.5 -120t-92.5 -61q19 -32 130 -219h-97l-126 216h-58v-216h-85v584zM262 506h-106v-211h103q46 0 66 30t20 75t-19.5 75.5t-63.5 30.5z" />
    <glyph glyph-name="S.sc" horiz-adv-x="438" 
d="M41 172h83q1 -42 25 -72.5t70 -30.5t71.5 24.5t28.5 58.5q5 80 -83 101l-64 19q-127 37 -127 151q0 74 46.5 120.5t122.5 46.5q73 0 120.5 -47.5t47.5 -126.5h-83q0 42 -24.5 68.5t-60.5 26.5q-42 0 -64 -24t-22 -64q0 -55 68 -76l62 -18q151 -38 144 -183
q-6 -66 -53.5 -111t-129.5 -45q-83 0 -130.5 55t-47.5 127z" />
    <glyph glyph-name="T.sc" horiz-adv-x="415" 
d="M16 584h383v-78h-149v-506h-85v506h-149v78z" />
    <glyph glyph-name="U.sc" horiz-adv-x="509" 
d="M254 72q44 0 74 30t30 86v396h85v-396q0 -93 -54 -145t-135 -52q-80 0 -134 52t-54 145v396h84v-396q0 -56 30 -86t74 -30z" />
    <glyph glyph-name="V.sc" horiz-adv-x="427" 
d="M111 584l103 -433l101 433h88l-149 -584h-80l-151 584h88z" />
    <glyph glyph-name="W.sc" horiz-adv-x="671" 
d="M567 584h89l-168 -584h-71l-82 342l-81 -342h-71l-168 584h90l114 -419l82 331h68l82 -331z" />
    <glyph glyph-name="X.sc" horiz-adv-x="464" 
d="M280 313l173 -313h-95l-125 238l-126 -238h-96l173 313l-154 271h96l107 -196l106 196h96z" />
    <glyph glyph-name="Y.sc" 
d="M283 0h-87v269l-187 315h96l135 -240l136 240h97l-190 -315v-269z" />
    <glyph glyph-name="Z.sc" horiz-adv-x="432" 
d="M33 69l258 441h-247v74h350v-70l-261 -440h261v-74h-361v69z" />
    <glyph glyph-name="Scaron.sc" horiz-adv-x="438" 
d="M218 707l59 70h75l-95 -135h-79l-97 135h77zM124 172h-83q0 -72 47.5 -127t130.5 -55q82 0 129.5 45t53.5 111q7 145 -144 183l-62 18q-68 21 -68 76q0 40 22 64t64 24q36 0 60.5 -26.5t24.5 -68.5h83q0 79 -47.5 126.5t-120.5 47.5q-76 0 -122.5 -46.5t-46.5 -120.5
q0 -114 127 -151l64 -19q88 -21 83 -101q-3 -34 -28.5 -58.5t-71.5 -24.5t-70 30.5t-25 72.5z" />
    <glyph glyph-name="OE.sc" horiz-adv-x="768" 
d="M409 117v348q-46 46 -113 46q-74 0 -123 -60.5t-49 -159.5t49 -160t123 -61q64 0 113 47zM409 558v26h310v-78h-225v-178h197v-76h-197v-173h232v-79h-317v28q-51 -38 -113 -38q-110 0 -183.5 83t-73.5 218q0 134 73.5 216.5t183.5 82.5q67 0 113 -32z" />
    <glyph glyph-name="Ydieresis.sc" 
d="M119 699q0 23 14.5 37t37.5 14q22 0 36.5 -14t14.5 -37q0 -22 -15 -36t-36 -14q-23 0 -37.5 14t-14.5 36zM256 699q0 23 15 37t37 14t37 -14t15 -37q0 -22 -15 -36t-37 -14t-37 14t-15 36zM283 0h-87v269l-187 315h96l135 -240l136 240h97l-190 -315v-269z" />
    <glyph glyph-name="exclamdown.sc" horiz-adv-x="227" 
d="M148 242l9 -429h-89l10 429h70zM58 351q0 23 16 39t39 16t39.5 -16t16.5 -39q0 -25 -16.5 -41t-39.5 -16t-39 16.5t-16 40.5z" />
    <glyph glyph-name="questiondown.sc" horiz-adv-x="375" 
d="M269 -23h80q0 -80 -44.5 -126t-109.5 -46t-111 44t-46 118q0 58 34 103.5t81 61.5q22 8 33.5 20t11.5 39l1 49h81v-49q0 -57 -26 -88t-75 -49q-21 -6 -40 -32.5t-19 -54.5q0 -38 23 -60.5t52 -22.5t51.5 24.5t22.5 68.5zM295 349q0 -24 -16 -40.5t-39 -16.5q-24 0 -40 16
t-16 41q0 23 16.5 39t39.5 16t39 -16t16 -39z" />
    <glyph glyph-name="Agrave.sc" horiz-adv-x="489" 
d="M209 643l-94 135h96l69 -135h-71zM171 219h148l-73 267zM341 147h-192l-49 -147h-88l189 584h88l188 -584h-88z" />
    <glyph glyph-name="Aacute.sc" horiz-adv-x="489" 
d="M382 778l-94 -135h-71l68 135h97zM319 219h-148l75 267zM149 147h192l48 -147h88l-188 584h-88l-189 -584h88z" />
    <glyph glyph-name="Acircumflex.sc" horiz-adv-x="489" 
d="M305 642l-60 70l-60 -70h-75l95 135h79l95 -135h-74zM171 219h148l-73 267zM341 147h-192l-49 -147h-88l189 584h88l188 -584h-88z" />
    <glyph glyph-name="Atilde.sc" horiz-adv-x="489" 
d="M290 752h62q-3 -54 -23.5 -77t-48.5 -23q-16 0 -35 15.5t-29 15.5q-16 0 -17 -34h-62q3 55 23.5 78t49.5 23q15 0 35 -15.5t28 -15.5q16 0 17 33zM171 219h148l-73 267zM341 147h-192l-49 -147h-88l189 584h88l188 -584h-88z" />
    <glyph glyph-name="Adieresis.sc" horiz-adv-x="489" 
d="M319 219h-148l75 267zM149 147h192l48 -147h88l-188 584h-88l-189 -584h88zM125 699q0 23 14.5 37t37.5 14q22 0 36.5 -14t14.5 -37q0 -22 -15 -36t-36 -14q-23 0 -37.5 14t-14.5 36zM262 699q0 23 15 37t37 14t37 -14t15 -37q0 -22 -15 -36t-37 -14t-37 14t-15 36z" />
    <glyph glyph-name="Aring.sc" horiz-adv-x="489" 
d="M319 219h-148l75 267zM149 147h192l48 -147h88l-188 584h-88l-189 -584h88zM162 725q0 38 25 64t60 26q37 0 62.5 -25.5t25.5 -64.5q0 -38 -25.5 -62t-62.5 -24q-35 0 -60 24.5t-25 61.5zM206 726q0 -20 12.5 -33t28.5 -13q18 0 31 13t13 33q0 19 -13 33t-31 14
q-16 0 -28.5 -14t-12.5 -33z" />
    <glyph glyph-name="AE.sc" horiz-adv-x="728" 
d="M371 0h-1v147h-183l-87 -147h-95l345 584h330v-78h-225v-178h196v-76h-196v-173h232v-79h-316zM225 214h145v271z" />
    <glyph glyph-name="Ccedilla.sc" horiz-adv-x="502" 
d="M40 291q0 138 68.5 218.5t178.5 80.5q118 0 192 -102l-62 -54q-53 78 -130 78q-74 0 -118 -59.5t-44 -161.5q0 -103 44 -162.5t118 -59.5q76 0 130 78l62 -53q-66 -90 -165 -102q22 -43 22 -79q0 -37 -23.5 -60.5t-59.5 -23.5q-41 0 -64 31t-18 74l61 -7q0 -41 21 -41
q9 0 15.5 7t6.5 20q0 39 -19 79q-97 11 -156.5 91t-59.5 208z" />
    <glyph glyph-name="Egrave.sc" horiz-adv-x="428" 
d="M202 643l-94 135h96l69 -135h-71zM71 584h309v-78h-225v-178h196v-76h-196v-173h232v-79h-316v584z" />
    <glyph glyph-name="Eacute.sc" horiz-adv-x="428" 
d="M347 778l-93 -135h-72l69 135h96zM380 584h-309v-584h316v79h-232v173h196v76h-196v178h225v78z" />
    <glyph glyph-name="Ecircumflex.sc" horiz-adv-x="428" 
d="M285 642l-60 70l-59 -70h-75l94 135h79l95 -135h-74zM71 584h309v-78h-225v-178h196v-76h-196v-173h232v-79h-316v584z" />
    <glyph glyph-name="Edieresis.sc" horiz-adv-x="428" 
d="M380 584h-309v-584h316v79h-232v173h196v76h-196v178h225v78zM102 699q0 23 14.5 37t37.5 14q22 0 36.5 -14t14.5 -37q0 -22 -15 -36t-36 -14q-23 0 -37.5 14t-14.5 36zM239 699q0 23 15 37t37 14t37 -14t15 -37q0 -22 -15 -36t-37 -14t-37 14t-15 36z" />
    <glyph glyph-name="Igrave.sc" horiz-adv-x="226" 
d="M84 643l-92 135h95l69 -135h-72zM71 584h84v-584h-84v584z" />
    <glyph glyph-name="Iacute.sc" horiz-adv-x="226" 
d="M240 778l-94 -135h-71l68 135h97zM155 584h-84v-584h84v584z" />
    <glyph glyph-name="Icircumflex.sc" horiz-adv-x="226" 
d="M174 642l-61 70l-59 -70h-75l95 135h79l95 -135h-74zM71 584h84v-584h-84v584z" />
    <glyph glyph-name="Idieresis.sc" horiz-adv-x="226" 
d="M155 584h-84v-584h84v584zM-9 699q0 23 14.5 37t37.5 14q22 0 36.5 -14t14.5 -37q0 -22 -15 -36t-36 -14q-23 0 -37.5 14t-14.5 36zM128 699q0 23 15 37t37 14t37 -14t15 -37q0 -22 -15 -36t-37 -14t-37 14t-15 36z" />
    <glyph glyph-name="Eth.sc" horiz-adv-x="544" 
d="M274 0h-199v254h-70v61h70v269h199q107 0 168.5 -82.5t61.5 -210.5t-61.5 -209.5t-168.5 -81.5zM159 79h115q70 0 108 59t38 153t-38.5 154.5t-107.5 60.5h-115v-191h132v-61h-132v-175z" />
    <glyph glyph-name="Ntilde.sc" horiz-adv-x="513" 
d="M301 752h62q-2 -54 -22.5 -77t-48.5 -23q-15 0 -35.5 15.5t-28.5 15.5q-17 0 -18 -34h-61q2 55 23 78t50 23q14 0 34 -15.5t28 -15.5q17 0 17 33zM442 0h-78l-209 411v-411h-84v584h81l205 -409v409h85v-584z" />
    <glyph glyph-name="Ograve.sc" horiz-adv-x="592" 
d="M260 643l-94 135h97l68 -135h-71zM296 70q75 0 124 61t49 160t-49 159.5t-124 60.5q-74 0 -123 -60.5t-49 -159.5t49 -160t123 -61zM296 -10q-110 0 -183.5 83t-73.5 218q0 134 73.5 216.5t183.5 82.5q111 0 184 -82.5t73 -216.5q0 -135 -73 -218t-184 -83z" />
    <glyph glyph-name="Oacute.sc" horiz-adv-x="592" 
d="M415 778l-94 -135h-71l68 135h97zM296 70q75 0 124 61t49 160t-49 159.5t-124 60.5q-74 0 -123 -60.5t-49 -159.5t49 -160t123 -61zM296 -10q-110 0 -183.5 83t-73.5 218q0 134 73.5 216.5t183.5 82.5q111 0 184 -82.5t73 -216.5q0 -135 -73 -218t-184 -83z" />
    <glyph glyph-name="Ocircumflex.sc" horiz-adv-x="592" 
d="M357 642l-60 70l-59 -70h-76l97 135h79l93 -135h-74zM296 70q75 0 124 61t49 160t-49 159.5t-124 60.5q-74 0 -123 -60.5t-49 -159.5t49 -160t123 -61zM296 -10q-110 0 -183.5 83t-73.5 218q0 134 73.5 216.5t183.5 82.5q111 0 184 -82.5t73 -216.5q0 -135 -73 -218
t-184 -83z" />
    <glyph glyph-name="Otilde.sc" horiz-adv-x="592" 
d="M343 752h62q-2 -54 -22.5 -77t-48.5 -23q-16 0 -36.5 15.5t-28.5 15.5q-16 0 -17 -34h-61q2 54 23 77.5t49 23.5q15 0 35 -15.5t28 -15.5q16 0 17 33zM296 70q75 0 124 61t49 160t-49 159.5t-124 60.5q-74 0 -123 -60.5t-49 -159.5t49 -160t123 -61zM296 -10
q-110 0 -183.5 83t-73.5 218q0 134 73.5 216.5t183.5 82.5q111 0 184 -82.5t73 -216.5q0 -135 -73 -218t-184 -83z" />
    <glyph glyph-name="Odieresis.sc" horiz-adv-x="592" 
d="M177 699q0 23 14.5 37t37.5 14q22 0 36.5 -14t14.5 -37q0 -22 -15 -36t-36 -14q-23 0 -37.5 14t-14.5 36zM314 699q0 23 15 37t37 14t37 -14t15 -37q0 -22 -15 -36t-37 -14t-37 14t-15 36zM296 70q75 0 124 61t49 160t-49 159.5t-124 60.5q-74 0 -123 -60.5t-49 -159.5
t49 -160t123 -61zM296 -10q-110 0 -183.5 83t-73.5 218q0 134 73.5 216.5t183.5 82.5q111 0 184 -82.5t73 -216.5q0 -135 -73 -218t-184 -83z" />
    <glyph glyph-name="Oslash.sc" horiz-adv-x="592" 
d="M438 424l-253 -307q44 -47 111 -47q75 0 124 61t49 160q0 74 -31 133zM152 163l251 305q-46 43 -107 43q-74 0 -123 -60.5t-49 -159.5q0 -74 28 -128zM132 53l-50 -61l-41 37l54 65q-56 82 -56 197q0 134 73.5 216.5t183.5 82.5q92 0 160 -59l55 67l41 -36l-59 -71
q60 -83 60 -200q0 -135 -73 -218t-184 -83q-96 0 -164 63z" />
    <glyph glyph-name="Ugrave.sc" horiz-adv-x="509" 
d="M226 643l-94 135h97l68 -135h-71zM254 72q44 0 74 30t30 86v396h85v-396q0 -93 -54 -145t-135 -52q-80 0 -134 52t-54 145v396h84v-396q0 -56 30 -86t74 -30z" />
    <glyph glyph-name="Uacute.sc" horiz-adv-x="509" 
d="M372 778l-94 -135h-71l68 135h97zM254 72q44 0 74 30t30 86v396h85v-396q0 -93 -54 -145t-135 -52q-80 0 -134 52t-54 145v396h84v-396q0 -56 30 -86t74 -30z" />
    <glyph glyph-name="Ucircumflex.sc" horiz-adv-x="509" 
d="M315 642l-61 70l-59 -70h-75l95 135h79l95 -135h-74zM254 72q44 0 74 30t30 86v396h85v-396q0 -93 -54 -145t-135 -52q-80 0 -134 52t-54 145v396h84v-396q0 -56 30 -86t74 -30z" />
    <glyph glyph-name="Udieresis.sc" horiz-adv-x="509" 
d="M254 72q44 0 74 30t30 86v396h85v-396q0 -93 -54 -145t-135 -52q-80 0 -134 52t-54 145v396h84v-396q0 -56 30 -86t74 -30zM136 699q0 23 14.5 37t37.5 14q22 0 36.5 -14t14.5 -37q0 -22 -15 -36t-36 -14q-23 0 -37.5 14t-14.5 36zM273 699q0 23 15 37t37 14t37 -14
t15 -37q0 -22 -15 -36t-37 -14t-37 14t-15 36z" />
    <glyph glyph-name="Yacute.sc" 
d="M350 778l-94 -135h-71l69 135h96zM283 0h-87v269l-187 315h96l135 -240l136 240h97l-190 -315v-269z" />
    <glyph glyph-name="Thorn.sc" horiz-adv-x="438" 
d="M252 111h-97v-111h-84v584h84v-108h97q69 0 114 -50t45 -131q0 -83 -45 -133.5t-114 -50.5zM155 190h97q32 0 54 30t22 75q0 46 -23.5 74.5t-58.5 28.5h-91v-208z" />
    <glyph glyph-name="Amacron.sc" horiz-adv-x="489" 
d="M146 746h197v-73h-197v73zM171 219h148l-73 267zM341 147h-192l-49 -147h-88l189 584h88l188 -584h-88z" />
    <glyph glyph-name="Abreve.sc" horiz-adv-x="489" 
d="M142 752h60q0 -54 43 -54q21 0 31 17t10 37h60q0 -52 -27.5 -82t-73.5 -30q-52 0 -77.5 32t-25.5 80zM319 219h-148l75 267zM149 147h192l48 -147h88l-188 584h-88l-189 -584h88z" />
    <glyph glyph-name="Cacute.sc" horiz-adv-x="501" 
d="M412 778l-94 -135h-71l69 135h96zM40 291q0 -138 68.5 -219.5t178.5 -81.5q116 0 192 104l-62 53q-54 -78 -130 -78q-74 0 -118 59.5t-44 162.5q0 102 44 161.5t118 59.5q77 0 130 -78l62 54q-74 102 -192 102q-110 0 -178.5 -80.5t-68.5 -218.5z" />
    <glyph glyph-name="Ccircumflex.sc" horiz-adv-x="501" 
d="M347 642l-60 70l-59 -70h-75l95 135h79l94 -135h-74zM40 291q0 138 68.5 218.5t178.5 80.5q118 0 192 -102l-62 -54q-53 78 -130 78q-74 0 -118 -59.5t-44 -161.5q0 -103 44 -162.5t118 -59.5q76 0 130 78l62 -53q-76 -104 -192 -104q-110 0 -178.5 81.5t-68.5 219.5z
" />
    <glyph glyph-name="Cdotaccent.sc" horiz-adv-x="501" 
d="M237 699q0 23 16 38t38 15q23 0 38 -15t15 -38t-15 -37.5t-38 -14.5q-22 0 -38 15t-16 37zM40 291q0 -138 68.5 -219.5t178.5 -81.5q116 0 192 104l-62 53q-54 -78 -130 -78q-74 0 -118 59.5t-44 162.5q0 102 44 161.5t118 59.5q77 0 130 -78l62 54q-74 102 -192 102
q-110 0 -178.5 -80.5t-68.5 -218.5z" />
    <glyph glyph-name="Ccaron.sc" horiz-adv-x="501" 
d="M278 707l60 70h75l-94 -135h-79l-97 135h77zM40 291q0 -138 68.5 -219.5t178.5 -81.5q116 0 192 104l-62 53q-54 -78 -130 -78q-74 0 -118 59.5t-44 162.5q0 102 44 161.5t118 59.5q77 0 130 -78l62 54q-74 102 -192 102q-110 0 -178.5 -80.5t-68.5 -218.5z" />
    <glyph glyph-name="Dcaron.sc" horiz-adv-x="541" 
d="M250 707l59 70h75l-95 -135h-79l-97 135h77zM71 0h199q107 0 168.5 81.5t61.5 209.5t-61.5 210.5t-168.5 82.5h-199v-584zM270 79h-115v427h115q69 0 107.5 -60.5t38.5 -154.5t-38 -153t-108 -59z" />
    <glyph glyph-name="Aogonek.sc" horiz-adv-x="489" 
d="M171 219h148l-73 267zM477 0h-37q-21 -44 -21 -87q0 -27 23 -27q10 0 15.5 12.5t5.5 28.5l61 7q5 -43 -19 -74t-63 -31q-36 0 -60 23.5t-24 60.5q0 45 31 87l-48 147h-192l-49 -147h-88l189 584h88z" />
    <glyph glyph-name="Emacron.sc" horiz-adv-x="428" 
d="M122 735h197v-73h-197v73zM71 584h309v-78h-225v-178h196v-76h-196v-173h232v-79h-316v584z" />
    <glyph glyph-name="Ebreve.sc" horiz-adv-x="428" 
d="M118 752h68q0 -21 9 -35t26 -14q15 0 24 15.5t9 33.5h68q0 -52 -27.5 -82t-73.5 -30q-51 0 -77 32t-26 80zM380 584h-309v-584h316v79h-232v173h196v76h-196v178h225v78z" />
    <glyph glyph-name="Edotaccent.sc" horiz-adv-x="428" 
d="M170 699q0 23 16 38t39 15t38 -15t15 -38q0 -22 -15 -37t-38 -15t-39 15t-16 37zM380 584h-309v-584h316v79h-232v173h196v76h-196v178h225v78z" />
    <glyph glyph-name="Ecaron.sc" horiz-adv-x="428" 
d="M220 707l60 70h74l-95 -135h-79l-95 135h75zM380 584h-309v-584h316v79h-232v173h196v76h-196v178h225v78z" />
    <glyph glyph-name="Gcircumflex.sc" horiz-adv-x="553" 
d="M343 642l-60 70q-6 -8 -27 -32.5t-31 -37.5h-77l97 135h79l94 -135h-75zM476 504l-58 -63q-47 69 -119 69q-76 0 -125.5 -58t-49.5 -161q0 -102 45.5 -161t119.5 -59q128 0 147 150h-138v74h227q0 -149 -65 -227t-171 -78q-108 0 -179 84.5t-71 216.5q0 137 74 218
t186 81q111 0 177 -86z" />
    <glyph glyph-name="Gbreve.sc" horiz-adv-x="553" 
d="M418 441l58 63q-66 86 -177 86q-112 0 -186 -81t-74 -218q0 -132 71 -216.5t179 -84.5q106 0 171 78t65 227h-227v-74h138q-19 -150 -147 -150q-74 0 -119.5 59t-45.5 161q0 103 49.5 161t125.5 58q72 0 119 -69zM184 752h60q0 -54 43 -54q21 0 31 17t10 37h60
q0 -52 -27.5 -82t-73.5 -30q-52 0 -77.5 32t-25.5 80z" />
    <glyph glyph-name="Eogonek.sc" horiz-adv-x="428" 
d="M71 584h309v-78h-225v-178h196v-76h-196v-173h232v-79q-24 -42 -24 -87q0 -27 23 -27q10 0 16 12.5t6 28.5l60 7q5 -43 -18.5 -74t-63.5 -31q-37 0 -60.5 23.5t-23.5 60.5q0 42 32 87h-263v584z" />
    <glyph glyph-name="Dcroat.sc" horiz-adv-x="545" 
d="M275 0h-199v254h-70v67h70v263h199q107 0 168.5 -82.5t61.5 -210.5t-61.5 -209.5t-168.5 -81.5zM160 79h115q70 0 108 59t38 153t-38.5 154.5t-107.5 60.5h-115v-185h132v-67h-132v-175z" />
    <glyph glyph-name="Gdotaccent.sc" horiz-adv-x="553" 
d="M240 699q0 23 15.5 38t38.5 15t38.5 -15t15.5 -38q0 -22 -15.5 -37t-38.5 -15t-38.5 15t-15.5 37zM418 441l58 63q-66 86 -177 86q-112 0 -186 -81t-74 -218q0 -132 71 -216.5t179 -84.5q106 0 171 78t65 227h-227v-74h138q-19 -150 -147 -150q-74 0 -119.5 59t-45.5 161
q0 103 49.5 161t125.5 58q72 0 119 -69z" />
    <glyph glyph-name="Hcircumflex.sc" horiz-adv-x="531" 
d="M460 584v-584h-86v252h-219v-252h-84v584h84v-256h219v256h86zM326 642l-61 70l-59 -70h-75l95 135h79l95 -135h-74z" />
    <glyph glyph-name="Hbar.sc" horiz-adv-x="538" 
d="M74 426h-47v53h47v105h84v-105h219v105h86v-105h52v-53h-52v-426h-86v252h-219v-252h-84v426zM158 328h219v98h-219v-98z" />
    <glyph glyph-name="Itilde.sc" horiz-adv-x="226" 
d="M71 584h84v-584h-84v584zM159 752h62q-3 -54 -23.5 -77t-47.5 -23q-16 0 -36 15.5t-29 15.5q-16 0 -17 -34h-62q3 55 23.5 78t49.5 23q15 0 35 -15.5t28 -15.5q16 0 17 33z" />
    <glyph glyph-name="Imacron.sc" horiz-adv-x="226" 
d="M71 584h84v-584h-84v584zM15 735h197v-73h-197v73z" />
    <glyph glyph-name="Iogonek.sc" horiz-adv-x="226" 
d="M155 0h-31q-20 -42 -20 -87q0 -27 22 -27q21 0 21 41l61 7q5 -43 -18 -74t-64 -31q-36 0 -60 23.5t-24 60.5q0 45 29 90v581h84v-584z" />
    <glyph glyph-name="IJ.sc" horiz-adv-x="452" 
d="M71 584h84v-584h-84v584zM155 -185l8 77q23 -10 64 -10q70 0 70 113v589h84v-589q0 -190 -160 -190q-42 0 -66 10z" />
    <glyph glyph-name="Jcircumflex.sc" horiz-adv-x="226" 
d="M174 642l-60 70l-59 -70h-75l95 135h79l94 -135h-74zM-71 -185l8 77q23 -10 64 -10q70 0 70 113v589h84v-589q0 -190 -160 -190q-42 0 -66 10z" />
    <glyph glyph-name="Lacute.sc" horiz-adv-x="370" 
d="M234 778l-93 -135h-70l68 135h95zM154 584h-83v-584h285v79h-202v505z" />
    <glyph glyph-name="Lcaron.sc" horiz-adv-x="373" 
d="M263 384l-51 21q46 78 45 179h78q-5 -68 -25.5 -121t-46.5 -79zM154 584h-83v-584h285v79h-202v505z" />
    <glyph glyph-name="Ldot.sc" horiz-adv-x="370" 
d="M71 584h83v-505h202v-79h-285v584zM216 213q0 21 13.5 36t31.5 15q19 0 33 -15t14 -36q0 -20 -14 -34t-33 -14q-18 0 -31.5 14t-13.5 34z" />
    <glyph glyph-name="Nacute.sc" horiz-adv-x="513" 
d="M381 778l-94 -135h-71l69 135h96zM364 0h78v584h-85v-409l-205 409h-81v-584h84v411z" />
    <glyph glyph-name="Ncaron.sc" horiz-adv-x="513" 
d="M255 707l61 70h75l-95 -135h-79l-97 135h77zM364 0h78v584h-85v-409l-205 409h-81v-584h84v411z" />
    <glyph glyph-name="Omacron.sc" horiz-adv-x="592" 
d="M198 735h198v-73h-198v73zM296 70q75 0 124 61t49 160t-49 159.5t-124 60.5q-74 0 -123 -60.5t-49 -159.5t49 -160t123 -61zM296 -10q-110 0 -183.5 83t-73.5 218q0 134 73.5 216.5t183.5 82.5q111 0 184 -82.5t73 -216.5q0 -135 -73 -218t-184 -83z" />
    <glyph glyph-name="Obreve.sc" horiz-adv-x="592" 
d="M296 70q75 0 124 61t49 160t-49 159.5t-124 60.5q-74 0 -123 -60.5t-49 -159.5t49 -160t123 -61zM296 -10q-110 0 -183.5 83t-73.5 218q0 134 73.5 216.5t183.5 82.5q111 0 184 -82.5t73 -216.5q0 -135 -73 -218t-184 -83zM195 752h60q0 -54 43 -54q21 0 31 17t10 37h60
q0 -52 -27.5 -82t-73.5 -30q-52 0 -77.5 32t-25.5 80z" />
    <glyph glyph-name="Ohungarumlaut.sc" horiz-adv-x="592" 
d="M350 781l-69 -135h-73l60 135h82zM468 781l-86 -135h-70l71 135h85zM296 70q75 0 124 61t49 160t-49 159.5t-124 60.5q-74 0 -123 -60.5t-49 -159.5t49 -160t123 -61zM296 -10q-110 0 -183.5 83t-73.5 218q0 134 73.5 216.5t183.5 82.5q111 0 184 -82.5t73 -216.5
q0 -135 -73 -218t-184 -83z" />
    <glyph glyph-name="Racute.sc" horiz-adv-x="474" 
d="M346 778l-93 -135h-72l69 135h96zM272 584h-201v-584h85v216h58l126 -216h97q-111 187 -130 219q63 11 92.5 61t29.5 120q0 78 -38 131t-119 53zM156 506h106q44 0 63.5 -30.5t19.5 -75.5t-20 -75t-66 -30h-103v211z" />
    <glyph glyph-name="Rcaron.sc" horiz-adv-x="474" 
d="M234 707l59 70h75l-95 -135h-79l-97 135h77zM272 584h-201v-584h85v216h58l126 -216h97q-111 187 -130 219q63 11 92.5 61t29.5 120q0 78 -38 131t-119 53zM156 506h106q44 0 63.5 -30.5t19.5 -75.5t-20 -75t-66 -30h-103v211z" />
    <glyph glyph-name="Sacute.sc" horiz-adv-x="438" 
d="M336 778l-94 -135h-71l68 135h97zM124 172h-83q0 -72 47.5 -127t130.5 -55q82 0 129.5 45t53.5 111q7 145 -144 183l-62 18q-68 21 -68 76q0 40 22 64t64 24q36 0 60.5 -26.5t24.5 -68.5h83q0 79 -47.5 126.5t-120.5 47.5q-76 0 -122.5 -46.5t-46.5 -120.5
q0 -114 127 -151l64 -19q88 -21 83 -101q-3 -34 -28.5 -58.5t-71.5 -24.5t-70 30.5t-25 72.5z" />
    <glyph glyph-name="Scircumflex.sc" horiz-adv-x="438" 
d="M277 642l-59 70l-60 -70h-77l97 135h79l95 -135h-75zM41 172h83q1 -42 25 -72.5t70 -30.5t71.5 24.5t28.5 58.5q5 80 -83 101l-64 19q-127 37 -127 151q0 74 46.5 120.5t122.5 46.5q73 0 120.5 -47.5t47.5 -126.5h-83q0 42 -24.5 68.5t-60.5 26.5q-42 0 -64 -24t-22 -64
q0 -55 68 -76l62 -18q151 -38 144 -183q-6 -66 -53.5 -111t-129.5 -45q-83 0 -130.5 55t-47.5 127z" />
    <glyph glyph-name="Scedilla.sc" horiz-adv-x="439" 
d="M42 172h83q1 -42 25 -72.5t70 -30.5t71.5 24.5t28.5 58.5q5 80 -83 101l-64 19q-127 37 -127 151q0 74 46.5 120.5t122.5 46.5q73 0 120.5 -47.5t47.5 -126.5h-83q0 42 -24.5 68.5t-60.5 26.5q-42 0 -64 -24t-22 -64q0 -55 68 -76l62 -18q151 -38 144 -183
q-5 -57 -42 -99.5t-101 -52.5q24 -46 24 -81q0 -37 -24 -60.5t-60 -23.5q-40 0 -63.5 31t-18.5 74l60 -7q0 -16 6 -28.5t16 -12.5q23 0 23 27q0 30 -18 78q-76 5 -119.5 58.5t-43.5 122.5z" />
    <glyph glyph-name="Utilde.sc" horiz-adv-x="509" 
d="M300 752h61q-2 -54 -22.5 -77t-48.5 -23q-16 0 -35 15.5t-29 15.5q-16 0 -17 -34h-62q2 55 23 78t50 23q15 0 35 -15.5t28 -15.5q16 0 17 33zM254 72q44 0 74 30t30 86v396h85v-396q0 -93 -54 -145t-135 -52q-80 0 -134 52t-54 145v396h84v-396q0 -56 30 -86t74 -30z" />
    <glyph glyph-name="Umacron.sc" horiz-adv-x="509" 
d="M156 735h197v-73h-197v73zM254 72q44 0 74 30t30 86v396h85v-396q0 -93 -54 -145t-135 -52q-80 0 -134 52t-54 145v396h84v-396q0 -56 30 -86t74 -30z" />
    <glyph glyph-name="Ubreve.sc" horiz-adv-x="509" 
d="M152 752h68q0 -21 9 -35t25 -14t25 15t9 34h68q0 -52 -27.5 -82t-74.5 -30q-51 0 -76.5 32t-25.5 80zM254 72q44 0 74 30t30 86v396h85v-396q0 -93 -54 -145t-135 -52q-80 0 -134 52t-54 145v396h84v-396q0 -56 30 -86t74 -30z" />
    <glyph glyph-name="Uring.sc" horiz-adv-x="509" 
d="M167 725q0 38 25 64t60 26q37 0 62.5 -25.5t25.5 -64.5q0 -38 -25.5 -62t-62.5 -24q-35 0 -60 24.5t-25 61.5zM211 726q0 -20 12.5 -33t28.5 -13q18 0 31 13t13 33q0 19 -13 33t-31 14q-16 0 -28.5 -14t-12.5 -33zM254 72q44 0 74 30t30 86v396h85v-396q0 -93 -54 -145
t-135 -52q-80 0 -134 52t-54 145v396h84v-396q0 -56 30 -86t74 -30z" />
    <glyph glyph-name="Uhungarumlaut.sc" horiz-adv-x="509" 
d="M293 781l-69 -135h-73l60 135h82zM411 781l-86 -135h-70l71 135h85zM254 72q44 0 74 30t30 86v396h85v-396q0 -93 -54 -145t-135 -52q-80 0 -134 52t-54 145v396h84v-396q0 -56 30 -86t74 -30z" />
    <glyph glyph-name="Uogonek.sc" horiz-adv-x="509" 
d="M254 72q44 0 74 30t30 86v396h85v-396q0 -87 -48 -138.5t-122 -57.5q-18 -41 -18 -79q0 -27 23 -27q10 0 15.5 12.5t5.5 28.5l61 7q5 -43 -19 -74t-63 -31q-36 0 -60 23.5t-24 60.5t23 81q-67 11 -109 61.5t-42 132.5v396h84v-396q0 -56 30 -86t74 -30z" />
    <glyph glyph-name="Wcircumflex.sc" horiz-adv-x="671" 
d="M395 642l-59 70l-59 -70h-77l96 135h79l95 -135h-75zM567 584h89l-168 -584h-71l-82 342l-81 -342h-71l-168 584h90l114 -419l82 331h68l82 -331z" />
    <glyph glyph-name="Ycircumflex.sc" 
d="M300 642l-60 70l-60 -70h-75l95 135h79l95 -135h-74zM283 0h-87v269l-187 315h96l135 -240l136 240h97l-190 -315v-269z" />
    <glyph glyph-name="Tcaron.sc" horiz-adv-x="415" 
d="M208 707l60 70h74l-95 -135h-79l-95 135h75zM399 584h-383v-78h149v-506h85v506h149v78z" />
    <glyph glyph-name="Tbar.sc" horiz-adv-x="415" 
d="M16 584h383v-78h-149v-178h103v-57h-103v-271h-85v271h-98v57h98v178h-149v78z" />
    <glyph glyph-name="Zacute.sc" horiz-adv-x="432" 
d="M338 778l-94 -135h-71l68 135h97zM33 69l258 441h-247v74h350v-70l-261 -440h261v-74h-361v69z" />
    <glyph glyph-name="Zdotaccent.sc" horiz-adv-x="432" 
d="M162 699q0 23 16 38t39 15t38.5 -15t15.5 -38q0 -22 -15.5 -37t-38.5 -15t-39 15t-16 37zM33 69l258 441h-247v74h350v-70l-261 -440h261v-74h-361v69z" />
    <glyph glyph-name="Wgrave.sc" horiz-adv-x="671" 
d="M302 643l-93 135h96l68 -135h-71zM567 584h89l-168 -584h-71l-82 342l-81 -342h-71l-168 584h90l114 -419l82 331h68l82 -331z" />
    <glyph glyph-name="Wacute.sc" horiz-adv-x="671" 
d="M481 778l-94 -135h-71l68 135h97zM656 584h-89l-116 -419l-82 331h-68l-82 -331l-114 419h-90l168 -584h71l81 342l82 -342h71z" />
    <glyph glyph-name="Wdieresis.sc" horiz-adv-x="671" 
d="M656 584h-89l-116 -419l-82 331h-68l-82 -331l-114 419h-90l168 -584h71l81 342l82 -342h71zM215 699q0 23 14.5 37t37.5 14q22 0 36.5 -14t14.5 -37q0 -22 -15 -36t-36 -14q-23 0 -37.5 14t-14.5 36zM352 699q0 23 15 37t37 14t37 -14t15 -37q0 -22 -15 -36t-37 -14
t-37 14t-15 36z" />
    <glyph glyph-name="Aringacute.sc" horiz-adv-x="489" 
d="M369 856l-84 -121q50 -24 50 -81q0 -53 -45 -76l187 -578h-88l-48 147h-192l-49 -147h-88l188 581q-38 25 -38 73q0 58 49 82l61 120h97zM171 219h148l-73 267zM206 655q0 -20 12.5 -33t28.5 -13q18 0 31 13t13 33q0 19 -13 33t-31 14q-16 0 -28.5 -14t-12.5 -33z" />
    <glyph glyph-name="AEacute.sc" horiz-adv-x="728" 
d="M607 778l-93 -135h-71l69 135h95zM370 0h1h316v79h-232v173h196v76h-196v178h225v78h-330l-345 -584h95l87 147h183v-147zM370 214h-145l145 271v-271z" />
    <glyph glyph-name="Oslashacute.sc" horiz-adv-x="592" 
d="M422 778l-94 -135h-71l69 135h96zM185 117l253 307q31 -59 31 -133q0 -99 -49 -160t-124 -61q-67 0 -111 47zM403 468l-251 -305q-28 54 -28 128q0 99 49 159.5t123 60.5q61 0 107 -43zM82 -8l50 61q68 -63 164 -63q111 0 184 83t73 218q0 117 -60 200l59 71l-41 36
l-55 -67q-68 59 -160 59q-110 0 -183.5 -82.5t-73.5 -216.5q0 -115 56 -197l-54 -65z" />
    <glyph glyph-name="Ibreve.sc" horiz-adv-x="226" 
d="M155 584h-84v-584h84v584zM9 752h60q0 -54 43 -54q21 0 31 17t10 37h60q0 -52 -27.5 -82t-73.5 -30q-52 0 -77.5 32t-25.5 80z" />
    <glyph glyph-name="Eng.sc" horiz-adv-x="513" 
d="M442 584v-581q0 -210 -161 -210q-32 0 -63 11l6 76q69 -11 91 0q25 13 35.5 36t10.5 87l-206 408v-411h-84v584h81l205 -420v420h85z" />
    <glyph glyph-name="Ygrave.sc" 
d="M218 643l-94 135h97l68 -135h-71zM283 0h-87v269l-187 315h96l135 -240l136 240h97l-190 -315v-269z" />
    <glyph glyph-name="Gcommaaccent.sc" horiz-adv-x="553" 
d="M476 504l-58 -63q-47 69 -119 69q-76 0 -125.5 -58t-49.5 -161q0 -102 45.5 -161t119.5 -59q128 0 147 150h-138v74h227q0 -149 -65 -227t-171 -78q-108 0 -179 84.5t-71 216.5q0 137 74 218t186 81q111 0 177 -86zM229 -215l-23 38q27 7 43.5 29t16.5 50q0 31 -15 57h79
q13 -27 13 -50q0 -42 -32.5 -77t-81.5 -47z" />
    <glyph glyph-name="Kcommaaccent.sc" horiz-adv-x="434" 
d="M160 -215l-23 38q27 7 43.5 29t16.5 50q0 31 -15 57h79q13 -27 13 -50q0 -42 -32.5 -77t-81.5 -47zM206 291l231 -291h-103l-179 228v-228h-84v584h84v-236l148 236h94z" />
    <glyph glyph-name="Lcommaaccent.sc" horiz-adv-x="370" 
d="M71 584h83v-505h202v-79h-285v584zM148 -215l-23 38q27 7 43.5 29t16.5 50q0 31 -15 57h79q13 -27 13 -50q0 -42 -32.5 -77t-81.5 -47z" />
    <glyph glyph-name="Ncommaaccent.sc" horiz-adv-x="513" 
d="M442 0h-78l-209 411v-411h-84v584h81l205 -409v409h85v-584zM202 -215l-23 38q27 7 43.5 29t16.5 50q0 31 -15 57h79q13 -27 13 -50q0 -42 -32.5 -77t-81.5 -47z" />
    <glyph glyph-name="Rcommaaccent.sc" horiz-adv-x="474" 
d="M71 584h201q81 0 119 -53t38 -131q0 -70 -29.5 -120t-92.5 -61q19 -32 130 -219h-97l-126 216h-58v-216h-85v584zM262 506h-106v-211h103q46 0 66 30t20 75t-19.5 75.5t-63.5 30.5zM182 -215l-23 38q27 7 43.5 29t16.5 50q0 31 -15 57h79q13 -27 13 -50q0 -42 -32.5 -77
t-81.5 -47z" />
    <glyph glyph-name="Tcommaaccent.sc" horiz-adv-x="415" 
d="M16 584h383v-78h-149v-506h-85v506h-149v78zM142 -215l-23 38q27 7 43.5 29t16.5 50q0 31 -15 57h79q13 -27 13 -50q0 -42 -32.5 -77t-81.5 -47z" />
    <glyph glyph-name="Scommaaccent.sc" horiz-adv-x="438" 
d="M41 172h83q1 -42 25 -72.5t70 -30.5t71.5 24.5t28.5 58.5q5 80 -83 101l-64 19q-127 37 -127 151q0 74 46.5 120.5t122.5 46.5q73 0 120.5 -47.5t47.5 -126.5h-83q0 42 -24.5 68.5t-60.5 26.5q-42 0 -64 -24t-22 -64q0 -55 68 -76l62 -18q151 -38 144 -183
q-6 -66 -53.5 -111t-129.5 -45q-83 0 -130.5 55t-47.5 127zM161 -215l-23 38q27 7 43.5 29t16.5 50q0 31 -15 57h79q13 -27 13 -50q0 -42 -32.5 -77t-81.5 -47z" />
    <glyph glyph-name="Idotaccent.sc" horiz-adv-x="226" 
d="M59 699q0 23 16 38t38 15q23 0 38.5 -15t15.5 -38q0 -22 -15.5 -37t-38.5 -15q-22 0 -38 15t-16 37zM155 584h-84v-584h84v584z" />
    <glyph glyph-name="zero.numr" horiz-adv-x="319" 
d="M28 453q0 206 131 206q132 0 132 -206t-132 -206q-131 0 -131 206zM90 453q0 -147 69 -147q70 0 70 147q0 146 -70 146q-69 0 -69 -146z" />
    <glyph glyph-name="one.numr" horiz-adv-x="258" 
d="M116 257v315l-72 -31v61l134 62v-407h-62z" />
    <glyph glyph-name="two.numr" horiz-adv-x="284" 
d="M23 257v38l140 182q31 39 31 64q0 26 -16 42t-41 16q-19 0 -35 -15.5t-20 -40.5l-58 10q10 48 41.5 77.5t71.5 29.5q53 0 86 -32.5t33 -86.5q0 -44 -44 -102l-97 -123h140v-59h-232z" />
    <glyph glyph-name="three.numr" horiz-adv-x="291" 
d="M188 554q0 20 -14 34.5t-36 14.5q-39 0 -52 -42l-52 26q11 34 39.5 53.5t64.5 19.5q51 0 81.5 -28.5t30.5 -77.5q0 -61 -57 -85q36 -7 54.5 -38t18.5 -61q0 -56 -38.5 -89.5t-95.5 -33.5q-37 0 -70 22t-48 64l56 26q6 -25 24.5 -39t37.5 -14q30 0 51 17.5t21 46.5
q0 31 -19 51t-47 20h-39v52h29q32 0 46 20t14 41z" />
    <glyph glyph-name="four.numr" horiz-adv-x="325" 
d="M248 336v-79h-62v79h-180l193 317h49v-263h61v-54h-61zM95 390h91v147z" />
    <glyph glyph-name="five.numr" horiz-adv-x="305" 
d="M19 337l58 20q8 -23 27.5 -36t40.5 -13q36 0 57 20t21 55q-1 37 -22 57.5t-48 20.5q-38 0 -74 -35l-46 27l31 200h194v-61h-144l-16 -107q33 30 77 30q43 0 76 -35t33 -97q0 -63 -37.5 -99.5t-101.5 -36.5q-40 0 -76 24t-50 66z" />
    <glyph glyph-name="six.numr" horiz-adv-x="304" 
d="M96 378q0 -29 18.5 -50.5t44.5 -21.5q24 0 43 19.5t19 52.5q0 34 -18.5 51.5t-42.5 17.5q-27 0 -45.5 -19.5t-18.5 -49.5zM88 453q6 21 27.5 38.5t52.5 17.5q48 0 82 -38.5t33 -94.5q-2 -57 -35 -93t-88 -36q-69 0 -101 56.5t-32 148.5q0 93 32 150.5t102 57.5
q76 0 105 -73l-56 -22q-14 34 -49 34q-73 0 -73 -146z" />
    <glyph glyph-name="seven.numr" horiz-adv-x="276" 
d="M273 653l-186 -396h-69l158 335h-150v61h247z" />
    <glyph glyph-name="eight.numr" horiz-adv-x="300" 
d="M150 600q-15 0 -26.5 -11.5t-11.5 -34.5q0 -21 10 -34t27 -13q18 0 28.5 13t10.5 34q0 23 -11.5 34.5t-26.5 11.5zM150 247q-54 0 -89.5 34.5t-35.5 94.5q0 72 61 105q-36 27 -36 74q0 43 29 73.5t71 30.5t71 -30.5t29 -73.5q0 -47 -36 -74q61 -33 61 -105
q0 -60 -35.5 -94.5t-89.5 -34.5zM153 454h-6q-26 0 -43 -22.5t-17 -51.5q0 -33 17.5 -54t45.5 -21t45.5 21t17.5 54q0 29 -16.5 51.5t-43.5 22.5z" />
    <glyph glyph-name="nine.numr" horiz-adv-x="304" 
d="M209 529q0 29 -18.5 50.5t-44.5 21.5q-24 0 -43 -19.5t-19 -52.5q0 -34 18.5 -51.5t42.5 -17.5q27 0 45.5 19.5t18.5 49.5zM217 454q-6 -21 -27.5 -38.5t-52.5 -17.5q-48 0 -82 38.5t-33 94.5q2 57 35 93t88 36q69 0 101 -56.5t32 -148.5q0 -93 -32 -150.5t-102 -57.5
q-76 0 -105 73l56 22q14 -34 49 -34q73 0 73 146z" />
    <glyph glyph-name="zero.dnom" horiz-adv-x="319" 
d="M28 196q0 206 131 206q132 0 132 -206t-132 -206q-131 0 -131 206zM90 196q0 -147 69 -147q70 0 70 147q0 146 -70 146q-69 0 -69 -146z" />
    <glyph glyph-name="one.dnom" horiz-adv-x="259" 
d="M117 0v315l-72 -31v61l134 62v-407h-62z" />
    <glyph glyph-name="two.dnom" horiz-adv-x="285" 
d="M24 0v38l140 182q31 39 31 64q0 26 -16 42t-41 16q-19 0 -35 -15.5t-20 -40.5l-58 10q10 48 41.5 77.5t71.5 29.5q53 0 86 -32.5t33 -86.5q0 -44 -44 -102l-97 -123h140v-59h-232z" />
    <glyph glyph-name="three.dnom" horiz-adv-x="291" 
d="M188 297q0 20 -14 34.5t-36 14.5q-39 0 -52 -42l-52 26q11 34 39.5 53.5t64.5 19.5q51 0 81.5 -28.5t30.5 -77.5q0 -61 -57 -85q36 -7 54.5 -38t18.5 -61q0 -56 -38.5 -89.5t-95.5 -33.5q-37 0 -70 22t-48 64l56 26q6 -25 24.5 -39t37.5 -14q30 0 51 17.5t21 46.5
q0 31 -19 51t-47 20h-39v52h29q32 0 46 20t14 41z" />
    <glyph glyph-name="four.dnom" horiz-adv-x="327" 
d="M250 79v-79h-62v79h-180l193 317h49v-263h61v-54h-61zM97 133h91v147z" />
    <glyph glyph-name="five.dnom" horiz-adv-x="305" 
d="M19 80l58 20q8 -23 27.5 -36t40.5 -13q36 0 57 20t21 55q-1 37 -22 57.5t-48 20.5q-38 0 -74 -35l-46 27l31 200h194v-61h-144l-16 -107q33 30 77 30q43 0 76 -35t33 -97q0 -63 -37.5 -99.5t-101.5 -36.5q-40 0 -76 24t-50 66z" />
    <glyph glyph-name="six.dnom" horiz-adv-x="305" 
d="M97 121q0 -29 18.5 -50.5t44.5 -21.5q24 0 43 19.5t19 52.5q0 34 -18.5 51.5t-42.5 17.5q-27 0 -45.5 -19.5t-18.5 -49.5zM89 196q6 21 27.5 38.5t52.5 17.5q48 0 82 -38.5t33 -94.5q-2 -57 -35 -93t-88 -36q-69 0 -101 56.5t-32 148.5q0 93 32 150.5t102 57.5
q76 0 105 -73l-56 -22q-14 34 -49 34q-73 0 -73 -146z" />
    <glyph glyph-name="seven.dnom" horiz-adv-x="275" 
d="M274 396l-186 -396h-69l158 335h-150v61h247z" />
    <glyph glyph-name="eight.dnom" horiz-adv-x="300" 
d="M150 343q-15 0 -26.5 -11.5t-11.5 -34.5q0 -21 10 -34t27 -13q18 0 28.5 13t10.5 34q0 23 -11.5 34.5t-26.5 11.5zM150 -10q-54 0 -89.5 34.5t-35.5 94.5q0 72 61 105q-36 27 -36 74q0 43 29 73.5t71 30.5t71 -30.5t29 -73.5q0 -47 -36 -74q61 -33 61 -105
q0 -60 -35.5 -94.5t-89.5 -34.5zM153 197h-6q-26 0 -43 -22.5t-17 -51.5q0 -33 17.5 -54t45.5 -21t45.5 21t17.5 54q0 29 -16.5 51.5t-43.5 22.5z" />
    <glyph glyph-name="nine.dnom" horiz-adv-x="305" 
d="M209 272q0 29 -18.5 50.5t-44.5 21.5q-24 0 -43 -19.5t-19 -52.5q0 -34 18.5 -51.5t42.5 -17.5q27 0 45.5 19.5t18.5 49.5zM217 197q-6 -21 -27.5 -38.5t-52.5 -17.5q-48 0 -82 38.5t-33 94.5q2 57 35 93t88 36q69 0 101 -56.5t32 -148.5q0 -93 -32 -150.5t-102 -57.5
q-76 0 -105 73l56 22q14 -34 49 -34q73 0 73 146z" />
    <glyph glyph-name="l.alt1" horiz-adv-x="239" 
d="M240 83v-83h-36q-148 0 -148 200v521h87v-520q-2 -118 66 -118h31z" />
    <glyph glyph-name="a.alt1" horiz-adv-x="473" 
d="M191 61q98 0 140 68v59q-36 24 -121 24q-47 0 -71 -22.5t-24 -58.5q0 -28 19.5 -49t56.5 -21zM106 338l-55 51q31 47 80 67.5t98 20.5q89 0 139 -50.5t50 -145.5v-281h-86v47q-22 -28 -62.5 -42.5t-79.5 -14.5q-72 0 -117 39t-45 106q0 64 45.5 105t136.5 41
q65 0 122 -30v33q0 52 -29.5 83t-79.5 31q-29 0 -63 -16.5t-54 -43.5z" />
    <glyph glyph-name="y.alt1" horiz-adv-x="432" 
d="M148 -48l24 68l-163 447h93l113 -327l114 327h92l-194 -550q-31 -82 -67 -116t-100 -34q-25 0 -51 8v77q21 -4 52 -4q30 0 48.5 25t38.5 79z" />
    <glyph glyph-name="lslash.alt1" horiz-adv-x="248" 
d="M252 83v-83h-36q-148 0 -148 200v133l-65 -47v66l65 47v322h87v-259l96 71v-66l-96 -71v-195q-2 -118 66 -118h31z" />
    <glyph glyph-name="lacute.alt1" horiz-adv-x="239" 
d="M241 920l-107 -154h-74l78 154h103zM240 0v83h-31q-68 0 -66 118v520h-87v-521q0 -200 148 -200h36z" />
    <glyph glyph-name="lcommaaccent.alt1" horiz-adv-x="239" 
d="M57 -255l-24 39q47 13 64.5 59t-9.5 100h83q31 -62 -6 -121.5t-108 -76.5zM240 83v-83h-36q-148 0 -148 200v521h87v-520q-2 -118 66 -118h31z" />
    <glyph glyph-name="lcaron.alt1" horiz-adv-x="254" 
d="M238 490l-52 21q54 91 53 210h81q-6 -79 -29.5 -140.5t-52.5 -90.5zM240 0v83h-31q-68 0 -66 118v520h-87v-521q0 -200 148 -200h36z" />
    <glyph glyph-name="aacute.alt1" horiz-adv-x="473" 
d="M370 698l-107 -154h-74l78 154h103zM191 61q98 0 140 68v59q-36 24 -121 24q-47 0 -71 -22.5t-24 -58.5q0 -28 19.5 -49t56.5 -21zM106 338l-55 51q31 47 80 67.5t98 20.5q89 0 139 -50.5t50 -145.5v-281h-86v47q-22 -28 -62.5 -42.5t-79.5 -14.5q-72 0 -117 39t-45 106
q0 64 45.5 105t136.5 41q65 0 122 -30v33q0 52 -29.5 83t-79.5 31q-29 0 -63 -16.5t-54 -43.5z" />
    <glyph glyph-name="agrave.alt1" horiz-adv-x="473" 
d="M196 544l-107 154h103l78 -154h-74zM191 61q98 0 140 68v59q-36 24 -121 24q-47 0 -71 -22.5t-24 -58.5q0 -28 19.5 -49t56.5 -21zM106 338l-55 51q31 47 80 67.5t98 20.5q89 0 139 -50.5t50 -145.5v-281h-86v47q-22 -28 -62.5 -42.5t-79.5 -14.5q-72 0 -117 39t-45 106
q0 64 45.5 105t136.5 41q65 0 122 -30v33q0 52 -29.5 83t-79.5 31q-29 0 -63 -16.5t-54 -43.5z" />
    <glyph glyph-name="acircumflex.alt1" horiz-adv-x="473" 
d="M304 543l-75 88l-74 -88h-78l109 154h87l108 -154h-77zM191 61q98 0 140 68v59q-36 24 -121 24q-47 0 -71 -22.5t-24 -58.5q0 -28 19.5 -49t56.5 -21zM106 338l-55 51q31 47 80 67.5t98 20.5q89 0 139 -50.5t50 -145.5v-281h-86v47q-22 -28 -62.5 -42.5t-79.5 -14.5
q-72 0 -117 39t-45 106q0 64 45.5 105t136.5 41q65 0 122 -30v33q0 52 -29.5 83t-79.5 31q-29 0 -63 -16.5t-54 -43.5z" />
    <glyph glyph-name="adieresis.alt1" horiz-adv-x="473" 
d="M101 608q0 24 16.5 40.5t39.5 16.5t39.5 -16.5t16.5 -40.5t-16.5 -40.5t-39.5 -16.5t-39.5 16.5t-16.5 40.5zM255 608q0 24 16.5 40.5t39.5 16.5t39.5 -16.5t16.5 -40.5t-16.5 -40.5t-39.5 -16.5t-39.5 16.5t-16.5 40.5zM191 61q98 0 140 68v59q-36 24 -121 24
q-47 0 -71 -22.5t-24 -58.5q0 -28 19.5 -49t56.5 -21zM106 338l-55 51q31 47 80 67.5t98 20.5q89 0 139 -50.5t50 -145.5v-281h-86v47q-22 -28 -62.5 -42.5t-79.5 -14.5q-72 0 -117 39t-45 106q0 64 45.5 105t136.5 41q65 0 122 -30v33q0 52 -29.5 83t-79.5 31
q-29 0 -63 -16.5t-54 -43.5z" />
    <glyph glyph-name="atilde.alt1" horiz-adv-x="473" 
d="M296 668h62q-3 -61 -25.5 -87.5t-53.5 -26.5q-19 0 -43.5 19t-33.5 19q-25 0 -26 -41h-62q3 61 26.5 87.5t54.5 26.5q19 0 43 -19t32 -19q25 0 26 41zM191 61q98 0 140 68v59q-36 24 -121 24q-47 0 -71 -22.5t-24 -58.5q0 -28 19.5 -49t56.5 -21zM106 338l-55 51
q31 47 80 67.5t98 20.5q89 0 139 -50.5t50 -145.5v-281h-86v47q-22 -28 -62.5 -42.5t-79.5 -14.5q-72 0 -117 39t-45 106q0 64 45.5 105t136.5 41q65 0 122 -30v33q0 52 -29.5 83t-79.5 31q-29 0 -63 -16.5t-54 -43.5z" />
    <glyph glyph-name="aring.alt1" horiz-adv-x="473" 
d="M134 638q0 44 28 73.5t68 29.5q41 0 70 -29.5t29 -73.5q0 -43 -29 -71t-70 -28q-40 0 -68 28t-28 71zM179 639q0 -23 15 -38t36 -15q22 0 37.5 15t15.5 38q0 24 -15.5 39.5t-37.5 15.5q-21 0 -36 -15.5t-15 -39.5zM191 61q98 0 140 68v59q-36 24 -121 24q-47 0 -71 -22.5
t-24 -58.5q0 -28 19.5 -49t56.5 -21zM106 338l-55 51q31 47 80 67.5t98 20.5q89 0 139 -50.5t50 -145.5v-281h-86v47q-22 -28 -62.5 -42.5t-79.5 -14.5q-72 0 -117 39t-45 106q0 64 45.5 105t136.5 41q65 0 122 -30v33q0 52 -29.5 83t-79.5 31q-29 0 -63 -16.5t-54 -43.5z
" />
    <glyph glyph-name="amacron.alt1" horiz-adv-x="473" 
d="M124 660h224v-80h-224v80zM191 61q98 0 140 68v59q-36 24 -121 24q-47 0 -71 -22.5t-24 -58.5q0 -28 19.5 -49t56.5 -21zM106 338l-55 51q31 47 80 67.5t98 20.5q89 0 139 -50.5t50 -145.5v-281h-86v47q-22 -28 -62.5 -42.5t-79.5 -14.5q-72 0 -117 39t-45 106
q0 64 45.5 105t136.5 41q65 0 122 -30v33q0 52 -29.5 83t-79.5 31q-29 0 -63 -16.5t-54 -43.5z" />
    <glyph glyph-name="abreve.alt1" horiz-adv-x="473" 
d="M119 668h69q0 -26 12.5 -42.5t34.5 -16.5t34 18t12 41h70q0 -59 -31.5 -93.5t-84.5 -34.5q-58 0 -87 37t-29 91zM191 61q98 0 140 68v59q-36 24 -121 24q-47 0 -71 -22.5t-24 -58.5q0 -28 19.5 -49t56.5 -21zM106 338l-55 51q31 47 80 67.5t98 20.5q89 0 139 -50.5
t50 -145.5v-281h-86v47q-22 -28 -62.5 -42.5t-79.5 -14.5q-72 0 -117 39t-45 106q0 64 45.5 105t136.5 41q65 0 122 -30v33q0 52 -29.5 83t-79.5 31q-29 0 -63 -16.5t-54 -43.5z" />
    <glyph glyph-name="aogonek.alt1" horiz-adv-x="472" 
d="M191 61q98 0 140 68v59q-36 24 -121 24q-47 0 -71 -22.5t-24 -58.5q0 -28 19.5 -49t56.5 -21zM418 281v-281h-33q-27 -56 -27 -107q0 -17 9.5 -26t23.5 -9q15 0 23 14.5t8 33.5l61 7q5 -48 -21 -82.5t-71 -34.5q-41 0 -67.5 27t-26.5 70q0 53 35 107v47
q-22 -28 -62.5 -42.5t-79.5 -14.5q-72 0 -117 39t-45 106q0 64 45.5 105t136.5 41q65 0 122 -30v33q0 52 -29.5 83t-79.5 31q-29 0 -63 -16.5t-54 -43.5l-55 51q31 47 80 67.5t98 20.5q172 0 189 -196z" />
    <glyph glyph-name="yacute.alt1" horiz-adv-x="432" 
d="M349 698l-107 -154h-74l78 154h103zM172 20l-24 -68q-20 -54 -38.5 -79t-48.5 -25q-31 0 -52 4v-77q26 -8 51 -8q64 0 100 34t67 116l194 550h-92l-114 -327l-113 327h-93z" />
    <glyph glyph-name="ydieresis.alt1" horiz-adv-x="432" 
d="M83 608q0 24 16.5 40.5t39.5 16.5t39.5 -16.5t16.5 -40.5t-16.5 -40.5t-39.5 -16.5t-39.5 16.5t-16.5 40.5zM237 608q0 24 16.5 40.5t39.5 16.5t39.5 -16.5t16.5 -40.5t-16.5 -40.5t-39.5 -16.5t-39.5 16.5t-16.5 40.5zM172 20l-24 -68q-20 -54 -38.5 -79t-48.5 -25
q-31 0 -52 4v-77q26 -8 51 -8q64 0 100 34t67 116l194 550h-92l-114 -327l-113 327h-93z" />
    <glyph glyph-name="ae.alt1" horiz-adv-x="767" 
d="M370 71q-44 -81 -180 -81q-72 0 -117 39t-45 106q0 64 45.5 105t136.5 41q71 0 115 -23v26q0 52 -29.5 83t-79.5 31q-28 0 -59 -16t-51 -44l-55 51q52 88 171 88q118 0 156 -81q24 40 66 60.5t91 20.5q88 0 145.5 -66.5t57.5 -175.5q0 -26 -1 -36h-326q7 -56 43 -90
t84 -34q34 0 63.5 18.5t46.5 53.5l75 -34q-25 -59 -75.5 -91t-112.5 -32q-49 0 -93.5 21.5t-71.5 59.5zM197 68q55 0 91 22.5t36 61.5v35q-38 25 -114 25q-47 0 -71 -22.5t-24 -58.5q0 -27 22 -45t60 -18zM411 265h240q-8 62 -39 93.5t-77 31.5q-48 0 -81.5 -32t-42.5 -93z
" />
    <glyph glyph-name="aeacute.alt1" horiz-adv-x="767" 
d="M527 698l-107 -154h-74l78 154h103zM370 71q-44 -81 -180 -81q-72 0 -117 39t-45 106q0 64 45.5 105t136.5 41q71 0 115 -23v26q0 52 -29.5 83t-79.5 31q-28 0 -59 -16t-51 -44l-55 51q52 88 171 88q118 0 156 -81q24 40 66 60.5t91 20.5q88 0 145.5 -66.5t57.5 -175.5
q0 -26 -1 -36h-326q7 -56 43 -90t84 -34q34 0 63.5 18.5t46.5 53.5l75 -34q-25 -59 -75.5 -91t-112.5 -32q-49 0 -93.5 21.5t-71.5 59.5zM197 68q55 0 91 22.5t36 61.5v35q-38 25 -114 25q-47 0 -71 -22.5t-24 -58.5q0 -27 22 -45t60 -18zM411 265h240q-8 62 -39 93.5
t-77 31.5q-48 0 -81.5 -32t-42.5 -93z" />
    <glyph glyph-name="ycircumflex.alt1" horiz-adv-x="432" 
d="M291 543l-75 88l-74 -88h-78l109 154h87l108 -154h-77zM148 -48l24 68l-163 447h93l113 -327l114 327h92l-194 -550q-31 -82 -67 -116t-100 -34q-25 0 -51 8v77q21 -4 52 -4q30 0 48.5 25t38.5 79z" />
    <glyph glyph-name="ldot.alt1" horiz-adv-x="300" 
d="M187 251q0 27 17.5 45t42.5 18t43 -18t18 -45t-18 -44.5t-43 -17.5t-42.5 17.5t-17.5 44.5zM240 83v-83h-36q-148 0 -148 200v521h87v-520q-2 -118 66 -118h31z" />
    <glyph glyph-name="t.alt1" horiz-adv-x="296" 
d="M272 80v-80h-35q-148 0 -148 200v196h-70v71h70v124l87 31v-155h84v-71h-84v-195q0 -121 67 -121h29z" />
    <glyph glyph-name="tcaron.alt1" horiz-adv-x="296" 
d="M271 541l-52 21q54 91 53 210h81q-6 -79 -29.5 -140.5t-52.5 -90.5zM272 0v80h-29q-67 0 -67 121v195h84v71h-84v155l-87 -31v-124h-70v-71h70v-196q0 -200 148 -200h35z" />
    <glyph glyph-name="tbar.alt1" horiz-adv-x="299" 
d="M275 80v-80h-35q-148 0 -148 200v14h-62v54h62v128h-70v71h70v124l87 31v-155h84v-71h-84v-128h63v-54h-63v-13q0 -121 67 -121h29z" />
    <glyph glyph-name="tcommaaccent.alt1" horiz-adv-x="296" 
d="M98 -255l-24 39q47 13 64.5 59t-9.5 100h83q31 -62 -6 -121.5t-108 -76.5zM272 80v-80h-35q-148 0 -148 200v196h-70v71h70v124l87 31v-155h84v-71h-84v-195q0 -121 67 -121h29z" />
    <glyph glyph-name="T.sc.alt1" horiz-adv-x="415" 
d="M16 584h383v-78h-149v-506h-85v506h-149v78z" />
    <glyph glyph-name="Tcaron.sc.alt1" horiz-adv-x="415" 
d="M208 707l60 70h74l-95 -135h-79l-95 135h75zM399 584h-383v-78h149v-506h85v506h149v78z" />
    <glyph glyph-name="Tbar.sc.alt1" horiz-adv-x="415" 
d="M16 584h383v-78h-149v-178h103v-57h-103v-271h-85v271h-98v57h98v178h-149v78z" />
    <glyph glyph-name="Tcommaaccent.sc.alt1" horiz-adv-x="415" 
d="M16 584h383v-78h-149v-506h-85v506h-149v78zM142 -215l-23 38q27 7 43.5 29t16.5 50q0 31 -15 57h79q13 -27 13 -50q0 -42 -32.5 -77t-81.5 -47z" />
    <glyph glyph-name="aringacute.alt1" horiz-adv-x="473" 
d="M374 856l-91 -130q47 -30 47 -88q0 -43 -29 -71t-70 -28q-40 0 -68 28t-28 71q0 38 21.5 66t54.5 35l60 117h103zM180 639q0 -23 15 -38t36 -15q22 0 37.5 15t15.5 38q0 24 -15.5 39.5t-37.5 15.5q-21 0 -36 -15.5t-15 -39.5zM191 61q98 0 140 68v59q-36 24 -121 24
q-47 0 -71 -22.5t-24 -58.5q0 -28 19.5 -49t56.5 -21zM106 338l-55 51q31 47 80 67.5t98 20.5q89 0 139 -50.5t50 -145.5v-281h-86v47q-22 -28 -62.5 -42.5t-79.5 -14.5q-72 0 -117 39t-45 106q0 64 45.5 105t136.5 41q65 0 122 -30v33q0 52 -29.5 83t-79.5 31
q-29 0 -63 -16.5t-54 -43.5z" />
    </font>
</defs>
</svg>
