<?xml version="1.0" standalone="no"?>
<!DOCTYPE svg PUBLIC "-//W3C//DTD SVG 1.1//EN" "http://www.w3.org/Graphics/SVG/1.1/DTD/svg11.dtd" >
<svg xmlns="http://www.w3.org/2000/svg" xmlns:xlink="http://www.w3.org/1999/xlink" version="1.1">
<metadata>
Created by FontForge 20170731 at Fri Aug  8 19:00:47 2014
 By Aleksey,,,
Copyright (c) Olivier Gourvat - Mostardesign Studio, 2012. All rights reserved.
</metadata>
<defs>
<font id="SofiaPro-Medium" horiz-adv-x="580" >
  <font-face 
    font-family="Sofia Pro Medium"
    font-weight="500"
    font-stretch="normal"
    units-per-em="1000"
    panose-1="2 11 0 0 0 0 0 0 0 0"
    ascent="756"
    descent="-244"
    x-height="467"
    cap-height="689"
    bbox="-174 -259 1120 1096"
    underline-thickness="50"
    underline-position="-200"
    unicode-range="U+0020-FB04"
  />
<missing-glyph horiz-adv-x="635" 
d="M555 0h-475v665h475v-665zM185 431h62q0 37 21 60t53 23q33 0 56.5 -20.5t23.5 -52.5q0 -31 -24 -50q-15 -17 -33 -21q-47 -13 -70 -38.5t-23 -71.5v-38h62v38q0 21 12 32t38 18q44 13 71.5 48.5t27.5 82.5q0 59 -42 97q-41 38 -99 38q-57 0 -97 -40q-39 -40 -39 -105z
M283 88q18 0 31.5 12.5t13.5 30.5t-13.5 30.5t-31.5 12.5q-19 0 -32.5 -12.5t-13.5 -30.5t13.5 -30.5t32.5 -12.5z" />
    <glyph glyph-name="f_f" unicode="ff" horiz-adv-x="718" 
d="M672 721h51v-99h-51q-83 0 -83 -112v-43h105v-85h-105v-382h-104v382h-267v-382h-104v382h-89v85h89v43q0 100 47.5 155.5t139.5 55.5h51v-99h-51q-83 0 -83 -112v-43h267v43q0 100 47.5 155.5t139.5 55.5z" />
    <glyph glyph-name="fi" unicode="fi" horiz-adv-x="640" 
d="M569 0h-102v382h-249v-382h-104v382h-89v85h89v43q0 100 47.5 155.5t139.5 55.5h51v-99h-51q-83 0 -83 -112v-43h249h102v-467zM518 721q29 0 48.5 -18.5t19.5 -46.5t-19.5 -46.5t-48.5 -18.5q-28 0 -48.5 19t-20.5 46t20.5 46t48.5 19z" />
    <glyph glyph-name="fl" unicode="fl" horiz-adv-x="629" 
d="M454 0v622h-153q-83 0 -83 -112v-43h105v-85h-105v-382h-104v382h-89v85h89v43q0 100 47.5 155.5t139.5 55.5h256v-721h-103z" />
    <glyph glyph-name="f_f_i" unicode="ffi" horiz-adv-x="1011" 
d="M838 0v382h-249v-382h-104v382h-267v-382h-104v382h-89v85h89v43q0 100 47.5 155.5t139.5 55.5h51v-99h-51q-83 0 -83 -112v-43h267v43q0 100 47.5 155.5t139.5 55.5h51v-99h-51q-83 0 -83 -112v-43h351v-467h-102zM889 721q29 0 48.5 -18.5t19.5 -46.5t-19.5 -46.5
t-48.5 -18.5q-28 0 -48.5 19t-20.5 46t20.5 46t48.5 19z" />
    <glyph glyph-name="f_f_l" unicode="ffl" horiz-adv-x="1000" 
d="M825 0v622h-153q-83 0 -83 -112v-43h105v-85h-105v-382h-104v382h-267v-382h-104v382h-89v85h89v43q0 100 47.5 155.5t139.5 55.5h51v-99h-51q-83 0 -83 -112v-43h267v43q0 100 47.5 155.5t139.5 55.5h256v-721h-103z" />
    <glyph glyph-name="f_f_j" unicode="ffj" horiz-adv-x="1004" 
d="M763 -231h-68v96h56q79 0 78 105v412h-240v-382h-104v382h-267v-382h-104v382h-89v85h89v43q0 100 47.5 155.5t139.5 55.5h51v-99h-51q-83 0 -83 -112v-43h267v43q0 100 47.5 155.5t139.5 55.5h51v-99h-51q-83 0 -83 -112v-43h344v-497q0 -201 -170 -201zM881 721
q29 0 49 -18.5t20 -46.5t-20 -46.5t-49 -18.5q-28 0 -48.5 19t-20.5 46t20.5 46t48.5 19z" />
    <glyph glyph-name="f_j" unicode="fj" horiz-adv-x="633" 
d="M392 -231h-68v96h56q80 0 78 105v412h-240v-382h-104v382h-89v85h89v43q0 100 47.5 155.5t139.5 55.5h51v-99h-51q-83 0 -83 -112v-43h344v-497q0 -201 -170 -201zM510 721q29 0 49 -18.5t20 -46.5t-20 -46.5t-49 -18.5q-28 0 -48.5 19t-20.5 46t20.5 46t48.5 19z" />
    <glyph glyph-name=".notdef" horiz-adv-x="635" 
d="M555 0h-475v665h475v-665zM185 431h62q0 37 21 60t53 23q33 0 56.5 -20.5t23.5 -52.5q0 -31 -24 -50q-15 -17 -33 -21q-47 -13 -70 -38.5t-23 -71.5v-38h62v38q0 21 12 32t38 18q44 13 71.5 48.5t27.5 82.5q0 59 -42 97q-41 38 -99 38q-57 0 -97 -40q-39 -40 -39 -105z
M283 88q18 0 31.5 12.5t13.5 30.5t-13.5 30.5t-31.5 12.5q-19 0 -32.5 -12.5t-13.5 -30.5t13.5 -30.5t32.5 -12.5z" />
    <glyph glyph-name=".null" horiz-adv-x="0" 
 />
    <glyph glyph-name="nonmarkingreturn" horiz-adv-x="333" 
 />
    <glyph glyph-name="space" unicode=" " horiz-adv-x="254" 
 />
    <glyph glyph-name="exclam" unicode="!" horiz-adv-x="268" 
d="M77 689h111l-14 -504h-82zM134 126q30 0 50.5 -19.5t20.5 -48.5t-20.5 -48t-50.5 -19t-50.5 19t-20.5 48t20.5 48.5t50.5 19.5z" />
    <glyph glyph-name="quotedbl" unicode="&#x22;" horiz-adv-x="356" 
d="M143 399h-66l-6 290h78zM279 399h-66l-6 290h78z" />
    <glyph glyph-name="numbersign" unicode="#" horiz-adv-x="674" 
d="M580 689l-49 -174h107l-24 -87h-108l-49 -173h108l-24 -87h-108l-50 -168h-91l48 168h-105l-50 -168h-91l49 168h-106l23 87h107l48 173h-105l23 87h106l49 174h93l-49 -174h106l49 174h93zM413 428h-106l-48 -173h105z" />
    <glyph glyph-name="dollar" unicode="$" horiz-adv-x="564" 
d="M252 695v102h65v-103q83 -11 134 -65t51 -136h-106q0 47 -33 75.5t-87 28.5q-50 0 -84.5 -27t-34.5 -68q0 -66 92 -90l88 -23q101 -27 147.5 -82t38.5 -132q-7 -76 -63 -126.5t-143 -57.5v-111h-65v112q-92 10 -150 69q-57 60 -57 139h106q2 -44 40 -79q37 -34 97 -34
q56 0 90 26t40 68q4 85 -109 112l-87 22q-171 47 -171 185q0 80 58 132q59 54 143 63z" />
    <glyph glyph-name="percent" unicode="%" horiz-adv-x="684" 
d="M533 668l-328 -668h-66l327 668h67zM75 441q-38 40 -38 95t38 95q39 39 95 39t95 -39t39 -95t-39 -95q-40 -38 -95 -38t-95 38zM170 476q25 0 43 17.5t18 42.5t-18 43t-43 18q-26 0 -43 -17.5t-17 -43.5t17 -43t43 -17zM513 257q55 0 94 -40q40 -39 40 -94q0 -56 -39 -95
q-40 -38 -95 -38t-95 38q-38 40 -38 95t38 95q39 39 95 39zM453 123q0 -26 17 -43t43 -17t44 17t18 43q0 25 -18.5 43t-43.5 18t-42.5 -18t-17.5 -43z" />
    <glyph glyph-name="ampersand" unicode="&#x26;" horiz-adv-x="666" 
d="M420 336h-133q-59 0 -95 -40t-35 -88q2 -53 37.5 -86t92.5 -33q65 0 99 43t34 119v85zM281 -10q-99 0 -163 61t-64 154q0 58 27.5 105.5t77.5 74.5q-27 20 -43 56t-16 76q0 71 53 124q53 51 132 53q53 1 98.5 -24.5t75.5 -71.5l-85 -52q-31 49 -83 49q-38 0 -62.5 -23.5
t-24.5 -57.5q0 -32 23 -64q22 -31 63 -31h130v87h96v-87h86v-83h-86v-128q0 -67 21.5 -96t80.5 -29v-93q-129 0 -167 77q-24 -35 -70.5 -56t-99.5 -21z" />
    <glyph glyph-name="quotesingle" unicode="'" horiz-adv-x="220" 
d="M143 399h-66l-6 290h78z" />
    <glyph glyph-name="parenleft" unicode="(" horiz-adv-x="367" 
d="M331 697v-94q-84 0 -138 -104q-54 -103 -54 -268q0 -163 54 -266q54 -104 138 -104v-94q-127 0 -207 126q-78 126 -78 338q0 211 78 339q79 127 207 127z" />
    <glyph glyph-name="parenright" unicode=")" horiz-adv-x="367" 
d="M321 231q0 -212 -79 -337q-78 -127 -206 -127v94q83 0 137 104q55 103 55 266q0 164 -55 267q-54 105 -137 105v94q128 0 206 -127q79 -127 79 -339z" />
    <glyph glyph-name="asterisk" unicode="*" horiz-adv-x="472" 
d="M161 346l-64 49l84 104l-130 37l27 78l124 -49l-8 134h84l-9 -133l126 48l25 -78l-129 -35l86 -107l-66 -46l-73 111z" />
    <glyph glyph-name="plus" unicode="+" horiz-adv-x="515" 
d="M463 216h-160v-161h-91v161h-160v91h160v160h91v-160h160v-91z" />
    <glyph glyph-name="comma" unicode="," horiz-adv-x="259" 
d="M81 -128l-70 24q73 101 70 230h108q-5 -86 -35 -152.5t-73 -101.5z" />
    <glyph glyph-name="hyphen" unicode="-" horiz-adv-x="481" 
d="M415 190h-349v93h349v-93z" />
    <glyph glyph-name="period" unicode="." horiz-adv-x="266" 
d="M133 125q30 0 50.5 -19.5t20.5 -48.5t-20.5 -48t-50.5 -19t-50 19t-20 48t20.5 48.5t49.5 19.5z" />
    <glyph glyph-name="slash" unicode="/" horiz-adv-x="502" 
d="M31 0l338 689h102l-338 -689h-102z" />
    <glyph glyph-name="zero" unicode="0" horiz-adv-x="604" 
d="M63 325q0 191 73 272q58 65 166 65t165 -65q52 -57 66 -165q15 -107 0 -214q-30 -228 -231 -228q-137 0 -191 99q-48 88 -48 236zM302 90q136 0 136 235t-136 235q-137 0 -137 -235t137 -235z" />
    <glyph glyph-name="one" unicode="1" horiz-adv-x="344" 
d="M41 482v95l210 83v-660h-102v521z" />
    <glyph glyph-name="two" unicode="2" horiz-adv-x="532" 
d="M467 100v-100h-409v49l266 320q45 53 45 99q0 41 -31 67.5t-77 26.5q-43 0 -74 -27.5t-37 -72.5l-98 21q13 82 71 131t140 49q89 0 148 -55q60 -54 60 -140q0 -88 -71 -168l-170 -200h237z" />
    <glyph glyph-name="three" unicode="3" horiz-adv-x="538" 
d="M257 300h-73v95h73q34 -1 56 20.5t28 53.5q9 62 -48 85q-15 7 -45 7q-57 2 -92 -51l-78 57q27 47 79 73.5t113 22.5q80 -5 132 -57t52 -124q0 -38 -21.5 -73t-57.5 -56q48 -18 76 -67q29 -50 29 -104q0 -89 -64 -141q-65 -51 -164 -51q-73 0 -129 36t-84 96l90 48
q13 -30 51 -56q38 -24 72 -24h-1q59 0 91 27.5t32 72.5q0 41 -32 76t-85 34z" />
    <glyph glyph-name="four" unicode="4" horiz-adv-x="591" 
d="M355 485l-171 -255h171v255zM548 230v-93h-91v-137h-102v137h-334l348 516h88v-423h91z" />
    <glyph glyph-name="five" unicode="5" horiz-adv-x="569" 
d="M417 215q0 56 -36.5 88.5t-94.5 32.5q-78 0 -158 -59l-61 45l56 331h357v-97h-274l-31 -165q21 16 56 26.5t66 10.5q95 0 158 -57q63 -55 63 -156q0 -102 -69 -163q-70 -62 -182 -62q-68 0 -128.5 39.5t-92.5 105.5q3 1 45 25l42 25q20 -44 55.5 -69.5t78.5 -25.5
q70 0 110 35t40 90z" />
    <glyph glyph-name="six" unicode="6" horiz-adv-x="561" 
d="M404 203q0 49 -30.5 83.5t-77.5 35.5q-49 2 -85 -32q-36 -33 -36 -79q0 -50 32.5 -84t80.5 -35t82 30q34 33 34 81zM306 421q85 0 143 -64q58 -62 58 -159q-3 -91 -67 -149q-64 -59 -156 -59q-88 0 -148 61q-60 63 -67 164q-5 51 -2.5 104.5t8.5 103.5t24.5 94.5t44.5 77
t69 51t98 16.5q137 -6 191 -126l-93 -40q-34 70 -102 70q-67 0 -108 -63q-40 -62 -32 -156q41 74 139 74z" />
    <glyph glyph-name="seven" unicode="7" horiz-adv-x="532" 
d="M55 554v99h462l-341 -653h-119l291 554h-293z" />
    <glyph glyph-name="eight" unicode="8" horiz-adv-x="570" 
d="M204 491q0 -33 23 -54.5t60 -21.5q35 1 57 23t22 53q0 30 -23 51.5t-58 21.5t-58 -21.5t-23 -51.5zM156 208q0 -51 37 -85t92 -34q54 0 91 34t37 85q0 48 -36 83q-37 35 -89 35h-11q-52 -2 -86 -36q-35 -35 -35 -82zM104 492q0 72 52 121q53 50 129 50q77 0 130 -50
t53 -121q0 -68 -51 -114q46 -28 72.5 -73t26.5 -98q0 -91 -67 -154t-164 -63t-164 63t-67 154q0 54 26 99t72 72q-48 46 -48 114z" />
    <glyph glyph-name="nine" unicode="9" horiz-adv-x="561" 
d="M159 449q0 -49 30.5 -83.5t77.5 -35.5q49 -2 84 31q37 34 37 80q0 50 -32.5 84t-80.5 35q-48 2 -82 -31q-34 -31 -34 -80zM257 231q-85 0 -143 63q-58 64 -58 160q3 91 66 149q65 59 157 59q88 0 147 -62q61 -62 68 -163q5 -51 2.5 -104.5t-8.5 -103.5t-24.5 -94.5
t-44.5 -77t-69 -51t-98 -16.5q-137 6 -191 126l93 40q34 -70 102 -70t108 63q40 62 32 156q-38 -74 -139 -74z" />
    <glyph glyph-name="colon" unicode=":" horiz-adv-x="273" 
d="M137 125q29 0 49.5 -19.5t20.5 -48.5t-20 -48t-50 -19t-50.5 19t-20.5 48t20.5 48.5t50.5 19.5zM66 409q0 30 20.5 49t50.5 19q29 0 49.5 -19.5t20.5 -48.5t-20.5 -48.5t-49.5 -19.5q-30 0 -50.5 19.5t-20.5 48.5z" />
    <glyph glyph-name="semicolon" unicode=";" horiz-adv-x="286" 
d="M96 -128l-75 24q74 101 71 230h111q-4 -86 -34 -152.5t-73 -101.5zM78 409q0 30 20.5 49t50.5 19t50.5 -19.5t20.5 -48.5t-20.5 -48.5t-50.5 -19.5t-50.5 19.5t-20.5 48.5z" />
    <glyph glyph-name="less" unicode="&#x3c;" horiz-adv-x="614" 
d="M548 136v-100l-505 194v93l505 193v-100l-375 -139z" />
    <glyph glyph-name="equal" unicode="=" horiz-adv-x="606" 
d="M533 404v-89h-460v89h460zM73 120v89h460v-89h-460z" />
    <glyph glyph-name="greater" unicode="&#x3e;" horiz-adv-x="614" 
d="M571 323v-93l-505 -194v100l375 141l-375 139v100z" />
    <glyph glyph-name="question" unicode="?" horiz-adv-x="487" 
d="M241 237l-2 -51h-100v51q0 78 32 107q17 15 35 27q7 4 28 15t40.5 21.5t32.5 19.5q40 28 40 75q0 40 -30.5 66.5t-74.5 26.5q-43 0 -72 -30t-29 -77h-99q0 94 57 151q58 58 143 58q87 0 147 -54q60 -53 60 -141q0 -68 -39 -119t-103 -70q-35 -10 -50.5 -27t-15.5 -49z
M190 126q30 0 50.5 -19.5t20.5 -48.5t-20.5 -48t-50.5 -19t-50.5 19t-20.5 48t20.5 48.5t50.5 19.5z" />
    <glyph glyph-name="at" unicode="@" horiz-adv-x="969" 
d="M596 130v128q0 53 -37 89q-37 37 -89 37t-89 -37q-37 -36 -37 -89q0 -52 37 -89q37 -36 89 -36q48 0 94 43v-88q-48 -30 -94 -30q-84 0 -142 58q-59 59 -59 142t59 142t142 59q81 0 139 -55q59 -56 62 -137v-144q0 -64 69 -64q32 0 56 20.5t36 55.5q22 65 22 135
q0 148 -110 247q-109 100 -264 100q-150 0 -254 -107q-103 -106 -103 -257q0 -152 103 -255q104 -105 254 -105h25v-76h-25q-183 0 -307 127q-125 127 -125 309t125 310q126 129 307 129q118 3 222.5 -52.5t167.5 -154.5t61 -215q0 -47 -10.5 -94.5t-31.5 -92t-59.5 -72
t-89.5 -27.5q-66 0 -105 36t-39 110z" />
    <glyph glyph-name="A" unicode="A" horiz-adv-x="647" 
d="M641 0h-112l-66 172h-278l-66 -172h-113l260 689h115zM427 267l-103 289l-103 -289h206z" />
    <glyph glyph-name="B" unicode="B" horiz-adv-x="629" 
d="M545 507q0 -105 -89 -140q57 -14 91 -62q35 -50 35 -103q0 -86 -57 -144q-55 -58 -150 -58h-285v689h264q88 0 139.5 -49t51.5 -133zM197 592v-186h153q39 0 62 27.5t23 69.5t-24.5 65.5t-67.5 23.5h-146zM367 315h-170v-218h173q44 0 72.5 31.5t28.5 74.5q0 42 -29 77
t-75 35z" />
    <glyph glyph-name="C" unicode="C" horiz-adv-x="684" 
d="M581 182l82 -65q-46 -60 -115.5 -93.5t-152.5 -33.5q-147 0 -247 103q-101 104 -101 250t101 250t247 104q80 0 149 -32.5t117 -91.5l-82 -64q-77 86 -184 86q-101 0 -172 -74q-70 -73 -70 -178t70 -178t172 -73q115 0 186 90z" />
    <glyph glyph-name="D" unicode="D" horiz-adv-x="719" 
d="M358 590h-162v-492h162q98 0 151 69q53 70 53 176q0 108 -54 177q-52 70 -150 70zM358 0h-268v689h268q143 0 226 -98q84 -97 84 -248q0 -149 -83 -247q-82 -96 -227 -96z" />
    <glyph glyph-name="E" unicode="E" horiz-adv-x="567" 
d="M515 0h-425v689h415v-98h-309v-204h270v-97h-270v-193h319v-97z" />
    <glyph glyph-name="F" unicode="F" horiz-adv-x="527" 
d="M196 0h-106v689h409v-98h-303v-204h240v-97h-240v-290z" />
    <glyph glyph-name="G" unicode="G" horiz-adv-x="755" 
d="M636 600l-78 -69q-68 65 -162 65q-102 0 -173 -74q-70 -73 -70 -179t70 -179q71 -74 173 -74q86 0 144 46t63 123h-193v91h315q0 -176 -86.5 -268t-242.5 -92q-146 0 -248 103q-101 104 -101 250t101 250t248 104q143 0 240 -97z" />
    <glyph glyph-name="H" unicode="H" horiz-adv-x="705" 
d="M507 391v298h108v-689h-108v294h-311v-294h-106v689h106v-298h311z" />
    <glyph glyph-name="I" unicode="I" horiz-adv-x="286" 
d="M196 0h-106v689h106v-689z" />
    <glyph glyph-name="J" unicode="J" horiz-adv-x="287" 
d="M-100 -235l10 99q27 -9 71 -9q54 0 81.5 33.5t27.5 90.5v710h107v-710q0 -99 -53 -163q-53 -63 -163 -63q-27 0 -81 12z" />
    <glyph glyph-name="K" unicode="K" horiz-adv-x="583" 
d="M533 689l-264 -343l325 -346h-140l-257 279v-279h-107v689h107v-280l211 280h125z" />
    <glyph glyph-name="L" unicode="L" horiz-adv-x="499" 
d="M472 0h-382v689h106v-592h276v-97z" />
    <glyph glyph-name="M" unicode="M" horiz-adv-x="927" 
d="M229 689l234 -491l234 491h95l84 -689h-106l-59 492l-202 -415h-90l-203 415l-59 -492h-106l84 689h94z" />
    <glyph glyph-name="N" unicode="N" horiz-adv-x="681" 
d="M485 689h106v-689h-99l-296 493v-493h-106v689h102l293 -489v489z" />
    <glyph glyph-name="O" unicode="O" horiz-adv-x="792" 
d="M223 520q-70 -73 -70 -177t70 -177q70 -72 172 -72q101 0 172 72q71 74 71 177t-71 177q-70 73 -172 73t-172 -73zM47 343q0 147 101 251q100 103 247 103q148 0 248 -103q102 -104 102 -251t-102 -250q-100 -103 -248 -103q-147 0 -247 103q-101 104 -101 250z" />
    <glyph glyph-name="P" unicode="P" horiz-adv-x="607" 
d="M365 591h-168v-241h164q69 -3 97.5 58.5t0.5 123.5t-94 59zM197 0h-107v689h277q105 0 157 -64q53 -65 53 -155t-53 -154q-52 -63 -157 -63h-170v-253z" />
    <glyph glyph-name="Q" unicode="Q" horiz-adv-x="794" 
d="M587 46l70 -113l-80 -49l-76 122q-47 -16 -105 -16q-146 0 -248 103q-101 104 -101 250t101 250t248 104q149 0 249 -103q102 -104 102 -251q0 -92 -42.5 -170.5t-117.5 -126.5zM377 207l79 49l75 -121q51 33 80 88t29 120q0 104 -71 178t-173 74t-173 -74
q-70 -73 -70 -178q0 -97 62 -168q63 -71 157 -78q33 -4 71 2z" />
    <glyph glyph-name="R" unicode="R" horiz-adv-x="622" 
d="M355 591h-158v-241h154q68 -3 96 58.5t0.5 123.5t-92.5 59zM391 257l181 -257h-129l-172 253h-74v-253h-107v689h269q105 0 157 -64q53 -65 53 -155q0 -83 -45 -143q-43 -59 -133 -70z" />
    <glyph glyph-name="S" unicode="S" horiz-adv-x="574" 
d="M50 200h106q2 -44 40 -79q37 -34 97 -34q56 0 90 26t40 68q4 85 -109 112l-87 22q-171 47 -171 185q0 86 67 141q68 56 160 56q96 0 160 -56q64 -55 64 -148h-106q0 47 -33 75.5t-87 28.5q-50 0 -84.5 -27t-34.5 -68q0 -66 92 -90l88 -23q101 -27 147.5 -82t38.5 -132
q-7 -81 -73 -134q-65 -51 -162 -51q-104 0 -174 62q-69 61 -69 148z" />
    <glyph glyph-name="T" unicode="T" horiz-adv-x="570" 
d="M231 590h-203v99h514v-99h-203v-590h-108v590z" />
    <glyph glyph-name="U" unicode="U" horiz-adv-x="677" 
d="M487 239v450h107v-450q0 -109 -75 -180q-73 -69 -180 -69t-182 69q-74 71 -74 180v450h108v-450q0 -66 43 -106q44 -41 105 -41q60 0 104 41t44 106z" />
    <glyph glyph-name="V" unicode="V" horiz-adv-x="566" 
d="M234 0l-209 689h111l147 -512l148 512h110l-208 -689h-99z" />
    <glyph glyph-name="W" unicode="W" horiz-adv-x="897" 
d="M490 595l118 -419l164 513h114l-233 -689h-89l-116 413l-115 -413h-89l-233 689h114l164 -513l118 419h83z" />
    <glyph glyph-name="X" unicode="X" horiz-adv-x="624" 
d="M464 689h127l-215 -320l240 -369h-127l-177 282l-177 -282h-126l239 369l-214 320h128l150 -234z" />
    <glyph glyph-name="Y" unicode="Y" horiz-adv-x="634" 
d="M371 315v-315h-109v316l-262 373h127l190 -274l192 274h127z" />
    <glyph glyph-name="Z" unicode="Z" horiz-adv-x="577" 
d="M41 0v88l352 503h-338v98h474v-89l-354 -502h354v-98h-488z" />
    <glyph glyph-name="bracketleft" unicode="[" horiz-adv-x="328" 
d="M289 -227h-208v916h208v-88h-111v-740h111v-88z" />
    <glyph glyph-name="backslash" unicode="\" horiz-adv-x="502" 
d="M369 0l-338 689h102l338 -689h-102z" />
    <glyph glyph-name="bracketright" unicode="]" horiz-adv-x="328" 
d="M39 689h208v-916h-208v88h111v740h-111v88z" />
    <glyph glyph-name="underscore" unicode="_" horiz-adv-x="709" 
d="M643 -115h-577v86h577v-86z" />
    <glyph glyph-name="grave" unicode="`" horiz-adv-x="522" 
d="M255 540l-126 158h116l100 -158h-90z" />
    <glyph glyph-name="a" unicode="a" horiz-adv-x="610" 
d="M538 0h-102v67q-21 -35 -65.5 -56t-91.5 -21q-97 0 -168 68q-69 68 -69 176t69 175q71 68 168 68q47 0 90.5 -20t66.5 -56v66h102v-467zM435 235q0 65 -44 103q-43 39 -100 39q-61 0 -102 -40q-41 -39 -41 -102t41 -104q43 -41 102 -41q61 0 102.5 40t41.5 105z" />
    <glyph glyph-name="b" unicode="b" horiz-adv-x="608" 
d="M176 235q0 -65 41 -105t102 -40q59 0 100 41t41 104q0 62 -40 102t-101 40q-57 0 -100 -39q-43 -37 -43 -103zM175 68v-68h-103v721h103v-321q21 36 63 56.5t94 20.5q98 0 165 -67q68 -68 68 -177q0 -107 -69 -175q-68 -68 -165 -68q-50 0 -92.5 21t-63.5 57z" />
    <glyph glyph-name="c" unicode="c" horiz-adv-x="514" 
d="M291 477q116 0 185 -81l-80 -64q-39 45 -105 45q-61 0 -104 -40q-43 -39 -43 -102q0 -65 43 -105q44 -41 104 -41q65 0 105 46l81 -63q-69 -82 -186 -82q-102 0 -176 68q-73 69 -73 177q0 107 72 175q73 67 177 67z" />
    <glyph glyph-name="d" unicode="d" horiz-adv-x="608" 
d="M536 0h-102v68q-21 -36 -64 -57t-94 -21q-98 0 -165 67q-68 68 -68 176q0 109 67 176q68 68 166 68q52 0 94.5 -20.5t63.5 -56.5v321h102v-721zM432 235q0 66 -43 103q-44 39 -100 39q-61 0 -100.5 -39.5t-39.5 -102.5q0 -65 40 -105t100 -40q61 0 102 40t41 105z" />
    <glyph glyph-name="e" unicode="e" horiz-adv-x="553" 
d="M516 235q0 -31 -1 -38h-371q7 -54 46 -85.5t97 -31.5q41 0 75 17.5t52 49.5l84 -37q-29 -58 -87 -89t-129 -31q-101 0 -171 68q-69 68 -69 177t69 175q68 67 171 67q102 0 168 -67q66 -66 66 -175zM144 272h271q-7 53 -43 84t-90 31q-55 0 -93 -31t-45 -84z" />
    <glyph glyph-name="f" unicode="f" horiz-adv-x="347" 
d="M301 721h51v-99h-51q-83 0 -83 -112v-43h105v-85h-105v-382h-104v382h-89v85h89v43q0 100 47.5 155.5t139.5 55.5z" />
    <glyph glyph-name="g" unicode="g" horiz-adv-x="610" 
d="M435 233q0 65 -41 104.5t-103 39.5q-60 0 -101 -41t-41 -103q0 -63 41 -104q40 -40 101 -40q57 0 100 39q44 41 44 105zM107 -80l43 21q18 -35 54.5 -56.5t76.5 -21.5q156 0 156 184v24q-20 -37 -64 -59t-94 -22q-99 0 -167 67q-69 67 -69 175q0 110 69 177q70 68 167 68
q50 0 93.5 -21.5t64.5 -57.5v69h101v-398q0 -302 -257 -302q-69 0 -126 34.5t-90 96.5z" />
    <glyph glyph-name="h" unicode="h" horiz-adv-x="578" 
d="M175 251v-251h-103v721h103v-325q18 39 62 60q43 21 86 21q89 0 139 -55.5t50 -155.5v-266h-103v260q0 53 -29 84.5t-75 31.5q-55 0 -92.5 -32.5t-37.5 -92.5z" />
    <glyph glyph-name="i" unicode="i" horiz-adv-x="246" 
d="M174 0h-102v467h102v-467zM123 721q29 0 48.5 -18.5t19.5 -46.5t-19.5 -46.5t-48.5 -18.5q-28 0 -48.5 19t-20.5 46t20.5 46t48.5 19z" />
    <glyph glyph-name="j" unicode="j" horiz-adv-x="248" 
d="M6 -231h-68v96h56q80 0 78 105v497h104v-497q0 -201 -170 -201zM124 721q29 0 49 -18.5t20 -46.5t-20 -46.5t-49 -18.5q-28 0 -48.5 19t-20.5 46t20.5 46t48.5 19z" />
    <glyph glyph-name="k" unicode="k" horiz-adv-x="506" 
d="M505 0h-132l-199 217v-217h-102v721h102v-408l148 154h138l-199 -203z" />
    <glyph glyph-name="l" unicode="l" horiz-adv-x="247" 
d="M175 0h-103v721h103v-721z" />
    <glyph glyph-name="m" unicode="m" horiz-adv-x="873" 
d="M604 376q-51 0 -82 -34.5t-31 -90.5v-251h-103v262q-1 53 -27 83.5t-68 30.5q-53 0 -85.5 -32t-32.5 -93v-251h-103v467h103v-70q21 43 64 61q42 19 83 19q106 0 147 -93q51 93 157 93q86 0 133 -54t47 -154v-269h-103v260q0 54 -27 85t-72 31z" />
    <glyph glyph-name="n" unicode="n" horiz-adv-x="563" 
d="M175 251v-251h-103v467h103v-70q18 37 58.5 58.5t84.5 21.5q85 0 131.5 -53t46.5 -152v-272h-103v260q0 54 -26.5 85t-71.5 31q-54 0 -87 -32t-33 -93z" />
    <glyph glyph-name="o" unicode="o" horiz-adv-x="572" 
d="M285 90q61 0 101 40q41 41 41 105q0 62 -40.5 101.5t-101.5 39.5q-59 0 -100 -39t-41 -102q0 -64 41 -105q40 -40 100 -40zM285 477q104 0 174 -67q71 -68 71 -175q0 -108 -72 -177q-71 -68 -173 -68t-173 68q-70 69 -70 177t70 175t173 67z" />
    <glyph glyph-name="p" unicode="p" horiz-adv-x="606" 
d="M72 467h103v-69q21 36 64 57.5t92 21.5q96 0 164 -68t68 -176t-68 -176q-67 -67 -164 -67q-51 0 -93 20.5t-63 56.5v-294h-103v694zM176 231q0 -65 42 -104q44 -38 100 -38q60 0 100 39.5t40 102.5q0 64 -41 105t-99 41q-60 0 -101 -40q-41 -41 -41 -106z" />
    <glyph glyph-name="q" unicode="q" horiz-adv-x="606" 
d="M430 231q0 65 -40.5 105.5t-101.5 40.5q-58 0 -99 -41q-40 -40 -40 -105q0 -63 39.5 -102.5t99.5 -39.5q56 0 99 38q43 39 43 104zM431 398v69h103v-694h-103v294q-20 -36 -62.5 -56.5t-93.5 -20.5q-98 0 -165 67t-67 176t67 176q68 68 165 68q50 0 93 -21.5t63 -57.5z
" />
    <glyph glyph-name="r" unicode="r" horiz-adv-x="399" 
d="M175 168v-168h-103v467h103v-107q35 117 128 117q56 0 83 -18l-17 -95q-31 16 -69 16q-62 0 -93.5 -56t-31.5 -156z" />
    <glyph glyph-name="s" unicode="s" horiz-adv-x="444" 
d="M244 187l-63 15q-72 20 -103 57t-26 95q5 53 53 87q49 36 114 36q72 0 119 -35.5t51 -102.5h-98q-3 24 -22 37t-46 13q-51 0 -66 -26q-12 -19 -4 -42q7 -23 57 -36l72 -18q122 -30 122 -136q0 -65 -51.5 -103t-134.5 -38q-69 0 -124 41q-54 42 -55 112h95q4 -31 28.5 -49
t63.5 -18q37 0 60 15t23 41q0 40 -65 55z" />
    <glyph glyph-name="t" unicode="t" horiz-adv-x="336" 
d="M109 644h103v-177h99v-85h-99v-382h-103v382h-84v85h84v177z" />
    <glyph glyph-name="u" unicode="u" horiz-adv-x="562" 
d="M388 216v251h103v-467h-103v68q-18 -36 -58 -57t-81 -21q-87 0 -134.5 53.5t-46.5 151.5v272h103v-260q0 -55 26.5 -86t70.5 -31q54 0 87 31.5t33 94.5z" />
    <glyph glyph-name="v" unicode="v" horiz-adv-x="511" 
d="M303 0h-95l-195 467h109l134 -336l132 336h110z" />
    <glyph glyph-name="w" unicode="w" horiz-adv-x="782" 
d="M654 467h110l-171 -467h-85l-119 331l-114 -331h-84l-176 467h110l108 -315l108 315h96l108 -315z" />
    <glyph glyph-name="x" unicode="x" horiz-adv-x="506" 
d="M9 0l185 255l-153 212h122l90 -129l90 129h122l-153 -212l184 -255h-121l-122 171l-124 -171h-120z" />
    <glyph glyph-name="y" unicode="y" horiz-adv-x="507" 
d="M384 467h110l-289 -695h-108l101 250l-185 445h110l130 -320z" />
    <glyph glyph-name="z" unicode="z" horiz-adv-x="504" 
d="M57 370v97h398v-82l-268 -288h268v-97h-414v82l264 288h-248z" />
    <glyph glyph-name="braceleft" unicode="{" horiz-adv-x="399" 
d="M36 196v74q24 0 42.5 17.5t18.5 39.5v174q-1 88 56 142q58 54 142 54h69v-77h-72q-42 0 -71.5 -31t-29.5 -77v-157q0 -97 -67 -122q34 -11 50.5 -44t16.5 -78v-149q0 -45 30 -78t71 -33h72v-78h-69q-85 0 -141 55q-57 54 -57 142v170q0 21 -18.5 38.5t-42.5 17.5z" />
    <glyph glyph-name="bar" unicode="|" horiz-adv-x="227" 
d="M81 -120v917h65v-917h-65z" />
    <glyph glyph-name="braceright" unicode="}" horiz-adv-x="399" 
d="M363 270v-74q-24 0 -42.5 -17.5t-18.5 -38.5v-170q0 -88 -57 -142q-56 -55 -141 -55h-69v78h72q41 0 71 33t30 78v149q0 45 16.5 78t50.5 44q-67 25 -67 122v157q0 46 -29.5 77t-71.5 31h-72v77h69q84 0 141 -54q58 -54 57 -142v-174q0 -22 18.5 -39.5t42.5 -17.5z" />
    <glyph glyph-name="exclamdown" unicode="&#xa1;" horiz-adv-x="249" 
d="M83 283h82l14 -510h-111zM125 477q30 0 50.5 -19t20.5 -48t-20.5 -48.5t-50.5 -19.5t-50.5 19.5t-20.5 48.5t20.5 48t50.5 19z" />
    <glyph glyph-name="cent" unicode="&#xa2;" horiz-adv-x="533" 
d="M250 579h65v-103q104 -6 167 -80l-80 -64q-39 45 -105 45q-61 0 -104 -40q-43 -39 -43 -102q0 -65 43 -105q44 -41 104 -41q65 0 105 46l81 -63q-61 -74 -168 -81v-110h-65v113q-86 15 -145 80q-57 64 -57 161q0 95 57 159t145 79v106z" />
    <glyph glyph-name="sterling" unicode="&#xa3;" horiz-adv-x="643" 
d="M387 346v-61h-143v-187h198h4q42 0 46 19q1 2 1 7v50h102v-51q0 -54 -28.5 -88.5t-75.5 -34.5h-445v98h96v187h-78v61h78v120q0 106 55.5 168.5t151.5 62.5q87 0 145 -58q59 -59 59 -156h-103q0 54 -31 83.5t-77 24.5q-41 -2 -69.5 -29t-28.5 -67v-149h143z" />
    <glyph glyph-name="currency" unicode="&#xa4;" horiz-adv-x="614" 
d="M199 174l-70 -72l-59 59l71 71q-32 47 -32 107q0 59 33 108l-72 71l59 58l71 -71q48 32 107 32t108 -32l70 71l58 -58l-70 -72q32 -50 32 -107q0 -60 -32 -107l70 -71l-58 -59l-70 72q-49 -33 -108 -33t-108 33zM234 412q-30 -30 -30 -73t30 -73t73 -30t73 30
q31 30 31 73t-31 73q-30 31 -73 31t-73 -31z" />
    <glyph glyph-name="yen" unicode="&#xa5;" horiz-adv-x="702" 
d="M669 689l-262 -370h174v-65h-177v-82h177v-65h-177v-107h-109v107h-174v65h174v82h-174v65h172l-260 370h127l190 -274l192 274h127z" />
    <glyph glyph-name="brokenbar" unicode="&#xa6;" horiz-adv-x="229" 
d="M82 -120v387h65v-387h-65zM82 797h65v-388h-65v388z" />
    <glyph glyph-name="section" unicode="&#xa7;" horiz-adv-x="521" 
d="M318 220v-97q-25 -7 -54 -7q-85 0 -143 54q-58 55 -58 144v185q0 88 58 143t143 55q67 0 120.5 -38.5t73.5 -104.5l-91 -27q-30 75 -103 75q-45 0 -75.5 -29t-30.5 -74v-185q0 -46 30.5 -74.5t76.5 -28.5q29 0 53 9zM203 321v97q25 7 54 7q84 0 142 -55q59 -54 59 -143
v-185q0 -87 -59 -143q-58 -55 -142 -55q-67 0 -120.5 38.5t-73.5 104.5l91 27q30 -75 103 -75q45 0 75.5 29t30.5 74v185q0 46 -30.5 74.5t-76.5 28.5q-29 0 -53 -9z" />
    <glyph glyph-name="dieresis" unicode="&#xa8;" horiz-adv-x="540" 
d="M185 683q26 0 44.5 -17.5t18.5 -43.5t-18.5 -44t-44.5 -18q-27 0 -46 18t-19 44t19 43.5t46 17.5zM356 560q-27 0 -46 18t-19 44t19 43.5t46 17.5t45.5 -17.5t18.5 -43.5t-19 -44t-45 -18z" />
    <glyph glyph-name="copyright" unicode="&#xa9;" horiz-adv-x="807" 
d="M544 222q-62 -65 -138 -65q-75 0 -128 53q-52 52 -52 128q0 75 52 127q53 53 128 53q74 0 137 -66l-46 -47q-46 46 -91 46q-47 0 -79.5 -33t-32.5 -80q0 -46 32 -81q33 -33 80 -33q45 0 93 48zM155 93q-101 104 -101 250t101 250q102 104 248 104t248 -104t102 -250
q0 -147 -102 -250t-248 -103t-248 103zM199 549q-84 -85 -84 -206t84 -206t204 -85t204 85t84 206t-84 206q-84 86 -204 86t-204 -86z" />
    <glyph glyph-name="ordfeminine" unicode="&#xaa;" horiz-adv-x="482" 
d="M400 324h-66v49q-15 -26 -45.5 -41t-65.5 -15q-69 0 -118 48t-49 124q0 77 48 123q50 48 119 48q35 0 65.5 -14.5t45.5 -40.5v48h66v-329zM334 490q0 46 -31 75t-75 29t-73.5 -29t-29.5 -75q0 -47 29 -77t74 -30t75.5 29.5t30.5 77.5zM397 214h-315v51h315v-51z" />
    <glyph glyph-name="guillemotleft" unicode="&#xab;" horiz-adv-x="494" 
d="M360 26l-138 207l138 207h86l-138 -207l138 -207h-86zM183 26l-138 207l138 207h87l-138 -207l138 -207h-87z" />
    <glyph glyph-name="logicalnot" unicode="&#xac;" horiz-adv-x="639" 
d="M73 267v95h489v-248h-96v153h-393z" />
    <glyph glyph-name="registered" unicode="&#xae;" horiz-adv-x="807" 
d="M547 165h-84l-88 122h-23v-122h-69v353h137q52 0 83 -33.5t31 -82.5q0 -40 -20 -70.5t-57 -39.5zM352 450v-95h66q21 0 34.5 14t13.5 33q0 21 -12.5 34.5t-33.5 13.5h-68zM155 93q-101 104 -101 250t101 250q102 104 248 104t248 -104t102 -250q0 -147 -102 -250
t-248 -103t-248 103zM199 549q-84 -85 -84 -206t84 -206t204 -85t204 85t84 206t-84 206q-84 86 -204 86t-204 -86z" />
    <glyph glyph-name="overscore" unicode="&#xaf;" horiz-adv-x="498" 
d="M378 572h-258v81h258v-81z" />
    <glyph glyph-name="degree" unicode="&#xb0;" horiz-adv-x="369" 
d="M184 420q-55 0 -95 40q-39 40 -39 95t39 94q40 40 95 40t95 -40q40 -39 40 -94t-40 -95q-39 -40 -95 -40zM120 555q0 -27 19 -46t45 -19q27 0 46 19t19 46q0 26 -19 45t-46 19q-26 0 -45 -19t-19 -45z" />
    <glyph glyph-name="plusminus" unicode="&#xb1;" horiz-adv-x="540" 
d="M473 281h-158v-145h-91v145h-157v90h157v143h91v-143h158v-90zM473 87v-87h-406v87h406z" />
    <glyph glyph-name="twosuperior" unicode="&#xb2;" horiz-adv-x="317" 
d="M34 431v32l157 189q26 32 26 57q0 24 -18 39.5t-44 15.5q-25 0 -44 -17.5t-23 -44.5l-58 14q8 50 43 80t83 30q52 0 88 -33.5t36 -83.5q0 -51 -42 -101l-98 -114h139v-63h-245z" />
    <glyph glyph-name="threesuperior" unicode="&#xb3;" horiz-adv-x="319" 
d="M91 735l-22 16l-24 18q18 28 48.5 43t65.5 13q48 -2 79.5 -33.5t29.5 -73.5q0 -53 -47 -77q30 -11 48 -41.5t15 -63.5q-5 -50 -47 -82q-43 -32 -97 -28q-39 3 -70.5 25t-47.5 56q5 4 26 15l27 14q9 -21 28.5 -35t40.5 -15h-1q30 -2 53 15t25 43q1 26 -19 46t-50 19h-44
v57h44q24 0 38.5 18.5t11.5 40.5q-2 18 -15.5 29.5t-33.5 11.5q-39 4 -62 -31z" />
    <glyph glyph-name="acute" unicode="&#xb4;" horiz-adv-x="522" 
d="M129 540l100 158h116l-126 -158h-90z" />
    <glyph glyph-name="mu" unicode="&#xb5;" horiz-adv-x="559" 
d="M180 -163h-100v630h103v-265q0 -53 24 -82t66 -29q52 0 86 32t34 92v252h103v-467h-103v59q-20 -32 -56 -50t-74 -18q-58 0 -87 29l4 -120v-63z" />
    <glyph glyph-name="paragraph" unicode="&#xb6;" horiz-adv-x="667" 
d="M252 689h78v-679q0 -3 0.5 -12t0.5 -15v-10q0 -25 -39 -25h-50v307q-85 4 -147 68q-60 63 -60 149q0 90 63 153q63 64 154 64zM500 601h-24v-650q0 -52 -41 -93q-41 -43 -96 -44h-11h-87v80h96q20 0 36 13.5t16 32.5v749h104q55 0 96 -41t41 -96v-85h-85v83q0 21 -13 36
t-32 15z" />
    <glyph glyph-name="middot" unicode="&#xb7;" horiz-adv-x="274" 
d="M136 343q30 0 51 -19.5t21 -48.5t-21 -48.5t-51 -19.5q-29 0 -49.5 19.5t-20.5 48.5t20.5 48.5t49.5 19.5z" />
    <glyph glyph-name="cedilla" unicode="&#xb8;" horiz-adv-x="524" 
d="M230 -111q13 -31 47 -22q15 7 20 21t-1 29l-44 122h53l51 -94q8 -18 8 -44q0 -39 -30 -70q-28 -31 -73 -31q-42 0 -71.5 33t-29.5 83l67 -4q-2 -14 3 -23z" />
    <glyph glyph-name="onesuperior" unicode="&#xb9;" horiz-adv-x="209" 
d="M156 431h-65v297l-67 -33v60l132 70v-394z" />
    <glyph glyph-name="ordmasculine" unicode="&#xba;" horiz-adv-x="474" 
d="M63 490q0 75 50 122q49 48 122 48t122 -48q50 -47 50 -122t-50 -125q-49 -48 -122 -48t-122 48q-50 50 -50 125zM235 383q45 0 75 30t30 77q0 45 -30 74.5t-75 29.5t-75 -29.5t-30 -74.5q0 -48 30 -77.5t75 -29.5zM402 214h-327v51h327v-51z" />
    <glyph glyph-name="guillemotright" unicode="&#xbb;" horiz-adv-x="494" 
d="M48 440h86l138 -207l-138 -207h-86l138 207zM224 440h87l138 -207l-138 -207h-87l138 207z" />
    <glyph glyph-name="onequarter" unicode="&#xbc;" horiz-adv-x="751" 
d="M711 80h-54v-80h-65v80h-197l208 310h54v-251h54v-59zM592 282l-93 -143h93v143zM547 668h71l-451 -678h-71zM175 264h-65v297l-67 -33v60l132 70v-394z" />
    <glyph glyph-name="onehalf" unicode="&#xbd;" horiz-adv-x="800" 
d="M505 0v32l157 189q26 32 26 57q0 24 -18 39.5t-44 15.5q-25 0 -44 -17.5t-23 -44.5l-58 14q8 50 43 80t83 30q52 0 88 -33.5t36 -83.5q0 -52 -42 -101l-98 -114h139v-63h-245zM547 668h71l-451 -678h-71zM175 264h-65v297l-67 -33v60l132 70v-394z" />
    <glyph glyph-name="threequarters" unicode="&#xbe;" horiz-adv-x="810" 
d="M111 564q-5 4 -24 18q-6 4 -11 8t-9 7t-5 4q17 28 48.5 44t67.5 14q48 -2 80 -34t31 -75q0 -45 -43 -76q60 -27 58 -98q-2 -55 -42 -86q-42 -32 -97 -31q-37 1 -73 23.5t-51 55.5l55 30q9 -18 30.5 -31t42.5 -14q28 -1 47.5 14.5t20.5 40.5q1 26 -15 44.5t-45 18.5h-52
v60h46q36 0 47 41q2 23 -12 38.5t-40 15.5q-32 0 -55 -32zM770 80h-54v-80h-65v80h-197l208 310h54v-251h54v-59zM651 282l-93 -143h93v143zM609 668h71l-451 -678h-71z" />
    <glyph glyph-name="questiondown" unicode="&#xbf;" horiz-adv-x="476" 
d="M241 231l2 51h100v-51q0 -76 -33 -108q-12 -12 -34 -26q-7 -4 -28 -15t-40.5 -21.5t-32.5 -19.5q-40 -28 -40 -75q0 -40 30.5 -66.5t74.5 -26.5q43 0 72 30t29 77h99q0 -94 -58 -151q-57 -58 -142 -58q-87 0 -147 54q-60 53 -60 141q0 68 39 119t103 70q35 10 50.5 27
t15.5 49zM292 342q-30 0 -50.5 19.5t-20.5 48.5t20.5 48t50.5 19t50.5 -19t20.5 -48t-20.5 -48.5t-50.5 -19.5z" />
    <glyph glyph-name="Agrave" unicode="&#xc0;" horiz-adv-x="647" 
d="M641 0h-112l-66 172h-278l-66 -172h-113l260 689h115zM427 267l-103 289l-103 -289h206zM282 762l-126 158h116l100 -158h-90z" />
    <glyph glyph-name="Aacute" unicode="&#xc1;" horiz-adv-x="647" 
d="M463 172h-278l-66 -172h-113l260 689h115l260 -689h-112zM221 267h206l-103 289zM277 762l100 158h116l-126 -158h-90z" />
    <glyph glyph-name="Acircumflex" unicode="&#xc2;" horiz-adv-x="647" 
d="M641 0h-112l-66 172h-278l-66 -172h-113l260 689h115zM427 267l-103 289l-103 -289h206zM161 763l110 158h104l110 -158h-87l-76 88l-75 -88h-86z" />
    <glyph glyph-name="Atilde" unicode="&#xc3;" horiz-adv-x="647" 
d="M641 0h-112l-66 172h-278l-66 -172h-113l260 689h115zM427 267l-103 289l-103 -289h206zM252 777h-65q3 60 28.5 90t63.5 30q27 0 52 -21q28 -20 36 -20q11 0 19 10.5t9 30.5h64q-3 -59 -28.5 -88t-63.5 -29q-24 0 -52 20q-27 21 -36 21q-10 0 -18 -12t-9 -32z" />
    <glyph glyph-name="Adieresis" unicode="&#xc4;" horiz-adv-x="647" 
d="M463 172h-278l-66 -172h-113l260 689h115l260 -689h-112zM221 267h206l-103 289zM238 905q26 0 44.5 -17.5t18.5 -43.5t-18.5 -44t-44.5 -18q-27 0 -46 18t-19 44t19 43.5t46 17.5zM409 782q-27 0 -46 18t-19 44t19 43.5t46 17.5t45.5 -17.5t18.5 -43.5t-19 -44t-45 -18z
" />
    <glyph glyph-name="Aring" unicode="&#xc5;" horiz-adv-x="647" 
d="M463 172h-278l-66 -172h-113l260 689h115l260 -689h-112zM221 267h206l-103 289zM214 860q0 47 31.5 79t76.5 32q47 0 79 -32t32 -79q0 -45 -32.5 -76.5t-78.5 -31.5q-45 0 -76.5 31.5t-31.5 76.5zM270 860q0 -21 15 -36.5t37 -15.5t38.5 15.5t16.5 36.5q0 23 -16 39
t-39 16q-22 0 -37 -16t-15 -39z" />
    <glyph glyph-name="AE" unicode="&#xc6;" horiz-adv-x="931" 
d="M-7 0l435 689h441v-101h-307v-199h269v-101h-269v-187h318v-101h-424v169h-230l-108 -169h-125zM456 271v272l-168 -272h168z" />
    <glyph glyph-name="Ccedilla" unicode="&#xc7;" horiz-adv-x="685" 
d="M321 -111q13 -31 47 -22q15 7 20 21t-1 29l-27 75q-134 14 -223 113q-89 101 -89 238q0 146 101 250t247 104q80 0 149 -32.5t117 -91.5l-82 -64q-77 86 -184 86q-101 0 -172 -74q-70 -73 -70 -178t70 -178t172 -73q116 0 186 90l82 -65q-90 -115 -242 -126l25 -46
q8 -18 8 -44q0 -39 -30 -70q-28 -31 -73 -31q-42 0 -71.5 33t-29.5 83l67 -4q-2 -14 3 -23z" />
    <glyph glyph-name="Egrave" unicode="&#xc8;" horiz-adv-x="567" 
d="M515 0h-425v689h415v-98h-309v-204h270v-97h-270v-193h319v-97zM285 762l-126 158h116l100 -158h-90z" />
    <glyph glyph-name="Eacute" unicode="&#xc9;" horiz-adv-x="567" 
d="M90 689h415v-98h-309v-204h270v-97h-270v-193h319v-97h-425v689zM216 762l100 158h116l-126 -158h-90z" />
    <glyph glyph-name="Ecircumflex" unicode="&#xca;" horiz-adv-x="567" 
d="M515 0h-425v689h415v-98h-309v-204h270v-97h-270v-193h319v-97zM120 763l110 158h104l110 -158h-87l-76 88l-75 -88h-86z" />
    <glyph glyph-name="Edieresis" unicode="&#xcb;" horiz-adv-x="567" 
d="M90 689h415v-98h-309v-204h270v-97h-270v-193h319v-97h-425v689zM207 905q26 0 44.5 -17.5t18.5 -43.5t-18.5 -44t-44.5 -18q-27 0 -46 18t-19 44t19 43.5t46 17.5zM378 782q-27 0 -46 18t-19 44t19 43.5t46 17.5t45.5 -17.5t18.5 -43.5t-19 -44t-45 -18z" />
    <glyph glyph-name="Igrave" unicode="&#xcc;" horiz-adv-x="286" 
d="M196 0h-106v689h106v-689zM100 762l-126 158h116l100 -158h-90z" />
    <glyph glyph-name="Iacute" unicode="&#xcd;" horiz-adv-x="286" 
d="M90 689h106v-689h-106v689zM93 762l100 158h116l-126 -158h-90z" />
    <glyph glyph-name="Icircumflex" unicode="&#xce;" horiz-adv-x="286" 
d="M-19 763l110 158h104l110 -158h-87l-76 88l-75 -88h-86zM196 0h-106v689h106v-689z" />
    <glyph glyph-name="Idieresis" unicode="&#xcf;" horiz-adv-x="286" 
d="M90 689h106v-689h-106v689zM58 905q26 0 44.5 -17.5t18.5 -43.5t-18.5 -44t-44.5 -18q-27 0 -46 18t-19 44t19 43.5t46 17.5zM229 782q-27 0 -46 18t-19 44t19 43.5t46 17.5t45.5 -17.5t18.5 -43.5t-19 -44t-45 -18z" />
    <glyph glyph-name="Eth" unicode="&#xd0;" horiz-adv-x="723" 
d="M99 304h-93v76h93v309h265q144 0 226 -97t82 -249t-82 -247q-82 -96 -226 -96h-265v304zM360 304h-154v-202h158q97 0 149 67q53 68 53 174q0 107 -53 175q-53 69 -149 69h-158v-207h154v-76z" />
    <glyph glyph-name="Ntilde" unicode="&#xd1;" horiz-adv-x="681" 
d="M485 689h106v-689h-99l-296 493v-493h-106v689h102l293 -489v489zM296 821q-10 0 -18 -12t-9 -32h-65q3 60 28.5 90t63.5 30q26 0 52 -21q28 -20 36 -20q11 0 19 10.5t9 30.5h64q-3 -59 -28.5 -88t-63.5 -29q-24 0 -52 20q-26 21 -36 21z" />
    <glyph glyph-name="Ograve" unicode="&#xd2;" horiz-adv-x="792" 
d="M223 520q-70 -73 -70 -177t70 -177q70 -72 172 -72q101 0 172 72q71 74 71 177t-71 177q-70 73 -172 73t-172 -73zM47 343q0 147 101 251q100 103 247 103q148 0 248 -103q102 -104 102 -251t-102 -250q-100 -103 -248 -103q-147 0 -247 103q-101 104 -101 250zM349 762
l-126 158h116l100 -158h-90z" />
    <glyph glyph-name="Oacute" unicode="&#xd3;" horiz-adv-x="792" 
d="M223 166q70 -72 172 -72q101 0 172 72q71 74 71 177t-71 177q-70 73 -172 73t-172 -73t-70 -177t70 -177zM47 343q0 147 101 251q100 103 247 103q148 0 248 -103q102 -104 102 -251t-102 -250q-100 -103 -248 -103q-147 0 -247 103q-101 104 -101 250zM348 762l100 158
h116l-126 -158h-90z" />
    <glyph glyph-name="Ocircumflex" unicode="&#xd4;" horiz-adv-x="792" 
d="M223 520q-70 -73 -70 -177t70 -177q70 -72 172 -72q101 0 172 72q71 74 71 177t-71 177q-70 73 -172 73t-172 -73zM47 343q0 147 101 251q100 103 247 103q148 0 248 -103q102 -104 102 -251t-102 -250q-100 -103 -248 -103q-147 0 -247 103q-101 104 -101 250zM234 763
l110 158h104l110 -158h-87l-76 88l-75 -88h-86z" />
    <glyph glyph-name="Otilde" unicode="&#xd5;" horiz-adv-x="792" 
d="M223 520q-70 -73 -70 -177t70 -177q70 -72 172 -72q101 0 172 72q71 74 71 177t-71 177q-70 73 -172 73t-172 -73zM47 343q0 147 101 251q100 103 247 103q148 0 248 -103q102 -104 102 -251t-102 -250q-100 -103 -248 -103q-147 0 -247 103q-101 104 -101 250zM352 821
q-10 0 -18 -12t-9 -32h-65q3 60 28.5 90t63.5 30q26 0 52 -21q28 -20 36 -20q11 0 19 10.5t9 30.5h64q-3 -59 -28.5 -88t-63.5 -29q-23 0 -51 20q-27 21 -37 21z" />
    <glyph glyph-name="Odieresis" unicode="&#xd6;" horiz-adv-x="792" 
d="M223 166q70 -72 172 -72q101 0 172 72q71 74 71 177t-71 177q-70 73 -172 73t-172 -73t-70 -177t70 -177zM47 343q0 147 101 251q100 103 247 103q148 0 248 -103q102 -104 102 -251t-102 -250q-100 -103 -248 -103q-147 0 -247 103q-101 104 -101 250zM311 905
q26 0 44.5 -17.5t18.5 -43.5t-18.5 -44t-44.5 -18q-27 0 -46 18t-19 44t19 43.5t46 17.5zM482 782q-27 0 -46 18t-19 44t19 43.5t46 17.5t45.5 -17.5t18.5 -43.5t-19 -44t-45 -18z" />
    <glyph glyph-name="multiply" unicode="&#xd7;" horiz-adv-x="495" 
d="M434 391l-122 -122l122 -122l-63 -65l-123 123l-121 -121l-65 63l123 122l-123 122l64 63l122 -121l123 123z" />
    <glyph glyph-name="Oslash" unicode="&#xd8;" horiz-adv-x="790" 
d="M176 66l-80 -82l-47 47l80 82q-83 100 -83 230q0 147 101 251q100 103 247 103q126 0 224 -81l79 81l47 -46l-80 -82q80 -100 80 -226q0 -147 -102 -250q-100 -103 -248 -103q-100 0 -183 52q-22 13 -35 24zM152 343q0 -86 50 -154l342 351q-65 53 -150 53
q-102 0 -172 -73t-70 -177zM394 94q102 0 172 72q71 74 71 177q0 83 -48 149l-340 -350q61 -48 145 -48z" />
    <glyph glyph-name="Ugrave" unicode="&#xd9;" horiz-adv-x="677" 
d="M487 239v450h107v-450q0 -109 -75 -180q-73 -69 -180 -69t-182 69q-74 71 -74 180v450h108v-450q0 -66 43 -106q44 -41 105 -41q60 0 104 41t44 106zM308 762l-126 158h116l100 -158h-90z" />
    <glyph glyph-name="Uacute" unicode="&#xda;" horiz-adv-x="677" 
d="M487 239v450h107v-450q0 -109 -75 -180q-73 -69 -180 -69t-182 69q-74 71 -74 180v450h108v-450q0 -66 43 -106q44 -41 105 -41q60 0 104 41t44 106zM271 762l100 158h116l-126 -158h-90z" />
    <glyph glyph-name="Ucircumflex" unicode="&#xdb;" horiz-adv-x="677" 
d="M487 239v450h107v-450q0 -109 -75 -180q-73 -69 -180 -69t-182 69q-74 71 -74 180v450h108v-450q0 -66 43 -106q44 -41 105 -41q60 0 104 41t44 106zM176 763l110 158h104l110 -158h-87l-76 88l-75 -88h-86z" />
    <glyph glyph-name="Udieresis" unicode="&#xdc;" horiz-adv-x="677" 
d="M487 239v450h107v-450q0 -109 -75 -180q-73 -69 -180 -69t-182 69q-74 71 -74 180v450h108v-450q0 -66 43 -106q44 -41 105 -41q60 0 104 41t44 106zM253 905q26 0 44.5 -17.5t18.5 -43.5t-18.5 -44t-44.5 -18q-27 0 -46 18t-19 44t19 43.5t46 17.5zM424 782
q-27 0 -46 18t-19 44t19 43.5t46 17.5t45.5 -17.5t18.5 -43.5t-19 -44t-45 -18z" />
    <glyph glyph-name="Yacute" unicode="&#xdd;" horiz-adv-x="634" 
d="M371 315v-315h-109v316l-262 373h127l190 -274l192 274h127zM250 762l100 158h116l-126 -158h-90z" />
    <glyph glyph-name="Thorn" unicode="&#xde;" horiz-adv-x="572" 
d="M318 472h-122v-239h128q46 0 78 34t32 86t-33 84.5t-83 34.5zM326 135h-130v-135h-106v689h106v-120h130q90 0 152 -60q62 -59 62 -155q0 -97 -62 -159q-62 -60 -152 -60z" />
    <glyph glyph-name="germandbls" unicode="&#xdf;" horiz-adv-x="565" 
d="M211 3l7 97q39 -13 74 -13q57 0 94 40q39 41 39 93q0 50 -39 91q-38 41 -95 41h-35v86h31q35 0 59.5 25t24.5 59q0 33 -26.5 55t-66.5 23q-49 0 -78 -34.5t-29 -86.5v-479h-99v490q0 95 55 151t144 56q84 0 141 -48t57 -122q0 -73 -63 -120q52 -25 84.5 -77t32.5 -112
q0 -96 -65 -163q-65 -65 -165 -65q-40 -2 -82 13z" />
    <glyph glyph-name="agrave" unicode="&#xe0;" horiz-adv-x="610" 
d="M538 0h-102v67q-21 -35 -65.5 -56t-91.5 -21q-97 0 -168 68q-69 68 -69 176t69 175q71 68 168 68q47 0 90.5 -20t66.5 -56v66h102v-467zM435 235q0 65 -44 103q-43 39 -100 39q-61 0 -102 -40q-41 -39 -41 -102t41 -104q43 -41 102 -41q61 0 102.5 40t41.5 105zM285 540
l-126 158h116l100 -158h-90z" />
    <glyph glyph-name="aacute" unicode="&#xe1;" horiz-adv-x="610" 
d="M538 0h-102v67q-21 -35 -65.5 -56t-91.5 -21q-97 0 -168 68q-69 68 -69 176t69 175q71 68 168 68q47 0 90.5 -20t66.5 -56v66h102v-467zM435 235q0 65 -44 103q-43 39 -100 39q-61 0 -102 -40q-41 -39 -41 -102t41 -104q43 -41 102 -41q61 0 102.5 40t41.5 105zM233 540
l100 158h116l-126 -158h-90z" />
    <glyph glyph-name="acircumflex" unicode="&#xe2;" horiz-adv-x="610" 
d="M538 0h-102v67q-21 -35 -65.5 -56t-91.5 -21q-97 0 -168 68q-69 68 -69 176t69 175q71 68 168 68q47 0 90.5 -20t66.5 -56v66h102v-467zM435 235q0 65 -44 103q-43 39 -100 39q-61 0 -102 -40q-41 -39 -41 -102t41 -104q43 -41 102 -41q61 0 102.5 40t41.5 105zM143 541
l110 158h104l110 -158h-87l-76 88l-75 -88h-86z" />
    <glyph glyph-name="atilde" unicode="&#xe3;" horiz-adv-x="610" 
d="M538 0h-102v67q-21 -35 -65.5 -56t-91.5 -21q-97 0 -168 68q-69 68 -69 176t69 175q71 68 168 68q47 0 90.5 -20t66.5 -56v66h102v-467zM435 235q0 65 -44 103q-43 39 -100 39q-61 0 -102 -40q-41 -39 -41 -102t41 -104q43 -41 102 -41q61 0 102.5 40t41.5 105zM234 555
h-65q3 60 28.5 90t63.5 30q27 0 52 -21q28 -20 36 -20q11 0 19 10.5t9 30.5h64q-3 -59 -28.5 -88t-63.5 -29q-24 0 -52 20q-27 21 -36 21q-10 0 -18 -12t-9 -32z" />
    <glyph glyph-name="adieresis" unicode="&#xe4;" horiz-adv-x="610" 
d="M538 0h-102v67q-21 -35 -65.5 -56t-91.5 -21q-97 0 -168 68q-69 68 -69 176t69 175q71 68 168 68q47 0 90.5 -20t66.5 -56v66h102v-467zM435 235q0 65 -44 103q-43 39 -100 39q-61 0 -102 -40q-41 -39 -41 -102t41 -104q43 -41 102 -41q61 0 102.5 40t41.5 105zM220 683
q26 0 44.5 -17.5t18.5 -43.5t-18.5 -44t-44.5 -18q-27 0 -46 18t-19 44t19 43.5t46 17.5zM391 560q-27 0 -46 18t-19 44t19 43.5t46 17.5t45.5 -17.5t18.5 -43.5t-19 -44t-45 -18z" />
    <glyph glyph-name="aring" unicode="&#xe5;" horiz-adv-x="610" 
d="M538 0h-102v67q-21 -35 -65.5 -56t-91.5 -21q-97 0 -168 68q-69 68 -69 176t69 175q71 68 168 68q47 0 90.5 -20t66.5 -56v66h102v-467zM435 235q0 65 -44 103q-43 39 -100 39q-61 0 -102 -40q-41 -39 -41 -102t41 -104q43 -41 102 -41q61 0 102.5 40t41.5 105zM195 638
q0 47 31.5 79t76.5 32q47 0 79 -32t32 -79q0 -45 -32.5 -76.5t-78.5 -31.5q-45 0 -76.5 31.5t-31.5 76.5zM251 638q0 -21 15 -36.5t37 -15.5t38.5 15.5t16.5 36.5q0 23 -16 39t-39 16q-22 0 -37 -16t-15 -39z" />
    <glyph glyph-name="ae" unicode="&#xe6;" horiz-adv-x="969" 
d="M560 272h270q-7 53 -42.5 84t-89.5 31q-55 0 -93 -31t-45 -84zM435 235q0 65 -44 103q-43 39 -100 39q-61 0 -102 -40q-41 -39 -41 -102t41 -104q43 -41 102 -41q61 0 102.5 40t41.5 105zM932 235q0 -12 -2 -38h-370q7 -54 46 -85.5t97 -31.5q41 0 75 17.5t52 49.5
l84 -37q-29 -58 -87 -89t-129 -31q-98 0 -163 63v-53h-99v67q-21 -35 -65.5 -56t-91.5 -21q-97 0 -168 68q-69 68 -69 176t69 175q71 68 168 68q47 0 90.5 -20t66.5 -56v66h99v-52q65 62 163 62q102 0 168 -67q66 -66 66 -175z" />
    <glyph glyph-name="ccedilla" unicode="&#xe7;" horiz-adv-x="515" 
d="M321 -8l26 -47q8 -14 8 -44q0 -39 -30 -70q-28 -31 -73 -31q-42 0 -71.5 33t-29.5 83l67 -4q-2 -14 3 -23q13 -31 47 -22q15 7 20 21t-1 29l-27 75q-93 11 -155 77q-62 68 -62 166q0 107 72 175q73 67 177 67q116 0 185 -81l-80 -64q-39 45 -105 45q-61 0 -104 -40
q-43 -39 -43 -102q0 -65 43 -105q44 -41 104 -41q65 0 105 46l81 -63q-59 -70 -157 -80z" />
    <glyph glyph-name="egrave" unicode="&#xe8;" horiz-adv-x="553" 
d="M516 235q0 -31 -1 -38h-371q7 -54 46 -85.5t97 -31.5q41 0 75 17.5t52 49.5l84 -37q-29 -58 -87 -89t-129 -31q-101 0 -171 68q-69 68 -69 177t69 175q68 67 171 67q102 0 168 -67q66 -66 66 -175zM144 272h271q-7 53 -43 84t-90 31q-55 0 -93 -31t-45 -84zM247 540
l-126 158h116l100 -158h-90z" />
    <glyph glyph-name="eacute" unicode="&#xe9;" horiz-adv-x="553" 
d="M516 235q0 -31 -1 -38h-371q7 -54 46 -85.5t97 -31.5q41 0 75 17.5t52 49.5l84 -37q-29 -58 -87 -89t-129 -31q-101 0 -171 68q-69 68 -69 177t69 175q68 67 171 67q102 0 168 -67q66 -66 66 -175zM144 272h271q-7 53 -43 84t-90 31q-55 0 -93 -31t-45 -84zM217 540
l100 158h116l-126 -158h-90z" />
    <glyph glyph-name="ecircumflex" unicode="&#xea;" horiz-adv-x="553" 
d="M516 235q0 -31 -1 -38h-371q7 -54 46 -85.5t97 -31.5q41 0 75 17.5t52 49.5l84 -37q-29 -58 -87 -89t-129 -31q-101 0 -171 68q-69 68 -69 177t69 175q68 67 171 67q102 0 168 -67q66 -66 66 -175zM144 272h271q-7 53 -43 84t-90 31q-55 0 -93 -31t-45 -84zM117 541
l110 158h104l110 -158h-87l-76 88l-75 -88h-86z" />
    <glyph glyph-name="edieresis" unicode="&#xeb;" horiz-adv-x="553" 
d="M516 235q0 -31 -1 -38h-371q7 -54 46 -85.5t97 -31.5q41 0 75 17.5t52 49.5l84 -37q-29 -58 -87 -89t-129 -31q-101 0 -171 68q-69 68 -69 177t69 175q68 67 171 67q102 0 168 -67q66 -66 66 -175zM144 272h271q-7 53 -43 84t-90 31q-55 0 -93 -31t-45 -84zM194 683
q26 0 44.5 -17.5t18.5 -43.5t-18.5 -44t-44.5 -18q-27 0 -46 18t-19 44t19 43.5t46 17.5zM365 560q-27 0 -46 18t-19 44t19 43.5t46 17.5t45.5 -17.5t18.5 -43.5t-19 -44t-45 -18z" />
    <glyph glyph-name="igrave" unicode="&#xec;" horiz-adv-x="246" 
d="M72 0v467h102v-467h-102zM81 540l-126 158h116l100 -158h-90z" />
    <glyph glyph-name="iacute" unicode="&#xed;" horiz-adv-x="246" 
d="M174 467v-467h-102v467h102zM75 540l100 158h116l-126 -158h-90z" />
    <glyph glyph-name="icircumflex" unicode="&#xee;" horiz-adv-x="246" 
d="M-49 541l110 158h104l110 -158h-87l-76 88l-75 -88h-86zM72 0v467h102v-467h-102z" />
    <glyph glyph-name="idieresis" unicode="&#xef;" horiz-adv-x="246" 
d="M174 467v-467h-102v467h102zM28 683q26 0 44.5 -17.5t18.5 -43.5t-18.5 -44t-44.5 -18q-27 0 -46 18t-19 44t19 43.5t46 17.5zM199 560q-27 0 -46 18t-19 44t19 43.5t46 17.5t45.5 -17.5t18.5 -43.5t-19 -44t-45 -18z" />
    <glyph glyph-name="eth" unicode="&#xf0;" horiz-adv-x="572" 
d="M386 635l-69 -42l166 -212q46 -62 46 -146q0 -108 -71 -177q-71 -68 -172 -68q-102 0 -173 68q-71 69 -71 177q0 104 67 171q68 68 160 68q24 0 39 -7l-70 80l-85 -49l-31 47l80 47l-75 97h112l41 -51l70 39zM286 89q59 0 102 41q43 40 43 105q0 64 -42 103
q-41 40 -103 40t-103.5 -40t-41.5 -103q0 -65 42 -106q41 -40 103 -40z" />
    <glyph glyph-name="ntilde" unicode="&#xf1;" horiz-adv-x="563" 
d="M175 251v-251h-103v467h103v-70q18 37 58.5 58.5t84.5 21.5q85 0 131.5 -53t46.5 -152v-272h-103v260q0 54 -26.5 85t-71.5 31q-54 0 -87 -32t-33 -93zM240 599q-10 0 -18 -12t-9 -32h-65q3 60 28.5 90t63.5 30q26 0 52 -21q28 -20 36 -20q11 0 19 10.5t9 30.5h64
q-3 -59 -28.5 -88t-63.5 -29q-23 0 -51 20q-27 21 -37 21z" />
    <glyph glyph-name="ograve" unicode="&#xf2;" horiz-adv-x="572" 
d="M285 90q61 0 101 40q41 41 41 105q0 62 -40.5 101.5t-101.5 39.5q-59 0 -100 -39t-41 -102q0 -64 41 -105q40 -40 100 -40zM285 477q104 0 174 -67q71 -68 71 -175q0 -108 -72 -177q-71 -68 -173 -68t-173 68q-70 69 -70 177t70 175t173 67zM235 540l-126 158h116
l100 -158h-90z" />
    <glyph glyph-name="oacute" unicode="&#xf3;" horiz-adv-x="572" 
d="M285 90q61 0 101 40q41 41 41 105q0 62 -40.5 101.5t-101.5 39.5q-59 0 -100 -39t-41 -102q0 -64 41 -105q40 -40 100 -40zM285 477q104 0 174 -67q71 -68 71 -175q0 -108 -72 -177q-71 -68 -173 -68t-173 68q-70 69 -70 177t70 175t173 67zM237 540l100 158h116
l-126 -158h-90z" />
    <glyph glyph-name="ocircumflex" unicode="&#xf4;" horiz-adv-x="572" 
d="M285 90q61 0 101 40q41 41 41 105q0 62 -40.5 101.5t-101.5 39.5q-59 0 -100 -39t-41 -102q0 -64 41 -105q40 -40 100 -40zM285 477q104 0 174 -67q71 -68 71 -175q0 -108 -72 -177q-71 -68 -173 -68t-173 68q-70 69 -70 177t70 175t173 67zM124 541l110 158h104
l110 -158h-87l-76 88l-75 -88h-86z" />
    <glyph glyph-name="otilde" unicode="&#xf5;" horiz-adv-x="572" 
d="M285 90q61 0 101 40q41 41 41 105q0 62 -40.5 101.5t-101.5 39.5q-59 0 -100 -39t-41 -102q0 -64 41 -105q40 -40 100 -40zM285 477q104 0 174 -67q71 -68 71 -175q0 -108 -72 -177q-71 -68 -173 -68t-173 68q-70 69 -70 177t70 175t173 67zM242 599q-10 0 -18 -12
t-9 -32h-65q3 60 28.5 90t63.5 30q26 0 52 -21q28 -20 36 -20q11 0 19 10.5t9 30.5h64q-3 -59 -28.5 -88t-63.5 -29q-23 0 -51 20q-27 21 -37 21z" />
    <glyph glyph-name="odieresis" unicode="&#xf6;" horiz-adv-x="572" 
d="M285 90q61 0 101 40q41 41 41 105q0 62 -40.5 101.5t-101.5 39.5q-59 0 -100 -39t-41 -102q0 -64 41 -105q40 -40 100 -40zM285 477q104 0 174 -67q71 -68 71 -175q0 -108 -72 -177q-71 -68 -173 -68t-173 68q-70 69 -70 177t70 175t173 67zM201 683q26 0 44.5 -17.5
t18.5 -43.5t-18.5 -44t-44.5 -18q-27 0 -46 18t-19 44t19 43.5t46 17.5zM372 560q-27 0 -46 18t-19 44t19 43.5t46 17.5t45.5 -17.5t18.5 -43.5t-19 -44t-45 -18z" />
    <glyph glyph-name="divide" unicode="&#xf7;" horiz-adv-x="548" 
d="M225 37q-20 19 -20 47t20 47q21 19 49 19t48 -19q21 -19 21 -47t-21 -47q-20 -19 -48 -19t-49 19zM225 377q-20 19 -20 47t20 46q21 19 49 19t48 -19q21 -18 21 -46t-21 -47q-20 -19 -48 -19t-49 19zM60 209v86h428v-86h-428z" />
    <glyph glyph-name="oslash" unicode="&#xf8;" horiz-adv-x="572" 
d="M285 -10q-82 0 -143 43l-57 -58l-47 47l56 57q-52 64 -52 156q0 108 70 175t173 67q83 0 150 -48l51 52l47 -46l-51 -52q48 -65 48 -148q0 -108 -72 -177q-71 -68 -173 -68zM285 376q-59 0 -100 -39t-41 -102q0 -50 22 -81l197 201q-35 21 -78 21zM285 90q61 0 101 40
q41 41 41 105q0 39 -18 72l-194 -199q30 -18 70 -18z" />
    <glyph glyph-name="ugrave" unicode="&#xf9;" horiz-adv-x="562" 
d="M388 216v251h103v-467h-103v68q-18 -36 -58 -57t-81 -21q-87 0 -134.5 53.5t-46.5 151.5v272h103v-260q0 -55 26.5 -86t70.5 -31q54 0 87 31.5t33 94.5zM249 540l-126 158h116l100 -158h-90z" />
    <glyph glyph-name="uacute" unicode="&#xfa;" horiz-adv-x="562" 
d="M388 216v251h103v-467h-103v68q-18 -36 -58 -57t-81 -21q-87 0 -134.5 53.5t-46.5 151.5v272h103v-260q0 -55 26.5 -86t70.5 -31q54 0 87 31.5t33 94.5zM214 540l100 158h116l-126 -158h-90z" />
    <glyph glyph-name="ucircumflex" unicode="&#xfb;" horiz-adv-x="562" 
d="M388 216v251h103v-467h-103v68q-18 -36 -58 -57t-81 -21q-87 0 -134.5 53.5t-46.5 151.5v272h103v-260q0 -55 26.5 -86t70.5 -31q54 0 87 31.5t33 94.5zM117 541l110 158h104l110 -158h-87l-76 88l-75 -88h-86z" />
    <glyph glyph-name="udieresis" unicode="&#xfc;" horiz-adv-x="562" 
d="M388 216v251h103v-467h-103v68q-18 -36 -58 -57t-81 -21q-87 0 -134.5 53.5t-46.5 151.5v272h103v-260q0 -55 26.5 -86t70.5 -31q54 0 87 31.5t33 94.5zM194 683q26 0 44.5 -17.5t18.5 -43.5t-18.5 -44t-44.5 -18q-27 0 -46 18t-19 44t19 43.5t46 17.5zM365 560
q-27 0 -46 18t-19 44t19 43.5t46 17.5t45.5 -17.5t18.5 -43.5t-19 -44t-45 -18z" />
    <glyph glyph-name="yacute" unicode="&#xfd;" horiz-adv-x="507" 
d="M205 -228h-108l101 250l-185 445h110l130 -320l131 320h110zM175 540l100 158h116l-126 -158h-90z" />
    <glyph glyph-name="thorn" unicode="&#xfe;" horiz-adv-x="601" 
d="M176 234q0 -66 41 -105t100 -39t98 40q40 40 40 104q0 63 -39 102.5t-99 39.5q-55 0 -99 -39q-42 -37 -42 -103zM175 59v-276h-103v937h103v-311q21 32 61.5 50t86.5 18q99 0 167 -68t68 -176t-68 -176q-67 -67 -167 -67q-46 0 -86.5 18.5t-61.5 50.5z" />
    <glyph glyph-name="ydieresis" unicode="&#xff;" horiz-adv-x="507" 
d="M205 -228h-108l101 250l-185 445h110l130 -320l131 320h110zM171 693q26 0 44.5 -17.5t18.5 -43.5t-18.5 -44t-44.5 -18q-27 0 -46 18t-19 44t19 43.5t46 17.5zM342 570q-27 0 -46 18t-19 44t19 43.5t46 17.5t45.5 -17.5t18.5 -43.5t-19 -44t-45 -18z" />
    <glyph glyph-name="Amacron" unicode="&#x100;" horiz-adv-x="647" 
d="M641 0h-112l-66 172h-278l-66 -172h-113l260 689h115zM427 267l-103 289l-103 -289h206zM452 794h-258v81h258v-81z" />
    <glyph glyph-name="amacron" unicode="&#x101;" horiz-adv-x="610" 
d="M538 0h-102v67q-21 -35 -65.5 -56t-91.5 -21q-97 0 -168 68q-69 68 -69 176t69 175q71 68 168 68q47 0 90.5 -20t66.5 -56v66h102v-467zM435 235q0 65 -44 103q-43 39 -100 39q-61 0 -102 -40q-41 -39 -41 -102t41 -104q43 -41 102 -41q61 0 102.5 40t41.5 105zM434 572
h-258v81h258v-81z" />
    <glyph glyph-name="Abreve" unicode="&#x102;" horiz-adv-x="647" 
d="M463 172h-278l-66 -172h-113l260 689h115l260 -689h-112zM221 267h206l-103 289zM192 896h77q0 -27 14 -42t40 -15q24 0 39 16.5t15 40.5h78q0 -59 -36 -93.5t-96 -34.5q-63 0 -97 36t-34 92z" />
    <glyph glyph-name="abreve" unicode="&#x103;" horiz-adv-x="610" 
d="M538 0h-102v67q-21 -35 -65.5 -56t-91.5 -21q-97 0 -168 68q-69 68 -69 176t69 175q71 68 168 68q47 0 90.5 -20t66.5 -56v66h102v-467zM435 235q0 65 -44 103q-43 39 -100 39q-61 0 -102 -40q-41 -39 -41 -102t41 -104q43 -41 102 -41q61 0 102.5 40t41.5 105zM173 674
h77q0 -27 14 -42t40 -15q24 0 39 16.5t15 40.5h78q0 -59 -36 -93.5t-96 -34.5q-63 0 -97 36t-34 92z" />
    <glyph glyph-name="Aogonek" unicode="&#x104;" horiz-adv-x="647" 
d="M641 0h-52l-30 -83q-6 -15 -1 -29t20 -21q34 -9 47 22l3 23l67 4q0 -50 -29.5 -83t-71.5 -33q-44 0 -74 31q-29 32 -29 70q0 26 8 44l30 55l-66 172h-278l-66 -172h-113l260 689h115zM427 267l-103 289l-103 -289h206z" />
    <glyph glyph-name="aogonek" unicode="&#x105;" horiz-adv-x="610" 
d="M532 -111l3 23l67 4q0 -50 -29.5 -83t-71.5 -33q-44 0 -74 31q-29 32 -29 70q0 26 8 44l30 55v67q-21 -35 -65.5 -56t-91.5 -21q-97 0 -168 68q-69 68 -69 176t69 175q71 68 168 68q47 0 90.5 -20t66.5 -56v66h102v-467h-42l-30 -83q-6 -15 -1 -29t20 -21q34 -9 47 22z
M435 235q0 65 -44 103q-43 39 -100 39q-61 0 -102 -40q-41 -39 -41 -102t41 -104q43 -41 102 -41q61 0 102.5 40t41.5 105z" />
    <glyph glyph-name="Cacute" unicode="&#x106;" horiz-adv-x="684" 
d="M581 182l82 -65q-46 -60 -115.5 -93.5t-152.5 -33.5q-147 0 -247 103q-101 104 -101 250t101 250t247 104q80 0 149 -32.5t117 -91.5l-82 -64q-77 86 -184 86q-101 0 -172 -74q-70 -73 -70 -178t70 -178t172 -73q115 0 186 90zM327 762l100 158h116l-126 -158h-90z" />
    <glyph glyph-name="cacute" unicode="&#x107;" horiz-adv-x="514" 
d="M291 477q116 0 185 -81l-80 -64q-39 45 -105 45q-61 0 -104 -40q-43 -39 -43 -102q0 -65 43 -105q44 -41 104 -41q65 0 105 46l81 -63q-69 -82 -186 -82q-102 0 -176 68q-73 69 -73 177q0 107 72 175q73 67 177 67zM217 540l100 158h116l-126 -158h-90z" />
    <glyph glyph-name="Ccircumflex" unicode="&#x108;" horiz-adv-x="684" 
d="M581 182l82 -65q-46 -60 -115.5 -93.5t-152.5 -33.5q-147 0 -247 103q-101 104 -101 250t101 250t247 104q80 0 149 -32.5t117 -91.5l-82 -64q-77 86 -184 86q-101 0 -172 -74q-70 -73 -70 -178t70 -178t172 -73q115 0 186 90zM226 763l110 158h104l110 -158h-87l-76 88
l-75 -88h-86z" />
    <glyph glyph-name="ccircumflex" unicode="&#x109;" horiz-adv-x="514" 
d="M291 477q116 0 185 -81l-80 -64q-39 45 -105 45q-61 0 -104 -40q-43 -39 -43 -102q0 -65 43 -105q44 -41 104 -41q65 0 105 46l81 -63q-69 -82 -186 -82q-102 0 -176 68q-73 69 -73 177q0 107 72 175q73 67 177 67zM116 541l110 158h104l110 -158h-87l-76 88l-75 -88h-86
z" />
    <glyph glyph-name="Cdotaccent" unicode="&#x10a;" horiz-adv-x="684" 
d="M581 182l82 -65q-46 -60 -115.5 -93.5t-152.5 -33.5q-147 0 -247 103q-101 104 -101 250t101 250t247 104q80 0 149 -32.5t117 -91.5l-82 -64q-77 86 -184 86q-101 0 -172 -74q-70 -73 -70 -178t70 -178t172 -73q115 0 186 90zM352 915q28 0 47.5 -18t19.5 -45t-19.5 -45
t-47.5 -18q-27 0 -46.5 18t-19.5 45t19.5 45t46.5 18z" />
    <glyph glyph-name="cdotaccent" unicode="&#x10b;" horiz-adv-x="514" 
d="M291 477q116 0 185 -81l-80 -64q-39 45 -105 45q-61 0 -104 -40q-43 -39 -43 -102q0 -65 43 -105q44 -41 104 -41q65 0 105 46l81 -63q-69 -82 -186 -82q-102 0 -176 68q-73 69 -73 177q0 107 72 175q73 67 177 67zM252 693q28 0 47.5 -18t19.5 -45t-19.5 -45t-47.5 -18
q-27 0 -46.5 18t-19.5 45t19.5 45t46.5 18z" />
    <glyph glyph-name="Ccaron" unicode="&#x10c;" horiz-adv-x="684" 
d="M581 182l82 -65q-46 -60 -115.5 -93.5t-152.5 -33.5q-147 0 -247 103q-101 104 -101 250t101 250t247 104q80 0 149 -32.5t117 -91.5l-82 -64q-77 86 -184 86q-101 0 -172 -74q-70 -73 -70 -178t70 -178t172 -73q115 0 186 90zM433 762h-104l-110 157h86l75 -87l76 87h87
z" />
    <glyph glyph-name="ccaron" unicode="&#x10d;" horiz-adv-x="514" 
d="M291 477q116 0 185 -81l-80 -64q-39 45 -105 45q-61 0 -104 -40q-43 -39 -43 -102q0 -65 43 -105q44 -41 104 -41q65 0 105 46l81 -63q-69 -82 -186 -82q-102 0 -176 68q-73 69 -73 177q0 107 72 175q73 67 177 67zM329 540h-104l-110 157h86l75 -87l76 87h87z" />
    <glyph glyph-name="Dcaron" unicode="&#x10e;" horiz-adv-x="719" 
d="M196 98h162q98 0 151 69q53 70 53 176q0 108 -54 177q-52 70 -150 70h-162v-492zM358 0h-268v689h268q143 0 226 -98q84 -97 84 -248q0 -149 -83 -247q-82 -96 -227 -96zM409 762h-104l-110 157h86l75 -87l76 87h87z" />
    <glyph glyph-name="dcaron" unicode="&#x10f;" horiz-adv-x="645" 
d="M536 0h-102v68q-21 -36 -64 -57t-94 -21q-98 0 -165 67q-68 68 -68 176q0 109 67 176q68 68 166 68q52 0 94.5 -20.5t63.5 -56.5v321h102v-721zM432 235q0 66 -43 103q-44 39 -100 39q-61 0 -100.5 -39.5t-39.5 -102.5q0 -65 40 -105t100 -40q61 0 102 40t41 105z
M628 444l-53 22q73 101 71 223h91q-5 -81 -39 -148q-33 -67 -70 -97z" />
    <glyph glyph-name="Dcroat" unicode="&#x110;" horiz-adv-x="723" 
d="M99 304h-93v76h93v309h265q144 0 226 -97t82 -249t-82 -247q-82 -96 -226 -96h-265v304zM360 304h-154v-202h158q97 0 149 67q53 68 53 174q0 107 -53 175q-53 69 -149 69h-158v-207h154v-76z" />
    <glyph glyph-name="dslash" unicode="&#x111;" horiz-adv-x="608" 
d="M434 558h-150v68h150v95h102v-95h76v-68h-76v-558h-102v68q-21 -36 -64 -57t-94 -21q-98 0 -165 67q-68 68 -68 176q0 109 67 176q68 68 166 68q52 0 94.5 -20.5t63.5 -56.5v158zM432 235q0 66 -43 103q-44 39 -100 39q-61 0 -100.5 -39.5t-39.5 -102.5q0 -65 40 -105
t100 -40q61 0 102 40t41 105z" />
    <glyph glyph-name="Emacron" unicode="&#x112;" horiz-adv-x="567" 
d="M515 0h-425v689h415v-98h-309v-204h270v-97h-270v-193h319v-97zM424 794h-258v81h258v-81z" />
    <glyph glyph-name="emacron" unicode="&#x113;" horiz-adv-x="553" 
d="M516 235q0 -31 -1 -38h-371q7 -54 46 -85.5t97 -31.5q41 0 75 17.5t52 49.5l84 -37q-29 -58 -87 -89t-129 -31q-101 0 -171 68q-69 68 -69 177t69 175q68 67 171 67q102 0 168 -67q66 -66 66 -175zM144 272h271q-7 53 -43 84t-90 31q-55 0 -93 -31t-45 -84zM408 572h-258
v81h258v-81z" />
    <glyph glyph-name="Ebreve" unicode="&#x114;" horiz-adv-x="567" 
d="M90 689h415v-98h-309v-204h270v-97h-270v-193h319v-97h-425v689zM151 896h77q0 -27 14 -42t40 -15q24 0 39 16.5t15 40.5h78q0 -59 -36 -93.5t-96 -34.5q-63 0 -97 36t-34 92z" />
    <glyph glyph-name="ebreve" unicode="&#x115;" horiz-adv-x="553" 
d="M516 235q0 -31 -1 -38h-371q7 -54 46 -85.5t97 -31.5q41 0 75 17.5t52 49.5l84 -37q-29 -58 -87 -89t-129 -31q-101 0 -171 68q-69 68 -69 177t69 175q68 67 171 67q102 0 168 -67q66 -66 66 -175zM144 272h271q-7 53 -43 84t-90 31q-55 0 -93 -31t-45 -84zM147 674h77
q0 -27 14 -42t40 -15q24 0 39 16.5t15 40.5h78q0 -59 -36 -93.5t-96 -34.5q-63 0 -97 36t-34 92z" />
    <glyph glyph-name="Edotaccent" unicode="&#x116;" horiz-adv-x="567" 
d="M90 689h415v-98h-309v-204h270v-97h-270v-193h319v-97h-425v689zM301 915q28 0 47.5 -18t19.5 -45t-19.5 -45t-47.5 -18q-27 0 -46.5 18t-19.5 45t19.5 45t46.5 18z" />
    <glyph glyph-name="edotaccent" unicode="&#x117;" horiz-adv-x="553" 
d="M516 235q0 -31 -1 -38h-371q7 -54 46 -85.5t97 -31.5q41 0 75 17.5t52 49.5l84 -37q-29 -58 -87 -89t-129 -31q-101 0 -171 68q-69 68 -69 177t69 175q68 67 171 67q102 0 168 -67q66 -66 66 -175zM144 272h271q-7 53 -43 84t-90 31q-55 0 -93 -31t-45 -84zM278 693
q28 0 47.5 -18t19.5 -45t-19.5 -45t-47.5 -18q-27 0 -46.5 18t-19.5 45t19.5 45t46.5 18z" />
    <glyph glyph-name="Eogonek" unicode="&#x118;" horiz-adv-x="567" 
d="M424 -55l30 55h-364v689h415v-98h-309v-204h270v-97h-270v-193h319v-94l-31 -86q-6 -15 -1 -29t20 -21q34 -9 47 22l3 23l67 4q0 -50 -29.5 -83t-71.5 -33q-44 0 -74 31q-29 32 -29 70q0 26 8 44z" />
    <glyph glyph-name="eogonek" unicode="&#x119;" horiz-adv-x="554" 
d="M387 -83q-10 -37 19 -50q34 -9 47 22l3 23l67 4q0 -50 -29.5 -83t-71.5 -33q-44 0 -74 31q-29 32 -29 70q0 28 8 44l29 55q-33 -10 -74 -10q-101 0 -171 68q-69 68 -69 177t69 175q68 67 171 67q102 0 168 -67q66 -66 66 -175q0 -31 -1 -38h-371q7 -54 46 -85.5t97 -31.5
q41 0 75 17.5t52 49.5l84 -37q-1 -1 -24.5 -29t-48 -70t-38.5 -94zM144 272h271q-7 53 -43 84t-90 31q-55 0 -93 -31t-45 -84z" />
    <glyph glyph-name="Ecaron" unicode="&#x11a;" horiz-adv-x="567" 
d="M90 689h415v-98h-309v-204h270v-97h-270v-193h319v-97h-425v689zM348 762h-104l-110 157h86l75 -87l76 87h87z" />
    <glyph glyph-name="ecaron" unicode="&#x11b;" horiz-adv-x="553" 
d="M516 235q0 -31 -1 -38h-371q7 -54 46 -85.5t97 -31.5q41 0 75 17.5t52 49.5l84 -37q-29 -58 -87 -89t-129 -31q-101 0 -171 68q-69 68 -69 177t69 175q68 67 171 67q102 0 168 -67q66 -66 66 -175zM144 272h271q-7 53 -43 84t-90 31q-55 0 -93 -31t-45 -84zM331 540h-104
l-110 157h86l75 -87l76 87h87z" />
    <glyph glyph-name="Gcircumflex" unicode="&#x11c;" horiz-adv-x="755" 
d="M636 600l-78 -69q-68 65 -162 65q-102 0 -173 -74q-70 -73 -70 -179t70 -179q71 -74 173 -74q86 0 144 46t63 123h-193v91h315q0 -176 -86.5 -268t-242.5 -92q-146 0 -248 103q-101 104 -101 250t101 250t248 104q143 0 240 -97zM220 763l110 158h104l110 -158h-87
l-76 88l-75 -88h-86z" />
    <glyph glyph-name="gcircumflex" unicode="&#x11d;" horiz-adv-x="610" 
d="M435 233q0 65 -41 104.5t-103 39.5q-60 0 -101 -41t-41 -103q0 -63 41 -104q40 -40 101 -40q57 0 100 39q44 41 44 105zM107 -80l43 21q18 -35 54.5 -56.5t76.5 -21.5q156 0 156 184v24q-20 -37 -64 -59t-94 -22q-99 0 -167 67q-69 67 -69 175q0 110 69 177q70 68 167 68
q50 0 93.5 -21.5t64.5 -57.5v69h101v-398q0 -302 -257 -302q-69 0 -126 34.5t-90 96.5zM128 541l110 158h104l110 -158h-87l-76 88l-75 -88h-86z" />
    <glyph glyph-name="Gbreve" unicode="&#x11e;" horiz-adv-x="755" 
d="M636 600l-78 -69q-68 65 -162 65q-102 0 -173 -74q-70 -73 -70 -179t70 -179q71 -74 173 -74q86 0 144 46t63 123h-193v91h315q0 -176 -86.5 -268t-242.5 -92q-146 0 -248 103q-101 104 -101 250t101 250t248 104q143 0 240 -97zM250 896h77q0 -27 14 -42t40 -15
q24 0 39 16.5t15 40.5h78q0 -59 -36 -93.5t-96 -34.5q-63 0 -97 36t-34 92z" />
    <glyph glyph-name="gbreve" unicode="&#x11f;" horiz-adv-x="610" 
d="M435 233q0 65 -41 104.5t-103 39.5q-60 0 -101 -41t-41 -103q0 -63 41 -104q40 -40 101 -40q57 0 100 39q44 41 44 105zM150 -59q18 -35 54.5 -56.5t76.5 -21.5q156 0 156 184v24q-20 -37 -64 -59t-94 -22q-99 0 -167 67q-69 67 -69 175q0 110 69 177q70 68 167 68
q50 0 93.5 -21.5t64.5 -57.5v69h101v-398q0 -302 -257 -302q-69 0 -126 34.5t-90 96.5l42 22zM144 674h77q0 -27 14 -42t40 -15q24 0 39 16.5t15 40.5h78q0 -59 -36 -93.5t-96 -34.5q-63 0 -97 36t-34 92z" />
    <glyph glyph-name="Gdotaccent" unicode="&#x120;" horiz-adv-x="755" 
d="M636 600l-78 -69q-68 65 -162 65q-102 0 -173 -74q-70 -73 -70 -179t70 -179q71 -74 173 -74q86 0 144 46t63 123h-193v91h315q0 -176 -86.5 -268t-242.5 -92q-146 0 -248 103q-101 104 -101 250t101 250t248 104q143 0 240 -97zM381 915q28 0 47.5 -18t19.5 -45
t-19.5 -45t-47.5 -18q-27 0 -46.5 18t-19.5 45t19.5 45t46.5 18z" />
    <glyph glyph-name="gdotaccent" unicode="&#x121;" horiz-adv-x="610" 
d="M435 233q0 65 -41 104.5t-103 39.5q-60 0 -101 -41t-41 -103q0 -63 41 -104q40 -40 101 -40q57 0 100 39q44 41 44 105zM150 -59q18 -35 54.5 -56.5t76.5 -21.5q156 0 156 184v24q-20 -37 -64 -59t-94 -22q-99 0 -167 67q-69 67 -69 175q0 110 69 177q70 68 167 68
q50 0 93.5 -21.5t64.5 -57.5v69h101v-398q0 -302 -257 -302q-69 0 -126 34.5t-90 96.5l42 22zM275 693q28 0 47.5 -18t19.5 -45t-19.5 -45t-47.5 -18q-27 0 -46.5 18t-19.5 45t19.5 45t46.5 18z" />
    <glyph glyph-name="Gcommaaccent" unicode="&#x122;" horiz-adv-x="755" 
d="M636 600l-78 -69q-68 65 -162 65q-102 0 -173 -74q-70 -73 -70 -179t70 -179q71 -74 173 -74q86 0 144 46t63 123h-193v91h315q0 -176 -86.5 -268t-242.5 -92q-146 0 -248 103q-101 104 -101 250t101 250t248 104q143 0 240 -97zM369 -259l-60 23q31 42 42 80q11 40 7 99
h97q-1 -136 -86 -202z" />
    <glyph glyph-name="gcommaaccent" unicode="&#x123;" horiz-adv-x="610" 
d="M313 758l60 -23q-31 -43 -42 -81q-11 -40 -7 -99h-96q2 136 85 203zM435 233q0 65 -41 104.5t-103 39.5q-60 0 -101 -41t-41 -103q0 -63 41 -104q40 -40 101 -40q57 0 100 39q44 41 44 105zM150 -59q18 -35 54.5 -56.5t76.5 -21.5q156 0 156 184v24q-20 -37 -64 -59
t-94 -22q-99 0 -167 67q-69 67 -69 175q0 110 69 177q70 68 167 68q50 0 93.5 -21.5t64.5 -57.5v69h101v-398q0 -302 -257 -302q-69 0 -126 34.5t-90 96.5l42 22z" />
    <glyph glyph-name="Hcircumflex" unicode="&#x124;" horiz-adv-x="705" 
d="M507 391v298h108v-689h-108v294h-311v-294h-106v689h106v-298h311zM190 763l110 158h104l110 -158h-87l-76 88l-75 -88h-86z" />
    <glyph glyph-name="hcircumflex" unicode="&#x125;" horiz-adv-x="578" 
d="M175 251v-251h-103v721h103v-325q18 39 62 60q43 21 86 21q89 0 139 -55.5t50 -155.5v-266h-103v260q0 53 -29 84.5t-75 31.5q-55 0 -92.5 -32.5t-37.5 -92.5zM-38 768l110 158h104l110 -158h-87l-76 88l-75 -88h-86z" />
    <glyph glyph-name="Hbar" unicode="&#x126;" horiz-adv-x="705" 
d="M507 391v298h108v-689h-108v294h-311v-294h-106v689h106v-298h311zM481 794h-258v81h258v-81z" />
    <glyph glyph-name="hbar" unicode="&#x127;" horiz-adv-x="578" 
d="M325 558h-150v-162q18 39 62 60q43 21 86 21q89 0 139 -55.5t50 -155.5v-266h-103v260q0 53 -29 84.5t-75 31.5q-55 0 -92.5 -32.5t-37.5 -92.5v-251h-103v558h-75v68h75v95h103v-95h150v-68z" />
    <glyph glyph-name="Itilde" unicode="&#x128;" horiz-adv-x="286" 
d="M196 0h-106v689h106v-689zM72 777h-65q3 60 28.5 90t63.5 30q27 0 52 -21q28 -20 36 -20q11 0 19 10.5t9 30.5h64q-3 -59 -28.5 -88t-63.5 -29q-24 0 -52 20q-27 21 -36 21q-10 0 -18 -12t-9 -32z" />
    <glyph glyph-name="itilde" unicode="&#x129;" horiz-adv-x="246" 
d="M72 0v467h102v-467h-102zM69 599q-10 0 -18 -12t-9 -32h-65q3 60 28.5 90t63.5 30q27 0 52 -21q28 -20 36 -20q11 0 19 10.5t9 30.5h64q-3 -59 -28.5 -88t-63.5 -29q-24 0 -52 20q-25 21 -36 21z" />
    <glyph glyph-name="Imacron" unicode="&#x12a;" horiz-adv-x="286" 
d="M272 794h-258v81h258v-81zM196 0h-106v689h106v-689z" />
    <glyph glyph-name="imacron" unicode="&#x12b;" horiz-adv-x="246" 
d="M242 572h-258v81h258v-81zM72 0v467h102v-467h-102z" />
    <glyph glyph-name="Ibreve" unicode="&#x12c;" horiz-adv-x="286" 
d="M90 689h106v-689h-106v689zM12 896h77q0 -27 14 -42t40 -15q24 0 39 16.5t15 40.5h78q0 -59 -36 -93.5t-96 -34.5q-63 0 -97 36t-34 92z" />
    <glyph glyph-name="ibreve" unicode="&#x12d;" horiz-adv-x="246" 
d="M174 467v-467h-102v467h102zM-18 674h77q0 -27 14 -42t40 -15q24 0 39 16.5t15 40.5h78q0 -59 -36 -93.5t-96 -34.5q-63 0 -97 36t-34 92z" />
    <glyph glyph-name="Iogonek" unicode="&#x12e;" horiz-adv-x="286" 
d="M60 -55l30 55v689h106v-689h-46l-30 -83q-6 -15 -1 -29t20 -21q34 -9 47 22l3 23l67 4q0 -50 -29.5 -83t-71.5 -33q-44 0 -74 31q-29 32 -29 70q0 26 8 44z" />
    <glyph glyph-name="iogonek" unicode="&#x12f;" horiz-adv-x="246" 
d="M174 0h-42l-30 -83q-6 -15 -1 -29t20 -21q34 -9 47 22l3 23l67 4q0 -50 -29.5 -83t-71.5 -33q-44 0 -74 31q-29 32 -29 70q0 26 8 44l30 55v467h102v-467zM123 721q29 0 48.5 -18.5t19.5 -46.5t-19.5 -46.5t-48.5 -18.5q-28 0 -48.5 19t-20.5 46t20.5 46t48.5 19z" />
    <glyph glyph-name="Idot" unicode="&#x130;" horiz-adv-x="286" 
d="M90 689h106v-689h-106v689zM143 915q28 0 47.5 -18t19.5 -45t-19.5 -45t-47.5 -18q-27 0 -46.5 18t-19.5 45t19.5 45t46.5 18z" />
    <glyph glyph-name="dotlessi" unicode="&#x131;" horiz-adv-x="246" 
d="M72 0v467h102v-467h-102z" />
    <glyph glyph-name="IJ" unicode="&#x132;" horiz-adv-x="573" 
d="M186 -235l10 99q27 -9 71 -9q54 0 81.5 33.5t27.5 90.5v710h107v-710q0 -99 -53 -163q-52 -63 -163 -63q-27 0 -81 12zM196 0h-106v689h106v-689z" />
    <glyph glyph-name="ij" unicode="&#x133;" horiz-adv-x="494" 
d="M252 -231h-68v96h56q80 0 78 105v497h104v-497q0 -201 -170 -201zM370 721q29 0 49 -18.5t20 -46.5t-20 -46.5t-49 -18.5q-28 0 -48.5 19t-20.5 46t20.5 46t48.5 19zM174 0h-102v467h102v-467zM123 721q29 0 48.5 -18.5t19.5 -46.5t-19.5 -46.5t-48.5 -18.5
q-28 0 -48.5 19t-20.5 46t20.5 46t48.5 19z" />
    <glyph glyph-name="Jcircumflex" unicode="&#x134;" horiz-adv-x="287" 
d="M-100 -235l10 99q27 -9 71 -9q54 0 81.5 33.5t27.5 90.5v710h107v-710q0 -99 -53 -163q-53 -63 -163 -63q-27 0 -81 12zM-23 763l110 158h104l110 -158h-87l-76 88l-75 -88h-86z" />
    <glyph glyph-name="jcircumflex" unicode="&#x135;" horiz-adv-x="248" 
d="M6 -231h-68v96h56q80 0 78 105v497h104v-497q0 -201 -170 -201zM-31 541l110 158h104l110 -158h-87l-76 88l-75 -88h-86z" />
    <glyph glyph-name="Kcommaaccent" unicode="&#x136;" horiz-adv-x="583" 
d="M533 689l-264 -343l325 -346h-140l-257 279v-279h-107v689h107v-280l211 280h125zM286 -259l-60 23q31 42 42 80q11 40 7 99h97q-1 -136 -86 -202z" />
    <glyph glyph-name="kcommaaccent" unicode="&#x137;" horiz-adv-x="506" 
d="M505 0h-132l-199 217v-217h-102v721h102v-408l148 154h138l-199 -203zM245 -259l-60 23q31 42 42 80q11 40 7 99h97q-1 -136 -86 -202z" />
    <glyph glyph-name="kgreenlandic" unicode="&#x138;" horiz-adv-x="492" 
d="M490 0h-137l-179 179v-179h-102v467h102v-180l144 180h129l-192 -231z" />
    <glyph glyph-name="Lacute" unicode="&#x139;" horiz-adv-x="499" 
d="M90 689h106v-592h276v-97h-382v689zM102 762l100 158h116l-126 -158h-90z" />
    <glyph glyph-name="lacute" unicode="&#x13a;" horiz-adv-x="247" 
d="M72 721h103v-721h-103v721zM79 770l100 158h116l-126 -158h-90z" />
    <glyph glyph-name="Lcommaaccent" unicode="&#x13b;" horiz-adv-x="499" 
d="M238 -259l-60 23q31 42 42 80q11 40 7 99h97q-1 -136 -86 -202zM472 0h-382v689h106v-592h276v-97z" />
    <glyph glyph-name="lcommaaccent" unicode="&#x13c;" horiz-adv-x="247" 
d="M89 -259l-60 23q31 42 42 80q11 40 7 99h97q-1 -136 -86 -202zM175 0h-103v721h103v-721z" />
    <glyph glyph-name="Lcaron" unicode="&#x13d;" horiz-adv-x="500" 
d="M472 0h-382v689h106v-592h276v-97zM327 479l-64 21q60 83 53 189h97q-3 -144 -86 -210z" />
    <glyph glyph-name="lcaron" unicode="&#x13e;" horiz-adv-x="247" 
d="M175 0h-103v721h103v-721zM277 511l-64 21q60 83 53 189h97q-3 -144 -86 -210z" />
    <glyph glyph-name="Ldot" unicode="&#x13f;" horiz-adv-x="499" 
d="M340 343q30 0 51 -19.5t21 -48.5t-21 -48.5t-51 -19.5q-29 0 -49.5 19.5t-20.5 48.5t20.5 48.5t49.5 19.5zM472 0h-382v689h106v-592h276v-97z" />
    <glyph glyph-name="ldot" unicode="&#x140;" horiz-adv-x="387" 
d="M306 343q30 0 51 -19.5t21 -48.5t-21 -48.5t-51 -19.5q-29 0 -49.5 19.5t-20.5 48.5t20.5 48.5t49.5 19.5zM175 0h-103v721h103v-721z" />
    <glyph glyph-name="Lslash" unicode="&#x141;" horiz-adv-x="505" 
d="M96 0v319l-67 -42v73l67 42v297h106v-231l101 64v-74l-101 -63v-284h274v-101h-380z" />
    <glyph glyph-name="lslash" unicode="&#x142;" horiz-adv-x="267" 
d="M87 721h102v-275l80 51v-71l-80 -51v-375h-102v310l-72 -46v72l72 46v339z" />
    <glyph glyph-name="Nacute" unicode="&#x143;" horiz-adv-x="681" 
d="M591 0h-99l-296 493v-493h-106v689h102l293 -489v489h106v-689zM268 762l100 158h116l-126 -158h-90z" />
    <glyph glyph-name="nacute" unicode="&#x144;" horiz-adv-x="563" 
d="M175 251v-251h-103v467h103v-70q18 37 58.5 58.5t84.5 21.5q85 0 131.5 -53t46.5 -152v-272h-103v260q0 54 -26.5 85t-71.5 31q-54 0 -87 -32t-33 -93zM211 540l100 158h116l-126 -158h-90z" />
    <glyph glyph-name="Ncommaaccent" unicode="&#x145;" horiz-adv-x="681" 
d="M485 689h106v-689h-99l-296 493v-493h-106v689h102l293 -489v489zM309 -259l-60 23q31 42 42 80q11 40 7 99h97q-1 -136 -86 -202z" />
    <glyph glyph-name="ncommaaccent" unicode="&#x146;" horiz-adv-x="563" 
d="M251 -259l-40 23q26 34 31.5 77t-2.5 102h97q-1 -136 -86 -202zM175 251v-251h-103v467h103v-70q18 37 58.5 58.5t84.5 21.5q85 0 131.5 -53t46.5 -152v-272h-103v260q0 54 -26.5 85t-71.5 31q-54 0 -87 -32t-33 -93z" />
    <glyph glyph-name="Ncaron" unicode="&#x147;" horiz-adv-x="681" 
d="M591 0h-99l-296 493v-493h-106v689h102l293 -489v489h106v-689zM392 762h-104l-110 157h86l75 -87l76 87h87z" />
    <glyph glyph-name="ncaron" unicode="&#x148;" horiz-adv-x="563" 
d="M175 251v-251h-103v467h103v-70q18 37 58.5 58.5t84.5 21.5q85 0 131.5 -53t46.5 -152v-272h-103v260q0 54 -26.5 85t-71.5 31q-54 0 -87 -32t-33 -93zM336 540h-104l-110 157h86l75 -87l76 87h87z" />
    <glyph glyph-name="napostrophe" unicode="&#x149;" horiz-adv-x="563" 
d="M175 251v-251h-103v467h103v-70q20 37 60 58.5t84 21.5q85 0 131 -53t46 -152v-272h-103v260q0 55 -26 85.5t-71 30.5q-54 0 -87.5 -32t-33.5 -93zM2 469l-67 20q43 61 48 109q3 21 -4 63h101q2 -127 -78 -192z" />
    <glyph glyph-name="Eng" unicode="&#x14a;" horiz-adv-x="680" 
d="M474 31l-278 459v-490h-106v689h102l291 -489v489h107v-683q0 -239 -214 -239q-37 0 -83 13l11 106q73 -24 121 -4q60 20 60 105q0 22 -11 44z" />
    <glyph glyph-name="eng" unicode="&#x14b;" horiz-adv-x="562" 
d="M496 272l-1 -254q0 -104 -49 -166q-48 -64 -159 -64q-30 0 -70 10l9 100q35 -11 61 -11q53 0 79 32t27 88v253q0 54 -26.5 85t-71.5 31q-54 0 -87 -32t-33 -93v-251h-103v467h103v-70q18 37 58.5 58.5t84.5 21.5q85 0 132 -53.5t46 -151.5z" />
    <glyph glyph-name="Omacron" unicode="&#x14c;" horiz-adv-x="792" 
d="M223 520q-70 -73 -70 -177t70 -177q70 -72 172 -72q101 0 172 72q71 74 71 177t-71 177q-70 73 -172 73t-172 -73zM47 343q0 147 101 251q100 103 247 103q148 0 248 -103q102 -104 102 -251t-102 -250q-100 -103 -248 -103q-147 0 -247 103q-101 104 -101 250zM525 794
h-258v81h258v-81z" />
    <glyph glyph-name="omacron" unicode="&#x14d;" horiz-adv-x="572" 
d="M285 90q61 0 101 40q41 41 41 105q0 62 -40.5 101.5t-101.5 39.5q-59 0 -100 -39t-41 -102q0 -64 41 -105q40 -40 100 -40zM285 477q104 0 174 -67q71 -68 71 -175q0 -108 -72 -177q-71 -68 -173 -68t-173 68q-70 69 -70 177t70 175t173 67zM415 572h-258v81h258v-81z
" />
    <glyph glyph-name="Obreve" unicode="&#x14e;" horiz-adv-x="792" 
d="M223 166q70 -72 172 -72q101 0 172 72q71 74 71 177t-71 177q-70 73 -172 73t-172 -73t-70 -177t70 -177zM47 343q0 147 101 251q100 103 247 103q148 0 248 -103q102 -104 102 -251t-102 -250q-100 -103 -248 -103q-147 0 -247 103q-101 104 -101 250zM264 896h77
q0 -27 14 -42t40 -15q24 0 39 16.5t15 40.5h78q0 -59 -36 -93.5t-96 -34.5q-63 0 -97 36t-34 92z" />
    <glyph glyph-name="obreve" unicode="&#x14f;" horiz-adv-x="572" 
d="M285 90q61 0 101 40q41 41 41 105q0 62 -40.5 101.5t-101.5 39.5q-59 0 -100 -39t-41 -102q0 -64 41 -105q40 -40 100 -40zM285 477q104 0 174 -67q71 -68 71 -175q0 -108 -72 -177q-71 -68 -173 -68t-173 68q-70 69 -70 177t70 175t173 67zM154 674h77q0 -27 14 -42
t40 -15q24 0 39 16.5t15 40.5h78q0 -59 -36 -93.5t-96 -34.5q-63 0 -97 36t-34 92z" />
    <glyph glyph-name="Ohungarumlaut" unicode="&#x150;" horiz-adv-x="792" 
d="M223 166q70 -72 172 -72q101 0 172 72q71 74 71 177t-71 177q-70 73 -172 73t-172 -73t-70 -177t70 -177zM47 343q0 147 101 251q100 103 247 103q148 0 248 -103q102 -104 102 -251t-102 -250q-100 -103 -248 -103q-147 0 -247 103q-101 104 -101 250zM521 919h99
l-110 -157h-87zM374 919h97l-97 -157h-87z" />
    <glyph glyph-name="ohungarumlaut" unicode="&#x151;" horiz-adv-x="572" 
d="M285 90q61 0 101 40q41 41 41 105q0 62 -40.5 101.5t-101.5 39.5q-59 0 -100 -39t-41 -102q0 -64 41 -105q40 -40 100 -40zM285 477q104 0 174 -67q71 -68 71 -175q0 -108 -72 -177q-71 -68 -173 -68t-173 68q-70 69 -70 177t70 175t173 67zM398 697h99l-110 -157h-87z
M251 697h97l-97 -157h-87z" />
    <glyph glyph-name="OE" unicode="&#x152;" horiz-adv-x="1111" 
d="M636 588v101h413v-101h-307v-199h269v-101h-269v-187h318v-101h-424v98q-94 -108 -242 -108q-147 0 -247 103t-100 250q0 148 100 251t247 103q148 0 242 -109zM394 96q105 0 173 74t68 181q-3 100 -73 170q-69 70 -168 70q-102 0 -172 -73q-69 -72 -69 -175t69 -175
q70 -72 172 -72z" />
    <glyph glyph-name="oe" unicode="&#x153;" horiz-adv-x="939" 
d="M530 272h271q-8 54 -43.5 84.5t-88.5 30.5q-55 0 -93 -31t-46 -84zM285 90q61 0 101 40q41 41 41 105q0 62 -40.5 101.5t-101.5 39.5q-59 0 -100 -39t-41 -102q0 -64 41 -105q40 -40 100 -40zM478 81q-72 -91 -193 -91q-102 0 -173 68q-70 69 -70 177t70 174
q70 67 173 67q122 0 193 -89q69 90 191 90q101 0 166 -65t66 -170q1 -22 0 -45h-370q7 -54 46 -85.5t96 -31.5q42 0 76 17.5t52 49.5l84 -37q-29 -58 -87 -89t-129 -31q-122 0 -191 91z" />
    <glyph glyph-name="Racute" unicode="&#x154;" horiz-adv-x="622" 
d="M355 591h-158v-241h154q68 -3 96 58.5t0.5 123.5t-92.5 59zM391 257l181 -257h-129l-172 253h-74v-253h-107v689h269q105 0 157 -64q53 -65 53 -155q0 -83 -45 -143q-43 -59 -133 -70zM231 762l100 158h116l-126 -158h-90z" />
    <glyph glyph-name="racute" unicode="&#x155;" horiz-adv-x="399" 
d="M175 168v-168h-103v467h103v-107q35 117 128 117q56 0 83 -18l-17 -95q-31 16 -69 16q-62 0 -93.5 -56t-31.5 -156zM83 540l100 158h116l-126 -158h-90z" />
    <glyph glyph-name="Rcommaaccent" unicode="&#x156;" horiz-adv-x="622" 
d="M355 591h-158v-241h154q68 -3 96 58.5t0.5 123.5t-92.5 59zM391 257l181 -257h-129l-172 253h-74v-253h-107v689h269q105 0 157 -64q53 -65 53 -155q0 -83 -45 -143q-43 -59 -133 -70zM296 -259l-60 23q31 42 42 80q11 40 7 99h97q-1 -136 -86 -202z" />
    <glyph glyph-name="rcommaaccent" unicode="&#x157;" horiz-adv-x="399" 
d="M175 168v-168h-103v467h103v-107q35 117 128 117q56 0 83 -18l-17 -95q-31 16 -69 16q-62 0 -93.5 -56t-31.5 -156zM89 -259l-60 23q31 42 42 80q11 40 7 99h97q-1 -136 -86 -202z" />
    <glyph glyph-name="Rcaron" unicode="&#x158;" horiz-adv-x="622" 
d="M355 591h-158v-241h154q68 -3 96 58.5t0.5 123.5t-92.5 59zM391 257l181 -257h-129l-172 253h-74v-253h-107v689h269q105 0 157 -64q53 -65 53 -155q0 -83 -45 -143q-43 -59 -133 -70zM361 762h-104l-110 157h86l75 -87l76 87h87z" />
    <glyph glyph-name="rcaron" unicode="&#x159;" horiz-adv-x="399" 
d="M175 168v-168h-103v467h103v-107q35 117 128 117q56 0 83 -18l-17 -95q-31 16 -69 16q-62 0 -93.5 -56t-31.5 -156zM260 540h-104l-110 157h86l75 -87l76 87h87z" />
    <glyph glyph-name="Sacute" unicode="&#x15a;" horiz-adv-x="574" 
d="M156 200q2 -44 40 -79q37 -34 97 -34q56 0 90 26t40 68q4 85 -109 112l-87 22q-171 47 -171 185q0 86 67 141q68 56 160 56q96 0 160 -56q64 -55 64 -148h-106q0 47 -33 75.5t-87 28.5q-50 0 -84.5 -27t-34.5 -68q0 -66 92 -90l88 -23q101 -27 147.5 -82t38.5 -132
q-7 -81 -73 -134q-65 -51 -162 -51q-104 0 -174 62q-69 61 -69 148h106zM225 762l100 158h116l-126 -158h-90z" />
    <glyph glyph-name="sacute" unicode="&#x15b;" horiz-adv-x="444" 
d="M244 187l-63 15q-72 20 -103 57t-26 95q5 53 53 87q49 36 114 36q72 0 119 -35.5t51 -102.5h-98q-3 24 -22 37t-46 13q-51 0 -66 -26q-12 -19 -4 -42q7 -23 57 -36l72 -18q122 -30 122 -136q0 -65 -51.5 -103t-134.5 -38q-69 0 -124 41q-54 42 -55 112h95q4 -31 28.5 -49
t63.5 -18q37 0 60 15t23 41q0 40 -65 55zM154 540l100 158h116l-126 -158h-90z" />
    <glyph glyph-name="Scircumflex" unicode="&#x15c;" horiz-adv-x="574" 
d="M50 200h106q2 -44 40 -79q37 -34 97 -34q56 0 90 26t40 68q4 85 -109 112l-87 22q-171 47 -171 185q0 86 67 141q68 56 160 56q96 0 160 -56q64 -55 64 -148h-106q0 47 -33 75.5t-87 28.5q-50 0 -84.5 -27t-34.5 -68q0 -66 92 -90l88 -23q101 -27 147.5 -82t38.5 -132
q-7 -81 -73 -134q-65 -51 -162 -51q-104 0 -174 62q-69 61 -69 148zM128 763l110 158h104l110 -158h-87l-76 88l-75 -88h-86z" />
    <glyph glyph-name="scircumflex" unicode="&#x15d;" horiz-adv-x="444" 
d="M244 187l-63 15q-72 20 -103 57t-26 95q5 53 53 87q49 36 114 36q72 0 119 -35.5t51 -102.5h-98q-3 24 -22 37t-46 13q-51 0 -66 -26q-12 -19 -4 -42q7 -23 57 -36l72 -18q122 -30 122 -136q0 -65 -51.5 -103t-134.5 -38q-69 0 -124 41q-54 42 -55 112h95q4 -31 28.5 -49
t63.5 -18q37 0 60 15t23 41q0 40 -65 55zM60 541l110 158h104l110 -158h-87l-76 88l-75 -88h-86z" />
    <glyph glyph-name="Scedilla" unicode="&#x15e;" horiz-adv-x="574" 
d="M240 -111q13 -31 47 -22q15 7 20 21t-1 29l-27 73q-102 5 -165 65q-64 61 -64 145h106q2 -44 40 -79q37 -34 97 -34q56 0 90 26t40 68q4 85 -109 112l-87 22q-171 47 -171 185q0 86 67 141q68 56 160 56q96 0 160 -56q64 -55 64 -148h-106q0 47 -33 75.5t-87 28.5
q-50 0 -84.5 -27t-34.5 -68q0 -66 92 -90l88 -23q101 -27 147.5 -82t38.5 -132q-7 -71 -58 -120.5t-131 -60.5l27 -49q8 -18 8 -44q0 -39 -30 -70q-28 -31 -73 -31q-42 0 -71.5 33t-29.5 83l67 -4q-2 -14 3 -23z" />
    <glyph glyph-name="scedilla" unicode="&#x15f;" horiz-adv-x="446" 
d="M240 -83l-27 73q-67 1 -121 43q-50 42 -52 110h95q4 -31 28.5 -49t63.5 -18q37 0 60 15t23 41q0 40 -65 55l-63 15q-72 20 -103 57t-26 95q5 53 53 87q50 36 114 36q72 0 119 -35.5t51 -102.5h-98q-3 24 -22 37t-46 13q-51 0 -66 -26q-12 -19 -4 -42t57 -36l72 -18
q122 -30 122 -136q0 -53 -35.5 -89t-96.5 -47l27 -50q8 -18 8 -44q0 -39 -30 -70q-28 -31 -73 -31q-42 0 -71.5 33t-29.5 83l67 -4q-2 -14 3 -23q13 -31 47 -22q15 7 20 21t-1 29z" />
    <glyph glyph-name="Scaron" unicode="&#x160;" horiz-adv-x="574" 
d="M156 200q2 -44 40 -79q37 -34 97 -34q56 0 90 26t40 68q4 85 -109 112l-87 22q-171 47 -171 185q0 86 67 141q68 56 160 56q96 0 160 -56q64 -55 64 -148h-106q0 47 -33 75.5t-87 28.5q-50 0 -84.5 -27t-34.5 -68q0 -66 92 -90l88 -23q101 -27 147.5 -82t38.5 -132
q-7 -81 -73 -134q-65 -51 -162 -51q-104 0 -174 62q-69 61 -69 148h106zM342 762h-104l-110 157h86l75 -87l76 87h87z" />
    <glyph glyph-name="scaron" unicode="&#x161;" horiz-adv-x="444" 
d="M244 187l-63 15q-72 20 -103 57t-26 95q5 53 53 87q49 36 114 36q72 0 119 -35.5t51 -102.5h-98q-3 24 -22 37t-46 13q-51 0 -66 -26q-12 -19 -4 -42q7 -23 57 -36l72 -18q122 -30 122 -136q0 -65 -51.5 -103t-134.5 -38q-69 0 -124 41q-54 42 -55 112h95q4 -31 28.5 -49
t63.5 -18q37 0 60 15t23 41q0 40 -65 55zM274 540h-104l-110 157h86l75 -87l76 87h87z" />
    <glyph glyph-name="Tcommaaccent" unicode="&#x162;" horiz-adv-x="570" 
d="M231 590h-203v99h514v-99h-203v-590h-108v590zM242 -259l-60 23q31 42 42 80q11 40 7 99h97q-1 -136 -86 -202z" />
    <glyph glyph-name="tcommaaccent" unicode="&#x163;" horiz-adv-x="336" 
d="M109 644h103v-177h99v-85h-99v-382h-103v382h-84v85h84v177zM125 -259l-60 23q31 42 42 80q11 40 7 99h97q-1 -136 -86 -202z" />
    <glyph glyph-name="Tcaron" unicode="&#x164;" horiz-adv-x="570" 
d="M28 689h514v-99h-203v-590h-108v590h-203v99zM337 762h-104l-110 157h86l75 -87l76 87h87z" />
    <glyph glyph-name="tcaron" unicode="&#x165;" horiz-adv-x="336" 
d="M314 526l-61 23q32 44 42 80q11 41 7 100h97q-1 -133 -85 -203zM212 467h99v-85h-99v-382h-103v382h-84v85h84v177h103v-177z" />
    <glyph glyph-name="Tbar" unicode="&#x166;" horiz-adv-x="557" 
d="M325 597v-187h133v-66h-133v-344h-93v344h-132v66h132v187h-211v92h515v-92h-211z" />
    <glyph glyph-name="tbar" unicode="&#x167;" horiz-adv-x="338" 
d="M212 0h-102v215h-65v65h65v102h-85v85h85v177h102v-177h99v-85h-99v-102h75v-65h-75v-215z" />
    <glyph glyph-name="Utilde" unicode="&#x168;" horiz-adv-x="677" 
d="M294 821q-10 0 -18 -12t-9 -32h-65q3 60 28.5 90t63.5 30q26 0 52 -21q28 -20 36 -20q11 0 19 10.5t9 30.5h64q-3 -59 -28.5 -88t-63.5 -29q-23 0 -51 20q-27 21 -37 21zM487 239v450h107v-450q0 -109 -75 -180q-73 -69 -180 -69t-182 69q-74 71 -74 180v450h108v-450
q0 -66 43 -106q44 -41 105 -41q60 0 104 41t44 106z" />
    <glyph glyph-name="utilde" unicode="&#x169;" horiz-adv-x="562" 
d="M388 216v251h103v-467h-103v68q-18 -36 -58 -57t-81 -21q-87 0 -134.5 53.5t-46.5 151.5v272h103v-260q0 -55 26.5 -86t70.5 -31q54 0 87 31.5t33 94.5zM235 599q-10 0 -18 -12t-9 -32h-65q3 60 28.5 90t63.5 30q27 0 52 -21q28 -20 36 -20q11 0 19 10.5t9 30.5h64
q-3 -59 -28.5 -88t-63.5 -29q-23 0 -51 20q-27 21 -37 21z" />
    <glyph glyph-name="Umacron" unicode="&#x16a;" horiz-adv-x="677" 
d="M487 239v450h107v-450q0 -109 -75 -180q-73 -69 -180 -69t-182 69q-74 71 -74 180v450h108v-450q0 -66 43 -106q44 -41 105 -41q60 0 104 41t44 106zM467 794h-258v81h258v-81z" />
    <glyph glyph-name="umacron" unicode="&#x16b;" horiz-adv-x="562" 
d="M388 216v251h103v-467h-103v68q-18 -36 -58 -57t-81 -21q-87 0 -134.5 53.5t-46.5 151.5v272h103v-260q0 -55 26.5 -86t70.5 -31q54 0 87 31.5t33 94.5zM408 572h-258v81h258v-81z" />
    <glyph glyph-name="Ubreve" unicode="&#x16c;" horiz-adv-x="677" 
d="M487 239v450h107v-450q0 -109 -75 -180q-73 -69 -180 -69t-182 69q-74 71 -74 180v450h108v-450q0 -66 43 -106q44 -41 105 -41q60 0 104 41t44 106zM207 896h77q0 -27 14 -42t40 -15q24 0 39 16.5t15 40.5h78q0 -59 -36 -93.5t-96 -34.5q-63 0 -97 36t-34 92z" />
    <glyph glyph-name="ubreve" unicode="&#x16d;" horiz-adv-x="562" 
d="M388 216v251h103v-467h-103v68q-18 -36 -58 -57t-81 -21q-87 0 -134.5 53.5t-46.5 151.5v272h103v-260q0 -55 26.5 -86t70.5 -31q54 0 87 31.5t33 94.5zM147 674h77q0 -27 14 -42t40 -15q24 0 39 16.5t15 40.5h78q0 -59 -36 -93.5t-96 -34.5q-63 0 -97 36t-34 92z" />
    <glyph glyph-name="Uring" unicode="&#x16e;" horiz-adv-x="677" 
d="M229 860q0 47 31.5 79t76.5 32q47 0 79 -32t32 -79q0 -45 -32.5 -76.5t-78.5 -31.5q-45 0 -76.5 31.5t-31.5 76.5zM285 860q0 -21 15 -36.5t37 -15.5t38.5 15.5t16.5 36.5q0 23 -16 39t-39 16q-22 0 -37 -16t-15 -39zM487 239v450h107v-450q0 -109 -75 -180
q-73 -69 -180 -69t-182 69q-74 71 -74 180v450h108v-450q0 -66 43 -106q44 -41 105 -41q60 0 104 41t44 106z" />
    <glyph glyph-name="uring" unicode="&#x16f;" horiz-adv-x="562" 
d="M388 216v251h103v-467h-103v68q-18 -36 -58 -57t-81 -21q-87 0 -134.5 53.5t-46.5 151.5v272h103v-260q0 -55 26.5 -86t70.5 -31q54 0 87 31.5t33 94.5zM169 638q0 47 31.5 79t76.5 32q47 0 79 -32t32 -79q0 -45 -32.5 -76.5t-78.5 -31.5q-45 0 -76.5 31.5t-31.5 76.5z
M225 638q0 -21 15 -36.5t37 -15.5t38.5 15.5t16.5 36.5q0 23 -16 39t-39 16q-22 0 -37 -16t-15 -39z" />
    <glyph glyph-name="Uhungarumlaut" unicode="&#x170;" horiz-adv-x="677" 
d="M437 919h99l-110 -157h-87zM290 919h97l-97 -157h-87zM487 239v450h107v-450q0 -109 -75 -180q-73 -69 -180 -69t-182 69q-74 71 -74 180v450h108v-450q0 -66 43 -106q44 -41 105 -41q60 0 104 41t44 106z" />
    <glyph glyph-name="uhungarumlaut" unicode="&#x171;" horiz-adv-x="562" 
d="M377 697h99l-110 -157h-87zM230 697h97l-97 -157h-87zM388 216v251h103v-467h-103v68q-18 -36 -58 -57t-81 -21q-87 0 -134.5 53.5t-46.5 151.5v272h103v-260q0 -55 26.5 -86t70.5 -31q54 0 87 31.5t33 94.5z" />
    <glyph glyph-name="Uogonek" unicode="&#x172;" horiz-adv-x="679" 
d="M409 -111l3 23l67 4q0 -50 -29.5 -83t-71.5 -33q-44 0 -74 31q-29 32 -29 70q0 26 8 44l25 47q-97 11 -160 77q-64 67 -64 170v450h108v-450q0 -66 43 -106q44 -41 105 -41q60 0 104 41t44 106v450h107v-450q0 -102 -65 -170t-160 -77l-27 -75q-6 -15 -1 -29t20 -21
q34 -9 47 22z" />
    <glyph glyph-name="uogonek" unicode="&#x173;" horiz-adv-x="562" 
d="M485 -111l3 23l67 4q0 -50 -29.5 -83t-71.5 -33q-44 0 -74 31q-29 32 -29 70q0 26 8 44l30 55h-1v68q-18 -36 -58 -57t-81 -21q-87 0 -134.5 53.5t-46.5 151.5v272h103v-260q0 -55 26.5 -86t70.5 -31q54 0 87 31.5t33 94.5v251h103v-467h-42l-30 -83q-6 -15 -1 -29
t20 -21q34 -9 47 22z" />
    <glyph glyph-name="Wcircumflex" unicode="&#x174;" horiz-adv-x="897" 
d="M490 595l118 -419l164 513h114l-233 -689h-89l-116 413l-115 -413h-89l-233 689h114l164 -513l118 419h83zM286 763l110 158h104l110 -158h-87l-76 88l-75 -88h-86z" />
    <glyph glyph-name="wcircumflex" unicode="&#x175;" horiz-adv-x="782" 
d="M654 467h110l-171 -467h-85l-119 331l-114 -331h-84l-176 467h110l108 -315l108 315h96l108 -315zM227 541l110 158h104l110 -158h-87l-76 88l-75 -88h-86z" />
    <glyph glyph-name="Ycircumflex" unicode="&#x176;" horiz-adv-x="634" 
d="M371 315v-315h-109v316l-262 373h127l190 -274l192 274h127zM156 763l110 158h104l110 -158h-87l-76 88l-75 -88h-86z" />
    <glyph glyph-name="ycircumflex" unicode="&#x177;" horiz-adv-x="507" 
d="M384 467h110l-289 -695h-108l101 250l-185 445h110l130 -320zM94 541l110 158h104l110 -158h-87l-76 88l-75 -88h-86z" />
    <glyph glyph-name="Ydieresis" unicode="&#x178;" horiz-adv-x="634" 
d="M371 315v-315h-109v316l-262 373h127l190 -274l192 274h127zM233 905q26 0 44.5 -17.5t18.5 -43.5t-18.5 -44t-44.5 -18q-27 0 -46 18t-19 44t19 43.5t46 17.5zM404 782q-27 0 -46 18t-19 44t19 43.5t46 17.5t45.5 -17.5t18.5 -43.5t-19 -44t-45 -18z" />
    <glyph glyph-name="Zacute" unicode="&#x179;" horiz-adv-x="577" 
d="M41 0v88l352 503h-338v98h474v-89l-354 -502h354v-98h-488zM227 762l100 158h116l-126 -158h-90z" />
    <glyph glyph-name="zacute" unicode="&#x17a;" horiz-adv-x="504" 
d="M455 467v-82l-268 -288h268v-97h-414v82l264 288h-248v97h398zM178 540l100 158h116l-126 -158h-90z" />
    <glyph glyph-name="Zdotaccent" unicode="&#x17b;" horiz-adv-x="577" 
d="M41 0v88l352 503h-338v98h474v-89l-354 -502h354v-98h-488zM284 915q28 0 47.5 -18t19.5 -45t-19.5 -45t-47.5 -18q-27 0 -46.5 18t-19.5 45t19.5 45t46.5 18z" />
    <glyph glyph-name="zdotaccent" unicode="&#x17c;" horiz-adv-x="504" 
d="M455 467v-82l-268 -288h268v-97h-414v82l264 288h-248v97h398zM248 693q28 0 47.5 -18t19.5 -45t-19.5 -45t-47.5 -18q-27 0 -46.5 18t-19.5 45t19.5 45t46.5 18z" />
    <glyph glyph-name="Zcaron" unicode="&#x17d;" horiz-adv-x="577" 
d="M41 0v88l352 503h-338v98h474v-89l-354 -502h354v-98h-488zM337 762h-104l-110 157h86l75 -87l76 87h87z" />
    <glyph glyph-name="zcaron" unicode="&#x17e;" horiz-adv-x="504" 
d="M455 467v-82l-268 -288h268v-97h-414v82l264 288h-248v97h398zM300 540h-104l-110 157h86l75 -87l76 87h87z" />
    <glyph glyph-name="longs" unicode="&#x17f;" horiz-adv-x="310" 
d="M301 721h51v-99h-51q-83 0 -83 -112v-510h-104v382h-89v85h89v43q0 100 47.5 155.5t139.5 55.5z" />
    <glyph glyph-name="florin" unicode="&#x192;" horiz-adv-x="620" 
d="M31 -185l20 94h57q42 0 65 28t35 82l76 357h-86l19 91h86l9 38q42 202 238 202h40l-19 -97h-56q-67 0 -93 -81q-5 -13 -13 -54l-2 -8h104l-18 -91h-105q-8 -37 -24 -119q-31 -159 -58 -259q-22 -90 -78.5 -139t-144.5 -47q-20 0 -52 3z" />
    <glyph glyph-name="Aringacute" unicode="&#x1fa;" horiz-adv-x="647" 
d="M290 973l78 123h117l-107 -133q55 -31 55 -95q0 -45 -32.5 -76.5t-78.5 -31.5q-45 0 -76.5 31.5t-31.5 76.5q0 37 21 66t55 39zM270 867q0 -22 15.5 -37t36.5 -15q23 0 39 15t16 37q0 23 -16 38.5t-39 15.5q-21 0 -36.5 -15.5t-15.5 -38.5zM463 172h-278l-66 -172h-113
l260 689h115l260 -689h-112zM221 267h206l-103 289z" />
    <glyph glyph-name="aringacute" unicode="&#x1fb;" horiz-adv-x="610" 
d="M251 744l78 123h117l-107 -133q55 -31 55 -95q0 -45 -32.5 -76.5t-78.5 -31.5q-45 0 -76.5 31.5t-31.5 76.5q0 37 21 66t55 39zM231 638q0 -22 15.5 -37t36.5 -15q23 0 39 15t16 37q0 23 -16 38.5t-39 15.5q-21 0 -36.5 -15.5t-15.5 -38.5zM538 0h-102v67
q-21 -35 -65.5 -56t-91.5 -21q-97 0 -168 68q-69 68 -69 176t69 175q71 68 168 68q47 0 90.5 -20t66.5 -56v66h102v-467zM435 235q0 65 -44 103q-43 39 -100 39q-61 0 -102 -40q-41 -39 -41 -102t41 -104q43 -41 102 -41q61 0 102.5 40t41.5 105z" />
    <glyph glyph-name="AEacute" unicode="&#x1fc;" horiz-adv-x="931" 
d="M869 689v-101h-307v-199h269v-101h-269v-187h318v-101h-424v169h-230l-108 -169h-125l435 689h441zM288 271h168v272zM451 762l100 158h116l-126 -158h-90z" />
    <glyph glyph-name="aeacute" unicode="&#x1fd;" horiz-adv-x="969" 
d="M560 272h270q-7 53 -42.5 84t-89.5 31q-55 0 -93 -31t-45 -84zM291 377q-61 0 -102 -40q-41 -39 -41 -102t41 -104q43 -41 102 -41q60 0 102 39q42 41 42 106t-44 103q-43 39 -100 39zM932 235q0 -12 -2 -38h-370q7 -54 46 -85.5t97 -31.5q41 0 75 17.5t52 49.5l84 -37
q-29 -58 -87 -89t-129 -31q-98 0 -163 63v-53h-99v67q-21 -35 -65.5 -56t-91.5 -21q-97 0 -168 68q-69 68 -69 176t69 175q71 68 168 68q47 0 90.5 -20t66.5 -56v66h99v-52q65 62 163 62q102 0 168 -67q66 -66 66 -175zM435 540l100 158h116l-126 -158h-90z" />
    <glyph glyph-name="Oslashacute" unicode="&#x1fe;" horiz-adv-x="790" 
d="M176 66l-80 -82l-47 47l80 82q-83 100 -83 230q0 147 101 251q100 103 247 103q126 0 224 -81l79 81l47 -46l-80 -82q80 -100 80 -226q0 -147 -102 -250q-100 -103 -248 -103q-100 0 -183 52q-22 13 -35 24zM152 343q0 -86 50 -154l342 351q-65 53 -150 53
q-102 0 -172 -73t-70 -177zM394 94q102 0 172 72q71 74 71 177q0 83 -48 149l-340 -350q61 -48 145 -48zM349 762l100 158h116l-126 -158h-90z" />
    <glyph glyph-name="oslashacute" unicode="&#x1ff;" horiz-adv-x="572" 
d="M285 -10q-82 0 -143 43l-57 -58l-47 47l56 57q-52 64 -52 156q0 108 70 175t173 67q83 0 150 -48l51 52l47 -46l-51 -52q48 -65 48 -148q0 -108 -72 -177q-71 -68 -173 -68zM285 376q-59 0 -100 -39t-41 -102q0 -50 22 -81l197 201q-35 21 -78 21zM285 90q61 0 101 40
q41 41 41 105q0 39 -18 72l-194 -199q30 -18 70 -18zM242 540l100 158h116l-126 -158h-90z" />
    <glyph glyph-name="Scommaaccent" unicode="&#x218;" horiz-adv-x="574" 
d="M50 200h106q2 -44 40 -79q37 -34 97 -34q56 0 90 26t40 68q4 85 -109 112l-87 22q-171 47 -171 185q0 86 67 141q68 56 160 56q96 0 160 -56q64 -55 64 -148h-106q0 47 -33 75.5t-87 28.5q-50 0 -84.5 -27t-34.5 -68q0 -66 92 -90l88 -23q101 -27 147.5 -82t38.5 -132
q-7 -81 -73 -134q-65 -51 -162 -51q-104 0 -174 62q-69 61 -69 148zM254 -259l-60 23q31 42 42 80q11 40 7 99h97q-1 -136 -86 -202z" />
    <glyph glyph-name="scommaaccent" unicode="&#x219;" horiz-adv-x="444" 
d="M244 187l-63 15q-72 20 -103 57t-26 95q5 53 53 87q49 36 114 36q72 0 119 -35.5t51 -102.5h-98q-3 24 -22 37t-46 13q-51 0 -66 -26q-12 -19 -4 -42q7 -23 57 -36l72 -18q122 -30 122 -136q0 -65 -51.5 -103t-134.5 -38q-69 0 -124 41q-54 42 -55 112h95q4 -31 28.5 -49
t63.5 -18q37 0 60 15t23 41q0 40 -65 55zM193 -259l-60 23q31 42 42 80q11 40 7 99h97q-1 -136 -86 -202z" />
    <glyph glyph-name="circumflex" unicode="&#x2c6;" horiz-adv-x="534" 
d="M105 541l110 158h104l110 -158h-87l-76 88l-75 -88h-86z" />
    <glyph glyph-name="caron" unicode="&#x2c7;" horiz-adv-x="534" 
d="M319 540h-104l-110 157h86l75 -87l76 87h87z" />
    <glyph glyph-name="breve" unicode="&#x2d8;" horiz-adv-x="483" 
d="M110 674h77q0 -27 14 -42t40 -15q24 0 39 16.5t15 40.5h78q0 -59 -36 -93.5t-96 -34.5q-63 0 -97 36t-34 92z" />
    <glyph glyph-name="dotaccent" unicode="&#x2d9;" horiz-adv-x="533" 
d="M266 693q28 0 47.5 -18t19.5 -45t-19.5 -45t-47.5 -18q-27 0 -46.5 18t-19.5 45t19.5 45t46.5 18z" />
    <glyph glyph-name="ring" unicode="&#x2da;" horiz-adv-x="539" 
d="M160 638q0 47 31.5 79t76.5 32q47 0 79 -32t32 -79q0 -45 -32.5 -76.5t-78.5 -31.5q-45 0 -76.5 31.5t-31.5 76.5zM216 638q0 -21 15 -36.5t37 -15.5t38.5 15.5t16.5 36.5q0 23 -16 39t-39 16q-22 0 -37 -16t-15 -39z" />
    <glyph glyph-name="ogonek" unicode="&#x2db;" horiz-adv-x="524" 
d="M294 -111l3 23l67 4q0 -50 -29.5 -83t-71.5 -33q-44 0 -74 31q-29 32 -29 70q0 26 8 44l51 94h53l-44 -122q-6 -15 -1 -29t20 -21q34 -9 47 22z" />
    <glyph glyph-name="tilde" unicode="&#x2dc;" horiz-adv-x="432" 
d="M172 599q-10 0 -18 -12t-9 -32h-65q3 60 28.5 90t63.5 30q26 0 52 -21q28 -20 36 -20q11 0 19 10.5t9 30.5h64q-3 -59 -28.5 -88t-63.5 -29q-23 0 -51 20q-27 21 -37 21z" />
    <glyph glyph-name="hungarumlaut" unicode="&#x2dd;" horiz-adv-x="493" 
d="M314 697h99l-110 -157h-87zM167 697h97l-97 -157h-87z" />
    <glyph glyph-name="Wgrave" unicode="&#x1e80;" horiz-adv-x="897" 
d="M490 595l118 -419l164 513h114l-233 -689h-89l-116 413l-115 -413h-89l-233 689h114l164 -513l118 419h83zM382 762l-126 158h116l100 -158h-90z" />
    <glyph glyph-name="wgrave" unicode="&#x1e81;" horiz-adv-x="782" 
d="M654 467h110l-171 -467h-85l-119 331l-114 -331h-84l-176 467h110l108 -315l108 315h96l108 -315zM338 540l-126 158h116l100 -158h-90z" />
    <glyph glyph-name="Wacute" unicode="&#x1e82;" horiz-adv-x="897" 
d="M772 689h114l-233 -689h-89l-116 413l-115 -413h-89l-233 689h114l164 -513l118 419h83l118 -419zM408 762l100 158h116l-126 -158h-90z" />
    <glyph glyph-name="wacute" unicode="&#x1e83;" horiz-adv-x="782" 
d="M593 0h-85l-119 331l-114 -331h-84l-176 467h110l108 -315l108 315h96l108 -315l109 315h110zM345 540l100 158h116l-126 -158h-90z" />
    <glyph glyph-name="Wdieresis" unicode="&#x1e84;" horiz-adv-x="897" 
d="M772 689h114l-233 -689h-89l-116 413l-115 -413h-89l-233 689h114l164 -513l118 419h83l118 -419zM363 905q26 0 44.5 -17.5t18.5 -43.5t-18.5 -44t-44.5 -18q-27 0 -46 18t-19 44t19 43.5t46 17.5zM534 782q-27 0 -46 18t-19 44t19 43.5t46 17.5t45.5 -17.5t18.5 -43.5
t-19 -44t-45 -18z" />
    <glyph glyph-name="wdieresis" unicode="&#x1e85;" horiz-adv-x="782" 
d="M593 0h-85l-119 331l-114 -331h-84l-176 467h110l108 -315l108 315h96l108 -315l109 315h110zM304 683q26 0 44.5 -17.5t18.5 -43.5t-18.5 -44t-44.5 -18q-27 0 -46 18t-19 44t19 43.5t46 17.5zM475 560q-27 0 -46 18t-19 44t19 43.5t46 17.5t45.5 -17.5t18.5 -43.5
t-19 -44t-45 -18z" />
    <glyph glyph-name="Ygrave" unicode="&#x1ef2;" horiz-adv-x="634" 
d="M371 315v-315h-109v316l-262 373h127l190 -274l192 274h127zM287 762l-126 158h116l100 -158h-90z" />
    <glyph glyph-name="ygrave" unicode="&#x1ef3;" horiz-adv-x="507" 
d="M384 467h110l-289 -695h-108l101 250l-185 445h110l130 -320zM239 540l-126 158h116l100 -158h-90z" />
    <glyph glyph-name="thinspace" unicode="&#x2009;" horiz-adv-x="14" 
 />
    <glyph glyph-name="endash" unicode="&#x2013;" horiz-adv-x="601" 
d="M535 189h-469v90h469v-90z" />
    <glyph glyph-name="emdash" unicode="&#x2014;" horiz-adv-x="808" 
d="M742 189h-676v90h676v-90z" />
    <glyph glyph-name="quoteleft" unicode="&#x2018;" horiz-adv-x="254" 
d="M165 711l54 -22q-73 -101 -71 -223h-91q4 78 38 147q35 69 70 98z" />
    <glyph glyph-name="quoteright" unicode="&#x2019;" horiz-adv-x="249" 
d="M97 444l-53 22q73 101 71 223h91q-5 -81 -39 -148q-33 -67 -70 -97z" />
    <glyph glyph-name="quotesinglbase" unicode="&#x201a;" horiz-adv-x="245" 
d="M71 -80l-53 22q73 101 71 223h91q-5 -81 -39 -148q-33 -67 -70 -97z" />
    <glyph glyph-name="quotedblleft" unicode="&#x201c;" horiz-adv-x="408" 
d="M320 712l53 -22q-71 -103 -70 -223h-91q4 78 38 147q35 69 70 98zM166 712l53 -22q-73 -101 -71 -223h-91q4 78 38 147q36 70 71 98z" />
    <glyph glyph-name="quotedblright" unicode="&#x201d;" horiz-adv-x="403" 
d="M97 444l-53 22q71 103 71 223h90q-5 -83 -38 -148q-33 -67 -70 -97zM252 444l-54 22q73 101 71 223h91q-5 -81 -39 -148q-33 -67 -69 -97z" />
    <glyph glyph-name="quotedblbase" unicode="&#x201e;" horiz-adv-x="399" 
d="M71 -80l-53 22q71 103 71 223h90q-5 -83 -38 -148q-33 -67 -70 -97zM226 -80l-54 22q73 101 71 223h91q-4 -79 -39 -147q-33 -68 -69 -98z" />
    <glyph glyph-name="dagger" unicode="&#x2020;" horiz-adv-x="415" 
d="M159 679h97v-175h117v-77h-117v-541h-97v541h-117v77h117v175z" />
    <glyph glyph-name="daggerdbl" unicode="&#x2021;" horiz-adv-x="443" 
d="M173 679h97v-175h117v-77h-117v-241h117v-76h-117v-224h-97v224h-117v76h117v241h-117v77h117v175z" />
    <glyph glyph-name="bullet" unicode="&#x2022;" horiz-adv-x="462" 
d="M79 239q0 62 44 103q45 42 108 42t107 -42q45 -40 45 -103t-45 -105q-44 -41 -107 -41q-62 0 -108 41q-44 42 -44 105z" />
    <glyph glyph-name="ellipsis" unicode="&#x2026;" horiz-adv-x="752" 
d="M133 125q30 0 50.5 -19.5t20.5 -48.5t-20.5 -48t-50.5 -19t-50 19t-20 48t20.5 48.5t49.5 19.5zM376 125q30 0 50.5 -19.5t20.5 -48.5t-20.5 -48t-50.5 -19t-50 19t-20 48t20.5 48.5t49.5 19.5zM619 125q30 0 50.5 -19.5t20.5 -48.5t-20.5 -48t-50.5 -19t-50.5 19
t-20.5 48t20.5 48.5t50.5 19.5z" />
    <glyph glyph-name="perthousand" unicode="&#x2030;" horiz-adv-x="996" 
d="M535 668l-328 -668h-66l327 668h67zM77 441q-38 40 -38 95t38 95q39 39 95 39t95 -39t39 -95t-39 -95q-40 -38 -95 -38t-95 38zM172 476q25 0 43 17.5t18 42.5t-18 43t-43 18q-26 0 -43 -17.5t-17 -43.5t17 -43t43 -17zM515 257q55 0 94 -40q40 -39 40 -94q0 -56 -39 -95
q-40 -38 -95 -38t-95 38q-38 40 -38 95t38 95q39 39 95 39zM455 123q0 -26 17 -43t43 -17t44 17t18 43q0 25 -18.5 43t-43.5 18t-42.5 -18t-17.5 -43zM960 123q0 -56 -39 -95q-40 -38 -95 -38t-95 38q-38 40 -38 95t38 95q39 39 95 39t95 -40q39 -39 39 -94zM766 123
q0 -26 17 -43t43 -17t44 17t18 43q0 25 -18.5 43t-43.5 18t-42.5 -18t-17.5 -43z" />
    <glyph glyph-name="guilsinglleft" unicode="&#x2039;" horiz-adv-x="318" 
d="M183 26l-138 207l138 207h87l-138 -207l138 -207h-87z" />
    <glyph glyph-name="guilsinglright" unicode="&#x203a;" horiz-adv-x="318" 
d="M48 440h87l138 -207l-138 -207h-87l138 207z" />
    <glyph glyph-name="fraction" unicode="&#x2044;" horiz-adv-x="180" 
d="M277 668h71l-451 -678h-71z" />
    <glyph glyph-name="zerosuperior" unicode="&#x2070;" horiz-adv-x="361" 
d="M38 625q0 98 33 149.5t109 51.5q77 0 110 -51t33 -150q0 -97 -33.5 -148t-109.5 -51t-109 50.5t-33 148.5zM102 625q0 -136 78 -136q79 0 79 136q0 137 -79 137q-78 0 -78 -137z" />
    <glyph glyph-name="foursuperior" unicode="&#x2074;" horiz-adv-x="355" 
d="M329 511h-54v-80h-65v80h-197l208 310h54v-251h54v-59zM210 713l-93 -143h93v143z" />
    <glyph glyph-name="fivesuperior" unicode="&#x2075;" horiz-adv-x="340" 
d="M79 543q24 -55 82 -55q37 0 60.5 20.5t23.5 51.5t-21 48.5t-53 17.5q-49 0 -104 -35l-25 23l34 206h207v-61h-154l-16 -87q30 14 65 14q56 0 93 -34t37 -92q0 -61 -40 -98t-107 -37q-42 0 -79 21.5t-57 59.5l27 18q12 7 27 19z" />
    <glyph glyph-name="sixsuperior" unicode="&#x2076;" horiz-adv-x="337" 
d="M304 746l-59 -24q-20 42 -59 42q-38 0 -60 -36t-20 -91q22 46 79 46q51 0 86 -39q36 -40 35 -95q-2 -55 -40.5 -90.5t-93.5 -34.5q-54 2 -89.5 38t-40.5 96q-6 90 16 171q13 46 46.5 71.5t82.5 24.5q83 -5 117 -79zM110 556q0 -28 19 -47.5t46 -20.5t46 18t20 46
q1 28 -16.5 47.5t-44.5 20.5q-28 1 -48 -17.5t-22 -46.5z" />
    <glyph glyph-name="sevensuperior" unicode="&#x2077;" horiz-adv-x="325" 
d="M35 821h278l-204 -390h-74l171 327h-171v63z" />
    <glyph glyph-name="eightsuperior" unicode="&#x2078;" horiz-adv-x="342" 
d="M62 722q0 44 31.5 74t77.5 30t78 -30t32 -74q0 -37 -29 -66q57 -34 57 -102q0 -54 -40 -91t-98 -37t-98 37t-40 91q0 67 56 102q-27 28 -27 66zM245 555q0 27 -21.5 48.5t-51.5 21.5h-6q-45 2 -63.5 -44t15.5 -74q32 -32 81 -13.5t46 61.5zM126 722q0 -19 13 -32t33 -13
q20 1 32.5 14t12.5 31q0 17 -13.5 29.5t-32.5 12.5q-20 0 -32.5 -12t-12.5 -30z" />
    <glyph glyph-name="ninesuperior" unicode="&#x2079;" horiz-adv-x="337" 
d="M37 503l59 25q19 -42 59 -42q37 0 59 35.5t21 90.5q-22 -46 -79 -46q-51 0 -87 39q-35 40 -34 96q2 55 40 90.5t94 33.5q54 -2 89.5 -38t40.5 -96q1 -31 1.5 -66.5t-9 -71.5t-24 -65t-44 -46.5t-69.5 -16.5q-82 5 -117 78zM231 693q0 28 -19 48t-46 20q-27 1 -46 -17.5
t-20 -45.5q-1 -28 17 -48t44 -20q28 -1 48 17t22 46z" />
    <glyph glyph-name="zeroinferior" unicode="&#x2080;" horiz-adv-x="360" 
d="M38 47q0 98 33 149.5t109 51.5q77 0 110 -51t33 -150q0 -97 -33.5 -148t-109.5 -51t-109 50.5t-33 148.5zM102 47q0 -136 78 -136q79 0 79 136q0 137 -79 137q-78 0 -78 -137z" />
    <glyph glyph-name="oneinferior" unicode="&#x2081;" horiz-adv-x="209" 
d="M156 -147h-65v297l-67 -33v60l132 70v-394z" />
    <glyph glyph-name="twoinferior" unicode="&#x2082;" horiz-adv-x="322" 
d="M36 -147v32l157 189q26 32 26 57q0 24 -18 39.5t-44 15.5q-25 0 -44 -17.5t-23 -44.5l-58 14q8 50 43 80t83 30q52 0 88 -33.5t36 -83.5q0 -51 -42 -101l-98 -114h139v-63h-245z" />
    <glyph glyph-name="threeinferior" unicode="&#x2083;" horiz-adv-x="319" 
d="M91 157l-22 16l-24 18q18 28 48.5 43t65.5 13q48 -2 79.5 -33.5t29.5 -73.5q0 -53 -47 -77q30 -11 48 -41.5t15 -63.5q-5 -50 -47 -81q-43 -33 -97 -29q-39 3 -70.5 25t-47.5 56q5 4 26 15q25 13 27 14q9 -21 28.5 -35t40.5 -15h-1q30 -2 53 15t25 43q1 26 -19 46t-50 19
h-44v57h44q24 0 38.5 18.5t11.5 40.5q-2 18 -15.5 29.5t-33.5 11.5q-39 4 -62 -31z" />
    <glyph glyph-name="fourinferior" unicode="&#x2084;" horiz-adv-x="355" 
d="M329 -67h-54v-80h-65v80h-197l208 310h54v-251h54v-59zM210 135l-93 -143h93v143z" />
    <glyph glyph-name="fiveinferior" unicode="&#x2085;" horiz-adv-x="339" 
d="M53 -53l27 18q24 -55 82 -55q38 0 61 20.5t23 51.5t-21 48.5t-53 17.5q-49 0 -104 -35l-25 23l34 206h207v-61h-154l-16 -87q30 14 65 14q56 0 93 -34t37 -92q0 -61 -40 -98t-107 -37q-42 0 -79 21.5t-57 59.5q15 12 27 19z" />
    <glyph glyph-name="sixinferior" unicode="&#x2086;" horiz-adv-x="337" 
d="M304 168l-59 -24q-20 42 -59 42q-38 0 -60 -36t-20 -91q22 46 79 46q51 0 86 -39q36 -40 35 -95q-2 -55 -40.5 -90.5t-93.5 -34.5q-54 2 -89.5 38t-40.5 96q-6 90 16 171q13 46 46.5 71.5t82.5 24.5q83 -5 117 -79zM110 -22q0 -28 19 -47.5t46 -20.5t46 18t20 46
q1 28 -16.5 47.5t-44.5 20.5q-28 1 -48 -17.5t-22 -46.5z" />
    <glyph glyph-name="seveninferior" unicode="&#x2087;" horiz-adv-x="317" 
d="M34 243h278l-204 -390h-74l171 327h-171v63z" />
    <glyph glyph-name="eightinferior" unicode="&#x2088;" horiz-adv-x="342" 
d="M62 144q0 44 31.5 74t77.5 30t78 -30t32 -74q0 -37 -29 -66q57 -34 57 -102q0 -54 -40 -91t-98 -37t-98 37t-40 91q0 67 56 102q-27 28 -27 66zM245 -23q0 27 -21.5 48.5t-51.5 21.5h-6q-29 1 -49.5 -21t-20 -49t21.5 -47q24 -20 53 -20.5t52.5 19.5t21.5 48zM126 144
q0 -19 13 -32t33 -13q20 1 32.5 14t12.5 31q0 17 -13.5 29.5t-32.5 12.5q-20 0 -32.5 -12t-12.5 -30z" />
    <glyph glyph-name="nineinferior" unicode="&#x2089;" horiz-adv-x="337" 
d="M37 -75l59 25q20 -42 59 -42q37 0 59 35.5t21 90.5q-22 -46 -79 -46q-51 0 -87 39q-35 40 -34 96q2 55 40 90.5t94 33.5q54 -2 89.5 -38t40.5 -96q1 -31 1.5 -66.5t-9 -71.5t-24 -65t-44 -46.5t-69.5 -16.5q-82 5 -117 78zM231 115q0 28 -19 48t-46 20q-27 1 -46 -17.5
t-20 -45.5q-1 -28 17 -48t44 -20q28 -1 48 17t22 46z" />
    <glyph glyph-name="colonmonetary" unicode="&#x20a1;" horiz-adv-x="702" 
d="M316 -2l-39 -108l-50 18l38 106q-39 15 -72 39l-45 -126l-50 17l51 145q-105 103 -105 254q0 140 92 241q93 100 230 111l39 110l50 -18l-33 -92q45 -3 81 -16l31 89l50 -17l-33 -92q61 -31 107 -86l-82 -64q-31 33 -61 50l-165 -463q17 -4 42 -4q116 0 186 90l82 -65
q-46 -60 -115.5 -93.5t-152.5 -33.5q-36 0 -76 8zM386 595l-157 -439q31 -29 70 -46l169 472q-37 12 -82 13zM150 343q0 -76 40 -140l137 382q-79 -21 -128 -88t-49 -154z" />
    <glyph glyph-name="lira" unicode="&#x20a4;" horiz-adv-x="646" 
d="M390 282v-56h-143v-128h229q20 0 20 26v50h102v-51q0 -55 -28 -89t-76 -34h-445v98h96v128h-78v56h78v61h-78v56h78v69q0 105 55.5 167t151.5 62q87 0 145 -58q59 -59 59 -156h-103q0 54 -31 83.5t-77 24.5q-41 -2 -69.5 -29t-28.5 -67v-96h143v-56h-143v-61h143z" />
    <glyph glyph-name="uni20A6" unicode="&#x20a6;" horiz-adv-x="755" 
d="M621 250v-250h-89l-151 250h-163v-250h-93v250h-69v55h69v74h-69v55h69v255h92l154 -255h157v255h93v-255h82v-55h-82v-74h82v-55h-82zM303 379h-85v-74h129zM528 379h-124l45 -74h79v74zM269 434l-51 85v-85h51zM528 250h-46l46 -76v76z" />
    <glyph glyph-name="peseta" unicode="&#x20a7;" horiz-adv-x="742" 
d="M132 0v399h-80v55h80v49h-80v55h80v131h275q70 0 118 -35t70 -96h104v-55h-90q3 -21 3 -41v-8h87v-55h-95q-16 -66 -66 -103.5t-131 -37.5h-181v-258h-94zM226 454h293v8q0 16 -5 41h-288v-49zM226 399v-54h175q75 0 104 54h-279zM406 602h-180v-44h264q-30 44 -84 44z
" />
    <glyph glyph-name="rupee" unicode="&#x20a8;" horiz-adv-x="684" 
d="M375 462h-310v56h304q-22 73 -97 73h-207q0 24 -1 49v49h573v-56h-214q47 -46 59 -115h155v-56h-151q-3 -82 -48 -144q-43 -61 -130 -61l181 -257h-129l-172 253h-123v97h203q50 0 77 30.5t30 81.5z" />
    <glyph glyph-name="uni20A9" unicode="&#x20a9;" horiz-adv-x="978" 
d="M286 0l-93 274h-135v55h117l-34 100h-83v55h64l-69 205h100l66 -205h202l32 112h71l32 -112h202l66 205h100l-70 -205h66v-55h-84l-34 -100h118v-55h-136l-93 -274h-81l-78 274h-88l-77 -274h-81zM740 429h-169l29 -100h108zM405 429h-169l32 -100h109zM691 274h-76
l36 -124zM361 274h-75l40 -124zM488 429h-1l-28 -100h58z" />
    <glyph glyph-name="afii57636" unicode="&#x20aa;" horiz-adv-x="803" 
d="M543 332v-155h-101v148q0 48 -33 79.5t-84 31.5h-128v-436h-103v538h220q38 0 72 -8q72 -15 114.5 -69t42.5 -129zM260 206v155h102v-149q0 -48 32 -79t85 -31h127v436h103v-538h-220q-42 0 -71 7q-72 16 -115 70t-43 129z" />
    <glyph glyph-name="Euro" unicode="&#x20ac;" horiz-adv-x="820" 
d="M522 423v-57h-473v57h108q27 120 121 196q95 78 218 78q80 0 149 -32.5t117 -91.5l-82 -64q-77 86 -184 86q-81 0 -144 -48q-62 -49 -86 -124h256zM49 250v57h473v-57h-252q27 -72 88 -115t138 -43q116 0 186 90l82 -65q-46 -60 -115.5 -93.5t-152.5 -33.5
q-122 0 -214 73q-92 74 -122 187h-111z" />
    <glyph glyph-name="uni2113" unicode="&#x2113;" horiz-adv-x="393" 
d="M166 553v-274h43q39 0 39 66v208q0 72 -39 72q-43 0 -43 -72zM224 95l96 -2v-93h-111q-140 0 -140 161v398q0 162 140 162q137 0 137 -164v-213q0 -88 -40 -125t-140 -37v-21q0 -36 13 -51t45 -15z" />
    <glyph glyph-name="afii61352" unicode="&#x2116;" horiz-adv-x="972" 
d="M595 0h-100l-295 493v-493h-107v689h103l292 -489v489h107v-689zM697 466q-38 38 -38 93t38 93q39 39 94 39t93 -39q39 -38 39 -93t-39 -93q-38 -38 -93 -38q-54 0 -94 38zM729 559q0 -25 18.5 -43.5t43.5 -18.5q26 0 44.5 18t18.5 44t-18.5 44.5t-44.5 18.5
q-25 0 -43.5 -18.5t-18.5 -44.5zM918 333h-254v52h254v-52z" />
    <glyph glyph-name="trademark" unicode="&#x2122;" horiz-adv-x="844" 
d="M391 311h-70l37 315h-106v-315h-72v315h-117v63h365l120 -259l119 259h62l45 -378h-69l-31 256l-97 -215h-57l-99 215z" />
    <glyph glyph-name="estimated" unicode="&#x212e;" horiz-adv-x="655" 
d="M609 279h-429v-193q66 -63 152 -63q72 0 120 31t90 96l31 -19q-47 -72 -102.5 -106.5t-138.5 -34.5q-118 0 -195 84q-76 85 -76 206q0 124 75 206q75 84 200 84t198 -85q75 -84 75 -206zM180 312h309v163q-68 62 -153 62q-96 0 -156 -62v-163z" />
    <glyph glyph-name="minus" unicode="&#x2212;" horiz-adv-x="560" 
d="M487 307v-87h-414v87h414z" />
    <glyph glyph-name="notequal" unicode="&#x2260;" horiz-adv-x="591" 
d="M525 120h-260l-53 -109h-70l53 109h-130v89h173l52 106h-225v89h268l53 107h71l-53 -107h121v-89h-165l-51 -106h216v-89z" />
    <glyph glyph-name="lessequal" unicode="&#x2264;" horiz-adv-x="654" 
d="M574 239v-100l-505 194v93l505 193v-100l-375 -139zM575 87v-87h-507v87h507z" />
    <glyph glyph-name="greaterequal" unicode="&#x2265;" horiz-adv-x="654" 
d="M585 426v-93l-505 -194v100l375 141l-375 139v100zM79 0v87h507v-87h-507z" />
    <glyph glyph-name="commaaccent" unicode="&#xf6c3;" horiz-adv-x="277" 
d="M130 -259l-60 23q31 42 42 80q11 40 7 99h97q-1 -136 -86 -202z" />
    <glyph glyph-name="rupiah" unicode="&#xf6dd;" horiz-adv-x="1155" 
d="M338 591h-158v-241h154q68 -3 96 58.5t0.5 123.5t-92.5 59zM374 257l181 -257h-129l-172 253h-74v-253h-107v689h269q105 0 157 -64q53 -65 53 -155q0 -83 -45 -143q-43 -59 -133 -70zM629 467h103v-69q21 36 64 57.5t92 21.5q96 0 164 -68t68 -176t-68 -176
q-67 -67 -164 -67q-51 0 -93 20.5t-63 56.5v-294h-103v694zM733 231q0 -65 42 -104q44 -38 100 -38q61 0 100.5 39.5t39.5 102.5q0 64 -41 105t-99 41q-60 0 -101 -40q-41 -41 -41 -106z" />
    <glyph glyph-name="apple" unicode="&#xf8ff;" horiz-adv-x="847" 
d="M80 687h687v-687h-687v687zM426 332l-262 263v-377h81l-74 75v178l255 -253l256 253v-178l-74 -75h84v377zM193 96l-14 36h-15v-53h9v37l13 -37h10l11 37v-37h9v53h-14zM248 132q-25 0 -25 -27q0 -26 25 -26q11 0 17 8t6 18q0 27 -23 27zM248 89q-6 0 -11.5 5.5
t-5.5 10.5q0 6 5 11.5t12 5.5q12 0 12 -17q0 -16 -12 -16zM284 99h-13q0 -20 22 -20t22 17q0 11 -15 14q-16 3 -16 6q0 6 9 6q10 0 10 -6h9q0 16 -19 16t-19 -16q0 -8 16 -15q13 0 13 -5q0 -7 -10 -7q-9 0 -9 10zM315 132v-10h17v-43h8v43h15v10h-40zM398 79l-21 53h-9
l-22 -53h12l4 13h22l3 -13h11zM371 119h3l7 -18h-16zM426 132h-28v-53h9v22h13q9 0 9 -9v-13h13q-3 3 -3 13q0 9 -7 13q7 3 7 11q0 16 -13 16zM420 108h-13v14h13q9 0 9 -6q0 -8 -9 -8zM466 132h-20v-53h20q25 0 25 29q0 24 -25 24zM466 89h-8v33h4q17 0 17 -17q0 -6 -4 -11
t-9 -5zM531 122v10h-37v-53h40v10h-28v12h25v9h-25v12h25zM543 99h-9q0 -20 22 -20t22 17q0 11 -15 14q-17 3 -17 6q0 6 7 6q12 0 12 -6h10q0 16 -19 16q-5 0 -11 -2.5t-9.5 -7t0.5 -10t17 -11.5q12 0 12 -5q0 -7 -9 -7q-13 0 -13 10zM589 79v53h-7v-53h7zM633 86l4 -7h6v29
h-22v-9h12q-4 -10 -12 -10q-6 0 -11 5t-5 11t4.5 11.5t11.5 5.5q9 0 9 -10h13q-5 20 -22 20q-11 0 -18 -8t-7 -19q0 -10 7 -18t18 -8q9 0 12 7zM679 99l-22 33h-8v-53h8v33l22 -33h13v53h-13v-33z" />
    <glyph glyph-name="NULL" horiz-adv-x="0" 
 />
    <glyph glyph-name="CR" horiz-adv-x="333" 
 />
    <glyph glyph-name="published" horiz-adv-x="807" 
d="M368 280v-122h-69v353h136q53 0 83.5 -33t30.5 -83q0 -44 -30 -80q-29 -35 -84 -35h-67zM368 443v-95h65q28 0 39.5 24t0.5 47.5t-38 23.5h-67zM155 93q-101 104 -101 250t101 250q102 104 248 104t248 -104t102 -250q0 -147 -102 -250t-248 -103t-248 103zM199 549
q-84 -85 -84 -206t84 -206t204 -85t204 85t84 206t-84 206q-84 86 -204 86t-204 -86z" />
    <glyph glyph-name="frenchfranc" horiz-adv-x="730" 
d="M483 0h-102v332h-182v-332h-104v689h401v-100h-297v-158h284v-111q35 117 128 117q53 0 83 -18l-17 -96q-31 16 -69 16q-61 0 -93 -59.5t-32 -161.5v-118z" />
    <glyph glyph-name="parenleft.case" horiz-adv-x="367" 
d="M331 808v-94q-84 0 -138 -104t-54 -268t54 -267t138 -103v-94q-127 0 -207 126q-78 126 -78 338t78 339q79 127 207 127z" />
    <glyph glyph-name="parenright.case" horiz-adv-x="367" 
d="M321 342q0 -211 -79 -338q-78 -126 -206 -126v94q83 0 137 103q55 103 55 267t-55 267q-54 105 -137 105v94q128 0 206 -127q79 -127 79 -339z" />
    <glyph glyph-name="hyphen.case" horiz-adv-x="481" 
d="M415 301h-349v93h349v-93z" />
    <glyph glyph-name="at.case" horiz-adv-x="969" 
d="M596 220v128q0 53 -37 89q-37 37 -89 37t-89 -37q-37 -36 -37 -89q0 -52 37 -89q37 -36 89 -36q48 0 94 43v-88q-48 -30 -94 -30q-84 0 -142 58q-59 59 -59 142t59 142t142 59q81 0 139 -55q59 -56 62 -137v-144q0 -64 69 -64q32 0 56 20.5t36 55.5q22 65 22 135
q0 148 -110 247q-109 100 -264 100q-150 0 -254 -107q-103 -106 -103 -257q0 -152 103 -256q104 -104 254 -104h25v-76h-25q-182 0 -307 126q-125 128 -125 310t125 310q126 129 307 129q118 3 222.5 -52.5t167.5 -154.5t61 -215q0 -47 -10.5 -94.5t-31.5 -92t-59.5 -72
t-89.5 -27.5q-66 0 -105 36t-39 110z" />
    <glyph glyph-name="bracketleft.case" horiz-adv-x="328" 
d="M289 -116h-208v916h208v-88h-111v-740h111v-88z" />
    <glyph glyph-name="bracketright.case" horiz-adv-x="328" 
d="M39 800h208v-916h-208v88h111v740h-111v88z" />
    <glyph glyph-name="braceleft.case" horiz-adv-x="399" 
d="M36 307v74q24 0 42.5 17.5t18.5 39.5v174q-1 88 56 142q59 54 142 54h69v-77h-72q-42 0 -71.5 -31t-29.5 -77v-157q0 -97 -67 -122q34 -11 50.5 -44t16.5 -78v-149q0 -45 30 -78t71 -33h72v-78h-69q-85 0 -141 55q-57 54 -57 142v170q0 21 -18.5 38.5t-42.5 17.5z" />
    <glyph glyph-name="braceright.case" horiz-adv-x="399" 
d="M363 381v-74q-24 0 -42.5 -17.5t-18.5 -38.5v-170q0 -88 -57 -142q-56 -55 -141 -55h-69v78h72q41 0 71 33t30 78v149q0 45 16.5 78t50.5 44q-67 25 -67 122v157q0 46 -29.5 77t-71.5 31h-72v77h69q84 0 141 -54q58 -54 57 -142v-174q0 -22 18.5 -39.5t42.5 -17.5z" />
    <glyph glyph-name="exclamdown.case" horiz-adv-x="267" 
d="M92 503h82l14 -504h-111zM134 697q30 0 50.5 -19t20.5 -48t-20.5 -48.5t-50.5 -19.5t-50.5 19.5t-20.5 48.5t20.5 48t50.5 19z" />
    <glyph glyph-name="guillemotleft.case" horiz-adv-x="517" 
d="M369 137l-138 207l138 207h86l-138 -207l138 -207h-86zM192 137l-138 207l138 207h87l-138 -207l138 -207h-87z" />
    <glyph glyph-name="periodcentered.case" horiz-adv-x="266" 
d="M132 454q30 0 51 -19.5t21 -48.5t-21 -48.5t-51 -19.5q-29 0 -49.5 19.5t-20.5 48.5t20.5 48.5t49.5 19.5z" />
    <glyph glyph-name="guillemotright.case" horiz-adv-x="517" 
d="M62 551h86l138 -207l-138 -207h-86l138 207zM238 551h87l138 -207l-138 -207h-87l138 207z" />
    <glyph glyph-name="questiondown.case" horiz-adv-x="486" 
d="M246 450l2 52h100v-52q0 -76 -33 -108q-12 -12 -34 -26q-7 -4 -28 -15t-40.5 -21.5t-32.5 -19.5q-40 -28 -40 -75q0 -40 30.5 -66.5t74.5 -26.5q43 0 72 30t29 77h99q0 -94 -58 -152q-57 -57 -142 -57q-86 0 -147 53q-60 54 -60 142q0 68 39 119t103 70q35 10 50.5 27
t15.5 49zM297 562q-30 0 -50.5 19.5t-20.5 48.5t20.5 48t50.5 19t50.5 -19t20.5 -48t-20.5 -48.5t-50.5 -19.5z" />
    <glyph glyph-name="endash.case" horiz-adv-x="597" 
d="M533 300h-469v90h469v-90z" />
    <glyph glyph-name="emdash.case" horiz-adv-x="804" 
d="M740 300h-676v90h676v-90z" />
    <glyph glyph-name="bullet.case" horiz-adv-x="464" 
d="M80 350q0 62 44 103q45 42 108 42q64 0 107 -42q45 -41 45 -103q0 -63 -45 -105q-44 -41 -107 -41q-62 0 -108 41q-44 42 -44 105z" />
    <glyph glyph-name="guilsinglleft.case" horiz-adv-x="341" 
d="M192 137l-138 207l138 207h87l-138 -207l138 -207h-87z" />
    <glyph glyph-name="guilsinglright.case" horiz-adv-x="341" 
d="M62 551h87l138 -207l-138 -207h-87l138 207z" />
    <glyph glyph-name="cent.case" horiz-adv-x="533" 
d="M249 697h65v-103q104 -6 167 -80l-80 -64q-39 45 -105 45q-61 0 -104 -40q-43 -39 -43 -102q0 -65 43 -105q44 -41 104 -41q65 0 105 46l81 -63q-62 -74 -168 -81v-110h-65v113q-86 15 -145 80q-57 64 -57 161q0 95 57 159t145 79v106z" />
    <glyph glyph-name="zero.tnum" 
d="M51 325q0 191 73 272q58 65 166 65t165 -65q52 -57 66 -165q15 -107 0 -214q-30 -228 -231 -228q-137 0 -191 99q-48 88 -48 236zM290 90q136 0 136 235t-136 235q-137 0 -137 -235t137 -235z" />
    <glyph glyph-name="one.tnum" 
d="M159 482v95l210 83v-660h-102v521z" />
    <glyph glyph-name="two.tnum" 
d="M491 100v-100h-409v49l266 320q45 53 45 99q0 41 -31 67.5t-77 26.5q-43 0 -74 -27.5t-37 -72.5l-98 21q13 82 71 131t140 49q89 0 148 -55q60 -54 60 -140q0 -88 -71 -168l-170 -200h237z" />
    <glyph glyph-name="three.tnum" 
d="M278 300h-73v95h73q34 -1 56 20.5t28 53.5q9 62 -48 85q-15 7 -45 7q-57 2 -92 -51l-78 57q27 47 79 73.5t113 22.5q79 -5 132 -57q52 -52 52 -124q0 -38 -21.5 -73t-57.5 -56q48 -18 76 -67q29 -50 29 -104q0 -89 -64 -141q-65 -51 -164 -51q-73 0 -129 36t-84 96l90 48
q13 -30 51 -56q37 -24 72 -24h-1q59 0 91 27.5t32 72.5q0 41 -32 76t-85 34z" />
    <glyph glyph-name="four.tnum" 
d="M349 485l-171 -255h171v255zM542 230v-93h-91v-137h-102v137h-334l348 516h88v-423h91z" />
    <glyph glyph-name="five.tnum" 
d="M422 215q0 56 -36.5 88.5t-94.5 32.5q-78 0 -158 -59l-61 45l56 331h357v-97h-274l-31 -165q21 16 56 26.5t66 10.5q95 0 158 -57q63 -55 63 -156q0 -102 -69 -163q-70 -62 -182 -62q-68 0 -128.5 39.5t-92.5 105.5q3 1 45 25l42 25q20 -44 55.5 -69.5t78.5 -25.5
q70 0 110 35t40 90z" />
    <glyph glyph-name="six.tnum" 
d="M413 203q0 49 -30.5 83.5t-77.5 35.5q-49 2 -85 -32q-36 -33 -36 -79q0 -50 32.5 -84t80.5 -35t82 30q34 33 34 81zM315 421q85 0 143 -64q58 -62 58 -159q-3 -91 -67 -149q-64 -59 -156 -59q-88 0 -148 61q-60 63 -67 164q-5 51 -2.5 104.5t8.5 103.5t24.5 94.5t44.5 77
t69 51t98 16.5q137 -6 191 -126l-93 -40q-34 70 -102 70t-108 -63q-40 -62 -32 -156q41 74 139 74z" />
    <glyph glyph-name="seven.tnum" 
d="M79 554v99h462l-341 -653h-119l291 554h-293z" />
    <glyph glyph-name="eight.tnum" 
d="M209 491q0 -33 23 -54.5t60 -21.5q35 1 57 23t22 53q0 30 -23 51.5t-58 21.5t-58 -21.5t-23 -51.5zM161 208q0 -51 37 -85t92 -34q54 0 91 34t37 85q0 48 -36 83q-37 35 -89 35h-11q-52 -2 -86 -36q-35 -35 -35 -82zM109 492q0 72 52 121q53 50 129 50q77 0 130 -50
t53 -121q0 -68 -51 -114q46 -28 72.5 -73t26.5 -98q0 -91 -67 -154q-68 -63 -164 -63t-164 63q-67 63 -67 154q0 54 26 99t72 72q-48 46 -48 114z" />
    <glyph glyph-name="nine.tnum" 
d="M168 449q0 -49 30.5 -83.5t77.5 -35.5q49 -2 84 31q37 34 37 80q0 50 -32.5 84t-80.5 35q-48 2 -82 -31q-34 -31 -34 -80zM266 231q-84 0 -143 63q-58 64 -58 160q3 91 66 149q65 59 157 59q88 0 147 -62q61 -62 68 -163q5 -51 2.5 -104.5t-8.5 -103.5t-24.5 -94.5
t-44.5 -77t-69 -51t-98 -16.5q-137 6 -191 126l93 40q34 -70 102 -70q67 0 108 63q40 62 32 156q-38 -74 -139 -74z" />
    <glyph glyph-name="zero.taboldstyle" 
d="M289 -10q-101 0 -173 72q-72 74 -72 188q0 116 72 187q72 72 173 72q103 0 175 -72q72 -70 72 -187q0 -114 -72 -188q-72 -72 -175 -72zM289 408q-59 0 -103 -44q-43 -43 -43 -114q0 -72 43 -116q44 -44 103 -44t103 44q44 46 44 116q0 71 -43 114q-44 44 -104 44z" />
    <glyph glyph-name="one.taboldstyle" 
d="M146 390l246 126v-516h-103v356l-143 -71v105z" />
    <glyph glyph-name="two.taboldstyle" 
d="M473 98v-98h-379v51l235 248q35 33 35 61q0 25 -21.5 41.5t-54.5 16.5t-55 -19t-25 -52l-100 16q7 70 58 112t125 42q79 0 130 -45q51 -44 51 -110q0 -29 -12 -56q-16 -37 -67 -89l-119 -119h199z" />
    <glyph glyph-name="six.taboldstyle" 
d="M413 203q0 49 -30.5 83.5t-77.5 35.5q-49 2 -85 -32q-36 -33 -36 -79q0 -50 32.5 -84t80.5 -35t82 30q34 33 34 81zM315 421q85 0 143 -64q58 -62 58 -159q-3 -91 -67 -149q-64 -59 -156 -59q-88 0 -148 61q-60 63 -67 164q-5 51 -2.5 104.5t8.5 103.5t24.5 94.5t44.5 77
t69 51t98 16.5q137 -6 191 -126l-93 -40q-34 70 -102 70t-108 -63q-40 -62 -32 -156q41 74 139 74z" />
    <glyph glyph-name="eight.taboldstyle" 
d="M209 491q0 -33 23 -54.5t60 -21.5q35 1 57 23t22 53q0 30 -23 51.5t-58 21.5t-58 -21.5t-23 -51.5zM161 208q0 -51 37 -85t92 -34q54 0 91 34t37 85q0 48 -36 83q-37 35 -89 35h-11q-52 -2 -86 -36q-35 -35 -35 -82zM109 492q0 72 52 121q53 50 129 50q77 0 130 -50
t53 -121q0 -68 -51 -114q46 -28 72.5 -73t26.5 -98q0 -91 -67 -154q-68 -63 -164 -63t-164 63q-67 63 -67 154q0 54 26 99t72 72q-48 46 -48 114z" />
    <glyph glyph-name="three.taboldstyle" 
d="M280 114h-73v95h73q34 -1 56 20.5t28 53.5q9 62 -48 85q-15 7 -45 7q-57 2 -92 -51l-78 57q27 47 79 73.5t113 22.5q79 -5 132 -57q52 -52 52 -124q0 -38 -21.5 -73t-57.5 -56q48 -18 76 -67q29 -50 29 -104q0 -89 -64 -140q-64 -52 -164 -52q-73 0 -129 36t-84 96l90 48
q13 -31 51 -55q37 -25 72 -25h-1q59 0 91 27.5t32 72.5q0 41 -32 76t-85 34z" />
    <glyph glyph-name="four.taboldstyle" 
d="M350 298l-170 -255h170v255zM544 43v-93h-92v-138h-102v138h-333l348 516h87v-423h92z" />
    <glyph glyph-name="five.taboldstyle" 
d="M423 29q0 56 -36.5 88.5t-94.5 32.5q-78 0 -158 -59l-61 45l56 331h357v-97h-274l-31 -165q21 16 56 26.5t66 10.5q95 0 158 -57q63 -55 63 -156t-69 -163q-70 -62 -182 -62q-68 0 -128.5 39.5t-92.5 105.5q8 3 45 26l42 24q20 -44 55.5 -69.5t78.5 -25.5q70 0 110 35
t40 90z" />
    <glyph glyph-name="seven.taboldstyle" 
d="M79 367v99h462l-341 -653h-119l291 554h-293z" />
    <glyph glyph-name="nine.taboldstyle" 
d="M172 264q0 -49 30.5 -83.5t77.5 -35.5q49 -2 84 31q37 34 37 80q0 50 -32.5 84t-80.5 35q-48 2 -82 -31q-34 -31 -34 -80zM270 46q-84 0 -143 63q-58 64 -58 160q3 91 66 149q65 59 157 59q88 0 147 -62q61 -62 68 -163q5 -51 2.5 -104.5t-8.5 -103.5t-24.5 -94.5
t-44.5 -77t-69 -51t-98 -16.5q-137 6 -191 126l93 40q34 -70 102 -70q67 0 108 63q40 62 32 156q-38 -74 -139 -74z" />
    <glyph glyph-name="zero.oldstyle" horiz-adv-x="594" 
d="M296 -10q-101 0 -173 72q-72 74 -72 188q0 116 72 187q72 72 173 72q103 0 175 -72q72 -70 72 -187q0 -114 -72 -188q-72 -72 -175 -72zM296 408q-59 0 -103 -44q-43 -43 -43 -114q0 -72 43 -116q44 -44 103 -44t103 44q44 46 44 116q0 71 -43 114q-44 44 -104 44z" />
    <glyph glyph-name="one.oldstyle" horiz-adv-x="370" 
d="M41 390l246 126v-516h-102v356l-144 -71v105z" />
    <glyph glyph-name="two.oldstyle" horiz-adv-x="486" 
d="M426 98v-98h-378v51l235 248q35 35 35 61q0 25 -21.5 41.5t-54.5 16.5t-55 -19t-26 -52l-100 16q7 70 58 112q53 42 126 42q78 0 129 -45q52 -43 52 -110q0 -29 -12 -56q-16 -37 -67 -89l-119 -119h198z" />
    <glyph glyph-name="three.oldstyle" horiz-adv-x="516" 
d="M248 114h-73v95h73q34 -1 56 20.5t28 53.5q9 62 -48 85q-15 7 -45 7q-57 2 -92 -51l-78 57q27 47 79 73.5t113 22.5q79 -5 132 -57q52 -52 52 -124q0 -38 -21.5 -73t-57.5 -56q48 -18 76 -67q29 -50 29 -104q0 -89 -64 -140q-64 -52 -164 -52q-73 0 -129 36t-84 96l90 48
q13 -31 51 -55q37 -25 72 -25h-1q59 0 91 27.5t32 72.5q0 41 -32 76t-85 34z" />
    <glyph glyph-name="four.oldstyle" horiz-adv-x="579" 
d="M351 298l-171 -255h171v255zM544 43v-93h-91v-138h-102v138h-334l348 516h88v-423h91z" />
    <glyph glyph-name="five.oldstyle" horiz-adv-x="554" 
d="M410 29q0 56 -36.5 88.5t-94.5 32.5q-78 0 -158 -59l-61 45l56 331h357v-97h-274l-31 -165q21 16 56 26.5t66 10.5q95 0 158 -57q63 -55 63 -156t-69 -163q-70 -62 -182 -62q-68 0 -128.5 39.5t-92.5 105.5q8 3 45 26l42 24q20 -44 55.5 -69.5t78.5 -25.5q70 0 110 35
t40 90z" />
    <glyph glyph-name="six.oldstyle" horiz-adv-x="561" 
d="M404 203q0 49 -30.5 83.5t-77.5 35.5q-49 2 -85 -32q-36 -33 -36 -79q0 -50 32.5 -84t80.5 -35t82 30q34 33 34 81zM306 421q85 0 143 -64q58 -62 58 -159q-3 -91 -67 -149q-64 -59 -156 -59q-88 0 -148 61q-60 63 -67 164q-5 51 -2.5 104.5t8.5 103.5t24.5 94.5t44.5 77
t69 51t98 16.5q137 -6 191 -126l-93 -40q-34 70 -102 70q-67 0 -108 -63q-40 -62 -32 -156q41 74 139 74z" />
    <glyph glyph-name="seven.oldstyle" horiz-adv-x="511" 
d="M45 368v99h462l-341 -653h-119l291 554h-293z" />
    <glyph glyph-name="eight.oldstyle" horiz-adv-x="570" 
d="M204 491q0 -33 23 -54.5t60 -21.5q35 1 57 23t22 53q0 30 -23 51.5t-58 21.5t-58 -21.5t-23 -51.5zM156 208q0 -51 37 -85t92 -34q54 0 91 34t37 85q0 48 -36 83q-37 35 -89 35h-11q-52 -2 -86 -36q-35 -35 -35 -82zM104 492q0 72 52 121q53 50 129 50q77 0 130 -50
t53 -121q0 -68 -51 -114q46 -28 72.5 -73t26.5 -98q0 -91 -67 -154t-164 -63t-164 63t-67 154q0 54 26 99t72 72q-48 46 -48 114z" />
    <glyph glyph-name="nine.oldstyle" horiz-adv-x="540" 
d="M152 264q0 -49 30.5 -83.5t77.5 -35.5q49 -2 84 31q37 34 37 80q0 50 -32.5 84t-80.5 35q-48 2 -82 -31q-34 -31 -34 -80zM250 46q-84 0 -143 63q-58 64 -58 160q3 91 66 149q65 59 157 59q88 0 147 -62q61 -62 68 -163q5 -51 2.5 -104.5t-8.5 -103.5t-24.5 -94.5
t-44.5 -77t-69 -51t-98 -16.5q-137 6 -191 126l93 40q34 -70 102 -70q67 0 108 63q40 62 32 156q-38 -74 -139 -74z" />
    <glyph glyph-name="Lslash.sc" horiz-adv-x="433" 
d="M185 579v-189l84 53v-67l-84 -53v-233h229v-90h-324v264l-55 -35v67l55 36v247h95z" />
    <glyph glyph-name="Zcaron.sc" horiz-adv-x="509" 
d="M191 779l61 -70l63 70h79l-96 -136h-90l-96 136h79zM46 0v78l290 414h-279v87h401v-77l-292 -414h292v-88h-412z" />
    <glyph glyph-name="exclam.sc" horiz-adv-x="275" 
d="M138 101q25 0 41.5 -16t16.5 -40t-16.5 -39.5t-41.5 -15.5q-24 0 -40.5 15.5t-16.5 39.5t16.5 40t40.5 16zM176 152h-78l-13 429h105z" />
    <glyph glyph-name="ampersand.sc" horiz-adv-x="579" 
d="M254 355h104v71h87v-72h71v-74h-71v-104q0 -54 18 -77.5t67 -23.5v-84q-106 0 -144 60q-21 -28 -59.5 -44.5t-79.5 -16.5q-84 0 -139 52q-54 52 -54 131q0 101 84 152q-44 35 -44 104q0 61 45 106q47 45 111 45q96 0 149 -83l-76 -48q-28 43 -68 43q-31 0 -50.5 -18.5
t-19.5 -46.5t19 -50t50 -22zM358 225v55h-100q-49 0 -80 -28.5t-33 -71.5q-1 -42 29.5 -71.5t76.5 -29.5q107 0 107 146z" />
    <glyph glyph-name="question.sc" horiz-adv-x="427" 
d="M130 407h-88q0 81 48 129q49 48 122 48q74 0 124 -45q51 -45 51 -119q0 -58 -33.5 -101.5t-86.5 -59.5q-36 -10 -45 -29t-10 -73h-89v42q0 58 27 91.5t83 52.5q29 9 46.5 29.5t17.5 47.5q0 32 -25 53t-60 21q-34 0 -58 -24.5t-24 -62.5zM106 49q0 26 18.5 43.5t43.5 17.5
q27 0 44.5 -17t17.5 -44q0 -25 -18 -42t-44 -17q-25 0 -43.5 17.5t-18.5 41.5z" />
    <glyph glyph-name="A.sc" horiz-adv-x="570" 
d="M285 456l-82 -228h164zM554 0h-100l-55 143h-228l-54 -143h-101l219 579h100z" />
    <glyph glyph-name="B.sc" horiz-adv-x="552" 
d="M471 425q0 -84 -67 -115q46 -14 71 -54q27 -41 27 -85q0 -73 -48 -122q-46 -49 -127 -49h-241v579h223q75 0 118.5 -41.5t43.5 -112.5zM182 493v-148h124q32 0 50 21.5t18 55.5q0 33 -20 52t-55 19h-117zM321 262h-139v-175h141q35 0 58 25t23 61q0 34 -24 61.5t-59 27.5
z" />
    <glyph glyph-name="C.sc" horiz-adv-x="596" 
d="M497 157l73 -58q-40 -51 -99.5 -80t-127.5 -29q-123 0 -209 87q-85 86 -85 210q0 125 85 210q86 87 209 87q137 0 225 -106l-72 -57q-64 73 -153 73q-83 0 -142 -60q-58 -59 -58 -147q0 -87 58 -146q59 -60 142 -60q93 0 154 76z" />
    <glyph glyph-name="D.sc" horiz-adv-x="625" 
d="M311 0h-225v579h225q122 0 192 -82q70 -80 70 -209q0 -128 -70 -208q-71 -80 -192 -80zM180 492v-404h131q79 0 123 55t44 145q0 88 -44 146q-43 58 -123 58h-131z" />
    <glyph glyph-name="E.sc" horiz-adv-x="499" 
d="M86 0v579h352v-86h-257v-164h225v-87h-225v-155h264v-87h-359z" />
    <glyph glyph-name="F.sc" horiz-adv-x="465" 
d="M86 0v579h347v-86h-252v-164h199v-87h-199v-242h-95z" />
    <glyph glyph-name="G.sc" horiz-adv-x="651" 
d="M544 501l-67 -62h-1q-56 56 -135 56q-84 0 -142 -61q-57 -60 -57 -147q0 -86 58 -147t141 -61q71 0 118.5 37.5t50.5 97.5h-161v81h268q0 -150 -72.5 -227.5t-203.5 -77.5q-123 0 -209 86q-84 87 -84 211q0 125 84 210q86 87 209 87q122 0 203 -83z" />
    <glyph glyph-name="H.sc" horiz-adv-x="615" 
d="M433 579h96v-579h-96v245h-252v-245h-95v579h95v-248h252v248z" />
    <glyph glyph-name="I.sc" horiz-adv-x="267" 
d="M86 0v579h95v-579h-95z" />
    <glyph glyph-name="J.sc" horiz-adv-x="266" 
d="M-73 -195l8 89q26 -8 63 -8q44 0 66 26.5t22 72.5v594h94v-594q0 -88 -45.5 -139.5t-136.5 -51.5q-18 0 -71 11z" />
    <glyph glyph-name="K.sc" horiz-adv-x="516" 
d="M464 579l-222 -289l274 -290h-125l-210 228v-228h-95v579h95v-226l172 226h111z" />
    <glyph glyph-name="L.sc" horiz-adv-x="429" 
d="M86 0v579h95v-492h229v-87h-324z" />
    <glyph glyph-name="M.sc" horiz-adv-x="799" 
d="M206 579l192 -403l194 403h83l71 -579h-95l-48 402l-164 -338h-79l-165 338l-49 -402h-93l70 579h83z" />
    <glyph glyph-name="N.sc" horiz-adv-x="596" 
d="M510 579v-579h-88l-241 403v-403h-95v579h90l240 -398v398h94z" />
    <glyph glyph-name="O.sc" horiz-adv-x="683" 
d="M340 584q124 0 209 -87q86 -86 86 -210q0 -123 -86 -211q-86 -86 -209 -86q-122 0 -208 86q-84 87 -84 211q0 125 84 210q86 87 208 87zM142 287q0 -85 57 -145q59 -60 141 -60q84 0 142 60q58 59 58 145q0 87 -58 145q-58 60 -142 60q-82 0 -141 -60q-57 -58 -57 -145z
" />
    <glyph glyph-name="P.sc" horiz-adv-x="532" 
d="M86 0v579h234q88 0 133 -54q46 -53 46 -130q0 -78 -45 -132q-45 -53 -134 -53h-138v-210h-96zM319 493h-137v-196h133q41 0 65 28t24 70q0 41 -22.5 69.5t-62.5 28.5z" />
    <glyph glyph-name="Q.sc" horiz-adv-x="685" 
d="M505 39l58 -94l-72 -45l-64 102q-47 -12 -86 -12q-123 0 -209 86q-84 87 -84 211q0 125 84 210q86 87 209 87q125 0 210 -87q86 -86 86 -210q0 -75 -35.5 -140.5t-96.5 -107.5zM320 175l72 45l62 -101q40 27 63.5 72t23.5 96q0 87 -58 146q-58 61 -142 61q-83 0 -142 -60
q-57 -60 -57 -147q0 -81 52 -136q54 -57 132 -67q19 0 49 2l-36 58z" />
    <glyph glyph-name="R.sc" horiz-adv-x="547" 
d="M346 215l151 -215h-115l-143 210h-57v-210h-96v579h227q88 0 133 -54q46 -53 46 -130q0 -72 -38 -121.5t-108 -58.5zM310 493h-128v-196h124q55 -3 78 47.5t1 101t-75 47.5z" />
    <glyph glyph-name="S.sc" horiz-adv-x="503" 
d="M51 171h95q0 -39 31.5 -66.5t78.5 -27.5q46 0 73.5 21t31.5 54q5 34 -19.5 57.5t-68.5 33.5l-73 19q-143 38 -143 157q0 71 56 118t135 47q84 0 136 -48q54 -46 54 -127h-94q0 39 -27 63t-70 24q-40 0 -68 -21.5t-28 -54.5q0 -52 74 -72l73 -19q83 -21 123 -69t34 -113
q-8 -68 -63 -113q-56 -44 -136 -44q-88 0 -147 53q-58 54 -58 128z" />
    <glyph glyph-name="T.sc" horiz-adv-x="480" 
d="M23 492v87h434v-87h-169v-492h-96v492h-169z" />
    <glyph glyph-name="U.sc" horiz-adv-x="592" 
d="M418 200v378h94v-378q0 -94 -63 -152q-62 -58 -153 -58q-89 0 -153 58q-63 58 -63 152v378h96v-378q0 -52 34.5 -85.5t85.5 -33.5t86.5 33.5t35.5 85.5z" />
    <glyph glyph-name="V.sc" horiz-adv-x="498" 
d="M30 579h98l121 -417l121 417h98l-175 -579h-87z" />
    <glyph glyph-name="W.sc" horiz-adv-x="778" 
d="M522 159l134 420h102l-197 -579h-78l-94 335l-93 -335h-79l-196 579h101l134 -420l97 342h73z" />
    <glyph glyph-name="X.sc" horiz-adv-x="552" 
d="M513 579l-180 -269l202 -310h-114l-145 231l-145 -231h-113l201 311l-180 268h113l124 -191l125 191h112z" />
    <glyph glyph-name="Y.sc" horiz-adv-x="564" 
d="M330 265v-265h-97v265l-221 314h112l157 -226l158 226h115z" />
    <glyph glyph-name="Z.sc" horiz-adv-x="509" 
d="M46 0v78l290 414h-279v87h401v-77l-292 -414h292v-88h-412z" />
    <glyph glyph-name="Scaron.sc" horiz-adv-x="503" 
d="M189 779l62 -70l62 70h79l-96 -136h-89l-97 136h79zM146 171q0 -39 31.5 -66.5t78.5 -27.5q46 0 73.5 21t31.5 54q5 34 -19.5 57.5t-68.5 33.5l-73 19q-143 38 -143 157q0 71 56 118t135 47q84 0 136 -48q54 -46 54 -127h-94q0 39 -27 63t-70 24q-40 0 -68 -21.5
t-28 -54.5q0 -52 74 -72l73 -19q83 -21 123 -69t34 -113q-8 -68 -63 -113q-56 -44 -136 -44q-88 0 -147 53q-58 54 -58 128h95z" />
    <glyph glyph-name="OE.sc" horiz-adv-x="952" 
d="M539 499v80h351v-90h-256v-160h224v-89h-224v-150h264v-90h-359v75q-82 -85 -198 -85q-122 0 -208 86q-84 87 -84 211q0 125 84 210q86 87 208 87q119 0 198 -85zM341 85q83 0 140 62q58 61 58 147q-4 79 -62 138q-57 58 -136 58q-84 0 -141 -60q-57 -58 -57 -143
t57 -143q57 -59 141 -59z" />
    <glyph glyph-name="Ydieresis.sc" horiz-adv-x="564" 
d="M154 714q0 23 16.5 38.5t40.5 15.5q23 0 39.5 -15.5t16.5 -38.5q0 -24 -16 -39t-40 -15t-40.5 15t-16.5 39zM297 714q0 23 16.5 38.5t40.5 15.5q23 0 39.5 -15.5t16.5 -38.5q0 -24 -16 -39t-40 -15t-40.5 15t-16.5 39zM330 265v-265h-97v265l-221 314h112l157 -226
l158 226h115z" />
    <glyph glyph-name="exclamdown.sc" horiz-adv-x="275" 
d="M138 591q25 0 41.5 -15.5t16.5 -39.5t-16.5 -40t-41.5 -16q-24 0 -40.5 16t-16.5 40t16.5 39.5t40.5 15.5zM190 0h-105l13 429h78z" />
    <glyph glyph-name="questiondown.sc" horiz-adv-x="425" 
d="M296 167h88q0 -81 -49 -129q-48 -48 -121 -48q-74 0 -125 45q-50 45 -50 119q0 58 33.5 101.5t86.5 59.5q36 11 44 28q10 19 11 74h89v-42q0 -58 -27 -91.5t-83 -52.5q-29 -9 -46.5 -29.5t-17.5 -47.5q0 -32 25 -53t60 -21q34 0 58 24.5t24 62.5zM320 525
q0 -26 -18.5 -43.5t-43.5 -17.5q-27 0 -44.5 17t-17.5 44q0 25 18 42t44 17q25 0 43.5 -17.5t18.5 -41.5z" />
    <glyph glyph-name="Agrave.sc" horiz-adv-x="570" 
d="M323 644h-82l-110 136h105zM285 456l-82 -228h164zM554 0h-100l-55 143h-228l-54 -143h-101l219 579h100z" />
    <glyph glyph-name="Aacute.sc" horiz-adv-x="570" 
d="M332 775h104l-109 -136h-82zM367 228l-82 228l-82 -228h164zM399 143h-228l-54 -143h-101l219 579h100l219 -579h-100z" />
    <glyph glyph-name="Acircumflex.sc" horiz-adv-x="570" 
d="M422 644h-80l-62 72l-62 -72h-78l96 137h89zM285 456l-82 -228h164zM554 0h-100l-55 143h-228l-54 -143h-101l219 579h100z" />
    <glyph glyph-name="Atilde.sc" horiz-adv-x="570" 
d="M243 692q-17 0 -19 -36h-60q3 49 24 76t51 29q16 0 41 -17q26 -17 37 -17q7 0 13 9t7 25h59q-2 -52 -24.5 -78t-54.5 -26q-17 0 -42 17q-24 18 -32 18zM285 456l-82 -228h164zM554 0h-100l-55 143h-228l-54 -143h-101l219 579h100z" />
    <glyph glyph-name="Adieresis.sc" horiz-adv-x="570" 
d="M150 714q0 23 16.5 38.5t40.5 15.5q23 0 39.5 -15.5t16.5 -38.5q0 -24 -16 -39t-40 -15t-40.5 15t-16.5 39zM293 714q0 23 16.5 38.5t39.5 15.5q24 0 40.5 -15.5t16.5 -38.5q0 -24 -16.5 -39t-40.5 -15t-40 15t-16 39zM367 228l-82 228l-82 -228h164zM399 143h-228
l-54 -143h-101l219 579h100l219 -579h-100z" />
    <glyph glyph-name="Aring.sc" horiz-adv-x="570" 
d="M186 728q0 40 27 67t66 27q41 0 68 -27t27 -67q0 -39 -27.5 -66t-67.5 -27q-39 0 -66 27t-27 66zM239 728q0 -16 12 -28t28 -12q18 0 30.5 11.5t12.5 28.5t-12.5 29.5t-30.5 12.5q-16 0 -28 -12.5t-12 -29.5zM367 228l-82 228l-82 -228h164zM399 143h-228l-54 -143h-101
l219 579h100l219 -579h-100z" />
    <glyph glyph-name="AE.sc" horiz-adv-x="809" 
d="M396 141h-186l-90 -141h-113l367 579h373v-90h-256v-160h223v-89h-223v-150h264v-90h-359v141zM396 443l-131 -211h131v211z" />
    <glyph glyph-name="Ccedilla.sc" horiz-adv-x="597" 
d="M282 -96q5 -11 15.5 -16t20.5 -1q23 11 14 39l-24 66q-112 14 -186 96q-73 83 -73 199q0 125 85 211q86 87 209 87q137 0 225 -106l-72 -58q-63 73 -153 73q-83 0 -142 -60q-58 -59 -58 -147q0 -87 58 -146q59 -60 142 -60q93 0 154 76l73 -57q-79 -98 -205 -109
q14 -24 20 -39q10 -20 10 -39q0 -35 -26.5 -61t-63.5 -26q-36 0 -61.5 29.5t-25.5 73.5l62 -4q0 -11 2 -21z" />
    <glyph glyph-name="Egrave.sc" horiz-adv-x="499" 
d="M86 0v579h352v-86h-257v-164h225v-87h-225v-155h264v-87h-359zM320 644h-82l-110 136h105z" />
    <glyph glyph-name="Eacute.sc" horiz-adv-x="499" 
d="M273 780h105l-110 -136h-82zM438 579v-86h-257v-164h225v-87h-225v-155h264v-87h-359v579h352z" />
    <glyph glyph-name="Ecircumflex.sc" horiz-adv-x="499" 
d="M86 0v579h352v-86h-257v-164h225v-87h-225v-155h264v-87h-359zM390 644h-79l-62 72l-62 -72h-79l96 137h90z" />
    <glyph glyph-name="Edieresis.sc" horiz-adv-x="499" 
d="M123 714q0 23 17 38.5t41 15.5q23 0 39.5 -15.5t16.5 -38.5t-16.5 -38.5t-39.5 -15.5q-24 0 -41 15t-17 39zM266 714q0 23 16.5 38.5t40.5 15.5q23 0 39.5 -15.5t16.5 -38.5q0 -24 -16 -39t-40 -15t-40.5 15t-16.5 39zM438 579v-86h-257v-164h225v-87h-225v-155h264v-87
h-359v579h352z" />
    <glyph glyph-name="Igrave.sc" horiz-adv-x="267" 
d="M86 0v579h95v-579h-95zM97 647l-111 134h105l89 -134h-83z" />
    <glyph glyph-name="Iacute.sc" horiz-adv-x="267" 
d="M86 647l89 134h105l-111 -134h-83zM181 579v-579h-95v579h95z" />
    <glyph glyph-name="Icircumflex.sc" horiz-adv-x="267" 
d="M86 0v579h95v-579h-95zM274 644h-79l-62 72l-62 -72h-79l96 137h90z" />
    <glyph glyph-name="Idieresis.sc" horiz-adv-x="267" 
d="M181 579v-579h-95v579h95zM6 714q0 23 17 38.5t41 15.5q23 0 39.5 -15.5t16.5 -38.5t-16.5 -38.5t-39.5 -15.5q-24 0 -41 15t-17 39zM149 714q0 23 16.5 38.5t40.5 15.5q23 0 39.5 -15.5t16.5 -38.5q0 -24 -16 -39t-40 -15t-40.5 15t-16.5 39z" />
    <glyph glyph-name="Eth.sc" horiz-adv-x="626" 
d="M315 0h-223v255h-78v65h78v259h223q121 0 190 -82q69 -81 69 -209q0 -127 -69 -208q-69 -80 -190 -80zM186 488v-168h129v-65h-129v-164h129q77 0 121 54t44 143q0 90 -44 145t-121 55h-129z" />
    <glyph glyph-name="Ntilde.sc" horiz-adv-x="596" 
d="M261 692q-17 0 -19 -36h-60q3 49 24 76t51 29q16 0 41 -17q26 -17 37 -17q7 0 13 9t7 25h59q-2 -52 -24.5 -78t-54.5 -26q-17 0 -42 17q-24 18 -32 18zM510 579v-579h-88l-241 403v-403h-95v579h90l240 -398v398h94z" />
    <glyph glyph-name="Ograve.sc" horiz-adv-x="683" 
d="M382 644h-82l-110 136h104zM340 584q124 0 209 -87q86 -86 86 -210q0 -123 -86 -211q-86 -86 -209 -86q-122 0 -208 86q-84 87 -84 211q0 125 84 210q86 87 208 87zM142 287q0 -85 57 -145q59 -60 141 -60q84 0 142 60q58 59 58 145q0 87 -58 145q-58 60 -142 60
q-82 0 -141 -60q-57 -58 -57 -145z" />
    <glyph glyph-name="Oacute.sc" horiz-adv-x="683" 
d="M385 780h104l-109 -136h-82zM340 -10q-122 0 -208 86q-84 87 -84 211q0 125 84 210q86 87 208 87q124 0 209 -87q86 -86 86 -210q0 -123 -86 -211q-86 -86 -209 -86zM142 287q0 -85 57 -145q59 -60 141 -60q84 0 142 60q58 59 58 145q0 87 -58 145q-58 60 -142 60
q-82 0 -141 -60q-57 -58 -57 -145z" />
    <glyph glyph-name="Ocircumflex.sc" horiz-adv-x="683" 
d="M481 644h-78l-63 72l-61 -72h-79l96 137h89zM340 584q124 0 209 -87q86 -86 86 -210q0 -123 -86 -211q-86 -86 -209 -86q-122 0 -208 86q-84 87 -84 211q0 125 84 210q86 87 208 87zM142 287q0 -85 57 -145q59 -60 141 -60q84 0 142 60q58 59 58 145q0 87 -58 145
q-58 60 -142 60q-82 0 -141 -60q-57 -58 -57 -145z" />
    <glyph glyph-name="Otilde.sc" horiz-adv-x="683" 
d="M340 584q124 0 209 -87q86 -86 86 -210q0 -123 -86 -211q-86 -86 -209 -86q-122 0 -208 86q-84 87 -84 211q0 125 84 210q86 87 208 87zM142 287q0 -85 57 -145q59 -60 141 -60q84 0 142 60q58 59 58 145q0 87 -58 145q-58 60 -142 60q-82 0 -141 -60q-57 -58 -57 -145z
M302 692q-7 0 -12.5 -9.5t-6.5 -26.5h-60q3 49 24 76t51 29q16 0 41 -17q26 -17 37 -17q7 0 13 9t7 25h59q-2 -52 -24.5 -78t-54.5 -26q-17 0 -42 17q-24 18 -32 18z" />
    <glyph glyph-name="Odieresis.sc" horiz-adv-x="683" 
d="M213 714q0 23 16.5 38.5t40.5 15.5q23 0 39 -15.5t16 -38.5q0 -24 -15.5 -39t-39.5 -15t-40.5 15t-16.5 39zM356 714q0 23 16 38.5t40 15.5t40 -15.5t16 -38.5q0 -24 -16 -39t-40 -15t-40 15t-16 39zM340 -10q-122 0 -208 86q-84 87 -84 211q0 125 84 210q86 87 208 87
q124 0 209 -87q86 -86 86 -210q0 -123 -86 -211q-86 -86 -209 -86zM142 287q0 -85 57 -145q59 -60 141 -60q84 0 142 60q58 59 58 145q0 87 -58 145q-58 60 -142 60q-82 0 -141 -60q-57 -58 -57 -145z" />
    <glyph glyph-name="Oslash.sc" horiz-adv-x="683" 
d="M159 52l-67 -68l-43 43l67 69q-68 83 -68 191q0 125 84 210q86 87 208 87q104 0 186 -66l67 67l43 -42l-67 -67q66 -86 66 -189q0 -123 -86 -211q-86 -86 -209 -86q-101 0 -181 62zM142 287q0 -69 39 -125l280 289q-53 41 -121 41q-82 0 -141 -60q-57 -58 -57 -145z
M340 82q84 0 142 60q58 59 58 145q0 66 -37 121l-280 -288q53 -38 117 -38z" />
    <glyph glyph-name="Ugrave.sc" horiz-adv-x="592" 
d="M358 644h-82l-110 136h105zM418 200v379h94v-379q0 -94 -63 -152q-62 -58 -153 -58q-89 0 -153 58q-63 58 -63 152v379h96v-379q0 -52 34.5 -85.5t85.5 -33.5t86.5 33.5t35.5 85.5z" />
    <glyph glyph-name="Uacute.sc" horiz-adv-x="592" 
d="M317 780h104l-110 -136h-82zM418 200v379h94v-379q0 -94 -63 -152q-62 -58 -153 -58q-89 0 -153 58q-63 58 -63 152v379h96v-379q0 -52 34.5 -85.5t85.5 -33.5t86.5 33.5t35.5 85.5z" />
    <glyph glyph-name="Ucircumflex.sc" horiz-adv-x="592" 
d="M436 644h-79l-61 72l-62 -72h-79l96 137h89zM418 200v379h94v-379q0 -94 -63 -152q-62 -58 -153 -58q-89 0 -153 58q-63 58 -63 152v379h96v-379q0 -52 34.5 -85.5t85.5 -33.5t86.5 33.5t35.5 85.5z" />
    <glyph glyph-name="Udieresis.sc" horiz-adv-x="592" 
d="M168 714q0 23 16.5 38.5t40.5 15.5q23 0 39 -15.5t16 -38.5q0 -24 -15.5 -39t-39.5 -15t-40.5 15t-16.5 39zM310 714q0 23 16.5 38.5t40.5 15.5t40.5 -15.5t16.5 -38.5q0 -24 -16.5 -39t-40.5 -15t-40.5 15t-16.5 39zM418 200v379h94v-379q0 -94 -63 -152
q-62 -58 -153 -58q-89 0 -153 58q-63 58 -63 152v379h96v-379q0 -52 34.5 -85.5t85.5 -33.5t86.5 33.5t35.5 85.5z" />
    <glyph glyph-name="Yacute.sc" horiz-adv-x="564" 
d="M309 780h105l-110 -136h-82zM330 265v-265h-97v265l-221 314h112l157 -226l158 226h115z" />
    <glyph glyph-name="Thorn.sc" horiz-adv-x="501" 
d="M284 113h-104v-113h-94v579h94v-100h104q77 0 130 -50q52 -49 52 -132q0 -82 -52 -133t-130 -51zM180 393v-193h103q37 0 63 27.5t26 68.5q0 43 -26.5 69t-67.5 28h-98z" />
    <glyph glyph-name="Amacron.sc" horiz-adv-x="570" 
d="M170 669v74h221v-74h-221zM285 456l-82 -228h164zM554 0h-100l-55 143h-228l-54 -143h-101l219 579h100z" />
    <glyph glyph-name="Abreve.sc" horiz-adv-x="570" 
d="M169 760h69q0 -21 11 -34t31 -13q19 0 30.5 13.5t11.5 33.5h71q0 -51 -31 -81.5t-82 -30.5q-53 0 -82 31.5t-29 80.5zM367 228l-82 228l-82 -228h164zM399 143h-228l-54 -143h-101l219 579h100l219 -579h-100z" />
    <glyph glyph-name="Cacute.sc" horiz-adv-x="596" 
d="M369 780h104l-110 -136h-82zM570 99q-40 -51 -99.5 -80t-127.5 -29q-123 0 -209 87q-85 86 -85 210q0 125 85 210q86 87 209 87q137 0 225 -106l-72 -57q-64 73 -153 73q-83 0 -142 -60q-58 -59 -58 -147q0 -87 58 -146q59 -60 142 -60q93 0 154 76z" />
    <glyph glyph-name="Ccircumflex.sc" horiz-adv-x="596" 
d="M482 644h-79l-63 72l-62 -72h-78l96 137h89zM497 157l73 -58q-40 -51 -99.5 -80t-127.5 -29q-123 0 -209 87q-85 86 -85 210q0 125 85 210q86 87 209 87q137 0 225 -106l-72 -57q-64 73 -153 73q-83 0 -142 -60q-58 -59 -58 -147q0 -87 58 -146q59 -60 142 -60
q93 0 154 76z" />
    <glyph glyph-name="Cdotaccent.sc" horiz-adv-x="596" 
d="M290 681q-17 16 -17 40t17 39q17 16 41 16t41 -16q17 -15 17 -39t-17 -40q-17 -15 -41 -15t-41 15zM570 99q-40 -51 -99.5 -80t-127.5 -29q-123 0 -209 87q-85 86 -85 210q0 125 85 210q86 87 209 87q137 0 225 -106l-72 -57q-64 73 -153 73q-83 0 -142 -60
q-58 -59 -58 -147q0 -87 58 -146q59 -60 142 -60q93 0 154 76z" />
    <glyph glyph-name="Ccaron.sc" horiz-adv-x="596" 
d="M570 99q-40 -51 -99.5 -80t-127.5 -29q-123 0 -209 87q-85 86 -85 210q0 125 85 210q86 87 209 87q137 0 225 -106l-72 -57q-64 73 -153 73q-83 0 -142 -60q-58 -59 -58 -147q0 -87 58 -146q59 -60 142 -60q93 0 154 76zM265 779l62 -70l62 70h79l-96 -136h-89l-97 136
h79z" />
    <glyph glyph-name="Dcaron.sc" horiz-adv-x="625" 
d="M256 779l62 -70l62 70h79l-96 -136h-89l-97 136h79zM86 0v579h225q122 0 192 -82q70 -80 70 -209q0 -128 -70 -208q-71 -80 -192 -80h-225zM311 88q79 0 123 55t44 145q0 88 -44 146q-43 58 -123 58h-131v-404h131z" />
    <glyph glyph-name="Aogonek.sc" horiz-adv-x="570" 
d="M554 0h-49l-25 -73q-9 -28 14 -39q15 -6 27.5 7t10.5 31l61 4q0 -45 -25 -74t-62 -29t-63 26t-26 61q0 20 11 45l24 45l-53 139h-228l-54 -143h-101l219 579h100zM368 228l-83 228l-82 -228h165z" />
    <glyph glyph-name="Emacron.sc" horiz-adv-x="499" 
d="M86 0v579h352v-86h-257v-164h225v-87h-225v-155h264v-87h-359zM150 669v74h221v-74h-221z" />
    <glyph glyph-name="Ebreve.sc" horiz-adv-x="499" 
d="M136 760h70q0 -21 11 -34t32 -13q18 0 29.5 14t11.5 33h71q0 -52 -30.5 -82t-81.5 -30q-53 0 -83 31.5t-30 80.5zM438 579v-86h-257v-164h225v-87h-225v-155h264v-87h-359v579h352z" />
    <glyph glyph-name="Edotaccent.sc" horiz-adv-x="499" 
d="M265 776q25 0 42 -15.5t17 -39.5t-17 -39.5t-42 -15.5q-24 0 -41 15.5t-17 39.5t17 39.5t41 15.5zM438 579v-86h-257v-164h225v-87h-225v-155h264v-87h-359v579h352z" />
    <glyph glyph-name="Ecaron.sc" horiz-adv-x="499" 
d="M438 579v-86h-257v-164h225v-87h-225v-155h264v-87h-359v579h352zM198 779l62 -70l62 70h79l-96 -136h-89l-97 136h79z" />
    <glyph glyph-name="Gcircumflex.sc" horiz-adv-x="651" 
d="M544 501l-67 -62h-1q-56 56 -135 56q-84 0 -142 -61q-57 -60 -57 -147q0 -86 58 -147t141 -61q71 0 118.5 37.5t50.5 97.5h-161v81h268q0 -150 -72.5 -227.5t-203.5 -77.5q-123 0 -209 86q-84 87 -84 211q0 125 84 210q86 87 209 87q122 0 203 -83zM480 644h-80l-62 72
l-62 -72h-78l96 137h89z" />
    <glyph glyph-name="Gbreve.sc" horiz-adv-x="651" 
d="M477 439h-1q-56 56 -135 56q-84 0 -142 -61q-57 -60 -57 -147q0 -86 58 -147t141 -61q71 0 118.5 37.5t50.5 97.5h-161v81h268q0 -150 -72.5 -227.5t-203.5 -77.5q-123 0 -209 86q-84 87 -84 211q0 125 84 210q86 87 209 87q122 0 203 -83zM227 760h69q0 -21 11 -34
t31 -13q19 0 30.5 13.5t11.5 33.5h71q0 -51 -31 -81.5t-82 -30.5q-53 0 -82 31.5t-29 80.5z" />
    <glyph glyph-name="Eogonek.sc" horiz-adv-x="499" 
d="M362 -42l26 42h-302v579h352v-86h-257v-164h225v-87h-225v-155h264v-86l-27 -68q-6 -10 -1.5 -22t15.5 -16q15 -6 28.5 8.5t8.5 29.5l62 3q1 -44 -24.5 -73t-62.5 -29t-62.5 26t-25.5 61q0 25 6 37z" />
    <glyph glyph-name="Dcroat.sc" horiz-adv-x="626" 
d="M315 0h-223v253h-78v70h78v256h223q121 0 190 -82q69 -81 69 -209q0 -127 -69 -208q-69 -80 -190 -80zM186 488v-165h129v-70h-129v-162h129q77 0 121 54t44 143q0 90 -44 145t-121 55h-129z" />
    <glyph glyph-name="Gdotaccent.sc" horiz-adv-x="651" 
d="M477 439h-1q-56 56 -135 56q-84 0 -142 -61q-57 -60 -57 -147q0 -86 58 -147t141 -61q71 0 118.5 37.5t50.5 97.5h-161v81h268q0 -150 -72.5 -227.5t-203.5 -77.5q-123 0 -209 86q-84 87 -84 211q0 125 84 210q86 87 209 87q122 0 203 -83zM332 776q25 0 41.5 -15.5
t16.5 -39.5t-16.5 -39.5t-41.5 -15.5q-24 0 -41.5 15.5t-17.5 39.5t17.5 39.5t41.5 15.5z" />
    <glyph glyph-name="Hcircumflex.sc" horiz-adv-x="615" 
d="M433 579h96v-579h-96v245h-252v-245h-95v579h95v-248h252v248zM448 644h-79l-62 72l-62 -72h-78l96 137h89z" />
    <glyph glyph-name="Hbar.sc" horiz-adv-x="622" 
d="M532 579v-98h59v-56h-59v-425h-94v244h-253v-244h-95v425h-57v56h57v98h95v-98h253v98h94zM185 425v-93h253v93h-253z" />
    <glyph glyph-name="Itilde.sc" horiz-adv-x="267" 
d="M86 0v579h95v-579h-95zM96 692q-7 0 -12.5 -9.5t-6.5 -26.5h-60q3 49 24 76t51 29q16 0 41 -17q26 -17 37 -17q7 0 13 9t7 25h59q-2 -52 -24.5 -78t-54.5 -26q-17 0 -42 17q-24 18 -32 18z" />
    <glyph glyph-name="Imacron.sc" horiz-adv-x="267" 
d="M86 0v579h95v-579h-95zM23 669v74h221v-74h-221z" />
    <glyph glyph-name="Iogonek.sc" horiz-adv-x="267" 
d="M57 -49l29 54v574h95v-579h-42l-25 -73q-9 -29 13 -39q15 -6 27.5 7t10.5 31l61 4q0 -44 -25.5 -73.5t-61.5 -29.5t-62.5 26.5t-26.5 60.5q0 24 7 37z" />
    <glyph glyph-name="IJ.sc" horiz-adv-x="533" 
d="M194 -195l8 89q26 -8 63 -8q44 0 66 26.5t22 72.5v594h94v-594q0 -88 -45.5 -139.5t-136.5 -51.5q-18 0 -71 11zM86 0v579h95v-579h-95z" />
    <glyph glyph-name="Jcircumflex.sc" horiz-adv-x="263" 
d="M267 644h-78l-63 72l-61 -72h-79l96 137h90zM-73 -194l9 86q22 -8 61 -8q44 0 66.5 27.5t22.5 73.5v593h91v-593q0 -87 -45 -138t-135 -51q-29 0 -70 10z" />
    <glyph glyph-name="Lacute.sc" horiz-adv-x="429" 
d="M174 773h105l-109 -137h-82zM181 579v-492h229v-87h-324v579h95z" />
    <glyph glyph-name="Lcaron.sc" horiz-adv-x="431" 
d="M295 404l-60 16q42 60 43 117q2 18 0 39h87q-3 -118 -70 -172zM86 0v579h95v-492h229v-87h-324z" />
    <glyph glyph-name="Ldot.sc" horiz-adv-x="429" 
d="M86 0v579h95v-492h229v-87h-324zM298 282q23 0 39 -15t16 -37t-16 -37t-39 -15q-22 0 -37.5 15t-15.5 37t15.5 37t37.5 15z" />
    <glyph glyph-name="Nacute.sc" horiz-adv-x="596" 
d="M321 780h105l-110 -136h-82zM422 0l-241 403v-403h-95v579h90l240 -398v398h94v-579h-88z" />
    <glyph glyph-name="Ncaron.sc" horiz-adv-x="596" 
d="M234 779l62 -70l62 70h78l-95 -136h-90l-96 136h79zM422 0l-241 403v-403h-95v579h90l240 -398v398h94v-579h-88z" />
    <glyph glyph-name="Omacron.sc" horiz-adv-x="683" 
d="M230 669v74h221v-74h-221zM340 584q124 0 209 -87q86 -86 86 -210q0 -123 -86 -211q-86 -86 -209 -86q-122 0 -208 86q-84 87 -84 211q0 125 84 210q86 87 208 87zM142 287q0 -85 57 -145q59 -60 141 -60q84 0 142 60q58 59 58 145q0 87 -58 145q-58 60 -142 60
q-82 0 -141 -60q-57 -58 -57 -145z" />
    <glyph glyph-name="Obreve.sc" horiz-adv-x="683" 
d="M228 760h69q0 -21 11.5 -34t31.5 -13q19 0 30.5 13.5t11.5 33.5h71q0 -51 -31 -81.5t-82 -30.5q-53 0 -82.5 31.5t-29.5 80.5zM340 -10q-122 0 -208 86q-84 87 -84 211q0 125 84 210q86 87 208 87q124 0 209 -87q86 -86 86 -210q0 -123 -86 -211q-86 -86 -209 -86z
M142 287q0 -85 57 -145q59 -60 141 -60q84 0 142 60q58 59 58 145q0 87 -58 145q-58 60 -142 60q-82 0 -141 -60q-57 -58 -57 -145z" />
    <glyph glyph-name="Ohungarumlaut.sc" horiz-adv-x="683" 
d="M313 779h89l-85 -136h-80zM436 779h89l-95 -136h-80zM340 -10q-122 0 -208 86q-84 87 -84 211q0 125 84 210q86 87 208 87q124 0 209 -87q86 -86 86 -210q0 -123 -86 -211q-86 -86 -209 -86zM142 287q0 -85 57 -145q59 -60 141 -60q84 0 142 60q58 59 58 145
q0 87 -58 145q-58 60 -142 60q-82 0 -141 -60q-57 -58 -57 -145z" />
    <glyph glyph-name="Racute.sc" horiz-adv-x="547" 
d="M272 780h103l-109 -136h-82zM497 0h-115l-143 210h-57v-210h-96v579h227q88 0 133 -54q46 -53 46 -130q0 -72 -38 -121.5t-108 -58.5zM182 493v-196h124q55 -3 78 47.5t1 101t-75 47.5h-128z" />
    <glyph glyph-name="Rcaron.sc" horiz-adv-x="547" 
d="M210 779l62 -70l62 70h79l-96 -136h-90l-97 136h80zM497 0h-115l-143 210h-57v-210h-96v579h227q88 0 133 -54q46 -53 46 -130q0 -72 -38 -121.5t-108 -58.5zM182 493v-196h124q55 -3 78 47.5t1 101t-75 47.5h-128z" />
    <glyph glyph-name="Sacute.sc" horiz-adv-x="503" 
d="M272 780h105l-110 -136h-82zM146 171q0 -39 31.5 -66.5t78.5 -27.5q46 0 73.5 21t31.5 54q5 34 -19.5 57.5t-68.5 33.5l-73 19q-143 38 -143 157q0 71 56 118t135 47q84 0 136 -48q54 -46 54 -127h-94q0 39 -27 63t-70 24q-40 0 -68 -21.5t-28 -54.5q0 -52 74 -72l73 -19
q83 -21 123 -69t34 -113q-8 -68 -63 -113q-56 -44 -136 -44q-88 0 -147 53q-58 54 -58 128h95z" />
    <glyph glyph-name="Scircumflex.sc" horiz-adv-x="503" 
d="M387 644h-78l-62 72l-62 -72h-79l96 137h90zM51 171h95q0 -39 31.5 -66.5t78.5 -27.5q46 0 73.5 21t31.5 54q5 34 -19.5 57.5t-68.5 33.5l-73 19q-143 38 -143 157q0 71 56 118t135 47q84 0 136 -48q54 -46 54 -127h-94q0 39 -27 63t-70 24q-40 0 -68 -21.5t-28 -54.5
q0 -52 74 -72l73 -19q83 -21 123 -69t34 -113q-8 -68 -63 -113q-56 -44 -136 -44q-88 0 -147 53q-58 54 -58 128z" />
    <glyph glyph-name="Scedilla.sc" horiz-adv-x="502" 
d="M305 -4l20 -40q11 -25 11 -43q0 -35 -26 -61t-63 -26q-36 0 -61.5 29.5t-25.5 73.5l62 -4q-3 -16 10 -30t28 -8q23 12 14 39l-27 64q-84 1 -141 55q-55 52 -55 126h95q0 -38 31.5 -66t78.5 -28q91 0 105 75q9 67 -88 91l-73 19q-143 38 -143 157q0 71 56 118t135 47
q82 0 135 -48q54 -48 54 -127h-94q0 39 -26.5 62.5t-69.5 23.5q-41 0 -69 -21t-28 -55q0 -53 75 -71l73 -19q73 -21 112.5 -60.5t43.5 -92.5q5 -67 -37 -117t-112 -63z" />
    <glyph glyph-name="Utilde.sc" horiz-adv-x="592" 
d="M418 200v378h94v-378q0 -94 -63 -152q-62 -58 -153 -58q-89 0 -153 58q-63 58 -63 152v378h96v-378q0 -52 34.5 -85.5t85.5 -33.5t86.5 33.5t35.5 85.5zM257 692q-17 0 -19 -36h-60q3 49 24 76t51 29q16 0 41 -17q26 -17 37 -17q7 0 13 9t7 25h59q-2 -52 -24.5 -78
t-54.5 -26q-17 0 -42 17q-24 18 -32 18z" />
    <glyph glyph-name="Umacron.sc" horiz-adv-x="592" 
d="M186 669v74h221v-74h-221zM418 200v378h94v-378q0 -94 -63 -152q-62 -58 -153 -58q-89 0 -153 58q-63 58 -63 152v378h96v-378q0 -52 34.5 -85.5t85.5 -33.5t86.5 33.5t35.5 85.5z" />
    <glyph glyph-name="Ubreve.sc" horiz-adv-x="592" 
d="M184 760h70q0 -21 11 -34t31 -13q18 0 29.5 14t11.5 33h72q0 -51 -31 -81.5t-82 -30.5q-54 0 -83 31t-29 81zM418 200v378h94v-378q0 -94 -63 -152q-62 -58 -153 -58q-89 0 -153 58q-63 58 -63 152v378h96v-378q0 -52 34.5 -85.5t85.5 -33.5t86.5 33.5t35.5 85.5z" />
    <glyph glyph-name="Uring.sc" horiz-adv-x="592" 
d="M202 728q0 40 27 67t66 27q41 0 68 -27t27 -67q0 -39 -27.5 -66t-67.5 -27q-39 0 -66 27t-27 66zM255 728q0 -16 12 -28t28 -12q17 0 30 12t13 28q0 17 -13 29.5t-30 12.5q-16 0 -28 -12.5t-12 -29.5zM418 200v378h94v-378q0 -94 -63 -152q-62 -58 -153 -58
q-89 0 -153 58q-63 58 -63 152v378h96v-378q0 -52 34.5 -85.5t85.5 -33.5t86.5 33.5t35.5 85.5z" />
    <glyph glyph-name="Uhungarumlaut.sc" horiz-adv-x="592" 
d="M418 200v378h94v-378q0 -94 -63 -152q-62 -58 -153 -58q-89 0 -153 58q-63 58 -63 152v378h96v-378q0 -52 34.5 -85.5t85.5 -33.5t86.5 33.5t35.5 85.5z" />
    <glyph glyph-name="Uogonek.sc" horiz-adv-x="592" 
d="M240 -78q2 18 8 33l20 37q-80 8 -134 65t-54 142v378h96v-378q0 -51 35 -85t85 -34t86 33q36 35 36 86v378h94v-378q0 -85 -54 -142q-52 -57 -133 -66q-10 -34 -24 -66q-9 -28 14 -39q15 -6 27.5 7t10.5 31l62 4q0 -46 -25 -74.5t-62 -28.5q-38 0 -64 26.5t-26 60.5
q0 2 2 10z" />
    <glyph glyph-name="Wcircumflex.sc" horiz-adv-x="778" 
d="M530 644h-79l-62 72l-62 -72h-79l96 137h89zM522 159l134 420h102l-197 -579h-78l-94 335l-93 -335h-79l-196 579h101l134 -420l97 342h73z" />
    <glyph glyph-name="Ycircumflex.sc" horiz-adv-x="564" 
d="M423 644h-79l-63 72l-61 -72h-78l95 137h90zM330 265v-265h-97v265l-221 314h112l157 -226l158 226h115z" />
    <glyph glyph-name="Tcaron.sc" horiz-adv-x="481" 
d="M179 779l62 -70l62 70h79l-97 -136h-89l-96 136h79zM282 0h-84v501h-177v83h439v-83h-178v-501z" />
    <glyph glyph-name="Tbar.sc" horiz-adv-x="470" 
d="M277 501v-151h112v-57h-112v-293h-84v293h-110v57h110v151h-177v83h439v-83h-178z" />
    <glyph glyph-name="Zacute.sc" horiz-adv-x="509" 
d="M46 0v78l290 414h-279v87h401v-77l-292 -414h292v-88h-412zM279 780h105l-111 -136h-82z" />
    <glyph glyph-name="Zdotaccent.sc" horiz-adv-x="509" 
d="M46 0v78l290 414h-279v87h401v-77l-292 -414h292v-88h-412zM255 776q25 0 41.5 -15.5t16.5 -39.5t-16.5 -39.5t-41.5 -15.5q-24 0 -41.5 15.5t-17.5 39.5t17.5 39.5t41.5 15.5z" />
    <glyph glyph-name="Wgrave.sc" horiz-adv-x="778" 
d="M408 644h-82l-111 136h105zM522 159l134 420h102l-197 -579h-78l-94 335l-93 -335h-79l-196 579h101l134 -420l97 342h73z" />
    <glyph glyph-name="Wacute.sc" horiz-adv-x="778" 
d="M458 780h105l-111 -136h-82zM758 579l-197 -579h-78l-94 335l-93 -335h-79l-196 579h101l134 -420l97 342h73l96 -342l134 420h102z" />
    <glyph glyph-name="Wdieresis.sc" horiz-adv-x="778" 
d="M261 714q0 23 16.5 38.5t40.5 15.5q23 0 39.5 -15.5t16.5 -38.5q0 -24 -16 -39t-40 -15t-40.5 15t-16.5 39zM403 714q0 23 17 38.5t41 15.5q23 0 39.5 -15.5t16.5 -38.5q0 -24 -16 -39t-40 -15t-41 15t-17 39zM758 579l-197 -579h-78l-94 335l-93 -335h-79l-196 579h101
l134 -420l97 342h73l96 -342l134 420h102z" />
    <glyph glyph-name="Aringacute.sc" horiz-adv-x="570" 
d="M316 918h105l-90 -112q44 -27 44 -80q0 -39 -28 -66t-68 -27q-39 0 -65.5 27t-26.5 66q0 32 18 56.5t46 33.5q15 26 65 102zM240 726q0 -16 11.5 -28t27.5 -12q27 -2 38 19t0 42.5t-38 20.5q-16 0 -27.5 -12.5t-11.5 -29.5zM367 228l-82 228l-82 -228h164zM399 143h-228
l-54 -143h-101l219 579h100l219 -579h-100z" />
    <glyph glyph-name="AEacute.sc" horiz-adv-x="809" 
d="M480 780h104l-110 -136h-82zM120 0h-113l367 579h373v-90h-256v-160h223v-89h-223v-150h264v-90h-359v141h-186zM396 232v211l-131 -211h131z" />
    <glyph glyph-name="Oslashacute.sc" horiz-adv-x="683" 
d="M381 780h105l-111 -136h-81zM92 -16l-43 43l67 69q-68 83 -68 191q0 125 84 210q86 87 208 87q104 0 186 -66l67 67l43 -42l-67 -67q66 -86 66 -189q0 -123 -86 -211q-86 -86 -209 -86q-101 0 -181 62zM142 287q0 -69 39 -125l280 289q-53 41 -121 41q-82 0 -141 -60
q-57 -58 -57 -145zM340 82q84 0 142 60q58 59 58 145q0 66 -37 121l-280 -288q53 -38 117 -38z" />
    <glyph glyph-name="Ibreve.sc" horiz-adv-x="267" 
d="M181 579v-579h-95v579h95zM21 760h70q0 -21 11 -34t31 -13q18 0 29.5 14t11.5 33h72q0 -51 -31 -81.5t-82 -30.5q-54 0 -83 31t-29 81z" />
    <glyph glyph-name="Eng.sc" horiz-adv-x="594" 
d="M404 26l-225 374v-400h-93v579h89l238 -400v400h95v-571q0 -209 -182 -209q-27 0 -71 11l8 93q42 -7 49 -8q30 -2 47 6q54 17 54 90q0 18 -9 35z" />
    <glyph glyph-name="Ygrave.sc" horiz-adv-x="564" 
d="M334 644h-82l-110 136h104zM330 265v-265h-97v265l-221 314h112l157 -226l158 226h115z" />
    <glyph glyph-name="Gcommaaccent.sc" horiz-adv-x="651" 
d="M544 501l-67 -62h-1q-56 56 -135 56q-84 0 -142 -61q-57 -60 -57 -147q0 -86 58 -147t141 -61q71 0 118.5 37.5t50.5 97.5h-161v81h268q0 -150 -72.5 -227.5t-203.5 -77.5q-123 0 -209 86q-84 87 -84 211q0 125 84 210q86 87 209 87q122 0 203 -83zM307 -220l-53 20
q50 69 39 152h83q1 -114 -69 -172z" />
    <glyph glyph-name="Kcommaaccent.sc" horiz-adv-x="516" 
d="M464 579l-222 -289l274 -290h-125l-210 228v-228h-95v579h95v-226l172 226h111zM244 -220l-53 20q50 69 39 152h83q1 -114 -69 -172z" />
    <glyph glyph-name="Lcommaaccent.sc" horiz-adv-x="429" 
d="M86 0v579h95v-492h229v-87h-324zM216 -220l-53 20q50 69 39 152h83q1 -114 -69 -172z" />
    <glyph glyph-name="Ncommaaccent.sc" horiz-adv-x="596" 
d="M510 579v-579h-88l-241 402v-402h-95v579h90l240 -397v397h94zM267 -220l-53 20q50 69 39 152h83q1 -114 -69 -172z" />
    <glyph glyph-name="Rcommaaccent.sc" horiz-adv-x="547" 
d="M346 215l151 -215h-115l-143 210h-57v-210h-96v579h227q88 0 133 -54q46 -53 46 -130q0 -72 -38 -121.5t-108 -58.5zM310 493h-128v-196h124q55 -3 78 47.5t1 101t-75 47.5zM242 -220l-53 20q50 69 39 152h83q1 -114 -69 -172z" />
    <glyph glyph-name="Tcommaaccent.sc" horiz-adv-x="480" 
d="M23 492v87h434v-87h-169v-492h-96v492h-169zM213 -220l-53 20q50 69 39 152h83q1 -114 -69 -172z" />
    <glyph glyph-name="Scommaaccent.sc" horiz-adv-x="503" 
d="M51 171h95q0 -39 31.5 -66.5t78.5 -27.5q46 0 73.5 21t31.5 54q5 34 -19.5 57.5t-68.5 33.5l-73 19q-143 38 -143 157q0 71 56 118t135 47q84 0 136 -48q54 -46 54 -127h-94q0 39 -27 63t-70 24q-40 0 -68 -21.5t-28 -54.5q0 -52 74 -72l73 -19q83 -21 123 -69t34 -113
q-8 -68 -63 -113q-56 -44 -136 -44q-88 0 -147 53q-58 54 -58 128zM229 -220l-53 20q50 69 39 152h83q1 -114 -69 -172z" />
    <glyph glyph-name="Idotaccent.sc" horiz-adv-x="267" 
d="M181 579v-579h-95v579h95zM135 776q25 0 41.5 -15.5t16.5 -39.5t-16.5 -39.5t-41.5 -15.5q-24 0 -41.5 15.5t-17.5 39.5t17.5 39.5t41.5 15.5z" />
    <glyph glyph-name="zero.numr" horiz-adv-x="361" 
d="M38 457q0 100 33 151t109 51q41 0 70 -15t44.5 -44t22 -63.5t6.5 -79.5q0 -199 -143 -199q-142 0 -142 199zM102 457q0 -136 78 -136q79 0 79 136q0 138 -79 138q-78 0 -78 -138z" />
    <glyph glyph-name="one.numr" horiz-adv-x="209" 
d="M156 264h-65v297l-67 -33v60l132 70v-394z" />
    <glyph glyph-name="two.numr" horiz-adv-x="318" 
d="M34 264v31l157 190q26 32 26 57q0 24 -18 39.5t-44 15.5q-25 0 -44 -17.5t-23 -44.5l-58 14q8 50 43 80t83 30q52 0 88 -33.5t36 -83.5q0 -54 -42 -101l-98 -114h139v-63h-245z" />
    <glyph glyph-name="three.numr" horiz-adv-x="319" 
d="M91 564q-5 4 -24 18q-6 4 -11 8t-9 7t-5 4q17 28 48.5 44t67.5 14q48 -2 80 -34t31 -75q0 -45 -43 -76q60 -27 58 -98q-2 -55 -42 -86q-42 -32 -97 -31q-37 1 -73 23.5t-51 55.5l55 30q9 -18 30.5 -31t42.5 -14q28 -1 47.5 14.5t20.5 40.5q1 26 -15 44.5t-45 18.5h-52v60
h46q36 0 47 41q2 23 -12 38.5t-40 15.5q-32 0 -55 -32z" />
    <glyph glyph-name="four.numr" horiz-adv-x="357" 
d="M331 344h-54v-80h-65v80h-197l208 309h54v-250h54v-59zM212 545l-93 -142h93v142z" />
    <glyph glyph-name="five.numr" horiz-adv-x="338" 
d="M79 376q24 -55 82 -55q38 0 61 20t23 51t-21.5 49t-52.5 18q-49 0 -104 -35l-25 23l34 206h207v-61h-154l-16 -88q27 15 65 15q56 0 93 -34.5t37 -92.5q0 -61 -40 -97.5t-107 -36.5q-42 0 -79 21.5t-57 59.5l27 18q12 8 27 19z" />
    <glyph glyph-name="six.numr" horiz-adv-x="338" 
d="M301 579l-59 -24q-20 42 -59 42q-38 0 -60 -36t-20 -91q22 46 79 46q52 0 86 -39q36 -40 35 -96q-1 -54 -41 -90q-39 -35 -93 -34q-54 2 -89.5 38t-40.5 96q0 31 -0.5 67t8.5 72t23 64.5t43.5 46t70.5 16.5q82 -5 117 -78zM107 389q0 -43 40.5 -61.5t70.5 10.5
q19 21 20 47t-17 47.5t-44 20.5q-28 1 -48 -17.5t-22 -46.5z" />
    <glyph glyph-name="seven.numr" horiz-adv-x="317" 
d="M32 653h278l-204 -389h-74l171 327h-171v62z" />
    <glyph glyph-name="eight.numr" horiz-adv-x="342" 
d="M62 555q0 44 31.5 74t77.5 30t78 -30t32 -74q0 -39 -29 -66q57 -35 57 -102q0 -55 -40 -92t-98 -37t-98 37t-40 92q0 67 56 102q-27 29 -27 66zM97 388q0 -28 21.5 -47.5t52.5 -19.5t52.5 19.5t21.5 47.5q0 27 -21.5 48.5t-51.5 21.5h-6q-27 0 -48 -21.5t-21 -48.5z
M126 555q0 -19 13 -32t33 -13q20 1 32.5 14t12.5 31q0 17 -13.5 29.5t-32.5 12.5q-20 0 -32.5 -12t-12.5 -30z" />
    <glyph glyph-name="nine.numr" horiz-adv-x="338" 
d="M37 336l59 25q19 -43 59 -43q38 0 59.5 35.5t20.5 91.5q-22 -46 -79 -46q-51 0 -87 39q-35 40 -34 96q1 54 40 89q38 37 94 35q54 -2 89.5 -38t40.5 -96q1 -31 1.5 -66.5t-9 -71.5t-24 -65t-44 -46.5t-69.5 -16.5q-82 4 -117 78zM231 526q0 44 -40.5 62t-70.5 -12
q-32 -27 -15.5 -71.5t56.5 -42.5q29 0 49 18t21 46z" />
    <glyph glyph-name="zero.dnom" horiz-adv-x="361" 
d="M38 194q0 98 33 149.5t109 51.5q77 0 110 -51t33 -150q0 -97 -33.5 -148t-109.5 -51t-109 50.5t-33 148.5zM102 194q0 -136 78 -136q79 0 79 136q0 137 -79 137q-78 0 -78 -137z" />
    <glyph glyph-name="one.dnom" horiz-adv-x="209" 
d="M156 0h-65v297l-67 -33v60l132 70v-394z" />
    <glyph glyph-name="two.dnom" horiz-adv-x="319" 
d="M35 0v32l157 189q26 32 26 57q0 24 -18 39.5t-44 15.5q-25 0 -44 -17.5t-23 -44.5l-58 14q8 50 43 80t83 30q52 0 88 -33.5t36 -83.5q0 -52 -42 -101l-98 -114h139v-63h-245z" />
    <glyph glyph-name="three.dnom" horiz-adv-x="319" 
d="M91 300l-25 18l-24 19q17 28 48.5 44t67.5 14q48 -2 80 -34t31 -75q0 -45 -43 -76q59 -27 58 -97q-2 -55 -42 -87q-41 -32 -97 -30q-37 1 -72.5 23t-51.5 55l27 15l28 16q9 -19 30 -32t43 -14q28 0 47.5 15.5t20.5 39.5q1 26 -15 44.5t-45 18.5h-52v60h46q36 0 47 41
q2 23 -12 38.5t-40 15.5q-32 0 -55 -32z" />
    <glyph glyph-name="four.dnom" horiz-adv-x="357" 
d="M331 80h-54v-80h-65v80h-197l208 310h54v-251h54v-59zM212 282l-93 -143h93v143z" />
    <glyph glyph-name="five.dnom" horiz-adv-x="338" 
d="M52 93l27 19q24 -55 82 -55q37 0 60.5 20.5t23.5 51.5t-21 48.5t-53 17.5q-49 0 -104 -35l-25 23l34 206h207v-61h-154l-16 -87q30 14 65 14q56 0 93 -34t37 -92q0 -61 -40 -98t-107 -37q-42 0 -79 21.5t-57 59.5z" />
    <glyph glyph-name="six.dnom" horiz-adv-x="338" 
d="M304 315l-59 -24q-20 42 -59 42q-38 0 -60 -36t-20 -91q22 46 79 46q51 0 86 -39q36 -40 35 -95q-2 -55 -40.5 -90.5t-93.5 -34.5q-54 2 -89.5 38t-40.5 96q-6 90 16 171q13 46 46.5 71.5t82.5 24.5q83 -5 117 -79zM110 125q0 -28 19 -47.5t46 -20.5t46 18t20 46
q1 28 -16.5 47.5t-44.5 20.5q-28 1 -48 -17.5t-22 -46.5z" />
    <glyph glyph-name="seven.dnom" horiz-adv-x="316" 
d="M32 390h278l-204 -390h-74l171 327h-171v63z" />
    <glyph glyph-name="eight.dnom" horiz-adv-x="342" 
d="M62 291q0 44 31.5 74t77.5 30t78 -30t32 -74q0 -37 -29 -66q57 -35 57 -102q0 -54 -40 -91t-98 -37t-98 37t-40 91q0 67 56 102q-27 29 -27 66zM245 124q0 27 -21.5 48.5t-51.5 21.5h-6q-45 2 -63.5 -44t15.5 -74q32 -32 81 -13.5t46 61.5zM126 291q0 -19 13 -32t33 -13
q20 1 32.5 14t12.5 31q0 17 -13.5 29.5t-32.5 12.5q-20 0 -32.5 -12t-12.5 -30z" />
    <glyph glyph-name="nine.dnom" horiz-adv-x="337" 
d="M37 72l59 25q20 -42 59 -42q37 0 59 35.5t21 90.5q-22 -46 -79 -46q-51 0 -87 39q-35 40 -34 96q2 55 40 90.5t94 33.5q54 -2 89.5 -38t40.5 -96q1 -31 1.5 -66.5t-9 -71.5t-24 -65t-44 -46.5t-69.5 -16.5q-82 4 -117 78zM231 262q0 28 -19 48t-46 20q-27 1 -46 -17.5
t-20 -45.5q-1 -28 17 -48t44 -20q28 -1 48 17t22 46z" />
    <glyph glyph-name="l.alt1" horiz-adv-x="288" 
d="M249 96h38v-96h-50q-170 0 -170 201v520h104v-520q-1 -105 78 -105z" />
    <glyph glyph-name="a.alt1" horiz-adv-x="537" 
d="M367 145v35q-66 27 -125 27q-53 0 -77.5 -19.5t-24.5 -49.5q0 -25 21 -39.5t60 -14.5q38 0 83 14q43 13 63 47zM118 320l-59 63q66 94 198 94q102 0 157.5 -51t55.5 -147v-279h-102v51q-48 -61 -151 -61q-81 0 -129.5 39.5t-48.5 108.5t50 109.5t151 40.5q64 0 128 -30
v21q0 48 -32 76.5t-86 28.5q-37 0 -73.5 -17.5t-58.5 -46.5z" />
    <glyph glyph-name="y.alt1" horiz-adv-x="507" 
d="M170 -44l29 65l-185 446h110l130 -322l130 322h111l-231 -550q-37 -81 -78 -116q-40 -34 -112 -34q-23 0 -60 8v89q20 -4 59 -4q34 0 54 21t43 75z" />
    <glyph glyph-name="lslash.alt1" horiz-adv-x="301" 
d="M260 96h38v-96h-50q-170 0 -170 201v104l-64 -41v72l64 40v345h104v-279l86 55v-71l-86 -55v-170q-2 -105 78 -105z" />
    <glyph glyph-name="lacute.alt1" horiz-adv-x="288" 
d="M74 770l100 158h116l-126 -158h-90zM287 0h-50q-170 0 -170 201v520h104v-520q-1 -105 78 -105h38v-96z" />
    <glyph glyph-name="lcommaaccent.alt1" horiz-adv-x="288" 
d="M249 96h38v-96h-50q-170 0 -170 201v520h104v-520q-1 -105 78 -105zM171 -259l-60 23q31 42 42 80q11 40 7 99h97q-1 -136 -86 -202z" />
    <glyph glyph-name="lcaron.alt1" horiz-adv-x="288" 
d="M273 511l-64 21q60 83 53 189h97q-3 -144 -86 -210zM287 0h-50q-170 0 -170 201v520h104v-520q-1 -105 78 -105h38v-96z" />
    <glyph glyph-name="aacute.alt1" horiz-adv-x="537" 
d="M367 145v35q-66 27 -125 27q-53 0 -77.5 -19.5t-24.5 -49.5q0 -25 21 -39.5t60 -14.5q38 0 83 14q43 13 63 47zM118 320l-59 63q66 94 198 94q102 0 157.5 -51t55.5 -147v-279h-102v51q-48 -61 -151 -61q-81 0 -129.5 39.5t-48.5 108.5t50 109.5t151 40.5q64 0 128 -30
v21q0 48 -32 76.5t-86 28.5q-37 0 -73.5 -17.5t-58.5 -46.5zM207 540l100 158h116l-126 -158h-90z" />
    <glyph glyph-name="agrave.alt1" horiz-adv-x="537" 
d="M367 145v35q-66 27 -125 27q-53 0 -77.5 -19.5t-24.5 -49.5q0 -25 21 -39.5t60 -14.5q38 0 83 14q43 13 63 47zM118 320l-59 63q66 94 198 94q102 0 157.5 -51t55.5 -147v-279h-102v51q-48 -61 -151 -61q-81 0 -129.5 39.5t-48.5 108.5t50 109.5t151 40.5q64 0 128 -30
v21q0 48 -32 76.5t-86 28.5q-37 0 -73.5 -17.5t-58.5 -46.5zM219 540l-126 158h116l100 -158h-90z" />
    <glyph glyph-name="acircumflex.alt1" horiz-adv-x="537" 
d="M367 145v35q-66 27 -125 27q-53 0 -77.5 -19.5t-24.5 -49.5q0 -25 21 -39.5t60 -14.5q38 0 83 14q43 13 63 47zM118 320l-59 63q66 94 198 94q102 0 157.5 -51t55.5 -147v-279h-102v51q-48 -61 -151 -61q-81 0 -129.5 39.5t-48.5 108.5t50 109.5t151 40.5q64 0 128 -30
v21q0 48 -32 76.5t-86 28.5q-37 0 -73.5 -17.5t-58.5 -46.5zM98 541l110 158h104l110 -158h-87l-76 88l-75 -88h-86z" />
    <glyph glyph-name="adieresis.alt1" horiz-adv-x="537" 
d="M367 145v35q-66 27 -125 27q-53 0 -77.5 -19.5t-24.5 -49.5q0 -25 21 -39.5t60 -14.5q38 0 83 14q43 13 63 47zM118 320l-59 63q66 94 198 94q102 0 157.5 -51t55.5 -147v-279h-102v51q-48 -61 -151 -61q-81 0 -129.5 39.5t-48.5 108.5t50 109.5t151 40.5q64 0 128 -30
v21q0 48 -32 76.5t-86 28.5q-37 0 -73.5 -17.5t-58.5 -46.5zM173 683q26 0 44.5 -17.5t18.5 -43.5t-18.5 -44t-44.5 -18q-27 0 -46 18t-19 44t19 43.5t46 17.5zM344 560q-27 0 -46 18t-19 44t19 43.5t46 17.5t45.5 -17.5t18.5 -43.5t-19 -44t-45 -18z" />
    <glyph glyph-name="atilde.alt1" horiz-adv-x="537" 
d="M367 145v35q-66 27 -125 27q-53 0 -77.5 -19.5t-24.5 -49.5q0 -25 21 -39.5t60 -14.5q38 0 83 14q43 13 63 47zM118 320l-59 63q66 94 198 94q102 0 157.5 -51t55.5 -147v-279h-102v51q-48 -61 -151 -61q-81 0 -129.5 39.5t-48.5 108.5t50 109.5t151 40.5q64 0 128 -30
v21q0 48 -32 76.5t-86 28.5q-37 0 -73.5 -17.5t-58.5 -46.5zM216 599q-10 0 -18 -12t-9 -32h-65q3 60 28.5 90t63.5 30q26 0 52 -21q28 -20 36 -20q11 0 19 10.5t9 30.5h64q-3 -59 -28.5 -88t-63.5 -29q-23 0 -51 20q-27 21 -37 21z" />
    <glyph glyph-name="aring.alt1" horiz-adv-x="537" 
d="M367 145v35q-66 27 -125 27q-53 0 -77.5 -19.5t-24.5 -49.5q0 -25 21 -39.5t60 -14.5q38 0 83 14q43 13 63 47zM118 320l-59 63q66 94 198 94q102 0 157.5 -51t55.5 -147v-279h-102v51q-48 -61 -151 -61q-81 0 -129.5 39.5t-48.5 108.5t50 109.5t151 40.5q64 0 128 -30
v21q0 48 -32 76.5t-86 28.5q-37 0 -73.5 -17.5t-58.5 -46.5zM154 638q0 47 31.5 79t76.5 32q47 0 79 -32t32 -79q0 -45 -32.5 -76.5t-78.5 -31.5q-45 0 -76.5 31.5t-31.5 76.5zM210 638q0 -21 15 -36.5t37 -15.5t38.5 15.5t16.5 36.5q0 23 -16 39t-39 16q-22 0 -37 -16
t-15 -39z" />
    <glyph glyph-name="amacron.alt1" horiz-adv-x="537" 
d="M367 145v35q-66 27 -125 27q-53 0 -77.5 -19.5t-24.5 -49.5q0 -25 21 -39.5t60 -14.5q38 0 83 14q43 13 63 47zM118 320l-59 63q66 94 198 94q102 0 157.5 -51t55.5 -147v-279h-102v51q-48 -61 -151 -61q-81 0 -129.5 39.5t-48.5 108.5t50 109.5t151 40.5q64 0 128 -30
v21q0 48 -32 76.5t-86 28.5q-37 0 -73.5 -17.5t-58.5 -46.5zM387 572h-258v81h258v-81z" />
    <glyph glyph-name="abreve.alt1" horiz-adv-x="537" 
d="M367 145v35q-66 27 -125 27q-53 0 -77.5 -19.5t-24.5 -49.5q0 -25 21 -39.5t60 -14.5q38 0 83 14q43 13 63 47zM118 320l-59 63q66 94 198 94q102 0 157.5 -51t55.5 -147v-279h-102v51q-48 -61 -151 -61q-81 0 -129.5 39.5t-48.5 108.5t50 109.5t151 40.5q64 0 128 -30
v21q0 48 -32 76.5t-86 28.5q-37 0 -73.5 -17.5t-58.5 -46.5zM128 674h77q0 -27 14 -42t40 -15q24 0 39 16.5t15 40.5h78q0 -59 -36 -93.5t-96 -34.5q-63 0 -97 36t-34 92z" />
    <glyph glyph-name="aogonek.alt1" horiz-adv-x="537" 
d="M118 320l-59 63q66 94 198 94q102 0 157.5 -51t55.5 -147v-279h-41l-30 -83q-6 -15 -1 -29t20 -21q34 -9 47 22l3 23l67 4q0 -50 -29.5 -83t-71.5 -33q-44 0 -74 31q-29 32 -29 70q0 26 8 44l30 55h-1v51q-48 -61 -151 -61q-81 0 -129.5 39.5t-48.5 108.5t50 109.5
t151 40.5q64 0 128 -30v21q0 48 -32 76.5t-86 28.5q-37 0 -73.5 -17.5t-58.5 -46.5zM367 145v35q-66 27 -125 27q-53 0 -77.5 -19.5t-24.5 -49.5q0 -25 21 -39.5t60 -14.5q38 0 83 14q43 13 63 47z" />
    <glyph glyph-name="yacute.alt1" horiz-adv-x="507" 
d="M201 540l100 158h116l-126 -158h-90zM199 21l-185 446h110l130 -322l130 322h111l-231 -550q-37 -81 -78 -116q-40 -34 -112 -34q-23 0 -60 8v89q20 -4 59 -4q35 0 55 23t42 73z" />
    <glyph glyph-name="ydieresis.alt1" horiz-adv-x="507" 
d="M170 693q26 0 44.5 -17.5t18.5 -43.5t-18.5 -44t-44.5 -18q-27 0 -46 18t-19 44t19 43.5t46 17.5zM341 570q-27 0 -46 18t-19 44t19 43.5t46 17.5t45.5 -17.5t18.5 -43.5t-19 -44t-45 -18zM199 21l-185 446h110l130 -322l130 322h111l-231 -550q-37 -81 -78 -116
q-40 -34 -112 -34q-23 0 -60 8v89q20 -4 59 -4q35 0 55 23t42 73z" />
    <glyph glyph-name="ae.alt1" horiz-adv-x="879" 
d="M470 31v-31h-102v51q-48 -61 -151 -61q-81 0 -129.5 39.5t-48.5 108.5t50 109.5t151 40.5q64 0 128 -30v21q0 48 -32 76.5t-86 28.5q-36 0 -73.5 -17.5t-58.5 -46.5l-59 63q66 94 198 94q121 0 175 -71q69 71 176 71q102 0 168 -67q66 -66 66 -175q0 -31 -1 -38h-371
q7 -54 46 -85.5t97 -31.5q41 0 75 17.5t52 49.5l84 -37q-29 -58 -87 -89t-129 -31q-79 0 -138 41zM470 272h271q-7 53 -43 84t-90 31q-55 0 -93 -31t-45 -84zM367 145v35q-55 18 -125 18q-102 0 -102 -60q0 -25 21 -39.5t60 -14.5q38 0 83 14q43 13 63 47z" />
    <glyph glyph-name="aeacute.alt1" horiz-adv-x="879" 
d="M388 540l100 158h116l-126 -158h-90zM470 0h-102v51q-48 -61 -151 -61q-81 0 -129.5 39.5t-48.5 108.5t50 109.5t151 40.5q64 0 128 -30v21q0 48 -32 76.5t-86 28.5q-36 0 -73.5 -17.5t-58.5 -46.5l-59 63q66 94 198 94q121 0 175 -71q69 71 176 71q102 0 168 -67
q66 -66 66 -175q0 -31 -1 -38h-371q7 -54 46 -85.5t97 -31.5q41 0 75 17.5t52 49.5l84 -37q-29 -58 -87 -89t-129 -31q-79 0 -138 41v-31zM470 272h271q-7 53 -43 84t-90 31q-55 0 -93 -31t-45 -84zM140 138q0 -25 21 -39.5t60 -14.5q38 0 83 14q43 13 63 47v35
q-55 18 -125 18q-102 0 -102 -60z" />
    <glyph glyph-name="ycircumflex.alt1" horiz-adv-x="507" 
d="M170 -44l29 65l-185 446h110l130 -322l130 322h111l-231 -550q-37 -81 -78 -116q-40 -34 -112 -34q-23 0 -60 8v89q20 -4 59 -4q34 0 54 21t43 75zM90 541l110 158h104l110 -158h-87l-76 88l-75 -88h-86z" />
    <glyph glyph-name="ldot.alt1" horiz-adv-x="368" 
d="M249 96h38v-96h-50q-170 0 -170 201v520h104v-520q-1 -105 78 -105zM301 343q30 0 51 -19.5t21 -48.5t-21 -48.5t-51 -19.5q-29 0 -49.5 19.5t-20.5 48.5t20.5 48.5t49.5 19.5z" />
    <glyph glyph-name="t.alt1" horiz-adv-x="361" 
d="M291 96h33v-96h-45q-90 0 -130 45t-40 139v198h-84v85h84v112l104 36v-148h98v-85h-98v-198q-1 -45 16 -66.5t62 -21.5z" />
    <glyph glyph-name="tcaron.alt1" horiz-adv-x="361" 
d="M314 526l-61 23q32 44 42 80q11 41 7 100h97q-1 -133 -85 -203zM324 0h-45q-90 0 -130 45t-40 139v198h-84v85h84v112l104 36v-148h98v-85h-98v-198q-1 -45 16 -66.5t62 -21.5h33v-96z" />
    <glyph glyph-name="tbar.alt1" horiz-adv-x="363" 
d="M293 96h33v-96h-45q-90 0 -130 45t-40 139v31h-67v65h67v102h-84v85h84v112l104 36v-148h98v-85h-98v-102h71v-65h-71v-31q-1 -45 16 -66.5t62 -21.5z" />
    <glyph glyph-name="tcommaaccent.alt1" horiz-adv-x="361" 
d="M291 96h33v-96h-45q-90 0 -130 45t-40 139v198h-84v85h84v112l104 36v-148h98v-85h-98v-198q-1 -45 16 -66.5t62 -21.5zM223 -259l-60 23q31 42 42 80q11 40 7 99h97q-1 -136 -86 -202z" />
    <glyph glyph-name="T.sc.alt1" horiz-adv-x="480" 
d="M23 492v87h434v-87h-169v-492h-96v492h-169z" />
    <glyph glyph-name="Tcaron.sc.alt1" horiz-adv-x="481" 
d="M179 779l62 -70l62 70h79l-97 -136h-89l-96 136h79zM282 0h-84v501h-177v83h439v-83h-178v-501z" />
    <glyph glyph-name="Tbar.sc.alt1" horiz-adv-x="470" 
d="M277 501v-151h112v-57h-112v-293h-84v293h-110v57h110v151h-177v83h439v-83h-178z" />
    <glyph glyph-name="Tcommaaccent.sc.alt1" horiz-adv-x="480" 
d="M23 492v87h434v-87h-169v-492h-96v492h-169zM213 -220l-53 20q50 69 39 152h83q1 -114 -69 -172z" />
    <glyph glyph-name="aringacute.alt1" horiz-adv-x="537" 
d="M238 744l78 123h117l-107 -133q55 -31 55 -95q0 -45 -32.5 -76.5t-78.5 -31.5q-45 0 -76.5 31.5t-31.5 76.5q0 37 21 66t55 39zM218 638q0 -22 15.5 -37t36.5 -15q23 0 39 15t16 37q0 23 -16 38.5t-39 15.5q-21 0 -36.5 -15.5t-15.5 -38.5zM367 145v35q-66 27 -125 27
q-53 0 -77.5 -19.5t-24.5 -49.5q0 -25 21 -39.5t60 -14.5q38 0 83 14q43 13 63 47zM118 320l-59 63q66 94 198 94q102 0 157.5 -51t55.5 -147v-279h-102v51q-48 -61 -151 -61q-81 0 -129.5 39.5t-48.5 108.5t50 109.5t151 40.5q64 0 128 -30v21q0 48 -32 76.5t-86 28.5
q-37 0 -73.5 -17.5t-58.5 -46.5z" />
    </font>
</defs>
</svg>
