<?xml version="1.0" standalone="no"?>
<!DOCTYPE svg PUBLIC "-//W3C//DTD SVG 1.1//EN" "http://www.w3.org/Graphics/SVG/1.1/DTD/svg11.dtd" >
<svg xmlns="http://www.w3.org/2000/svg" xmlns:xlink="http://www.w3.org/1999/xlink" version="1.1">
<metadata>
Created by FontForge 20170731 at Sat Nov  7 16:45:20 2015
 By Aleksey,,,
Copyright (c) 2015, Marco van Luijn
</metadata>
<defs>
<font id="Oregon" horiz-adv-x="568" >
  <font-face 
    font-family="Oregon"
    font-weight="400"
    font-stretch="normal"
    units-per-em="1000"
    panose-1="2 0 5 3 0 0 0 0 0 0"
    ascent="800"
    descent="-200"
    x-height="718"
    cap-height="718"
    bbox="-30 -184.091 778.314 912.033"
    underline-thickness="50"
    underline-position="-200"
    unicode-range="U+0020-201D"
  />
<missing-glyph horiz-adv-x="500" 
d="M50 0v533h400v-533h-400zM100 50h300v433h-300v-433z" />
    <glyph glyph-name=".notdef" horiz-adv-x="500" 
d="M50 0v533h400v-533h-400zM100 50h300v433h-300v-433z" />
    <glyph glyph-name=".null" horiz-adv-x="0" 
 />
    <glyph glyph-name="nonmarkingreturn" horiz-adv-x="333" 
 />
    <glyph glyph-name="space" unicode=" " horiz-adv-x="200" 
 />
    <glyph glyph-name="exclam" unicode="!" horiz-adv-x="235" 
d="M176 599q-2 -72 -5 -330q0 -20 -3 -58q0 -10 -4 -17t-11 -11t-17 -5q-19 -1 -37 1q-28 2 -32 30q-1 4 -1 23q-5 358 -5 389q0 9 -1.5 29.5t-1.5 31.5q1 38 39 39h42q37 -1 37 -37v-85zM177 57v-28q-1 -6 -3.5 -11.5t-6.5 -9.5t-9.5 -6.5t-11.5 -3.5q-27 -1 -55 0
q-14 1 -22.5 9.5t-9.5 22.5q-2 27 0 52q2 32 36 34q24 2 48 0q32 -1 34 -34v-25z" />
    <glyph glyph-name="quotedbl" unicode="&#x22;" horiz-adv-x="381" 
d="M177 657v-19q1 -32 -25 -53q-16 -12 -77 -57q-13 -9 -21 -4q-9 6 -8 21q1 8 4 14q15 40 13 94q-1 18 0 34q2 31 31 33q24 2 50 0q30 -2 32 -34q1 -2 1 -29zM317 656v-19q1 -32 -26 -52q-17 -14 -77 -57q-12 -9 -20.5 -3t-7.5 20q1 7 3 10q17 44 13 113q-1 17 2 27.5
t10 16.5t17 8t24 1h13.5t13.5 -1q32 -3 34 -35q1 -1 1 -29z" />
    <glyph glyph-name="numbersign" unicode="#" horiz-adv-x="700" 
d="M398 546h30q18 1 26.5 7.5t12.5 24.5q19 80 24 102q9 43 50 39h16.5h16.5q39 -1 31 -38q0 -1 -21 -92q-3 -12 -3 -16q-2 -25 22 -26q6 -1 18 -0.5t18 -0.5q38 -2 30 -39q-4 -22 -8 -37q-9 -33 -44 -34h-40q-27 0 -34 -25q-13 -46 -24 -100q-1 -7 1 -13t7.5 -9.5
t13.5 -4.5h18h17q39 -2 31 -40q-6 -28 -8 -37q-9 -32 -43 -34h-19.5h-19.5q-17 0 -25 -7t-12 -23q-4 -14 -8 -32t-8.5 -37t-8.5 -32q-5 -25 -16 -33t-36 -8q-24 -1 -30 0q-41 1 -31 41q0 3 21 87q2 10 3 14q6 29 -22 30q-36 1 -75 0q-25 -1 -32 -28q-1 -4 -24 -102
q-3 -11 -4 -14q-10 -28 -37 -28q-26 -1 -44 0q-18 0 -26 10t-4 27q1 6 22 90q3 12 3 16q5 27 -22 29h-17.5h-16.5q-45 1 -35 44q5 23 8 35q9 31 41 31q7 1 23 1h23q28 1 35 27q14 53 22 94q7 30 -25 31h-18.5h-17.5q-38 1 -31 38q5 22 9 39q9 32 42 33q8 1 21.5 0.5
t20.5 0.5q18 0 27 6.5t13 24.5t11.5 52t11.5 48q4 17 9.5 25.5t15.5 12t27 3.5h32q38 -1 30 -39q-2 -7 -21 -89q-3 -12 -3 -13q-2 -16 4 -23.5t23 -7.5q1 0 33 -1zM336 284h31q32 0 39 30q16 69 21 88q8 33 -26 34q-23 1 -63 0q-12 0 -19.5 -3t-12.5 -9.5t-7 -16.5
q-11 -39 -22 -92q-3 -14 3.5 -22t20.5 -9h35z" />
    <glyph glyph-name="dollar" unicode="$" horiz-adv-x="546" 
d="M272 -96q-33 -3 -45.5 10t-11.5 44q1 21 -6 30t-28 15q-63 18 -105 62q-15 15 -14.5 27t17.5 26q13 10 32 23q13 10 23.5 10t23.5 -11q38 -34 87 -36q77 -5 119 47q26 32 18 73t-44 63q-28 17 -74 28q-53 12 -78 23q-128 52 -133 188q-3 63 40 117q34 44 78 65
q19 9 23 11q22 12 21 35q0 16 1 34q1 35 36 36q18 1 38 0q35 -1 36 -36v-30q-2 -31 28 -44q35 -14 63 -37q16 -14 34 -37q19 -25 -6 -44q-19 -13 -51 -27q-15 -6 -32 6q-3 3 -9.5 9t-8.5 8q-31 26 -71 28t-74 -24q-40 -33 -36 -78t43 -68q26 -15 70 -25q85 -20 132 -53
q80 -56 85 -155q6 -131 -120 -198l-8 -4q-46 -14 -39 -61v-13q-2 -36 -38 -37h-16z" />
    <glyph glyph-name="percent" unicode="%" horiz-adv-x="768" 
d="M199 2h-29q-17 1 -23 12t2 26q47 88 102 190q39 73 141 264q63 116 101 188q9 17 17 24q15 14 32 14h26.5h27.5q19 -1 25 -12t-3 -28q-213 -399 -282 -526q-17 -33 -59 -110q-7 -13 -11 -18q-18 -26 -46 -25q-1 1 -21 1zM448 216q4 77 47 121q40 42 92.5 40.5t89.5 -44.5
q44 -51 43.5 -119.5t-43.5 -117.5q-42 -49 -99 -45.5t-96 56.5q-32 44 -34 109zM541 214q2 -39 22 -58t41 0q25 23 23 64q-2 35 -23 53t-41 -1t-22 -58zM320 506q-4 -77 -48 -122q-40 -41 -91.5 -40t-88.5 44q-45 52 -44.5 121.5t45.5 118.5q42 47 98.5 43t94.5 -57
q31 -43 34 -108zM227 509q-3 41 -25 59q-18 15 -36 0q-24 -20 -25 -58.5t22 -59.5q22 -20 42 1q20 19 22 58z" />
    <glyph glyph-name="ampersand" unicode="&#x26;" horiz-adv-x="540" 
d="M283 821h21q30 -2 32 -32q1 -15 0 -29q-2 -32 30 -45q35 -13 70 -42q15 -12 32 -35q19 -26 -7 -43q-12 -8 -48 -26q-15 -8 -31 4q-3 1 -21 17q-37 33 -86 28.5t-78 -42.5q-21 -27 -16.5 -62.5t31.5 -56.5q33 -26 71 -27h10.5h12.5q35 -3 37 -38q1 -13 0.5 -33t-10 -29.5
t-28.5 -9.5q-35 -2 -64 -11q-44 -14 -64 -49t-9 -79q9 -37 51 -60q39 -23 85.5 -18.5t81.5 32.5q17 14 28 14.5t28 -12.5q23 -17 30 -23q26 -22 2 -48q-38 -40 -98 -62q-2 0 -7 -1.5t-7 -2.5q-27 -12 -26 -37v-29q-2 -31 -32 -33q-21 -2 -44 0q-31 2 -34 34v27q0 21 -6 30
t-26 17q-24 10 -51 28q-57 39 -77.5 100t-6.5 118t54 94q6 5 11 12q8 13 0 26l-9 12q-56 69 -44 152.5t84 135.5q22 16 42 24q31 14 29 46q-1 12 0 29q2 34 36 36h21v-1z" />
    <glyph glyph-name="quotesingle" unicode="'" horiz-adv-x="244" 
d="M178 656v-20q1 -32 -24 -51q-15 -11 -79 -59q-11 -8 -19 -3q-10 6 -8 20q1 9 3 16q15 41 13 88q-1 15 0 36q1 35 37 37q23 1 41 -1q34 -2 36 -36v-27z" />
    <glyph glyph-name="parenleft" unicode="(" horiz-adv-x="286" 
d="M65 361v115q4 100 25 161q24 68 71 109q30 26 50 -8q2 -5 19 -38q11 -23 -4 -41q-48 -57 -50 -165q-2 -83 0 -270q0 -49 14 -97q12 -37 32 -61q21 -24 5 -52q-2 -5 -6.5 -14.5t-7.5 -13.5q-21 -39 -55 -10q-53 48 -77 139q-13 52 -16 131v115z" />
    <glyph glyph-name="parenright" unicode=")" horiz-adv-x="286" 
d="M221 359v-113q-4 -99 -25 -161q-23 -68 -68 -108q-33 -30 -55 9q-4 7 -17 33q-11 23 4 42q48 57 50 165q2 74 0 268q0 49 -13 95q-12 40 -33 64.5t-5 52.5q3 5 8 15.5t8 15.5q19 35 49 9q58 -50 81 -141q13 -53 16 -131v-115z" />
    <glyph glyph-name="asterisk" unicode="*" horiz-adv-x="369" 
d="M155 644q1 2 -1 12q-1 6 -3.5 18t-2.5 13q-2 7 1.5 14.5t10 12.5t14.5 5q1 1 8 0.5t8 0.5q16 1 28 -16q5 -8 3 -17q-1 -7 -6 -31q0 -1 -2 -14q6 4 14 11t10 8q2 2 6 5.5t5 5.5q10 8 21.5 6.5t19 -12t13.5 -22.5q4 -10 -1 -21t-17 -15q-5 -2 -10.5 -4t-12 -4t-10.5 -3
q-6 -2 -7 -4q0 -2 7 -4q5 -2 16 -5.5t15 -5.5q15 -5 19.5 -17t-2.5 -25q-5 -9 -10 -16q-7 -11 -19 -13t-23 7q-4 5 -28 25q-3 3 -4.5 2.5t-0.5 -5.5q2 -12 7 -38q2 -7 -1.5 -14.5t-10 -12.5t-14.5 -5h-8h-8q-17 -2 -29 17q-4 6 -2 14q2 11 7 39q1 4 0 5t-5 -2
q-4 -4 -14 -12.5t-15 -12.5q-10 -9 -21.5 -7.5t-18.5 12.5q-8 10 -14 22q-2 7 -1 14t6 13.5t13 8.5l16.5 5.5t14.5 5.5q8 3 8 4q0 2 -1 3t-3.5 1.5t-3.5 0.5q-6 2 -16 5.5t-13 4.5q-15 5 -19.5 17.5t3.5 26.5t9 15q8 11 19.5 12.5t21.5 -7.5q6 -5 17 -14.5t13 -10.5
q3 -3 4 -2z" />
    <glyph glyph-name="plus" unicode="+" horiz-adv-x="435" 
d="M216 200h-21q-31 2 -32 32q-1 7 -1 19.5v19.5q-1 32 -32 33h-19h-19q-33 2 -34 34q-1 23 0 42q1 32 33 34q7 1 19.5 1h20.5q16 0 23.5 7.5t7.5 24.5v19t1 19q1 32 32 34q21 1 42 0q33 -2 35 -37q1 -7 1 -19v-18q0 -11 3 -17.5t9.5 -9.5t16.5 -3h19t19 -1q35 -2 37 -37
q1 -21 0 -39q-2 -32 -34 -33q-2 -1 -17 -1h-16q-15 0 -22.5 -3.5t-11 -11t-3.5 -22.5v-14v-14q-1 -20 -10.5 -29.5t-30.5 -9.5h-16z" />
    <glyph glyph-name="comma" unicode="," horiz-adv-x="244" 
d="M178 54v-18q1 -32 -26 -52q-13 -11 -75 -56q-13 -10 -21 -5q-10 5 -8 21q0 6 2 9q16 40 14 119v14q3 31 32 33q24 2 48 0q32 -2 34 -35v-30z" />
    <glyph glyph-name="hyphen" unicode="-" horiz-adv-x="320" 
d="M161 304h-69q-38 1 -39 39q-1 21 0 35q2 35 36 36h73h71q33 0 34 -34q1 -18 0 -40q-1 -35 -35 -36h-71z" />
    <glyph glyph-name="period" unicode="." horiz-adv-x="244" 
d="M65 60v25q2 32 32 34q24 2 48 0q15 -1 24 -10t10 -24q1 -26 -1 -52q0 -14 -9 -22.5t-23 -9.5q-26 -1 -50 0q-13 1 -21.5 9.5t-9.5 21.5v28z" />
    <glyph glyph-name="slash" unicode="/" horiz-adv-x="360" 
d="M279 719q41 -1 33 -40q-2 -5 -14 -57q-77 -332 -121 -520q-15 -64 -16 -68q-3 -14 -15 -24.5t-29 -9.5l-42 1q-17 0 -26 18q-3 7 1 26q128 547 146 624q7 31 19.5 41.5t45.5 8.5h9h9z" />
    <glyph glyph-name="zero" unicode="0" 
d="M515 358v-148q0 -83 -54.5 -144.5t-136.5 -72.5q-127 -17 -215 73q-55 55 -56 134q-1 177 0 318q1 95 81 158q60 47 140.5 51.5t149.5 -42.5q89 -66 91 -173v-154zM163 358v-140v-2q-2 -42 21 -70t61 -39q67 -21 115.5 16.5t44.5 101.5q-1 23 -1 47.5t0.5 56.5t0.5 48
v129q0 48 -36 82q-37 34 -100 28q-32 -3 -56 -18t-37 -40t-13 -57v-143z" />
    <glyph glyph-name="one" unicode="1" horiz-adv-x="323" 
d="M254 359v-310v-19q-3 -28 -30 -29q-22 -2 -48 0q-27 1 -31 28q-1 6 -1 25v425v21q-3 26 -28 21q-4 -1 -9 -2t-9.5 -2.5t-8.5 -1.5q-14 -3 -24 4t-12 21q-4 26 0 50q3 22 26 30q46 16 62 68q10 30 42 31h32q20 -1 29.5 -10.5t9.5 -29.5v-256v-32v-32z" />
    <glyph glyph-name="two" unicode="2" horiz-adv-x="551" 
d="M275 1h-167q-24 0 -32.5 8.5t-9.5 32.5q-8 108 41 211q49 101 154 148q66 30 98 72q23 32 19 66q-3 23 -28 47t-51 28q-63 9 -104 -32q-16 -16 -27 -17.5t-32 9.5q-25 13 -33 19q-23 18 -7 40q45 64 117 85t141 -5.5t106 -91.5q28 -49 22 -109.5t-43 -106.5
q-49 -60 -128 -95q-104 -46 -132 -165q-8 -36 29 -36q182 -1 228 0q31 1 41.5 -11.5t8.5 -39.5v-9v-10q-1 -20 -10 -29t-29 -9h-172z" />
    <glyph glyph-name="three" unicode="3" horiz-adv-x="540" 
d="M260 728q131 -6 187 -113q56 -106 -17 -210q-17 -25 -17 -33.5t20 -29.5q35 -36 48 -89.5t-5.5 -112t-70.5 -97.5q-74 -56 -170 -52t-161 67l-12 12q-16 21 1 38q22 22 48 36q20 10 42 -10q28 -25 70 -31q54 -9 99 16q56 32 53 92q-3 62 -60 91q-33 16 -69 16h-17
q-30 4 -31 33q-1 23 0 44q1 29 30 33q9 1 23 0q25 -1 54 13q54 26 56 84q1 51 -54 81q-30 16 -66 11.5t-63 -28.5q-25 -22 -35 -23t-40 15q-18 9 -20 11q-30 19 -9 47q68 87 186 89z" />
    <glyph glyph-name="four" unicode="4" horiz-adv-x="565" 
d="M456 488v-180q-1 -36 29 -44q23 -6 23 -34q-1 -20 0 -37q0 -28 -25 -35q-28 -8 -27 -41q1 -25 0 -75q0 -23 -9.5 -32t-32.5 -10h-31q-19 1 -28 9.5t-9 28.5v84q0 17 -10 26q-7 8 -27 8h-61.5h-73.5h-62q-33 -1 -44 11t-10 44q1 41 18 70q18 33 235 408q18 31 51 30h26.5
h26.5q22 -1 31.5 -10.5t9.5 -32.5v-188zM346 398v92t-2 18q-3 7 -8.5 7.5t-10.5 -4.5q-2 -2 -5 -9q-97 -180 -108 -201q-8 -16 -2 -26t23 -9q1 1 37.5 1h37.5q21 0 29.5 8t8.5 29v94z" />
    <glyph glyph-name="five" unicode="5" horiz-adv-x="540" 
d="M68 520v151q0 15 1 21q5 24 31 27h12h299h11q31 -2 32 -34q1 -18 1 -39q-2 -34 -36 -35h-96h-109q-35 0 -36 -34v-92v-4q3 -29 31 -19q48 17 95.5 9.5t85.5 -31t63.5 -64.5t30.5 -91q7 -69 5 -96q-9 -106 -110 -163q-70 -40 -154 -31.5t-144 63.5q-23 20 -22.5 34
t24.5 32q10 8 23 17q24 16 46 0q2 -2 8.5 -7t10.5 -7q71 -43 148 -9q44 20 55 69q9 40 0 97q-8 47 -51 71q-34 20 -74.5 16.5t-69.5 -32.5q-16 -17 -40.5 -20.5t-45.5 2.5q-22 3 -25 30v27v142z" />
    <glyph glyph-name="six" unicode="6" 
d="M53 234q1 10 0.5 19.5t0 21.5t2.5 22q7 40 35 89q24 41 55.5 95.5t62 108t55.5 95.5q21 37 59 35h42q13 0 21 -8q13 -12 3 -30q-8 -13 -58 -100q-41 -72 -42 -74q-19 -32 18 -35q73 -6 128 -52q75 -62 80 -164q2 -41 -2 -76q-9 -72 -63 -126t-126 -63q-114 -15 -199 56
q-72 60 -72 149v37zM164 229v-26q-2 -44 34 -73q50 -40 114 -29q17 3 33 11.5t28 21t20 28.5t10 33q5 42 -1 75q-10 65 -73 86q-71 24 -130 -23q-37 -30 -35 -77v-13.5v-13.5z" />
    <glyph glyph-name="seven" unicode="7" horiz-adv-x="490" 
d="M246 719h145q18 0 26 -5q18 -10 18 -28q0 -74 -13 -114q-26 -78 -165 -501q-1 -3 -5.5 -17.5t-7.5 -21.5q-11 -31 -44 -32h-44q-40 1 -27 39q12 34 61 173q112 316 128 359q5 17 3 22q-6 16 -27 15h-117q-75 0 -82 1q-20 0 -29.5 9.5t-10.5 29.5v34q1 35 36 37h57h98z
" />
    <glyph glyph-name="eight" unicode="8" horiz-adv-x="575" 
d="M289 727q109 -1 177 -87q28 -34 35 -83q12 -88 -40 -156q-14 -19 -14 -28t18 -25q48 -43 58 -116t-26 -131q-53 -87 -162 -107q-81 -15 -156 19q-108 48 -125 153q-19 110 57 184q11 11 13 16q7 15 -6 30q-31 36 -41 86q-18 89 28 154.5t134 85.5q24 6 50 5zM161 202
q-3 -33 27 -63q36 -36 92 -39t95 29q26 21 34 44q13 38 -1.5 76.5t-56.5 56.5q-58 25 -114 6q-76 -27 -76 -110zM182 528q0 -49 31 -73q35 -27 67.5 -29.5t67.5 19.5q41 24 45 70.5t-31 76.5q-43 38 -99 26q-33 -6 -58 -30.5t-23 -59.5z" />
    <glyph glyph-name="nine" unicode="9" 
d="M514 484q10 -73 -43 -162q-63 -107 -166 -288q-22 -39 -61 -35q-6 1 -22.5 1h-21.5q-18 1 -23.5 11t2.5 26q12 20 95 163q0 1 1.5 3.5t2.5 3.5q10 18 6 26t-25 11q-64 9 -105 37q-96 65 -101 181q-3 61 7 101q12 46 43 83.5t75 59.5t91 23q116 2 191 -76q55 -56 54 -134
v-35zM404 485v34q0 35 -27 61q-42 43 -111 38q-36 -3 -64 -27.5t-36 -60.5q-7 -34 -2 -74q5 -39 28.5 -65.5t61.5 -33.5q64 -13 116 29q35 28 34 71v28z" />
    <glyph glyph-name="colon" unicode=":" horiz-adv-x="244" 
d="M65 364v27q1 13 9.5 21.5t21.5 9.5q24 1 50 0q14 -1 22.5 -9t9.5 -21q2 -28 0 -56q-1 -14 -10 -22.5t-23 -9.5q-24 -1 -48 0q-30 2 -32 35v25zM65 59.5v27.5q2 29 30 32q26 2 52 0q14 -2 22.5 -10.5t9.5 -23.5q1 -26 0 -52q-1 -14 -10 -22.5t-23 -9.5q-25 -1 -50 0
q-13 1 -21.5 9.5t-9.5 21.5v27.5z" />
    <glyph glyph-name="semicolon" unicode=";" horiz-adv-x="244" 
d="M178 54v-19q1 -32 -26 -52q-14 -11 -75 -56q-13 -9 -21 -5q-10 6 -8 22q0 5 2 8q16 41 14 118v14q2 33 34 35q22 1 44 0q34 -2 36 -36v-29zM64 364v27q1 13 9.5 21.5t21.5 8.5q25 2 50 0q14 0 23 -8.5t10 -22.5q1 -27 -1 -53q-1 -14 -9.5 -23t-23.5 -10q-24 -2 -48 0
q-30 2 -32 32v28z" />
    <glyph glyph-name="less" unicode="&#x3c;" horiz-adv-x="298" 
d="M65 361q0 28 -1 30q0 32 30 43q45 18 104 38q13 5 23 -1.5t11 -20.5q2 -20 0 -44q-1 -18 -23 -32q-12 -8 -12.5 -14t11.5 -14q27 -18 25 -49v-13v-14q-2 -14 -12.5 -20.5t-23.5 -2.5q-58 20 -103 37q-30 12 -29 44v33z" />
    <glyph glyph-name="equal" unicode="=" horiz-adv-x="435" 
d="M218 327h100q38 0 39 -38v-33q-1 -38 -39 -39h-15h-173q-17 0 -21 1q-29 3 -30 31q-2 20 -1 44q2 33 35 34h105zM218 503h100q38 0 39 -38v-36q-1 -34 -35 -36h-23h-169q-17 0 -21 1q-29 3 -30 32q-2 19 -1 43q2 33 35 34h105z" />
    <glyph glyph-name="greater" unicode="&#x3e;" horiz-adv-x="298" 
d="M234 358v-32q0 -30 -29 -42q-41 -16 -104 -38q-9 -2 -16.5 -0.5t-12.5 7.5t-6 15q-4 25 0 46q3 17 23 31q13 8 13 14t-13 14q-26 17 -24 46v14.5t1 14.5q1 15 11 21.5t24 1.5q56 -19 102 -37q32 -12 31 -45v-31z" />
    <glyph glyph-name="question" unicode="?" horiz-adv-x="495" 
d="M194 235q2 89 65 153q4 5 18 18.5t22.5 23t15.5 20.5q27 38 26 76q-2 30 -23 54.5t-53 32.5q-61 16 -110 -28q-11 -9 -16 -13q-19 -13 -37 -2q-5 2 -12.5 6t-14.5 7.5t-12 7.5q-31 19 -8 48q67 87 173 89q69 1 124.5 -33.5t81.5 -94.5q29 -66 6 -134q-19 -57 -61 -104
q-19 -22 -32 -33q-44 -38 -50 -102q-3 -32 -12 -41t-42 -9q-14 0 -17 1q-30 2 -32 32v25zM188 57v25q3 31 32 33q27 2 54 0q13 -1 22 -9.5t10 -21.5q2 -27 0 -56q-1 -13 -9.5 -21.5t-22.5 -8.5q-26 -2 -54 0q-14 0 -22.5 9t-9.5 23v27z" />
    <glyph glyph-name="at" unicode="@" horiz-adv-x="820" 
d="M412 618q-89 3 -164.5 -56.5t-91.5 -153.5q-13 -74 12 -139.5t77 -107.5t118 -54q77 -15 142 13q19 9 30 5t22 -22t18 -33q14 -26 -11 -43q-6 -4 -17 -8q-211 -77 -376 63q-141 119 -128 309q8 116 86 207q97 114 244 129q151 15 269 -82q116 -95 134 -247
q9 -77 -17 -144q-17 -46 -52 -72t-80 -26q-47 1 -80 33q-23 22 -55 6q-34 -18 -72 -20t-72 10.5t-61.5 36t-44.5 59t-18 77.5q-2 70 43 121.5t112 64.5q49 9 97 -9.5t83 -64.5t37 -110q1 -47 6 -62q6 -18 17 -27q13 -10 25.5 0.5t16.5 28.5q20 90 -16.5 168t-112.5 119
q-64 35 -120 31zM407 285q30 0 53 20t25 52q1 29 -19 52.5t-52 26.5q-30 2 -53.5 -19t-26.5 -54q-2 -29 20 -52.5t53 -25.5z" />
    <glyph glyph-name="A" unicode="A" horiz-adv-x="600" 
d="M298 147h-71q-33 0 -42 -33q-3 -13 -9.5 -39l-9.5 -38q-5 -19 -15.5 -27.5t-29.5 -8.5q-34 -1 -44 0q-17 0 -24.5 10t-2.5 26q26 99 70 259q16 59 102 375q5 16 6 18q11 30 41 30h56q21 0 32.5 -9t17.5 -30q9 -33 34 -123q57 -208 135 -497q7 -23 7 -28q3 -12 -3.5 -21
t-18.5 -10q-35 -2 -61 0t-33 31q-4 14 -10.5 42t-7.5 31q-3 13 -5 16q-10 26 -36 26h-78zM300 255h48q29 2 25 31q-1 0 -3 10q-42 171 -56 230q-2 8 -4 12q-4 6 -10 6t-10 -6q-2 -4 -4 -14q-2 -6 -5 -18.5t-4 -18.5q-3 -10 -20.5 -80.5t-26.5 -107.5q-6 -26 1 -35t33 -9h36z
" />
    <glyph glyph-name="B" unicode="B" horiz-adv-x="561" 
d="M56 359v307v19q2 31 33 34h19q178 0 188 1q79 2 128.5 -44.5t64.5 -113.5q17 -82 -22 -159q-3 -6 -4 -7q-15 -24 4 -48q38 -46 45 -107q15 -122 -67 -197q-47 -44 -108 -43q-182 0 -236 -1q-26 0 -36 11t-10 34q1 42 1 314zM166 208v-67q1 -32 32 -32q71 -1 123 0
q51 1 73 48q19 41 5 87q-18 61 -80 62q-41 1 -119 0q-33 0 -34 -33v-65zM166 511v-65q1 -31 31 -32q69 -1 107 1q46 1 67 45q19 36 9 80q-6 30 -29.5 51t-58.5 18h-84q-27 0 -34.5 -8t-7.5 -35v-55z" />
    <glyph glyph-name="C" unicode="C" horiz-adv-x="538" 
d="M162 357v-141q0 -48 27.5 -79t75.5 -37q73 -9 124 36q15 13 25.5 13.5t26.5 -11.5q23 -17 31 -25q14 -12 14 -22.5t-12 -23.5q-58 -65 -150 -76q-85 -11 -154 26q-119 63 -118 192q0 254 -1 291q-1 54 21 99t56.5 72.5t77.5 40.5q142 45 255 -50q8 -7 14 -15
q22 -25 -3 -47q-14 -12 -35 -27q-21 -14 -43 1q-2 1 -5 4l-4 4q-75 59 -162 19q-62 -28 -61 -96v-148z" />
    <glyph glyph-name="D" unicode="D" 
d="M516 356v-145q-1 -78 -39 -132q-56 -80 -146 -79q-6 1 -112.5 1h-111.5q-24 0 -33.5 9t-9.5 33q-1 300 0 633q0 23 9.5 33t33.5 10q157 1 184 0q137 -5 200 -116q25 -43 25 -98v-149zM174 360v-215q0 -19 8.5 -27.5t26.5 -9.5h109q60 1 80 59q8 22 8 41v296q-1 59 -56 89
q-24 14 -48 15q-41 1 -100 0q-24 0 -28 -26v-19v-203z" />
    <glyph glyph-name="E" unicode="E" horiz-adv-x="520" 
d="M63 359v306q0 17 1 21q3 29 32 32h15h308h16q30 -4 31 -34q1 -22 0 -44q-1 -28 -30 -32h-20h-102h-101q-23 0 -31 -8.5t-9 -30.5q0 -64 1 -119q0 -13 3.5 -21t11.5 -12t21 -4h54h53q25 0 34.5 -9.5t9.5 -34.5v-29q-2 -37 -38 -38h-101h-19q-28 -2 -29 -29q-1 -5 -1 -44
v-84q1 -20 9.5 -29t28.5 -9h207h19q27 -3 29 -28q2 -24 0 -50q-2 -27 -30 -29h-13h-316q-25 0 -34.5 9t-9.5 34v316z" />
    <glyph glyph-name="F" unicode="F" horiz-adv-x="520" 
d="M63 360v303v21q3 32 36 34q2 1 12 1h308q13 0 17 -1q29 -4 30 -34q1 -20 0 -41q-1 -32 -32 -35h-21h-100.5h-100.5q-22 0 -30 -8t-8 -31q-1 -60 0 -117q0 -21 8 -29.5t29 -8.5h54.5h54.5q22 -1 31 -10t10 -31v-32q-2 -38 -39 -39h-54.5h-54.5q-23 0 -31 -8t-9 -32v-107.5
v-108.5v-18q-2 -12 -9 -19.5t-19 -7.5q-25 -2 -52 -1q-25 2 -29 29q-1 6 -1 23v308z" />
    <glyph glyph-name="G" unicode="G" horiz-adv-x="570" 
d="M54 360v140q-3 80 42 135.5t111 76.5q143 46 257 -50q9 -8 16 -17q17 -22 -2 -41q-17 -17 -45 -34q-14 -8 -28 0q-6 3 -17 12q-74 59 -161 20q-63 -28 -63 -98q1 -207 0 -289q-1 -49 26.5 -76.5t69.5 -36.5q69 -14 115 33q28 28 30 65q2 32 0 72q0 28 -30 29h-32.5h-32.5
q-24 1 -33.5 10.5t-9.5 32.5q-1 25 0 33q1 35 35 35q11 1 104 1q66 0 74 -1q36 0 36 -35q1 -136 0 -180q-2 -71 -50 -128t-120 -73q-152 -33 -250 84q-41 49 -42 124v156z" />
    <glyph glyph-name="H" unicode="H" horiz-adv-x="581" 
d="M65 359v308v16q2 33 34 35q18 1 40 0q35 -1 36 -37v-75v-77t1 -76q0 -22 8 -30.5t30 -8.5q82 -1 155 0q20 0 28 8t8 28q0 4 1 216v21q3 29 31 31q25 2 48 0q29 -3 31 -34v-16v-618v-15q-1 -17 -9.5 -25.5t-25.5 -9.5h-40q-32 1 -35 33v19v100v105q0 15 -1 19
q-3 24 -27 26h-27h-136q-25 0 -32 -7.5t-7 -32.5q-1 -39 -1 -105v-106q0 -17 -1 -23q-4 -27 -31 -28q-24 -1 -46 0q-29 2 -32 30v19v310z" />
    <glyph glyph-name="I" unicode="I" horiz-adv-x="240" 
d="M65 360v305v19q2 32 33 34q21 2 43 0q31 -2 34 -33v-19v-614q0 -29 -9.5 -42t-42.5 -10h-13h-12q-31 2 -33 33v19v308z" />
    <glyph glyph-name="J" unicode="J" horiz-adv-x="510" 
d="M447 430v-234q0 -75 -47 -131.5t-122 -71.5q-67 -13 -131 19.5t-93 94.5q-14 31 16 45q13 6 47 16q17 5 31 -9q3 -4 16 -20q20 -25 48 -34.5t58 0.5q28 9 46 33t20 54q1 7 1 28v218v229q0 32 9.5 41.5t41.5 9.5h21q38 -1 38 -39v-249z" />
    <glyph glyph-name="K" unicode="K" horiz-adv-x="573" 
d="M65 359v306v21q3 30 33 32q12 1 38 1q20 -1 29.5 -10.5t9.5 -29.5v-187v-27q0 -9 4 -14q8 -14 18 -2q4 4 18 23q121 168 155 216q24 33 60 31h48q12 0 19 -4q20 -11 8 -29q-7 -9 -37 -49q-20 -25 -42.5 -54t-49 -63.5t-41.5 -54.5q-1 -1 -2.5 -3t-2.5 -4q-23 -26 -5 -58
q14 -25 40 -73.5t30 -56.5q18 -34 39 -72.5l45 -82.5t39 -72q4 -7 6 -11q3 -8 2 -15t-6.5 -11.5t-14.5 -4.5q-31 -2 -71 0q-15 0 -29 19q-5 7 -12 22q-12 24 -26 51.5t-27 54t-26 52t-27 54t-26 51.5q-12 25 -22 25.5t-27 -20.5q-9 -12 -14 -18.5t-9.5 -13t-6.5 -12t-4 -9
t-2 -11t-0.5 -11t-0.5 -15v-19.5v-152v-17q-2 -30 -32 -32q-20 -1 -44 0q-30 1 -33 31q-1 5 -1 23v305z" />
    <glyph glyph-name="L" unicode="L" horiz-adv-x="520" 
d="M63 361v308v19q2 29 31 30q21 1 46 0q28 -1 32 -29q1 -6 1 -25v-265v-242q0 -32 7.5 -39.5t39.5 -7.5h64h68h64h21q27 -4 29 -31q2 -23 0 -48q0 -13 -8.5 -21t-22.5 -10h-14h-311h-17q-28 4 -30 32v19v310z" />
    <glyph glyph-name="M" unicode="M" horiz-adv-x="666" 
d="M602 359v-306v-18q-2 -31 -31 -34q-22 -1 -46 0q-30 2 -33 32v21v125.5v147.5q0 10 -1 21q-1 15 -6 16q-3 1 -5 -0.5t-3 -3.5t-1.5 -5.5t-1.5 -4.5q-3 -8 -6 -22q-9 -38 -21 -88.5t-24 -102t-22 -88.5q-3 -13 -4 -16q-12 -28 -40 -28h-44q-36 1 -45 36l-46 185
q-3 13 -7.5 33t-8.5 39.5t-8 33.5v1.5t-1 2.5q0 2 -2.5 10.5t-5 13.5t-6.5 4q-5 -1 -7 -6.5t-1.5 -15t0.5 -10.5v-16v-271q0 -25 -10 -34.5t-34 -9.5h-34q-29 3 -32 32q-1 4 -1 19v616q0 28 10 41t41 11q1 -1 23 -1h23q21 0 32 -8t17 -28q3 -12 25 -93q13 -48 40 -148
t41 -151l4 -14q1 -1 2 -5t1.5 -6.5t2 -5.5t3.5 -4.5t4.5 -1.5t4.5 2t3.5 5t2.5 5.5t1.5 6t1.5 4.5q1 5 4 14q13 46 32.5 119.5t37 137.5t32.5 119q6 20 8 26q11 26 37 26q50 1 69 0q34 -1 35 -35v-88v-237z" />
    <glyph glyph-name="N" unicode="N" horiz-adv-x="583" 
d="M523 361v-306q0 -15 -1 -17q-1 -36 -37 -37h-18h-18q-27 -2 -46 24q-2 4 -9 17q-27 52 -92 179.5t-101 196.5q-7 14 -10 18q-4 5 -10 4t-8 -7q-2 -5 -2 -23v-356v-19q-2 -31 -31 -34q-23 -1 -48 0q-28 2 -31 32q-1 4 -1 19v617q0 13 1 17q3 32 35 33h20.5t21.5 1
q24 1 41 -21q5 -7 12 -19q28 -55 60 -117.5t70 -136.5t60 -117q6 -13 10.5 -20.5t12.5 -4.5q7 2 7 9q1 10 1 21v354q0 28 10 41t41 10h14h14q29 -2 31 -32q1 -2 1 -18v-308z" />
    <glyph glyph-name="O" unicode="O" 
d="M515 358v-148q0 -83 -54.5 -144.5t-136.5 -72.5q-127 -17 -215 73q-55 55 -56 134q-1 177 0 318q1 95 81 158q60 47 140.5 51.5t149.5 -42.5q89 -66 91 -173v-154zM163 358v-140v-2q-2 -42 21 -70t61 -39q67 -21 115.5 16.5t44.5 101.5q-1 23 -1 47.5t0.5 56.5t0.5 48
v129q0 48 -36 82q-37 34 -100 28q-32 -3 -56 -18t-37 -40t-13 -57v-143z" />
    <glyph glyph-name="P" unicode="P" horiz-adv-x="554" 
d="M61 360v306v23q4 30 34 30q170 1 201 -1q50 -2 96 -27.5t77.5 -74.5t31.5 -111v-26v-27.5v-25.5t-1 -27t-3 -26q-14 -95 -86 -144q-40 -28 -89 -28h-51h-51q-29 1 -40 -9t-9 -41v-107q0 -24 -10 -33.5t-34 -9.5h-30q-34 2 -36 37v19v303zM171 461v-119q1 -32 33 -33
q55 -1 102 0q52 1 74 52q10 23 10 53v43t1 43q0 45 -28 73.5t-66 34.5q-20 3 -88 4q-21 0 -29.5 -8.5t-8.5 -29.5v-113z" />
    <glyph glyph-name="Q" unicode="Q" 
d="M515 358v-143q1 -105 -80 -173q-24 -20 -25 -29.5t19 -34t19 -37t-26 -31.5q-17 -14 -21 -17q-25 -19 -46 4q-4 3 -25 30l-28 35q-20 27 -56 32q-80 13 -137 71q-55 57 -56 136q-1 205 0 315q2 132 130 189q132 58 242 -21q88 -63 90 -172v-154zM163 359v-144
q-1 -39 20 -66t56 -40q68 -24 119.5 13t46.5 105q-1 18 -1 38t0.5 45.5t0.5 38.5v154q0 53 -39 87q-37 32 -98 26q-48 -4 -76 -35t-29 -79v-143z" />
    <glyph glyph-name="R" unicode="R" horiz-adv-x="550" 
d="M61 360v304v21q2 34 36 34h117h78q71 -3 129 -50t74 -115q4 -17 4 -27q5 -116 -3 -163q-14 -83 -79 -131q-4 -3 -7 -6q-11 -10 -12.5 -19t6.5 -23q9 -16 78 -141l4 -7q9 -11 2 -23t-19 -12q-42 -3 -67 0q-23 3 -37 29q-10 20 -66 128q-7 16 -8 17q-16 25 -43 25h-21h-21
q-35 -1 -35 -35v-61.5v-61.5t-9.5 -32.5t-32.5 -9.5q-24 -1 -33 0q-33 2 -35 34v21v304zM171 461v-119q0 -32 32 -33q54 -1 103 0q50 1 73 50q5 12 7 24q8 44 3 135q-2 34 -33 62q-23 21 -59 28q-18 3 -88 4q-14 0 -22.5 -4t-12 -12t-3.5 -22v-113z" />
    <glyph glyph-name="S" unicode="S" horiz-adv-x="530" 
d="M252 -9q-107 3 -175 64q-23 21 -22.5 35t25.5 33q7 6 20 15q15 10 26 10t25 -12q32 -26 69 -32q84 -13 133 42q25 28 22 67.5t-32 63.5q-30 23 -88 37q-67 16 -105 36q-61 32 -88 92.5t-12.5 125.5t67.5 108q68 56 154 52.5t149 -64.5q11 -11 23 -27q16 -23 -4 -39
q-21 -17 -55 -30q-15 -6 -31 8q-2 1 -10 8t-12 11q-35 27 -78.5 24t-73.5 -35q-26 -27 -24 -64.5t30 -61.5q22 -19 60 -29q83 -23 89 -25q48 -17 82 -45q59 -50 68 -133q9 -79 -38 -140q-57 -75 -155 -91q-33 -5 -39 -4z" />
    <glyph glyph-name="T" unicode="T" horiz-adv-x="510" 
d="M200 309v264q0 19 -5 26q-11 13 -30 13q-40 -1 -73 0q-37 0 -39 36q0 22 1 38q2 33 35 33q173 1 333 0q33 0 35 -33q0 -22 -1 -42q-1 -31 -33 -32q-7 -1 -36.5 -0.5t-36.5 0.5q-16 -1 -24 -4.5t-12 -12t-4 -24.5q0 -426 1 -519q0 -31 -12.5 -42t-39.5 -9h-12h-11
q-34 2 -36 36v19v142.5v110.5z" />
    <glyph glyph-name="U" unicode="U" horiz-adv-x="580" 
d="M521 436v-221q0 -87 -54 -148.5t-139 -73.5q-126 -16 -214 73q-54 56 -55 135v474q0 10 1 15q5 27 31 28q24 1 46 0q30 -2 32 -32v-19q0 -402 -1 -445q-1 -56 34.5 -87.5t84.5 -33.5q22 -1 42 4.5t35.5 16.5t26.5 27t16 36q4 12 4 41v439q-1 30 9.5 43t42.5 10h13h14
q28 -2 31 -31v-19v-232z" />
    <glyph glyph-name="V" unicode="V" horiz-adv-x="600" 
d="M302 0h-36q-24 0 -37 26q-1 2 -5 16q-17 62 -172 630q0 1 -1 4l-2 6q-3 15 4 25t22 11q25 2 53 0q29 -1 38 -36q8 -31 31 -124q79 -323 89 -363q0 -2 0.5 -4l1 -4l1 -4t1.5 -3l2.5 -2.5t3.5 -2t5 -0.5t5.5 1.5t4 4t2 4.5t1 5.5t1.5 5.5q13 52 65 264q47 191 54 219
q5 22 16 31t34 9h29q26 0 34 -11t2 -35q-45 -164 -144 -525q-3 -14 -8.5 -34.5t-10.5 -39t-10 -33.5q-3 -13 -6 -18q-12 -23 -35 -23h-33z" />
    <glyph glyph-name="W" unicode="W" horiz-adv-x="800" 
d="M545 1h-42q-33 0 -40 32q-4 14 -17 84q-5 26 -33 181q0 1 -1 2q0 3 -0.5 4t-1 5t-1.5 7t-2 6.5t-3 5.5t-4 2q-6 -1 -11 -26q-10 -48 -12 -57q-5 -28 -18 -99t-20 -109q-3 -14 -8.5 -22.5t-14.5 -12t-23 -3.5h-77q-21 0 -31.5 8.5t-14.5 29.5q-11 57 -29 152
q-33 179 -65 354q-18 96 -25 136q-3 17 5 27t25 11q18 1 50 0q35 -1 41 -34q4 -22 16 -101q8 -55 26.5 -174t27.5 -182q2 -10 4 -16q5 -16 10 -15q4 0 9 16q0 1 1 9q61 384 71 454q4 22 17 33.5t32 9.5h15h15q20 0 31 -9t14 -30q8 -50 33 -208q6 -38 19 -119.5t20 -124.5
q0 -4 3 -15q4 -16 8 -16q7 0 11 17q5 29 8 45q12 80 34 226t30 196q6 37 42 38q23 1 46 0q41 -1 34 -42q-11 -58 -31 -166t-28 -151q-11 -56 -30.5 -161t-27.5 -152q-3 -13 -4 -18q-4 -14 -13.5 -21t-23.5 -7h-23h-23z" />
    <glyph glyph-name="X" unicode="X" horiz-adv-x="580" 
d="M100 1h-29q-17 1 -23 11t1 25q10 19 46 86q13 24 28 52t27 50t28 52t27 51q1 1 3.5 6l3.5 7q18 28 1 59q-11 19 -67 124q-67 123 -84 156q-10 19 -3.5 29t28.5 11q7 0 20.5 -0.5t21.5 -0.5q36 1 53 -32q16 -30 65 -121q20 -37 25 -46q18 -32 36 0q20 36 86 159
q9 17 16 24q16 16 35 16q4 0 26 0.5t26 -0.5q18 0 24 -10.5t-2 -26.5q-23 -44 -115 -215q-30 -56 -37 -67q-16 -29 0 -58q14 -25 111 -207q48 -90 51 -95q9 -18 3 -28t-27 -11q-4 0 -20.5 0.5t-20.5 -0.5q-37 -3 -56 33q-7 14 -61 115q-10 18 -37 68q-2 4 -3 5
q-8 14 -17.5 14t-16.5 -14q-5 -8 -33 -60q-11 -21 -33.5 -63t-33.5 -62q-4 -7 -6 -11q-17 -27 -44 -25h-23z" />
    <glyph glyph-name="Y" unicode="Y" horiz-adv-x="580" 
d="M236 125v69q1 33 -14 69q-52 124 -173 415q-7 15 -6 20q1 8 8.5 14.5t16.5 6.5q42 1 65 0q25 -1 36 -31q10 -27 36 -98q6 -15 31 -83.5t38 -105.5q1 -1 2 -4t1.5 -5t2 -4.5t3 -3.5t4 -2t5.5 -1t5.5 1t4 3.5t2.5 4.5t2 5.5t2 5.5q17 48 48.5 137.5t43.5 122.5q9 25 13 33
q12 26 39 26q9 -1 28.5 -0.5t28.5 -0.5q18 0 25 -10.5t0 -26.5q-25 -60 -114 -273q-38 -91 -64 -154q-10 -23 -10 -51v-153v-19q-2 -15 -11 -23t-24 -9h-35q-23 1 -31.5 10t-8.5 31v84z" />
    <glyph glyph-name="Z" unicode="Z" horiz-adv-x="540" 
d="M270 0h-168q-17 0 -23 3q-18 8 -19 27q-1 39 1 63q0 16 15 41q51 91 245 436q6 10 7 11q4 10 0.5 17.5t-15.5 9.5h-19h-87.5h-90.5q-14 0 -18 1q-29 4 -30 32q-1 23 0 44q1 30 31 33q4 1 17 1h308q13 0 17 -1q29 -3 31 -31q4 -71 -22 -115q-29 -50 -212 -375
q-28 -49 -33 -59q-6 -12 -1 -20.5t19 -9.5h31h184q23 0 32.5 -9.5t9.5 -32.5v-31q-3 -34 -37 -35h-173z" />
    <glyph glyph-name="bracketleft" unicode="[" horiz-adv-x="350" 
d="M176 719h66q14 0 22.5 -4.5t13 -13t4.5 -22.5q1 -13 0 -27q0 -15 -4.5 -24.5t-14 -14t-25.5 -4.5h-15.5h-15.5q-15 -1 -21.5 -7.5t-7.5 -20.5v-17v-408v-11q0 -20 7.5 -27t27.5 -7h16h16q35 -3 37 -37q1 -18 0 -38q-2 -35 -35 -35q-70 -1 -145 0q-33 0 -34 34q-1 2 -1 16
v618q0 14 1 16q1 33 34 34h74z" />
    <glyph glyph-name="backslash" unicode="\" horiz-adv-x="360" 
d="M99 719q33 2 45.5 -8.5t19.5 -41.5q18 -77 146 -624q4 -19 1 -26q-4 -9 -10.5 -13.5t-15.5 -4.5l-42 -1q-17 -1 -29 9.5t-15 24.5q-1 4 -16 68q-44 188 -121 520q-13 52 -14 57q-8 39 33 40h9h9z" />
    <glyph glyph-name="bracketright" unicode="]" horiz-adv-x="350" 
d="M283 361v-306q0 -18 -1 -23q-2 -13 -10.5 -21.5t-21.5 -8.5q-75 -1 -151 0q-14 0 -22 9t-9 23q-1 20 0 42q1 34 36 36h17.5h17.5q7 0 12.5 1.5t9.5 3.5t6.5 6t3.5 9.5t1 12.5v117v302v19q-2 25 -26 26q-7 1 -18 1h-18q-23 0 -32.5 9.5t-9.5 32.5q-1 23 0 33q1 35 33 35
q74 1 147 0q31 0 34 -32q1 -5 1 -21v-306z" />
    <glyph glyph-name="asciicircum" unicode="^" horiz-adv-x="350" 
d="M169 719h29q32 1 44 -29q18 -46 38 -104q4 -13 -2.5 -23t-20.5 -12q-19 -2 -44 0q-17 2 -32 24q-8 12 -14 12.5t-13 -11.5q-18 -28 -49 -26h-14t-13 1q-8 1 -13.5 4t-8.5 8t-3.5 11t2.5 13q19 58 37 102q12 31 43 30h34z" />
    <glyph glyph-name="underscore" unicode="_" horiz-adv-x="435" 
d="M217 0h-117q-23 1 -32.5 10.5t-9.5 31.5q-1 17 0 27q0 14 4.5 23t13.5 13.5t24 5.5h23h203q16 0 21 -1q28 -4 30 -32q1 -15 0 -42q-1 -35 -37 -36h-123z" />
    <glyph glyph-name="a" unicode="a" horiz-adv-x="600" 
d="M298 147h-71q-33 0 -42 -33q-3 -13 -9.5 -39l-9.5 -38q-5 -19 -15.5 -27.5t-29.5 -8.5q-34 -1 -44 0q-17 0 -24.5 10t-2.5 26q26 99 70 259q16 59 102 375q5 16 6 18q11 30 41 30h56q21 0 32.5 -9t17.5 -30q9 -33 34 -123q57 -208 135 -497q7 -23 7 -28q3 -12 -3.5 -21
t-18.5 -10q-35 -2 -61 0t-33 31q-4 14 -10.5 42t-7.5 31q-3 13 -5 16q-10 26 -36 26h-78zM300 255h48q29 2 25 31q-1 0 -3 10q-42 171 -56 230q-2 8 -4 12q-4 6 -10 6t-10 -6q-2 -4 -4 -14q-2 -6 -5 -18.5t-4 -18.5q-3 -10 -20.5 -80.5t-26.5 -107.5q-6 -26 1 -35t33 -9h36z
" />
    <glyph glyph-name="b" unicode="b" horiz-adv-x="561" 
d="M56 359v307v19q2 31 33 34h19q178 0 188 1q79 2 128.5 -44.5t64.5 -113.5q17 -82 -22 -159q-3 -6 -4 -7q-15 -24 4 -48q38 -46 45 -107q15 -122 -67 -197q-47 -44 -108 -43q-182 0 -236 -1q-26 0 -36 11t-10 34q1 42 1 314zM166 208v-67q1 -32 32 -32q71 -1 123 0
q51 1 73 48q19 41 5 87q-18 61 -80 62q-41 1 -119 0q-33 0 -34 -33v-65zM166 511v-65q1 -31 31 -32q69 -1 107 1q46 1 67 45q19 36 9 80q-6 30 -29.5 51t-58.5 18h-84q-27 0 -34.5 -8t-7.5 -35v-55z" />
    <glyph glyph-name="c" unicode="c" horiz-adv-x="539" 
d="M162 357v-141q0 -48 27.5 -79t75.5 -37q74 -9 125 36q14 13 25 13.5t27 -11.5q22 -17 31 -25q13 -12 13.5 -22.5t-11.5 -23.5q-58 -65 -150 -76q-86 -11 -155 26q-118 63 -118 192v291q-2 54 20.5 99t56.5 72.5t77 40.5q142 45 255 -50q8 -7 15 -15q21 -25 -4 -47
q-13 -12 -35 -27q-21 -14 -42 1q-2 1 -3.5 2.5t-3.5 3t-3 2.5q-75 59 -161 19q-62 -28 -62 -96v-148z" />
    <glyph glyph-name="d" unicode="d" 
d="M516 356v-145q-1 -78 -39 -132q-56 -80 -146 -79q-6 1 -112.5 1h-111.5q-24 0 -33.5 9t-9.5 33q-1 300 0 633q0 23 9.5 33t33.5 10q157 1 184 0q137 -5 200 -116q25 -43 25 -98v-149zM174 360v-215q0 -19 8.5 -27.5t26.5 -9.5h109q60 1 80 59q8 22 8 41v296q-1 59 -56 89
q-24 14 -48 15q-41 1 -100 0q-24 0 -28 -26v-19v-203z" />
    <glyph glyph-name="e" unicode="e" horiz-adv-x="520" 
d="M63 359v306q0 17 1 21q3 29 32 32h15h308h16q30 -4 31 -34q1 -22 0 -44q-1 -28 -30 -32h-20h-102h-101q-23 0 -31 -8.5t-9 -30.5q0 -64 1 -119q0 -13 3.5 -21t11.5 -12t21 -4h54h53q25 0 34.5 -9.5t9.5 -34.5v-29q-2 -37 -38 -38h-101h-19q-28 -2 -29 -29q-1 -5 -1 -44
v-84q1 -20 9.5 -29t28.5 -9h207h19q27 -3 29 -28q2 -24 0 -50q-2 -27 -30 -29h-13h-316q-25 0 -34.5 9t-9.5 34v316z" />
    <glyph glyph-name="f" unicode="f" horiz-adv-x="520" 
d="M63 360v303v21q3 32 36 34q2 1 12 1h308q13 0 17 -1q29 -4 30 -34q1 -20 0 -41q-1 -32 -32 -35h-21h-100.5h-100.5q-22 0 -30 -8t-8 -31q-1 -60 0 -117q0 -21 8 -29.5t29 -8.5h54.5h54.5q22 -1 31 -10t10 -31v-32q-2 -38 -39 -39h-54.5h-54.5q-23 0 -31 -8t-9 -32v-107.5
v-108.5v-18q-2 -12 -9 -19.5t-19 -7.5q-25 -2 -52 -1q-25 2 -29 29q-1 6 -1 23v308z" />
    <glyph glyph-name="g" unicode="g" horiz-adv-x="570" 
d="M54 360v140q-3 80 42 135.5t111 76.5q143 46 257 -50q9 -8 16 -17q17 -22 -2 -41q-17 -17 -45 -34q-14 -8 -28 0q-6 3 -17 12q-74 59 -161 20q-63 -28 -63 -98q1 -207 0 -289q-1 -49 26.5 -76.5t69.5 -36.5q69 -14 115 33q28 28 30 65q2 32 0 72q0 28 -30 29h-32.5h-32.5
q-24 1 -33.5 10.5t-9.5 32.5q-1 25 0 33q1 35 35 35q11 1 104 1q66 0 74 -1q36 0 36 -35q1 -136 0 -180q-2 -71 -50 -128t-120 -73q-152 -33 -250 84q-41 49 -42 124v156z" />
    <glyph glyph-name="h" unicode="h" horiz-adv-x="581" 
d="M65 359v308v16q2 33 34 35q18 1 40 0q35 -1 36 -37v-75v-77t1 -76q0 -22 8 -30.5t30 -8.5q82 -1 155 0q20 0 28 8t8 28q0 4 1 216v21q3 29 31 31q25 2 48 0q29 -3 31 -34v-16v-618v-15q-1 -17 -9.5 -25.5t-25.5 -9.5h-40q-32 1 -35 33v19v100v105q0 15 -1 19
q-3 24 -27 26h-27h-136q-25 0 -32 -7.5t-7 -32.5q-1 -39 -1 -105v-106q0 -17 -1 -23q-4 -27 -31 -28q-24 -1 -46 0q-29 2 -32 30v19v310z" />
    <glyph glyph-name="i" unicode="i" horiz-adv-x="240" 
d="M65 360v305v19q2 32 33 34q21 2 43 0q31 -2 34 -33v-19v-614q0 -29 -9.5 -42t-42.5 -10h-13h-12q-31 2 -33 33v19v308z" />
    <glyph glyph-name="j" unicode="j" horiz-adv-x="510" 
d="M447 430v-234q0 -75 -47 -131.5t-122 -71.5q-67 -13 -131 19.5t-93 94.5q-14 31 16 45q13 6 47 16q17 5 31 -9q3 -4 16 -20q20 -25 48 -34.5t58 0.5q28 9 46 33t20 54q1 7 1 28v218v229q0 32 9.5 41.5t41.5 9.5h21q38 -1 38 -39v-249z" />
    <glyph glyph-name="k" unicode="k" horiz-adv-x="573" 
d="M65 359v306v21q3 30 33 32q12 1 38 1q20 -1 29.5 -10.5t9.5 -29.5v-187v-27q0 -9 4 -14q8 -14 18 -2q4 4 18 23q121 168 155 216q24 33 60 31h48q12 0 19 -4q20 -11 8 -29q-7 -9 -37 -49q-20 -25 -42.5 -54t-49 -63.5t-41.5 -54.5q-1 -1 -2.5 -3t-2.5 -4q-23 -26 -5 -58
q14 -25 40 -73.5t30 -56.5q18 -34 39 -72.5l45 -82.5t39 -72q4 -7 6 -11q3 -8 2 -15t-6.5 -11.5t-14.5 -4.5q-31 -2 -71 0q-15 0 -29 19q-5 7 -12 22q-12 24 -26 51.5t-27 54t-26 52t-27 54t-26 51.5q-12 25 -22 25.5t-27 -20.5q-9 -12 -14 -18.5t-9.5 -13t-6.5 -12t-4 -9
t-2 -11t-0.5 -11t-0.5 -15v-19.5v-152v-17q-2 -30 -32 -32q-20 -1 -44 0q-30 1 -33 31q-1 5 -1 23v305z" />
    <glyph glyph-name="l" unicode="l" horiz-adv-x="530" 
d="M63 361v308v19q2 29 31 30q21 1 46 0q28 -1 32 -29q1 -6 1 -25v-265v-242q0 -32 7.5 -39.5t39.5 -7.5h64h68h64h21q27 -4 29 -31q2 -23 0 -48q0 -13 -8.5 -21t-22.5 -10h-14h-311h-17q-28 4 -30 32v19v310z" />
    <glyph glyph-name="m" unicode="m" horiz-adv-x="666" 
d="M602 359v-306v-18q-2 -31 -31 -34q-22 -1 -46 0q-30 2 -33 32v21v125.5v147.5q0 10 -1 21q-1 15 -6 16q-3 1 -5 -0.5t-3 -3.5t-1.5 -5.5t-1.5 -4.5q-3 -8 -6 -22q-9 -38 -21 -88.5t-24 -102t-22 -88.5q-3 -13 -4 -16q-12 -28 -40 -28h-44q-36 1 -45 36l-46 185
q-3 13 -7.5 33t-8.5 39.5t-8 33.5v1.5t-1 2.5q0 2 -2.5 10.5t-5 13.5t-6.5 4q-5 -1 -7 -6.5t-1.5 -15t0.5 -10.5v-16v-271q0 -25 -10 -34.5t-34 -9.5h-34q-29 3 -32 32q-1 4 -1 19v616q0 28 10 41t41 11q1 -1 23 -1h23q21 0 32 -8t17 -28q3 -12 25 -93q13 -48 40 -148
t41 -151l4 -14q1 -1 2 -5t1.5 -6.5t2 -5.5t3.5 -4.5t4.5 -1.5t4.5 2t3.5 5t2.5 5.5t1.5 6t1.5 4.5q1 5 4 14q13 46 32.5 119.5t37 137.5t32.5 119q6 20 8 26q11 26 37 26q50 1 69 0q34 -1 35 -35v-88v-237z" />
    <glyph glyph-name="n" unicode="n" horiz-adv-x="583" 
d="M523 361v-306q0 -15 -1 -17q-1 -36 -37 -37h-18h-18q-27 -2 -46 24q-2 4 -9 17q-27 52 -92 179.5t-101 196.5q-7 14 -10 18q-4 5 -10 4t-8 -7q-2 -5 -2 -23v-356v-19q-2 -31 -31 -34q-23 -1 -48 0q-28 2 -31 32q-1 4 -1 19v617q0 13 1 17q3 32 35 33h20.5t21.5 1
q24 1 41 -21q5 -7 12 -19q28 -55 60 -117.5t70 -136.5t60 -117q6 -13 10.5 -20.5t12.5 -4.5q7 2 7 9q1 10 1 21v354q0 28 10 41t41 10h14h14q29 -2 31 -32q1 -2 1 -18v-308z" />
    <glyph glyph-name="o" unicode="o" 
d="M515 358v-148q0 -83 -54.5 -144.5t-136.5 -72.5q-127 -17 -215 73q-55 55 -56 134q-1 177 0 318q1 95 81 158q60 47 140.5 51.5t149.5 -42.5q89 -66 91 -173v-154zM163 358v-140v-2q-2 -42 21 -70t61 -39q67 -21 115.5 16.5t44.5 101.5q-1 23 -1 47.5t0.5 56.5t0.5 48
v129q0 48 -36 82q-37 34 -100 28q-32 -3 -56 -18t-37 -40t-13 -57v-143z" />
    <glyph glyph-name="p" unicode="p" horiz-adv-x="554" 
d="M61 360v306v23q4 30 34 30q170 1 201 -1q50 -2 96 -27.5t77.5 -74.5t31.5 -111v-26v-27.5v-25.5t-1 -27t-3 -26q-14 -95 -86 -144q-40 -28 -89 -28h-51h-51q-29 1 -40 -9t-9 -41v-107q0 -24 -10 -33.5t-34 -9.5h-30q-34 2 -36 37v19v303zM171 461v-119q1 -32 33 -33
q55 -1 102 0q52 1 74 52q10 23 10 53v43t1 43q0 45 -28 73.5t-66 34.5q-20 3 -88 4q-21 0 -29.5 -8.5t-8.5 -29.5v-113z" />
    <glyph glyph-name="q" unicode="q" 
d="M515 358v-143q1 -105 -80 -173q-24 -20 -25 -29.5t19 -34t19 -37t-26 -31.5q-17 -14 -21 -17q-25 -19 -46 4q-4 3 -25 30l-28 35q-20 27 -56 32q-80 13 -137 71q-55 57 -56 136q-1 205 0 315q2 132 130 189q132 58 242 -21q88 -63 90 -172v-154zM163 359v-144
q-1 -39 20 -66t56 -40q68 -24 119.5 13t46.5 105q-1 18 -1 38t0.5 45.5t0.5 38.5v154q0 53 -39 87q-37 32 -98 26q-48 -4 -76 -35t-29 -79v-143z" />
    <glyph glyph-name="r" unicode="r" horiz-adv-x="550" 
d="M61 360v304v21q2 34 36 34h117h78q71 -3 129 -50t74 -115q4 -17 4 -27q5 -116 -3 -163q-14 -83 -79 -131q-4 -3 -7 -6q-11 -10 -12.5 -19t6.5 -23q9 -16 78 -141l4 -7q9 -11 2 -23t-19 -12q-42 -3 -67 0q-23 3 -37 29q-10 20 -66 128q-7 16 -8 17q-16 25 -43 25h-21h-21
q-35 -1 -35 -35v-61.5v-61.5t-9.5 -32.5t-32.5 -9.5q-24 -1 -33 0q-33 2 -35 34v21v304zM171 461v-119q0 -32 32 -33q54 -1 103 0q50 1 73 50q5 12 7 24q8 44 3 135q-2 34 -33 62q-23 21 -59 28q-18 3 -88 4q-14 0 -22.5 -4t-12 -12t-3.5 -22v-113z" />
    <glyph glyph-name="s" unicode="s" horiz-adv-x="530" 
d="M252 -9q-107 3 -175 64q-23 21 -22.5 35t25.5 33q7 6 20 15q15 10 26 10t25 -12q32 -26 69 -32q84 -13 133 42q25 28 22 67.5t-32 63.5q-30 23 -88 37q-67 16 -105 36q-61 32 -88 92.5t-12.5 125.5t67.5 108q68 56 154 52.5t149 -64.5q11 -11 23 -27q16 -23 -4 -39
q-21 -17 -55 -30q-15 -6 -31 8q-2 1 -10 8t-12 11q-35 27 -78.5 24t-73.5 -35q-26 -27 -24 -64.5t30 -61.5q22 -19 60 -29q83 -23 89 -25q48 -17 82 -45q59 -50 68 -133q9 -79 -38 -140q-57 -75 -155 -91q-33 -5 -39 -4z" />
    <glyph glyph-name="t" unicode="t" horiz-adv-x="510" 
d="M200 309v264q0 19 -5 26q-11 13 -30 13q-40 -1 -73 0q-37 0 -39 36q0 22 1 38q2 33 35 33q173 1 333 0q33 0 35 -33q0 -22 -1 -42q-1 -31 -33 -32q-7 -1 -36.5 -0.5t-36.5 0.5q-16 -1 -24 -4.5t-12 -12t-4 -24.5q0 -426 1 -519q0 -31 -12.5 -42t-39.5 -9h-12h-11
q-34 2 -36 36v19v142.5v110.5z" />
    <glyph glyph-name="u" unicode="u" horiz-adv-x="580" 
d="M521 436v-221q0 -87 -54 -148.5t-139 -73.5q-126 -16 -214 73q-54 56 -55 135v474q0 10 1 15q5 27 31 28q24 1 46 0q30 -2 32 -32v-19q0 -402 -1 -445q-1 -56 34.5 -87.5t84.5 -33.5q22 -1 42 4.5t35.5 16.5t26.5 27t16 36q4 12 4 41v439q-1 30 9.5 43t42.5 10h13h14
q28 -2 31 -31v-19v-232z" />
    <glyph glyph-name="v" unicode="v" horiz-adv-x="600" 
d="M302 0h-36q-24 0 -37 26q-1 2 -5 16q-17 62 -172 630q0 1 -1 4l-2 6q-3 15 4 25t22 11q25 2 53 0q29 -1 38 -36q8 -31 31 -124q79 -323 89 -363q0 -2 0.5 -4l1 -4l1 -4t1.5 -3l2.5 -2.5t3.5 -2t5 -0.5t5.5 1.5t4 4t2 4.5t1 5.5t1.5 5.5q13 52 65 264q47 191 54 219
q5 22 16 31t34 9h29q26 0 34 -11t2 -35q-45 -164 -144 -525q-3 -14 -8.5 -34.5t-10.5 -39t-10 -33.5q-3 -13 -6 -18q-12 -23 -35 -23h-33z" />
    <glyph glyph-name="w" unicode="w" horiz-adv-x="800" 
d="M545 1h-42q-33 0 -40 32q-4 14 -17 84q-5 26 -33 181q0 1 -1 2q0 3 -0.5 4t-1 5t-1.5 7t-2 6.5t-3 5.5t-4 2q-6 -1 -11 -26q-10 -48 -12 -57q-5 -28 -18 -99t-20 -109q-3 -14 -8.5 -22.5t-14.5 -12t-23 -3.5h-77q-21 0 -31.5 8.5t-14.5 29.5q-11 57 -29 152
q-33 179 -65 354q-18 96 -25 136q-3 17 5 27t25 11q18 1 50 0q35 -1 41 -34q4 -22 16 -101q8 -55 26.5 -174t27.5 -182q2 -10 4 -16q5 -16 10 -15q4 0 9 16q0 1 1 9q61 384 71 454q4 22 17 33.5t32 9.5h15h15q20 0 31 -9t14 -30q8 -50 33 -208q6 -38 19 -119.5t20 -124.5
q0 -4 3 -15q4 -16 8 -16q7 0 11 17q5 29 8 45q12 80 34 226t30 196q6 37 42 38q23 1 46 0q41 -1 34 -42q-11 -58 -31 -166t-28 -151q-11 -56 -30.5 -161t-27.5 -152q-3 -13 -4 -18q-4 -14 -13.5 -21t-23.5 -7h-23h-23z" />
    <glyph glyph-name="x" unicode="x" horiz-adv-x="580" 
d="M100 1h-29q-17 1 -23 11t1 25q10 19 46 86q13 24 28 52t27 50t28 52t27 51q1 1 3.5 6l3.5 7q18 28 1 59q-11 19 -67 124q-67 123 -84 156q-10 19 -3.5 29t28.5 11q7 0 20.5 -0.5t21.5 -0.5q36 1 53 -32q16 -30 65 -121q20 -37 25 -46q18 -32 36 0q20 36 86 159
q9 17 16 24q16 16 35 16q4 0 26 0.5t26 -0.5q18 0 24 -10.5t-2 -26.5q-23 -44 -115 -215q-30 -56 -37 -67q-16 -29 0 -58q14 -25 111 -207q48 -90 51 -95q9 -18 3 -28t-27 -11q-4 0 -20.5 0.5t-20.5 -0.5q-37 -3 -56 33q-7 14 -61 115q-10 18 -37 68q-2 4 -3 5
q-8 14 -17.5 14t-16.5 -14q-5 -8 -33 -60q-11 -21 -33.5 -63t-33.5 -62q-4 -7 -6 -11q-17 -27 -44 -25h-23z" />
    <glyph glyph-name="y" unicode="y" horiz-adv-x="580" 
d="M236 125v69q1 33 -14 69q-52 124 -173 415q-7 15 -6 20q1 8 8.5 14.5t16.5 6.5q42 1 65 0q25 -1 36 -31q10 -27 36 -98q6 -15 31 -83.5t38 -105.5q1 -1 2 -4t1.5 -5t2 -4.5t3 -3.5t4 -2t5.5 -1t5.5 1t4 3.5t2.5 4.5t2 5.5t2 5.5q17 48 48.5 137.5t43.5 122.5q9 25 13 33
q12 26 39 26q9 -1 28.5 -0.5t28.5 -0.5q18 0 25 -10.5t0 -26.5q-25 -60 -114 -273q-38 -91 -64 -154q-10 -23 -10 -51v-153v-19q-2 -15 -11 -23t-24 -9h-35q-23 1 -31.5 10t-8.5 31v84z" />
    <glyph glyph-name="z" unicode="z" horiz-adv-x="540" 
d="M270 0h-168q-17 0 -23 3q-18 8 -19 27q-1 39 1 63q0 16 15 41q51 91 245 436q6 10 7 11q4 10 0.5 17.5t-15.5 9.5h-19h-87.5h-90.5q-14 0 -18 1q-29 4 -30 32q-1 23 0 44q1 30 31 33q4 1 17 1h308q13 0 17 -1q29 -3 31 -31q4 -71 -22 -115q-29 -50 -212 -375
q-28 -49 -33 -59q-6 -12 -1 -20.5t19 -9.5h31h184q23 0 32.5 -9.5t9.5 -32.5v-31q-3 -34 -37 -35h-173z" />
    <glyph glyph-name="bar" unicode="|" horiz-adv-x="240" 
d="M65 360v325v19q2 32 33 34q21 2 43 0q31 -2 34 -33v-19v-654q0 -29 -9.5 -42t-42.5 -10h-13h-12q-31 2 -33 33v19v328z" />
    <glyph glyph-name="exclamdown" unicode="&#xa1;" horiz-adv-x="235" 
d="M176 81q-2 72 -5 330q0 20 -3 58q-1 14 -9.5 23t-22.5 10q-19 1 -37 -1q-28 -2 -32 -30q-1 -4 -1 -23q-5 -358 -5 -389q0 -9 -1.5 -29.5t-1.5 -31.5q1 -38 39 -39h42q37 1 37 37v85zM177 623v28q-1 13 -9.5 21.5t-21.5 9.5q-27 1 -55 0q-14 -1 -22.5 -9.5t-9.5 -22.5
q-2 -27 0 -52q2 -32 36 -34q24 -2 48 0q32 1 34 34v25z" />
    <glyph glyph-name="copyright" unicode="&#xa9;" horiz-adv-x="244" 
 />
    <glyph glyph-name="ordfeminine" unicode="&#xaa;" horiz-adv-x="381" 
d="M121 721h21q35 -3 37 -38q1 -22 0 -48q-1 -39 11 -74q5 -14 5 -22q-1 -10 -7.5 -14t-16.5 0q-4 2 -12 8q-6 5 -28.5 21.5t-35.5 25.5q-34 26 -31 63q1 2 1 18.5v18.5q0 21 9.5 30.5t29.5 10.5h17zM261 721h21q35 -3 37 -38q1 -22 0 -48q-1 -39 11 -74q5 -14 5 -22
q-1 -10 -7.5 -14t-16.5 0q-4 2 -12 8q-6 5 -28.5 21.5t-35.5 25.5q-34 26 -31 63q1 2 1 18.5v18.5q0 21 9.5 30.5t29.5 10.5h17z" />
    <glyph glyph-name="logicalnot" unicode="&#xac;" horiz-adv-x="700" 
 />
    <glyph glyph-name="ordmasculine" unicode="&#xba;" horiz-adv-x="381" 
d="M177 657v-19q1 -32 -25 -53q-16 -12 -77 -57q-13 -9 -21 -4q-9 6 -8 21q1 8 4 14q15 40 13 94q-1 18 0 34q2 31 31 33q24 2 50 0q30 -2 32 -34q1 -2 1 -29zM317 656v-19q1 -32 -26 -52q-17 -14 -77 -57q-12 -9 -20.5 -3t-7.5 20q1 7 3 10q17 44 13 113q-1 17 2 27.5
t10 16.5t17 8t24 1h13.5t13.5 -1q32 -3 34 -35q1 -1 1 -29z" />
    <glyph glyph-name="questiondown" unicode="&#xbf;" horiz-adv-x="495" 
d="M301 451q-2 -89 -65 -153q-4 -5 -18 -18.5t-22.5 -23t-15.5 -20.5q-27 -38 -26 -76q2 -30 23 -54.5t53 -32.5q61 -16 110 28q11 9 16 13q19 13 37 2q4 -1 18 -8.5t21 -12.5q31 -19 8 -48q-67 -87 -173 -89q-69 -1 -124.5 33.5t-81.5 94.5q-29 66 -6 134q19 57 61 104
q19 22 32 33q44 38 50 102q2 23 6.5 32.5t14.5 13.5t33 4q14 0 17 -1q30 -2 32 -32v-25zM307 629v-25q-3 -31 -32 -33q-27 -2 -54 0q-13 1 -22 9.5t-10 21.5q-2 27 0 56q1 13 9.5 21.5t22.5 8.5q26 2 54 0q14 0 22.5 -9t9.5 -23v-27z" />
    <glyph glyph-name="Agrave" unicode="&#xc0;" horiz-adv-x="600" 
d="M298 147h-71q-33 0 -42 -33q-3 -13 -9.5 -39l-9.5 -38q-5 -19 -15.5 -27.5t-29.5 -8.5q-34 -1 -44 0q-17 0 -24.5 10t-2.5 26q26 99 70 259q16 59 102 375q5 16 6 18q11 30 41 30h56q21 0 32.5 -9t17.5 -30q9 -33 34 -123q57 -208 135 -497q7 -23 7 -28q3 -12 -3.5 -21
t-18.5 -10q-35 -2 -61 0t-33 31q-4 14 -10.5 42t-7.5 31q-3 13 -5 16q-10 26 -36 26h-78zM300 255h48q29 2 25 31q-1 0 -3 10q-42 171 -56 230q-2 8 -4 12q-4 6 -10 6t-10 -6q-2 -4 -4 -14q-2 -6 -5 -18.5t-4 -18.5q-3 -10 -20.5 -80.5t-26.5 -107.5q-6 -26 1 -35t33 -9h36z
M230 912h36q30 1 41 -28q5 -14 17 -37t18 -40q4 -13 -2 -22t-19 -11q-16 -1 -36 0q-22 2 -36 22q-1 3 -8 11q-80 103 -22 105q5 -1 5.5 -0.5t5.5 0.5z" />
    <glyph glyph-name="Aacute" unicode="&#xc1;" horiz-adv-x="600" 
d="M298 147h-71q-33 0 -42 -33q-3 -13 -9.5 -39l-9.5 -38q-5 -19 -15.5 -27.5t-29.5 -8.5q-34 -1 -44 0q-17 0 -24.5 10t-2.5 26q26 99 70 259q16 59 102 375q5 16 6 18q11 30 41 30h56q21 0 32.5 -9t17.5 -30q9 -33 34 -123q57 -208 135 -497q7 -23 7 -28q3 -12 -3.5 -21
t-18.5 -10q-35 -2 -61 0t-33 31q-4 14 -10.5 42t-7.5 31q-3 13 -5 16q-10 26 -36 26h-78zM300 255h48q29 2 25 31q-1 0 -3 10q-42 171 -56 230q-2 8 -4 12q-4 6 -10 6t-10 -6q-2 -4 -4 -14q-2 -6 -5 -18.5t-4 -18.5q-3 -10 -20.5 -80.5t-26.5 -107.5q-6 -26 1 -35t33 -9h36z
M370 912h6h5q61 0 -21 -104q-8 -9 -9 -12q-14 -20 -36 -22q-20 -1 -36 0q-9 1 -14.5 6t-7.5 11.5t1 15.5q6 17 18 40t17 37q11 29 41 28h36z" />
    <glyph glyph-name="Acircumflex" unicode="&#xc2;" horiz-adv-x="600" 
d="M298 147h-71q-33 0 -42 -33q-3 -13 -9.5 -39l-9.5 -38q-5 -19 -15.5 -27.5t-29.5 -8.5q-34 -1 -44 0q-17 0 -24.5 10t-2.5 26q26 99 70 259q16 59 102 375q5 16 6 18q11 30 41 30h56q21 0 32.5 -9t17.5 -30q9 -33 34 -123q57 -208 135 -497q7 -23 7 -28q3 -12 -3.5 -21
t-18.5 -10q-35 -2 -61 0t-33 31q-4 14 -10.5 42t-7.5 31q-3 13 -5 16q-10 26 -36 26h-78zM300 255h48q29 2 25 31q-1 0 -3 10q-42 171 -56 230q-2 8 -4 12q-4 6 -10 6t-10 -6q-2 -4 -4 -14q-2 -6 -5 -18.5t-4 -18.5q-3 -10 -20.5 -80.5t-26.5 -107.5q-6 -26 1 -35t33 -9h36z
M302 912h27q30 1 41 -28q5 -14 17 -37t18 -40q4 -13 -2 -22t-19 -11q-18 -2 -41 0q-16 2 -30 22q-7 12 -12.5 12t-12.5 -11q-17 -26 -46 -24h-12.5t-12.5 1q-14 2 -20 11.5t-2 22.5q5 13 11 25.5t12.5 25t11.5 25.5q11 28 40 28h32z" />
    <glyph glyph-name="Adieresis" unicode="&#xc4;" horiz-adv-x="600" 
d="M298 147h-71q-33 0 -42 -33q-3 -13 -9.5 -39l-9.5 -38q-5 -19 -15.5 -27.5t-29.5 -8.5q-34 -1 -44 0q-17 0 -24.5 10t-2.5 26q26 99 70 259q16 59 102 375q5 16 6 18q11 30 41 30h56q21 0 32.5 -9t17.5 -30q9 -33 34 -123q57 -208 135 -497q7 -23 7 -28q3 -12 -3.5 -21
t-18.5 -10q-35 -2 -61 0t-33 31q-4 14 -10.5 42t-7.5 31q-3 13 -5 16q-10 26 -36 26h-78zM300 255h48q29 2 25 31q-1 0 -3 10q-42 171 -56 230q-2 8 -4 12q-4 6 -10 6t-10 -6q-2 -4 -4 -14q-2 -6 -5 -18.5t-4 -18.5q-3 -10 -20.5 -80.5t-26.5 -107.5q-6 -26 1 -35t33 -9h36z
M150 842.5v27.5q2 30 30 32q26 2 52 0q14 -1 22.5 -10t9.5 -23q1 -27 0 -53q-1 -14 -10 -22.5t-23 -8.5q-25 -2 -50 0q-5 0 -10 1.5t-8.5 4.5t-6 6.5t-4.5 8t-2 9.5v27.5zM336 842.5v27.5q2 30 30 32q26 2 52 0q14 -1 22.5 -10t9.5 -23q1 -27 0 -53q-1 -14 -10 -22.5
t-23 -8.5q-25 -2 -50 0q-7 0 -12.5 2.5t-9.5 6.5t-6 9.5t-3 11.5v27.5z" />
    <glyph glyph-name="AE" unicode="&#xc6;" horiz-adv-x="726" 
d="M671 79q2 -24 0 -50q-1 -13 -9 -20.5t-21 -8.5h-12h-277q-25 0 -34.5 9.5t-9.5 33.5v79q0 10 -7 17t-17 7h-57q-33 0 -42 -32q-3 -14 -9.5 -40l-9.5 -38q-5 -19 -15.5 -27.5t-29.5 -8.5h-44q-17 1 -24.5 10.5t-2.5 25.5q26 99 70 259q15 57 103 375q4 16 5 19
q11 29 41 29h56h31h268h16q30 -4 31 -33q1 -23 0 -44q-1 -29 -29 -33h-21h-82h-81q-23 0 -31 -8t-8 -31q-1 -64 0 -119q0 -13 3.5 -21t11.5 -12t21 -4h33.5h33.5q13 0 21 -2t13 -7.5t7.5 -13.5t2.5 -21v-29q-2 -37 -38 -38h-81h1q-27 -2 -29 -29q0 -5 -1 -44q0 -67 1 -83
q0 -21 8.5 -29.5t28.5 -8.5q14 -1 167 -1h19q27 -3 29 -28zM264 254h25q5 0 9.5 2.5t7 7t2.5 9.5v86v173q0 7 -7 9t-11 -4q-2 -4 -4 -14q-2 -5 -3.5 -11.5l-3 -13t-2.5 -11.5q-3 -11 -20.5 -81.5t-26.5 -107.5q-6 -26 1 -35t33 -9z" />
    <glyph glyph-name="Ccedilla" unicode="&#xc7;" horiz-adv-x="539" 
d="M472 113q10 -9 10.5 -22.5t-8.5 -23.5q-20 -22 -44 -38t-50.5 -25.5t-55.5 -12.5q-3 -1 -5 -1q-5 0 -2 -5l8 -10q20 -27 20 -65q0 -39 -27.5 -64.5t-70.5 -29.5q-16 -1 -27 9q-10 9 -10 29v6q0 24 7 31.5t23 9.5h1q9 1 9 9q0 9 -17 30h-1q-23 28 -26 50q-1 5 -4 9t-8 6
q-13 5 -25 12q-118 63 -118 192v291q-2 80 42.5 135.5t111.5 76.5q142 45 255 -50q8 -7 15 -15q21 -25 -4 -47q-13 -12 -35 -27q-21 -14 -42 1q-2 1 -5.5 4t-4.5 4q-75 59 -161 19q-62 -28 -62 -96v-145v-144q0 -48 27.5 -79t75.5 -37q74 -9 125 36q14 13 25 13.5t27 -11.5
q22 -17 31 -25z" />
    <glyph glyph-name="Egrave" unicode="&#xc8;" horiz-adv-x="520" 
d="M63 359v306q0 17 1 21q3 29 32 32h15h308h16q30 -4 31 -34q1 -22 0 -44q-1 -28 -30 -32h-20h-102h-101q-23 0 -31 -8.5t-9 -30.5q0 -64 1 -119q0 -20 8.5 -28.5t27.5 -8.5h54h53q25 0 34.5 -9.5t9.5 -34.5v-29q-2 -37 -38 -38h-101h-19q-27 -2 -29 -29q-1 -5 -1 -44v-84
q1 -20 9.5 -29t28.5 -9h207h19q27 -3 29 -28q2 -24 0 -50q-2 -27 -30 -29h-13h-316q-25 0 -34.5 9t-9.5 34v316zM195 912h36q30 1 41 -28l6 -14t6 -12.5t6 -11.5t6 -11.5t6 -13t5 -14.5q4 -13 -2 -22t-19 -11q-16 -1 -36 0q-22 2 -36 22q-1 3 -8 11q-80 103 -22 105
q5 -1 5.5 -0.5t5.5 0.5z" />
    <glyph glyph-name="Eacute" unicode="&#xc9;" horiz-adv-x="520" 
d="M63 359v306q0 17 1 21q3 29 32 32h15h308h16q30 -4 31 -34q1 -22 0 -44q-1 -28 -30 -32h-20h-102h-101q-23 0 -31 -8.5t-9 -30.5q0 -64 1 -119q0 -20 8.5 -28.5t27.5 -8.5h54h53q25 0 34.5 -9.5t9.5 -34.5v-29q-2 -37 -38 -38h-101h-19q-27 -2 -29 -29q-1 -5 -1 -44v-84
q1 -20 9.5 -29t28.5 -9h207h19q27 -3 29 -28q2 -24 0 -50q-2 -27 -30 -29h-13h-316q-25 0 -34.5 9t-9.5 34v316zM335 912h6h5q61 0 -21 -104q-8 -9 -9 -12q-14 -20 -36 -22q-20 -1 -36 0q-9 1 -14.5 6t-7.5 11.5t1 15.5q6 17 18 40t17 37q11 29 41 28h36z" />
    <glyph glyph-name="Ecircumflex" unicode="&#xca;" horiz-adv-x="520" 
d="M63 359v306q0 17 1 21q3 29 32 32h15h308h16q30 -4 31 -34q1 -22 0 -44q-1 -28 -30 -32h-20h-102h-101q-23 0 -31 -8.5t-9 -30.5q0 -64 1 -119q0 -20 8.5 -28.5t27.5 -8.5h54h53q25 0 34.5 -9.5t9.5 -34.5v-29q-2 -37 -38 -38h-101h-19q-27 -2 -29 -29q-1 -5 -1 -44v-84
q1 -20 9.5 -29t28.5 -9h207h19q27 -3 29 -28q2 -24 0 -50q-2 -27 -30 -29h-13h-316q-25 0 -34.5 9t-9.5 34v316zM267 912h27q30 1 41 -28q5 -14 17 -37t18 -40q4 -13 -2 -22t-19 -11q-18 -2 -41 0q-16 2 -30 22q-7 12 -12.5 12t-12.5 -11q-17 -26 -46 -24h-12.5t-12.5 1
q-14 2 -20 11.5t-2 22.5q5 13 11 25.5t12.5 25t11.5 25.5q11 28 40 28h32z" />
    <glyph glyph-name="Edieresis" unicode="&#xcb;" horiz-adv-x="520" 
d="M63 359v306q0 17 1 21q3 29 32 32h15h308h16q30 -4 31 -34q1 -22 0 -44q-1 -28 -30 -32h-20h-102h-101q-23 0 -31 -8.5t-9 -30.5q0 -64 1 -119q0 -20 8.5 -28.5t27.5 -8.5h54h53q25 0 34.5 -9.5t9.5 -34.5v-29q-2 -37 -38 -38h-101h-19q-27 -2 -29 -29q-1 -5 -1 -44v-84
q1 -20 9.5 -29t28.5 -9h207h19q27 -3 29 -28q2 -24 0 -50q-2 -27 -30 -29h-13h-316q-25 0 -34.5 9t-9.5 34v316zM115 842.5v27.5q2 30 30 32q26 2 52 0q14 -1 22.5 -10t9.5 -23q1 -27 0 -53q-1 -14 -10 -22.5t-23 -8.5q-25 -2 -50 0q-7 0 -12.5 2.5t-9.5 6.5t-6 9.5t-3 11.5
v27.5zM301 842.5v27.5q2 30 30 32q26 2 52 0q14 -1 22.5 -10t9.5 -23q1 -27 0 -53q-1 -5 -2.5 -10t-4.5 -9t-7 -6.5t-8.5 -4t-10.5 -1.5q-25 -2 -50 0q-5 0 -10 1.5t-8.5 4.5t-6 6.5t-4.5 8t-2 9.5v27.5z" />
    <glyph glyph-name="Igrave" unicode="&#xcc;" horiz-adv-x="240" 
d="M65 360v305v19q2 32 33 34q21 2 43 0q31 -2 34 -33v-19v-614q0 -29 -9.5 -42t-42.5 -10h-13h-12q-31 2 -33 33v19v308zM50 912h36q30 1 41 -28q5 -14 17 -37t18 -40q4 -13 -2 -22t-19 -11q-16 -1 -36 0q-22 2 -36 22q-1 3 -8 11q-80 103 -22 105q5 -1 5.5 -0.5t5.5 0.5z
" />
    <glyph glyph-name="Iacute" unicode="&#xcd;" horiz-adv-x="240" 
d="M65 360v305v19q2 32 33 34q21 2 43 0q31 -2 34 -33v-19v-614q0 -29 -9.5 -42t-42.5 -10h-13h-12q-31 2 -33 33v19v308zM190 912q5 0 5.5 -0.5t5.5 0.5q61 0 -21 -104q-8 -9 -9 -12q-14 -20 -36 -22q-20 -1 -36 0q-9 1 -14.5 6t-7.5 11.5t1 15.5q5 13 11 25.5t12.5 26
t11.5 25.5q11 29 41 28h36z" />
    <glyph glyph-name="Icircumflex" unicode="&#xce;" horiz-adv-x="240" 
d="M65 360v305v19q2 32 33 34q21 2 43 0q31 -2 34 -33v-19v-614q0 -29 -9.5 -42t-42.5 -10h-13h-12q-31 2 -33 33v19v308zM122 912h27q30 1 41 -28q5 -14 17 -37t18 -40q4 -13 -2 -22t-19 -11q-18 -2 -41 0q-16 2 -30 22q-7 12 -12.5 12t-12.5 -11q-17 -26 -46 -24h-12.5
t-12.5 1q-14 2 -20 11.5t-2 22.5q5 13 11 25.5t12.5 25t11.5 25.5q11 28 40 28h32z" />
    <glyph glyph-name="Idieresis" unicode="&#xcf;" horiz-adv-x="240" 
d="M65 360v305v19q2 32 33 34q21 2 43 0q31 -2 34 -33v-19v-614q0 -29 -9.5 -42t-42.5 -10h-13h-12q-31 2 -33 33v19v308zM-30 842.5v27.5q2 30 30 32q26 2 52 0q14 -1 22.5 -10t9.5 -23q1 -27 0 -53q-1 -14 -10 -22.5t-23 -8.5q-25 -2 -50 0q-5 0 -8.5 1t-7 3t-6 4.5
t-4.5 6t-3.5 7.5t-1.5 8v27.5zM156 842.5v27.5q2 30 30 32q26 2 52 0q14 -1 22.5 -10t9.5 -23q1 -27 0 -53q-1 -14 -10 -22.5t-23 -8.5q-25 -2 -50 0q-5 0 -8.5 1t-7 3t-6 4.5t-4.5 6t-3.5 7.5t-1.5 8v27.5z" />
    <glyph glyph-name="Ntilde" unicode="&#xd1;" horiz-adv-x="583" 
d="M523 361v-306v-17q-1 -36 -38 -37h-17.5h-17.5q-28 -2 -46 24q-3 4 -9 17q-27 52 -92.5 179.5t-100.5 196.5q-7 14 -10 18q-5 5 -10.5 4t-8.5 -7q-2 -5 -2 -23v-356v-19q-2 -31 -31 -34q-23 -1 -48 0q-27 2 -31 32v19v617v17q3 32 35 33h21.5t20.5 1q25 1 41 -21
q6 -7 12 -19q28 -55 60 -117.5t70 -136.5t60 -117q7 -13 11.5 -20.5t12.5 -4.5q6 2 7 9q1 10 1 21q0 296 -1 354q0 28 10.5 41t41.5 10h13.5h13.5q30 -2 32 -32v-18v-308zM436 895q10 -12 9 -27q-4 -44 -29.5 -71.5t-64.5 -27.5q-28 0 -45 5t-38 21l-2 2q-22 17 -30 17
q-12 0 -13 -10q-2 -16 -10.5 -23t-29.5 -7h-6q-20 0 -29 10q-11 12 -9 27q3 29 16 51t34 34.5t47 12.5q14 0 23.5 -0.5t20 -3.5t20.5 -8.5t21 -14.5h1q20 -18 29 -18q8 0 9 9v1q2 17 9.5 23.5t31.5 6.5h6q20 0 29 -9z" />
    <glyph glyph-name="Ograve" unicode="&#xd2;" 
d="M515 361v-151q0 -83 -54.5 -144.5t-136.5 -72.5q-127 -17 -215 73q-55 55 -56 134q-1 177 0 318q1 95 81 158q60 47 140.5 51.5t149.5 -42.5q89 -66 91 -173v-151zM163 361v-143v-2q-1 -28 10 -51t29.5 -37t42.5 -21q67 -21 115.5 16.5t44.5 101.5q-1 23 -1 47t0.5 55
t0.5 47v132q0 48 -36 82q-37 34 -100 28q-48 -4 -77 -35.5t-29 -79.5v-140zM214 909h36q30 1 41 -28q5 -12 11.5 -25.5t12.5 -26t11 -25.5q4 -13 -2 -22t-19 -11q-16 -1 -36 0q-22 2 -36 22q-1 3 -8 11q-80 103 -22 105q5 -1 5.5 -0.5t5.5 0.5z" />
    <glyph glyph-name="Oacute" unicode="&#xd3;" 
d="M515 361v-151q0 -83 -54.5 -144.5t-136.5 -72.5q-127 -17 -215 73q-55 55 -56 134q-1 177 0 318q1 95 81 158q60 47 140.5 51.5t149.5 -42.5q89 -66 91 -173v-151zM163 361v-143v-2q-1 -28 10 -51t29.5 -37t42.5 -21q67 -21 115.5 16.5t44.5 101.5q-1 23 -1 47t0.5 55
t0.5 47v132q0 48 -36 82q-37 34 -100 28q-48 -4 -77 -35.5t-29 -79.5v-140zM354 909h6h5q61 0 -21 -104q-8 -9 -9 -12q-14 -20 -36 -22q-20 -1 -36 0q-9 1 -14.5 6t-7.5 11.5t1 15.5q6 17 18 40t17 37q11 29 41 28h36z" />
    <glyph glyph-name="Ocircumflex" unicode="&#xd4;" 
d="M515 358v-148q0 -83 -54.5 -144.5t-136.5 -72.5q-127 -17 -215 73q-55 55 -56 134q-1 177 0 318q1 95 81 158q60 47 140.5 51.5t149.5 -42.5q89 -66 91 -173v-154zM163 358v-140v-2q-2 -42 21 -70t61 -39q67 -21 115.5 16.5t44.5 101.5q-1 23 -1 47.5t0.5 56.5t0.5 48
v129q0 48 -36 82q-37 34 -100 28q-32 -3 -56 -18t-37 -40t-13 -57v-143zM286 909h27q30 1 41 -28q5 -14 17 -37t18 -40q4 -13 -2 -22t-19 -11q-18 -2 -41 0q-16 2 -30 22q-7 12 -12.5 12t-12.5 -11q-17 -26 -46 -24h-12.5t-12.5 1q-14 2 -20 11.5t-2 22.5q5 13 11 25.5
t12.5 25t11.5 25.5q11 28 40 28h32z" />
    <glyph glyph-name="Odieresis" unicode="&#xd6;" 
d="M515 361v-151q0 -83 -54.5 -144.5t-136.5 -72.5q-127 -17 -215 73q-55 55 -56 134q-1 177 0 318q1 95 81 158q60 47 140.5 51.5t149.5 -42.5q89 -66 91 -173v-151zM163 361v-143v-2q-1 -28 10 -51t29.5 -37t42.5 -21q67 -21 115.5 16.5t44.5 101.5q-1 23 -1 48.5t0.5 58
t0.5 48.5v126q0 48 -36 82q-37 34 -100 28q-48 -4 -77 -35.5t-29 -79.5v-140zM134 839.5v27.5q2 30 30 32q26 2 52 0q14 -1 22.5 -10t9.5 -23q1 -27 0 -53q-1 -14 -10 -22.5t-23 -8.5q-25 -2 -50 0q-13 0 -21.5 8.5t-9.5 21.5v27.5zM320 839.5v27.5q2 30 30 32q26 2 52 0
q14 -1 22.5 -10t9.5 -23q1 -27 0 -53q-1 -14 -10 -22.5t-23 -8.5q-25 -2 -50 0q-13 0 -21.5 8.5t-9.5 21.5v27.5z" />
    <glyph glyph-name="Oslash" unicode="&#xd8;" 
d="M515 361v-151q0 -83 -54.5 -144.5t-136.5 -72.5q-127 -17 -215 73q-55 55 -56 134q-1 177 0 318q1 95 81 158q60 47 140.5 51.5t149.5 -42.5q89 -66 91 -173v-151zM163 361v-143v-2q-1 -28 10 -51t29.5 -37t42.5 -21q67 -21 115.5 16.5t44.5 101.5q-1 23 -1 47t0.5 55
t0.5 47v132q0 48 -36 82q-37 34 -100 28q-48 -4 -77 -35.5t-29 -79.5v-140zM169 -29h-3.5h-5.5q-18 2 -26 13t-3 28q1 5 31 109q17 61 40.5 142.5t43 147.5t43 147t41.5 143q6 21 10 27q14 16 35 15q7 -1 15.5 -0.5t15.5 0.5q42 -3 31 -44q-8 -26 -26.5 -88t-24.5 -84
q-134 -467 -147 -512q-6 -20 -12.5 -29t-16.5 -12t-31 -3h-5h-5z" />
    <glyph glyph-name="Ugrave" unicode="&#xd9;" horiz-adv-x="580" 
d="M521 436v-221q0 -87 -54 -148.5t-139 -73.5q-126 -16 -214 73q-54 56 -55 135v474q0 10 1 15q5 27 31 28q24 1 46 0q30 -2 32 -32v-19q0 -402 -1 -445q-1 -56 34.5 -87.5t84.5 -33.5q22 -1 42 4.5t35.5 16.5t26.5 27t16 36q4 12 4 41v439q-1 30 9.5 43t42.5 10h13h14
q28 -2 31 -31v-19v-232zM220 912h36q30 1 41 -28q5 -14 17 -37t18 -40q4 -13 -2 -22t-19 -11q-16 -1 -36 0q-22 2 -36 22q-1 3 -8 11q-80 103 -22 105q5 -1 5.5 -0.5t5.5 0.5z" />
    <glyph glyph-name="Uacute" unicode="&#xda;" horiz-adv-x="580" 
d="M521 439v-224q0 -87 -54 -148.5t-139 -73.5q-126 -16 -214 73q-54 56 -55 135v474q0 10 1 15q5 27 31 28q24 1 46 0q30 -2 32 -32v-19q0 -402 -1 -445q-1 -56 34.5 -87.5t84.5 -33.5q22 -1 42 4.5t35.5 16.5t26.5 27t16 36q4 12 4 41v439q-1 30 9.5 43t42.5 10h13h14
q28 -2 31 -31v-19v-229zM360 912h6h5q61 0 -21 -104q-8 -9 -9 -12q-14 -20 -36 -22q-20 -1 -36 0q-9 1 -14.5 6t-7.5 11.5t1 15.5q6 17 18 40t17 37q11 29 41 28h36z" />
    <glyph glyph-name="Ucircumflex" unicode="&#xdb;" horiz-adv-x="580" 
d="M521 436v-221q0 -87 -54 -148.5t-139 -73.5q-126 -16 -214 73q-54 56 -55 135v474q0 10 1 15q5 27 31 28q24 1 46 0q30 -2 32 -32v-19q0 -402 -1 -445q-1 -56 34.5 -87.5t84.5 -33.5q22 -1 42 4.5t35.5 16.5t26.5 27t16 36q4 12 4 41v439q-1 30 9.5 43t42.5 10h13h14
q28 -2 31 -31v-19v-232zM292 912h27q30 1 41 -28q5 -14 17 -37t18 -40q4 -13 -2 -22t-19 -11q-18 -2 -41 0q-16 2 -30 22q-7 12 -12.5 12t-12.5 -11q-17 -26 -46 -24h-12.5t-12.5 1q-14 2 -20 11.5t-2 22.5q4 10 8.5 20.5t8.5 17.5t9 17t9 21q11 28 40 28h32z" />
    <glyph glyph-name="Udieresis" unicode="&#xdc;" horiz-adv-x="580" 
d="M521 436v-221q0 -87 -54 -148.5t-139 -73.5q-126 -16 -214 73q-54 56 -55 135v474q0 10 1 15q5 27 31 28q24 1 46 0q30 -2 32 -32v-19q0 -402 -1 -445q-1 -56 34.5 -87.5t84.5 -33.5q22 -1 42 4.5t35.5 16.5t26.5 27t16 36q4 12 4 41v439q-1 30 9.5 43t42.5 10h13h14
q28 -2 31 -31v-19v-232zM140 842.5v27.5q2 30 30 32q26 2 52 0q14 -1 22.5 -10t9.5 -23q1 -27 0 -53q-1 -9 -5 -16t-11.5 -11t-16.5 -4q-25 -2 -50 0q-7 0 -12.5 2.5t-9.5 6.5t-6 9.5t-3 11.5v27.5zM326 842.5v27.5q2 30 30 32q26 2 52 0q5 -1 10 -2.5t8.5 -4.5t6.5 -7
t4.5 -9t2.5 -10q1 -27 0 -53q-1 -14 -10 -22.5t-23 -8.5q-25 -2 -50 0q-7 0 -12.5 2.5t-9.5 6.5t-6 9.5t-3 11.5v27.5z" />
    <glyph glyph-name="agrave" unicode="&#xe0;" horiz-adv-x="600" 
d="M298 147h-71q-33 0 -42 -33q-3 -13 -9.5 -39l-9.5 -38q-5 -19 -15.5 -27.5t-29.5 -8.5q-34 -1 -44 0q-17 0 -24.5 10t-2.5 26q26 99 70 259q16 59 102 375q5 16 6 18q11 30 41 30h56q21 0 32.5 -9t17.5 -30q9 -33 34 -123q57 -208 135 -497q7 -23 7 -28q3 -12 -3.5 -21
t-18.5 -10q-35 -2 -61 0t-33 31q-4 14 -10.5 42t-7.5 31q-3 13 -5 16q-10 26 -36 26h-78zM300 255h48q29 2 25 31q-1 0 -3 10q-42 171 -56 230q-2 8 -4 12q-4 6 -10 6t-10 -6q-2 -4 -4 -14q-2 -6 -5 -18.5t-4 -18.5q-3 -10 -20.5 -80.5t-26.5 -107.5q-6 -26 1 -35t33 -9h36z
M230 912h36q30 1 41 -28q5 -14 17 -37t18 -40q4 -13 -2 -22t-19 -11q-16 -1 -36 0q-22 2 -36 22q-1 3 -8 11q-80 103 -22 105q5 -1 5.5 -0.5t5.5 0.5z" />
    <glyph glyph-name="aacute" unicode="&#xe1;" horiz-adv-x="600" 
d="M298 147h-71q-33 0 -42 -33q-3 -13 -9.5 -39l-9.5 -38q-5 -19 -15.5 -27.5t-29.5 -8.5q-34 -1 -44 0q-17 0 -24.5 10t-2.5 26q26 99 70 259q16 59 102 375q5 16 6 18q11 30 41 30h56q21 0 32.5 -9t17.5 -30q9 -33 34 -123q57 -208 135 -497q7 -23 7 -28q3 -12 -3.5 -21
t-18.5 -10q-35 -2 -61 0t-33 31q-4 14 -10.5 42t-7.5 31q-3 13 -5 16q-10 26 -36 26h-78zM300 255h48q29 2 25 31q-1 0 -3 10q-42 171 -56 230q-2 8 -4 12q-4 6 -10 6t-10 -6q-2 -4 -4 -14q-2 -6 -5 -18.5t-4 -18.5q-3 -10 -20.5 -80.5t-26.5 -107.5q-6 -26 1 -35t33 -9h36z
M370 912h6h5q61 0 -21 -104q-8 -9 -9 -12q-14 -20 -36 -22q-20 -1 -36 0q-9 1 -14.5 6t-7.5 11.5t1 15.5q6 17 18 40t17 37q11 29 41 28h36z" />
    <glyph glyph-name="acircumflex" unicode="&#xe2;" horiz-adv-x="600" 
d="M298 147h-71q-33 0 -42 -33q-3 -13 -9.5 -39l-9.5 -38q-5 -19 -15.5 -27.5t-29.5 -8.5q-34 -1 -44 0q-17 0 -24.5 10t-2.5 26q26 99 70 259q16 59 102 375q5 16 6 18q11 30 41 30h56q21 0 32.5 -9t17.5 -30q9 -33 34 -123q57 -208 135 -497q7 -23 7 -28q3 -12 -3.5 -21
t-18.5 -10q-35 -2 -61 0t-33 31q-4 14 -10.5 42t-7.5 31q-3 13 -5 16q-10 26 -36 26h-78zM300 255h48q29 2 25 31q-1 0 -3 10q-42 171 -56 230q-2 8 -4 12q-4 6 -10 6t-10 -6q-2 -4 -4 -14q-2 -6 -5 -18.5t-4 -18.5q-3 -10 -20.5 -80.5t-26.5 -107.5q-6 -26 1 -35t33 -9h36z
M302 912h27q30 1 41 -28q5 -14 17 -37t18 -40q4 -13 -2 -22t-19 -11q-18 -2 -41 0q-16 2 -30 22q-7 12 -12.5 12t-12.5 -11q-17 -26 -46 -24h-12.5t-12.5 1q-14 2 -20 11.5t-2 22.5q5 13 11 25.5t12.5 25t11.5 25.5q11 28 40 28h32z" />
    <glyph glyph-name="adieresis" unicode="&#xe4;" horiz-adv-x="600" 
d="M298 147h-71q-33 0 -42 -33q-3 -13 -9.5 -39l-9.5 -38q-5 -19 -15.5 -27.5t-29.5 -8.5q-34 -1 -44 0q-17 0 -24.5 10t-2.5 26q26 99 70 259q16 59 102 375q5 16 6 18q11 30 41 30h56q21 0 32.5 -9t17.5 -30q9 -33 34 -123q57 -208 135 -497q7 -23 7 -28q3 -12 -3.5 -21
t-18.5 -10q-35 -2 -61 0t-33 31q-4 14 -10.5 42t-7.5 31q-3 13 -5 16q-10 26 -36 26h-78zM300 255h48q29 2 25 31q-1 0 -3 10q-42 171 -56 230q-2 8 -4 12q-4 6 -10 6t-10 -6q-2 -4 -4 -14q-2 -6 -5 -18.5t-4 -18.5q-3 -10 -20.5 -80.5t-26.5 -107.5q-6 -26 1 -35t33 -9h36z
M150 842.5v27.5q2 30 30 32q26 2 52 0q14 -1 22.5 -10t9.5 -23q1 -27 0 -53q-1 -14 -10 -22.5t-23 -8.5q-25 -2 -50 0q-5 0 -10 1.5t-8.5 4.5t-6 6.5t-4.5 8t-2 9.5v27.5zM336 842.5v27.5q2 30 30 32q26 2 52 0q14 -1 22.5 -10t9.5 -23q1 -27 0 -53q-1 -14 -10 -22.5
t-23 -8.5q-25 -2 -50 0q-7 0 -12.5 2.5t-9.5 6.5t-6 9.5t-3 11.5v27.5z" />
    <glyph glyph-name="ae" unicode="&#xe6;" horiz-adv-x="726" 
d="M671 79q2 -24 0 -50q-1 -13 -9 -20.5t-21 -8.5h-12h-277q-25 0 -34.5 9.5t-9.5 33.5v79q0 10 -7 17t-17 7h-57q-33 0 -42 -32q-3 -14 -9.5 -40l-9.5 -38q-5 -19 -15.5 -27.5t-29.5 -8.5h-44q-17 1 -24.5 10.5t-2.5 25.5q26 99 70 259q15 57 103 375q4 16 5 19
q11 29 41 29h56h31h268h16q30 -4 31 -33q1 -23 0 -44q-1 -29 -29 -33h-21h-82h-81q-23 0 -31 -8t-8 -31q-1 -64 0 -119q0 -13 3.5 -21t11.5 -12t21 -4h33.5h33.5q13 0 21 -2t13 -7.5t7.5 -13.5t2.5 -21v-29q-2 -37 -38 -38h-81h1q-27 -2 -29 -29q0 -5 -1 -44q0 -67 1 -83
q0 -21 8.5 -29.5t28.5 -8.5q14 -1 167 -1h19q27 -3 29 -28zM264 254h25q5 0 9.5 2.5t7 7t2.5 9.5v86v173q0 7 -7 9t-11 -4q-2 -4 -4 -14q-2 -5 -3.5 -11.5l-3 -13t-2.5 -11.5q-3 -11 -20.5 -81.5t-26.5 -107.5q-6 -26 1 -35t33 -9z" />
    <glyph glyph-name="ccedilla" unicode="&#xe7;" horiz-adv-x="539" 
d="M472 113q10 -9 10.5 -22.5t-8.5 -23.5q-20 -22 -44 -38t-50.5 -25.5t-55.5 -12.5q-3 -1 -5 -1q-5 0 -2 -5l8 -10q20 -27 20 -65q0 -39 -27.5 -64.5t-70.5 -29.5q-16 -1 -27 9q-10 9 -10 29v6q0 24 7 31.5t23 9.5h1q9 1 9 9q0 9 -17 30h-1q-23 28 -26 50q-1 5 -4 9t-8 6
q-13 5 -25 12q-118 63 -118 192v291q-2 80 42.5 135.5t111.5 76.5q142 45 255 -50q8 -7 15 -15q21 -25 -4 -47q-13 -12 -35 -27q-21 -14 -42 1q-2 1 -5.5 4t-4.5 4q-75 59 -161 19q-62 -28 -62 -96v-145v-144q0 -48 27.5 -79t75.5 -37q74 -9 125 36q14 13 25 13.5t27 -11.5
q22 -17 31 -25z" />
    <glyph glyph-name="egrave" unicode="&#xe8;" horiz-adv-x="520" 
d="M63 359v306q0 17 1 21q3 29 32 32h15h308h16q30 -4 31 -34q1 -22 0 -44q-1 -28 -30 -32h-20h-102h-101q-23 0 -31 -8.5t-9 -30.5q0 -64 1 -119q0 -20 8.5 -28.5t27.5 -8.5h54h53q25 0 34.5 -9.5t9.5 -34.5v-29q-2 -37 -38 -38h-101h-19q-27 -2 -29 -29q-1 -5 -1 -44v-84
q1 -20 9.5 -29t28.5 -9h207h19q27 -3 29 -28q2 -24 0 -50q-2 -27 -30 -29h-13h-316q-25 0 -34.5 9t-9.5 34v316zM195 912h36q30 1 41 -28l6 -14t6 -12.5t6 -11.5t6 -11.5t6 -13t5 -14.5q4 -13 -2 -22t-19 -11q-16 -1 -36 0q-22 2 -36 22q-1 3 -8 11q-80 103 -22 105
q5 -1 5.5 -0.5t5.5 0.5z" />
    <glyph glyph-name="eacute" unicode="&#xe9;" horiz-adv-x="520" 
d="M63 359v306q0 17 1 21q3 29 32 32h15h308h16q30 -4 31 -34q1 -22 0 -44q-1 -28 -30 -32h-20h-102h-101q-23 0 -31 -8.5t-9 -30.5q0 -64 1 -119q0 -20 8.5 -28.5t27.5 -8.5h54h53q25 0 34.5 -9.5t9.5 -34.5v-29q-2 -37 -38 -38h-101h-19q-27 -2 -29 -29q-1 -5 -1 -44v-84
q1 -20 9.5 -29t28.5 -9h207h19q27 -3 29 -28q2 -24 0 -50q-2 -27 -30 -29h-13h-316q-25 0 -34.5 9t-9.5 34v316zM335 912h6h5q61 0 -21 -104q-8 -9 -9 -12q-14 -20 -36 -22q-20 -1 -36 0q-9 1 -14.5 6t-7.5 11.5t1 15.5q6 17 18 40t17 37q11 29 41 28h36z" />
    <glyph glyph-name="ecircumflex" unicode="&#xea;" horiz-adv-x="520" 
d="M63 359v306q0 17 1 21q3 29 32 32h15h308h16q30 -4 31 -34q1 -22 0 -44q-1 -28 -30 -32h-20h-102h-101q-23 0 -31 -8.5t-9 -30.5q0 -64 1 -119q0 -20 8.5 -28.5t27.5 -8.5h54h53q25 0 34.5 -9.5t9.5 -34.5v-29q-2 -37 -38 -38h-101h-19q-27 -2 -29 -29q-1 -5 -1 -44v-84
q1 -20 9.5 -29t28.5 -9h207h19q27 -3 29 -28q2 -24 0 -50q-2 -27 -30 -29h-13h-316q-25 0 -34.5 9t-9.5 34v316zM267 912h27q30 1 41 -28q5 -14 17 -37t18 -40q4 -13 -2 -22t-19 -11q-18 -2 -41 0q-16 2 -30 22q-7 12 -12.5 12t-12.5 -11q-17 -26 -46 -24h-12.5t-12.5 1
q-14 2 -20 11.5t-2 22.5q5 13 11 25.5t12.5 25t11.5 25.5q11 28 40 28h32z" />
    <glyph glyph-name="edieresis" unicode="&#xeb;" horiz-adv-x="520" 
d="M63 359v306q0 17 1 21q3 29 32 32h15h308h16q30 -4 31 -34q1 -22 0 -44q-1 -28 -30 -32h-20h-102h-101q-23 0 -31 -8.5t-9 -30.5q0 -64 1 -119q0 -20 8.5 -28.5t27.5 -8.5h54h53q25 0 34.5 -9.5t9.5 -34.5v-29q-2 -37 -38 -38h-101h-19q-27 -2 -29 -29q-1 -5 -1 -44v-84
q1 -20 9.5 -29t28.5 -9h207h19q27 -3 29 -28q2 -24 0 -50q-2 -27 -30 -29h-13h-316q-25 0 -34.5 9t-9.5 34v316zM115 842.5v27.5q2 30 30 32q26 2 52 0q14 -1 22.5 -10t9.5 -23q1 -27 0 -53q-1 -14 -10 -22.5t-23 -8.5q-25 -2 -50 0q-7 0 -12.5 2.5t-9.5 6.5t-6 9.5t-3 11.5
v27.5zM301 842.5v27.5q2 30 30 32q26 2 52 0q14 -1 22.5 -10t9.5 -23q1 -27 0 -53q-1 -5 -2.5 -10t-4.5 -9t-7 -6.5t-8.5 -4t-10.5 -1.5q-25 -2 -50 0q-5 0 -10 1.5t-8.5 4.5t-6 6.5t-4.5 8t-2 9.5v27.5z" />
    <glyph glyph-name="igrave" unicode="&#xec;" horiz-adv-x="240" 
d="M65 360v305v19q2 32 33 34q21 2 43 0q31 -2 34 -33v-19v-614q0 -29 -9.5 -42t-42.5 -10h-13h-12q-31 2 -33 33v19v308zM50 912h36q30 1 41 -28q5 -14 17 -37t18 -40q4 -13 -2 -22t-19 -11q-16 -1 -36 0q-22 2 -36 22q-1 3 -8 11q-80 103 -22 105q5 -1 5.5 -0.5t5.5 0.5z
" />
    <glyph glyph-name="iacute" unicode="&#xed;" horiz-adv-x="240" 
d="M65 360v305v19q2 32 33 34q21 2 43 0q31 -2 34 -33v-19v-614q0 -29 -9.5 -42t-42.5 -10h-13h-12q-31 2 -33 33v19v308zM190 912q5 0 5.5 -0.5t5.5 0.5q61 0 -21 -104q-8 -9 -9 -12q-14 -20 -36 -22q-20 -1 -36 0q-9 1 -14.5 6t-7.5 11.5t1 15.5q5 13 11 25.5t12.5 26
t11.5 25.5q11 29 41 28h36z" />
    <glyph glyph-name="icircumflex" unicode="&#xee;" horiz-adv-x="240" 
d="M65 360v305v19q2 32 33 34q21 2 43 0q31 -2 34 -33v-19v-614q0 -29 -9.5 -42t-42.5 -10h-13h-12q-31 2 -33 33v19v308zM122 912h27q30 1 41 -28q5 -14 17 -37t18 -40q4 -13 -2 -22t-19 -11q-18 -2 -41 0q-16 2 -30 22q-7 12 -12.5 12t-12.5 -11q-17 -26 -46 -24h-12.5
t-12.5 1q-14 2 -20 11.5t-2 22.5q5 13 11 25.5t12.5 25t11.5 25.5q11 28 40 28h32z" />
    <glyph glyph-name="idieresis" unicode="&#xef;" horiz-adv-x="240" 
d="M65 360v305v19q2 32 33 34q21 2 43 0q31 -2 34 -33v-19v-614q0 -29 -9.5 -42t-42.5 -10h-13h-12q-31 2 -33 33v19v308zM-30 842.5v27.5q2 30 30 32q26 2 52 0q14 -1 22.5 -10t9.5 -23q1 -27 0 -53q-1 -14 -10 -22.5t-23 -8.5q-25 -2 -50 0q-5 0 -8.5 1t-7 3t-6 4.5
t-4.5 6t-3.5 7.5t-1.5 8v27.5zM156 842.5v27.5q2 30 30 32q26 2 52 0q14 -1 22.5 -10t9.5 -23q1 -27 0 -53q-1 -14 -10 -22.5t-23 -8.5q-25 -2 -50 0q-5 0 -8.5 1t-7 3t-6 4.5t-4.5 6t-3.5 7.5t-1.5 8v27.5z" />
    <glyph glyph-name="ntilde" unicode="&#xf1;" horiz-adv-x="583" 
d="M523 361v-306v-17q-1 -36 -38 -37h-17.5h-17.5q-28 -2 -46 24q-3 4 -9 17q-27 52 -92.5 179.5t-100.5 196.5q-7 14 -10 18q-5 5 -10.5 4t-8.5 -7q-2 -5 -2 -23v-356v-19q-2 -31 -31 -34q-23 -1 -48 0q-27 2 -31 32v19v617v17q3 32 35 33h21.5t20.5 1q25 1 41 -21
q6 -7 12 -19q28 -55 60 -117.5t70 -136.5t60 -117q7 -13 11.5 -20.5t12.5 -4.5q6 2 7 9q1 10 1 21q0 296 -1 354q0 28 10.5 41t41.5 10h13.5h13.5q30 -2 32 -32v-18v-308zM436 895q10 -12 9 -27q-4 -44 -29.5 -71.5t-64.5 -27.5q-28 0 -45 5t-38 21l-2 2q-22 17 -30 17
q-12 0 -13 -10q-2 -16 -10.5 -23t-29.5 -7h-6q-20 0 -29 10q-11 12 -9 27q3 29 16 51t34 34.5t47 12.5q14 0 23.5 -0.5t20 -3.5t20.5 -8.5t21 -14.5h1q20 -18 29 -18q8 0 9 9v1q2 17 9.5 23.5t31.5 6.5h6q20 0 29 -9z" />
    <glyph glyph-name="ograve" unicode="&#xf2;" 
d="M515 361v-151q0 -83 -54.5 -144.5t-136.5 -72.5q-127 -17 -215 73q-55 55 -56 134q-1 177 0 318q1 95 81 158q60 47 140.5 51.5t149.5 -42.5q89 -66 91 -173v-151zM163 361v-143v-2q-1 -28 10 -51t29.5 -37t42.5 -21q67 -21 115.5 16.5t44.5 101.5q-1 23 -1 47t0.5 55
t0.5 47v132q0 48 -36 82q-37 34 -100 28q-48 -4 -77 -35.5t-29 -79.5v-140zM214 909h36q30 1 41 -28q5 -12 11.5 -25.5t12.5 -26t11 -25.5q4 -13 -2 -22t-19 -11q-16 -1 -36 0q-22 2 -36 22q-1 3 -8 11q-80 103 -22 105q5 -1 5.5 -0.5t5.5 0.5z" />
    <glyph glyph-name="oacute" unicode="&#xf3;" 
d="M515 361v-151q0 -83 -54.5 -144.5t-136.5 -72.5q-127 -17 -215 73q-55 55 -56 134q-1 177 0 318q1 95 81 158q60 47 140.5 51.5t149.5 -42.5q89 -66 91 -173v-151zM163 361v-143v-2q-1 -28 10 -51t29.5 -37t42.5 -21q67 -21 115.5 16.5t44.5 101.5q-1 23 -1 47t0.5 55
t0.5 47v132q0 48 -36 82q-37 34 -100 28q-48 -4 -77 -35.5t-29 -79.5v-140zM354 909h6h5q61 0 -21 -104q-8 -9 -9 -12q-14 -20 -36 -22q-20 -1 -36 0q-9 1 -14.5 6t-7.5 11.5t1 15.5q6 17 18 40t17 37q11 29 41 28h36z" />
    <glyph glyph-name="ocircumflex" unicode="&#xf4;" 
d="M515 358v-148q0 -83 -54.5 -144.5t-136.5 -72.5q-127 -17 -215 73q-55 55 -56 134q-1 177 0 318q1 95 81 158q60 47 140.5 51.5t149.5 -42.5q89 -66 91 -173v-154zM163 358v-140v-2q-2 -42 21 -70t61 -39q67 -21 115.5 16.5t44.5 101.5q-1 23 -1 47.5t0.5 56.5t0.5 48
v129q0 48 -36 82q-37 34 -100 28q-32 -3 -56 -18t-37 -40t-13 -57v-143zM286 909h27q30 1 41 -28q5 -14 17 -37t18 -40q4 -13 -2 -22t-19 -11q-18 -2 -41 0q-16 2 -30 22q-7 12 -12.5 12t-12.5 -11q-17 -26 -46 -24h-12.5t-12.5 1q-14 2 -20 11.5t-2 22.5q5 13 11 25.5
t12.5 25t11.5 25.5q11 28 40 28h32z" />
    <glyph glyph-name="otilde" unicode="&#xf5;" horiz-adv-x="350" 
 />
    <glyph glyph-name="odieresis" unicode="&#xf6;" 
d="M515 361v-151q0 -83 -54.5 -144.5t-136.5 -72.5q-127 -17 -215 73q-55 55 -56 134q-1 177 0 318q1 95 81 158q60 47 140.5 51.5t149.5 -42.5q89 -66 91 -173v-151zM163 361v-143v-2q-1 -28 10 -51t29.5 -37t42.5 -21q67 -21 115.5 16.5t44.5 101.5q-1 23 -1 48.5t0.5 58
t0.5 48.5v126q0 48 -36 82q-37 34 -100 28q-48 -4 -77 -35.5t-29 -79.5v-140zM134 839.5v27.5q2 30 30 32q26 2 52 0q14 -1 22.5 -10t9.5 -23q1 -27 0 -53q-1 -14 -10 -22.5t-23 -8.5q-25 -2 -50 0q-13 0 -21.5 8.5t-9.5 21.5v27.5zM320 839.5v27.5q2 30 30 32q26 2 52 0
q14 -1 22.5 -10t9.5 -23q1 -27 0 -53q-1 -14 -10 -22.5t-23 -8.5q-25 -2 -50 0q-13 0 -21.5 8.5t-9.5 21.5v27.5z" />
    <glyph glyph-name="oslash" unicode="&#xf8;" 
d="M515 361v-151q0 -83 -54.5 -144.5t-136.5 -72.5q-127 -17 -215 73q-55 55 -56 134q-1 177 0 318q1 95 81 158q60 47 140.5 51.5t149.5 -42.5q89 -66 91 -173v-151zM163 361v-143v-2q-1 -28 10 -51t29.5 -37t42.5 -21q67 -21 115.5 16.5t44.5 101.5q-1 23 -1 47t0.5 55
t0.5 47v132q0 48 -36 82q-37 34 -100 28q-48 -4 -77 -35.5t-29 -79.5v-140zM169 -29h-3.5h-5.5q-18 2 -26 13t-3 28q1 5 31 109q17 61 40.5 142.5t43 147.5t43 147t41.5 143q6 21 10 27q14 16 35 15q7 -1 15.5 -0.5t15.5 0.5q42 -3 31 -44q-8 -26 -26.5 -88t-24.5 -84
q-134 -467 -147 -512q-6 -20 -12.5 -29t-16.5 -12t-31 -3h-5h-5z" />
    <glyph glyph-name="ugrave" unicode="&#xf9;" horiz-adv-x="580" 
d="M521 436v-221q0 -87 -54 -148.5t-139 -73.5q-126 -16 -214 73q-54 56 -55 135v474q0 10 1 15q5 27 31 28q24 1 46 0q30 -2 32 -32v-19q0 -402 -1 -445q-1 -56 34.5 -87.5t84.5 -33.5q22 -1 42 4.5t35.5 16.5t26.5 27t16 36q4 12 4 41v439q-1 30 9.5 43t42.5 10h13h14
q28 -2 31 -31v-19v-232zM220 912h36q30 1 41 -28q5 -14 17 -37t18 -40q4 -13 -2 -22t-19 -11q-16 -1 -36 0q-22 2 -36 22q-1 3 -8 11q-80 103 -22 105q5 -1 5.5 -0.5t5.5 0.5z" />
    <glyph glyph-name="uacute" unicode="&#xfa;" horiz-adv-x="580" 
d="M521 439v-224q0 -87 -54 -148.5t-139 -73.5q-126 -16 -214 73q-54 56 -55 135v474q0 10 1 15q5 27 31 28q24 1 46 0q30 -2 32 -32v-19q0 -402 -1 -445q-1 -56 34.5 -87.5t84.5 -33.5q22 -1 42 4.5t35.5 16.5t26.5 27t16 36q4 12 4 41v439q-1 30 9.5 43t42.5 10h13h14
q28 -2 31 -31v-19v-229zM360 912h6h5q61 0 -21 -104q-8 -9 -9 -12q-14 -20 -36 -22q-20 -1 -36 0q-9 1 -14.5 6t-7.5 11.5t1 15.5q6 17 18 40t17 37q11 29 41 28h36z" />
    <glyph glyph-name="ucircumflex" unicode="&#xfb;" horiz-adv-x="580" 
d="M521 436v-221q0 -87 -54 -148.5t-139 -73.5q-126 -16 -214 73q-54 56 -55 135v474q0 10 1 15q5 27 31 28q24 1 46 0q30 -2 32 -32v-19q0 -402 -1 -445q-1 -56 34.5 -87.5t84.5 -33.5q22 -1 42 4.5t35.5 16.5t26.5 27t16 36q4 12 4 41v439q-1 30 9.5 43t42.5 10h13h14
q28 -2 31 -31v-19v-232zM292 912h27q30 1 41 -28q5 -14 17 -37t18 -40q4 -13 -2 -22t-19 -11q-18 -2 -41 0q-16 2 -30 22q-7 12 -12.5 12t-12.5 -11q-17 -26 -46 -24h-12.5t-12.5 1q-14 2 -20 11.5t-2 22.5q4 10 8.5 20.5t8.5 17.5t9 17t9 21q11 28 40 28h32z" />
    <glyph glyph-name="udieresis" unicode="&#xfc;" horiz-adv-x="580" 
d="M521 436v-221q0 -87 -54 -148.5t-139 -73.5q-126 -16 -214 73q-54 56 -55 135v474q0 10 1 15q5 27 31 28q24 1 46 0q30 -2 32 -32v-19q0 -402 -1 -445q-1 -56 34.5 -87.5t84.5 -33.5q22 -1 42 4.5t35.5 16.5t26.5 27t16 36q4 12 4 41v439q-1 30 9.5 43t42.5 10h13h14
q28 -2 31 -31v-19v-232zM140 842.5v27.5q2 30 30 32q26 2 52 0q14 -1 22.5 -10t9.5 -23q1 -27 0 -53q-1 -9 -5 -16t-11.5 -11t-16.5 -4q-25 -2 -50 0q-7 0 -12.5 2.5t-9.5 6.5t-6 9.5t-3 11.5v27.5zM326 842.5v27.5q2 30 30 32q26 2 52 0q5 -1 10 -2.5t8.5 -4.5t6.5 -7
t4.5 -9t2.5 -10q1 -27 0 -53q-1 -14 -10 -22.5t-23 -8.5q-25 -2 -50 0q-7 0 -12.5 2.5t-9.5 6.5t-6 9.5t-3 11.5v27.5z" />
    <glyph glyph-name="quotedblleft" unicode="&#x201c;" horiz-adv-x="381" 
d="M121 721h21q35 -3 37 -38q1 -22 0 -48q-1 -39 11 -74q5 -14 5 -22q-1 -10 -7.5 -14t-16.5 0q-4 2 -12 8q-6 5 -28.5 21.5t-35.5 25.5q-34 26 -31 63q1 2 1 18.5v18.5q0 21 9.5 30.5t29.5 10.5h17zM261 721h21q35 -3 37 -38q1 -22 0 -48q-1 -39 11 -74q5 -14 5 -22
q-1 -10 -7.5 -14t-16.5 0q-4 2 -12 8q-6 5 -28.5 21.5t-35.5 25.5q-34 26 -31 63q1 2 1 18.5v18.5q0 21 9.5 30.5t29.5 10.5h17z" />
    <glyph glyph-name="quotedblright" unicode="&#x201d;" horiz-adv-x="381" 
d="M177 657v-19q1 -32 -25 -53q-16 -12 -77 -57q-13 -9 -21 -4q-9 6 -8 21q1 8 4 14q15 40 13 94q-1 18 0 34q2 31 31 33q24 2 50 0q30 -2 32 -34q1 -2 1 -29zM317 656v-19q1 -32 -26 -52q-17 -14 -77 -57q-12 -9 -20.5 -3t-7.5 20q1 7 3 10q17 44 13 113q-1 17 2 27.5
t10 16.5t17 8t24 1h13.5t13.5 -1q32 -3 34 -35q1 -1 1 -29z" />
    </font>
</defs>
</svg>
