<?xml version="1.0" standalone="no"?>
<!DOCTYPE svg PUBLIC "-//W3C//DTD SVG 1.1//EN" "http://www.w3.org/Graphics/SVG/1.1/DTD/svg11.dtd" >
<svg xmlns="http://www.w3.org/2000/svg" xmlns:xlink="http://www.w3.org/1999/xlink" version="1.1">
<metadata>
Created by FontForge 20170731 at Thu May 17 20:00:03 2007
 By Aleksey,,,
Copyright  1997, 2001, Berthold LLC. All rights reserved. Akzidenz-Grotesk is a trademark of Berthold Types Limited.
</metadata>
<defs>
<font id="AkzidenzGroteskBQ-XBold" horiz-adv-x="521" >
  <font-face 
    font-family="Akzidenz-Grotesk BQ Extra"
    font-weight="700"
    font-stretch="normal"
    units-per-em="1000"
    panose-1="0 0 0 0 0 0 0 0 0 0"
    ascent="800"
    descent="-200"
    x-height="533"
    cap-height="706"
    bbox="-80 -241 1163 928"
    underline-thickness="127"
    underline-position="-554"
    unicode-range="U+0020-2122"
  />
<missing-glyph horiz-adv-x="500" 
 />
    <glyph glyph-name=".notdef" horiz-adv-x="500" 
 />
    <glyph glyph-name=".null" horiz-adv-x="0" 
 />
    <glyph glyph-name="nonmarkingreturn" horiz-adv-x="333" 
 />
    <glyph glyph-name="space" unicode=" " horiz-adv-x="271" 
 />
    <glyph glyph-name="exclam" unicode="!" horiz-adv-x="292" 
d="M253 532l-27 -305h-123l-26 305v174h176v-174zM253 0h-176v153h176v-153z" />
    <glyph glyph-name="quotedbl" unicode="&#x22;" horiz-adv-x="323" 
d="M315 741l-49 -288h-40l-49 288h138zM145 741l-49 -288h-40l-49 288h138z" />
    <glyph glyph-name="numbersign" unicode="#" horiz-adv-x="583" 
d="M576 406h-105l-8 -96h102v-124h-113l-16 -186h-126l17 186h-99l-17 -186h-123l15 186h-96v124h107l8 96h-103v124h113l16 176h124l-15 -176h99l15 176h124l-14 -176h95v-124zM345 406h-98l-9 -96h99z" />
    <glyph glyph-name="dollar" unicode="$" 
d="M504 196q0 -68 -18 -107q-31 -63 -115 -87q-18 -5 -55 -10v-145h-108v145q-35 5 -55.5 9t-48.5 16t-47 31q-28 28 -36.5 63.5t-8.5 87.5v29h198v-46q0 -40 19 -52q11 -7 27 -7q35 0 45 29q3 12 3 29q0 27 -10.5 40.5t-48.5 41.5q-22 16 -66 46q-89 63 -111 89
q-23 27 -30 54.5t-7 69.5q0 36 3 45q9 76 72 115q30 18 102 32v122h108v-122q15 -2 30 -5.5t44.5 -13.5t54.5 -32t37 -52q13 -33 13 -92v-36h-186v46q0 15 -2 23q-9 29 -44 29q-44 0 -44 -44q0 -13 8 -29q8 -12 62 -51q74 -52 82 -58q50 -36 71 -57q28 -25 44 -55
q18 -34 18 -91z" />
    <glyph glyph-name="percent" unicode="%" horiz-adv-x="833" 
d="M805 124q0 -24 -1 -36t-7.5 -29t-19.5 -29q-42 -37 -127 -37q-121 0 -143 67q-7 20 -7 80v187q0 37 6 54q25 68 150 68q5 0 13.5 -0.5t12.5 -0.5q90 -6 115 -67q8 -20 8 -58v-199zM566 706l-214 -706h-87l214 706h87zM331 393q0 -23 -1 -35.5t-7.5 -29t-19.5 -28.5
q-40 -38 -127 -38q-119 0 -142 68q-8 22 -8 79v188q0 38 6 54q24 67 150 67q18 0 26 -1q91 -6 115 -66q8 -21 8 -59v-199zM687 107v232q0 36 -35 36q-32 0 -32 -35v-233v-3v-5.5t0.5 -5t1 -5.5t1.5 -5t2.5 -5t4.5 -4.5t6 -3.5t7.5 -2t9.5 -1q13 0 20.5 4t10 12.5t3 12
t0.5 11.5zM212 376v233q0 35 -35 35q-32 0 -32 -35v-233q0 -40 33 -40q17 0 25 9.5t8.5 14.5t0.5 16z" />
    <glyph glyph-name="ampersand" unicode="&#x26;" horiz-adv-x="604" 
d="M599 0h-133q-50 0 -81 16q-60 -26 -128 -26q-161 0 -216 84q-29 41 -29 100q0 44 19 82q14 29 40.5 56t46.5 41.5t57 37.5q-4 8 -12 22t-10 18q-4 6 -11.5 19t-11 19.5t-8.5 17.5t-7.5 19t-4 19.5t-1.5 23.5q0 23 8 47q16 44 58.5 75t119.5 31q109 0 163 -56
q40 -40 40 -100q0 -74 -71 -139q-20 -19 -56 -44l51 -87q9 40 12 79l138 -1q-3 -106 -39 -184q-9 -20 -25 -47q11 -14 18 -18.5t22 -4.5h51v-100zM365 552q0 20 -13.5 32t-33.5 12q-21 0 -33.5 -12t-12.5 -33q0 -15 5 -27q9 -23 31 -47q57 38 57 75zM319 134l-73 130l-7 -4
q-6 -3 -16 -10.5t-21.5 -24.5t-11.5 -35q0 -17 7 -31q22 -47 65 -47q22 0 57 22z" />
    <glyph glyph-name="quotesingle" unicode="'" horiz-adv-x="153" 
d="M145 741l-49 -288h-40l-49 288h138z" />
    <glyph glyph-name="parenleft" unicode="(" horiz-adv-x="333" 
d="M328 -201h-71q-210 0 -210 188v507q0 59 8 86q37 127 233 127h40v-68q-66 0 -86.5 -22t-20.5 -89v-543q0 -30 0.5 -43t8.5 -35.5t25 -33.5q18 -12 73 -12v-62z" />
    <glyph glyph-name="parenright" unicode=")" horiz-adv-x="333" 
d="M286 12q0 -60 -8 -87q-37 -126 -233 -126h-40v68q67 0 87 22t20 89v543q0 71 -19.5 98t-87.5 26v61h71q44 0 65 -4q145 -25 145 -185v-505z" />
    <glyph glyph-name="asterisk" unicode="*" horiz-adv-x="437" 
d="M423 516l-100 -34l61 -78l-97 -77l-68 86l-64 -87l-101 74l59 80l-100 29l35 119l105 -30v107h124v-107l106 36z" />
    <glyph glyph-name="plus" unicode="+" horiz-adv-x="558" 
d="M478 227h-106v-136h-184v136h-108v147h108v137h184v-137h106v-147z" />
    <glyph glyph-name="comma" unicode="," horiz-adv-x="250" 
d="M210 0l-90 -152h-65l53 152h-70v164h172v-164z" />
    <glyph glyph-name="hyphen" unicode="-" horiz-adv-x="361" 
d="M331 232h-302v137h302v-137z" />
    <glyph glyph-name="period" unicode="." horiz-adv-x="250" 
d="M211 0h-174v164h174v-164z" />
    <glyph glyph-name="slash" unicode="/" horiz-adv-x="333" 
d="M331 706l-178 -706h-152l180 706h150z" />
    <glyph glyph-name="zero" unicode="0" 
d="M489 187q0 -33 -2 -53.5t-12 -46t-30 -44.5q-56 -54 -179 -54q-17 0 -67 5q-1 0 -7.5 1t-11.5 2t-14.5 3t-17.5 4.5t-19 6.5t-19.5 9t-18.5 11.5t-18 14t-16 17.5t-13 21q-17 36 -17 103v343q0 61 15 93q43 95 210 95q123 0 185 -51q22 -17 33 -37q19 -33 19 -91v-352z
M309 151v400q0 17 -3 27q-10 28 -48 28q-50 0 -50 -57v-399q0 -51 50 -51q38 0 48 28q3 7 3 24z" />
    <glyph glyph-name="one" unicode="1" 
d="M368 0h-179v520q-49 -33 -104 -45v127q22 0 47 21q10 8 18.5 18t15 21t10.5 17.5t8 16.5l5 10h179v-706z" />
    <glyph glyph-name="two" unicode="2" 
d="M493 0h-462v66q0 82 30 132q8 14 16.5 25.5t22 25.5t19 20t24.5 23.5t22 20.5q24 23 67 62q7 7 19.5 18t18 16.5t13 13.5t12 14t6.5 11q6 13 6 44v57q0 30 -10.5 42.5t-39.5 11.5q-28 0 -38.5 -12.5t-10.5 -40.5v-113h-177v96q0 20 1 29q3 62 48 103q60 54 176 54
q121 0 178 -47q26 -22 38 -48q17 -37 17 -112q0 -50 -8 -81t-34 -63q-20 -25 -130 -125q-50 -44 -64 -67q-11 -18 -13 -39h253v-137z" />
    <glyph glyph-name="three" unicode="3" 
d="M487 196q0 -72 -8 -97q-19 -54 -82 -83q-56 -27 -141 -27q-29 0 -59 3q-124 16 -158 92q-12 25 -12 79v70h180v-73q0 -52 49 -52q18 0 29 5.5t15 16t5 16.5t1 17v87q0 28 -11 37.5t-39 9.5h-73v136h77q26 0 36 9t10 35v70q0 15 -3 23q-8 26 -47 26q-22 0 -33.5 -9
t-13.5 -17.5t-2 -21.5v-53h-173v44v7.5v9.5t0.5 10.5t1 12t2 12.5t3.5 13.5t5 13.5t7 14.5t9.5 13.5t11.5 14q56 57 181 57q120 0 181 -51q27 -23 39 -51q12 -29 12 -101q0 -58 -20 -90q-14 -21 -61 -55q43 -15 60 -35q21 -27 21 -89v-49z" />
    <glyph glyph-name="four" unicode="4" 
d="M500 150h-72v-150h-182v150h-226v134l204 422h204v-422h72v-134zM255 284v255l-118 -255h118z" />
    <glyph glyph-name="five" unicode="5" 
d="M488 188q0 -49 -9 -83.5t-37 -59.5q-63 -55 -184 -55q-136 0 -189 57q-39 42 -39 134v43h178v-74q0 -10 1 -16t4.5 -15.5t14 -14.5t27.5 -5q24 0 36 9t14 18t2 24v156q0 11 -1 17t-4.5 16.5t-14.5 15.5t-29 5q-45 0 -50 -45h-169l8 391h417v-135h-256l-5 -159q8 12 25 26
q45 37 103 37q70 0 113 -41q22 -19 34 -52q10 -29 10 -86v-108z" />
    <glyph glyph-name="six" unicode="6" 
d="M493 194q0 -58 -13.5 -97t-56.5 -66q-62 -40 -163 -40q-69 0 -129 25.5t-85 81.5q-17 38 -17 110v301q0 60 11 97t51 66q61 46 172 46q104 0 163 -43q31 -22 46 -52q15 -32 15 -92v-38h-177v49q0 52 -50 52q-47 0 -47 -49v-162l6 7q6 8 11 13q37 36 108 36q112 0 144 -79
q11 -28 11 -74v-92zM310 158v122q0 52 -47 52q-23 0 -35 -10.5t-13.5 -19.5t-1.5 -23v-124q0 -14 1 -22.5t12.5 -19.5t33.5 -11q18 0 29.5 5.5t15.5 16.5t4.5 17t0.5 17z" />
    <glyph glyph-name="seven" unicode="7" 
d="M498 568q-42 -58 -62 -97q-9 -17 -25 -51q-10 -22 -26.5 -63.5t-40 -115t-33.5 -131.5q-8 -47 -10 -110h-189q0 56 6 90q22 133 128 338q29 56 78 141h-148v-87h-147v224h469v-138z" />
    <glyph glyph-name="eight" unicode="8" 
d="M493 141q0 -70 -54 -110q-61 -42 -176 -42q-164 0 -215 77q-23 34 -23 111v72q0 29 6 51q16 53 89 80l-30 15q-34 21 -44.5 51.5t-10.5 78.5q0 39 2 58.5t14.5 45t37.5 44.5q19 14 36 22q50 23 131 23q111 0 175 -47q27 -20 40 -45q16 -30 16 -85q0 -87 -31 -122
q-17 -18 -65 -39q34 -9 53 -22q24 -16 36 -42t12.5 -37t0.5 -33v-105zM310 484v78q0 44 -50 44q-30 0 -40 -12t-10 -33v-78q0 -15 1.5 -23t13 -17t34.5 -9t35 8.5t14 17.5t2 24zM310 151v117q0 10 -1 16.5t-5.5 16t-16 14.5t-29.5 5q-48 0 -48 -52v-119q0 -28 12 -38t41 -10
q17 0 27.5 4.5t14 14t4.5 15t1 16.5z" />
    <glyph glyph-name="nine" unicode="9" 
d="M486 189q0 -27 -1 -40q-7 -66 -50 -103q-65 -56 -178 -56q-90 0 -145 30.5t-76 76.5q-13 30 -13 82v36h185v-64q0 -48 47 -48q18 0 29 4.5t15.5 12.5t6 15t1.5 17l-1 156q-17 -13 -25.5 -19t-33.5 -15t-54 -9q-53 1 -94.5 25t-56.5 71q-8 24 -8 70v92q0 63 12 92
q17 45 68.5 73t137.5 28q72 0 134 -23t87 -78q13 -29 13 -80v-346zM307 421v120q0 30 -11.5 42.5t-42.5 11.5q-13 0 -22.5 -4.5t-13.5 -9t-6.5 -13.5t-2.5 -12.5v-12.5v-121q0 -15 1.5 -23.5t13 -18t34.5 -9.5t34.5 9t13.5 18t2 23z" />
    <glyph glyph-name="colon" unicode=":" horiz-adv-x="292" 
d="M253 384h-174v164h174v-164zM253 0h-174v162h174v-162z" />
    <glyph glyph-name="semicolon" unicode=";" horiz-adv-x="292" 
d="M253 383h-175v166h175v-166zM253 0l-97 -153h-61l55 153h-72v161h175v-161z" />
    <glyph glyph-name="less" unicode="&#x3c;" horiz-adv-x="559" 
d="M444 75l-358 194v155l358 195v-165l-200 -103l200 -95v-181z" />
    <glyph glyph-name="equal" unicode="=" horiz-adv-x="559" 
d="M474 359h-389v142h389v-142zM474 130h-389v142h389v-142z" />
    <glyph glyph-name="greater" unicode="&#x3e;" horiz-adv-x="559" 
d="M473 271l-358 -195v164l200 103l-200 95v181l358 -193v-155z" />
    <glyph glyph-name="question" unicode="?" horiz-adv-x="479" 
d="M471 557q0 -60 -33 -101q-20 -24 -77 -74q-19 -16 -27 -26q-26 -26 -31 -36q-6 -11 -6 -33v-60h-174v37q0 32 3 49q9 53 71 111l84 81q30 28 30 58q0 22 -13 32t-26 10q-10 0 -20 -6q-19 -10 -19 -38v-36h-155v32q0 51 16 80q17 32 61.5 53.5t113.5 21.5q151 0 190 -84
q12 -26 12 -71zM297 0h-174v150h174v-150z" />
    <glyph glyph-name="at" unicode="@" horiz-adv-x="786" 
d="M752 36q-61 -59 -118 -92q-117 -66 -238 -66q-115 0 -208 57q-159 99 -159 311q0 195 126.5 331t307.5 136q131 0 209 -80.5t78 -215.5q0 -142 -68.5 -246.5t-160.5 -104.5q-32 0 -54.5 18.5t-28.5 49.5q-52 -67 -115 -67q-61 0 -98.5 47t-37.5 123q0 114 62 200t145 86
q24 0 45 -9q29 -13 53 -51l10 40h96l-39 -196q-16 -77 -16 -110q0 -25 16 -25t40 40q23 38 37 91q14 55 14 105q0 82 -29 129q-53 85 -171 85q-130 0 -223.5 -109.5t-93.5 -261.5q0 -127 74 -204t196 -77q151 0 293 140zM460 344v4q0 37 -16.5 59t-42.5 22
q-40 0 -71.5 -56.5t-31.5 -128.5q0 -38 14.5 -60t40.5 -22q39 0 70 50q16 25 26.5 63t10.5 69z" />
    <glyph glyph-name="A" unicode="A" horiz-adv-x="562" 
d="M560 0h-197l-22 159h-121l-24 -159h-198l164 706h238zM323 285l-42 283l-43 -283h85z" />
    <glyph glyph-name="B" unicode="B" horiz-adv-x="542" 
d="M530 198q0 -53 -10 -91t-42 -66q-22 -19 -54 -28.5t-55 -11t-62 -1.5h-273v706h303q15 0 35 -3t54 -17t55 -38q36 -42 36 -117q0 -69 -25 -104q-30 -41 -96 -58q44 -8 64 -18q42 -20 56 -58.5t14 -94.5zM325 477v45q0 28 -11.5 38t-40.5 10h-44v-146h44q29 0 40.5 11.5
t11.5 41.5zM330 189v48q0 31 -12 42.5t-43 11.5h-46v-156h44q33 0 45 11t12 43z" />
    <glyph glyph-name="C" unicode="C" horiz-adv-x="542" 
d="M526 212q0 -35 -1 -53.5t-7 -44.5t-19 -45q-54 -82 -218 -82q-27 0 -55 3q-143 14 -182 105q-15 35 -15 109v294q0 34 2 51q2 18 4.5 31.5t11 35t27 40t45.5 32.5q59 31 158 31q88 0 146 -27t80 -68q21 -38 21 -111v-67h-195v84q0 49 -49 49q-53 0 -53 -49v-359
q0 -46 51 -46t51 51v85h197v-49z" />
    <glyph glyph-name="D" unicode="D" horiz-adv-x="562" 
d="M533 243q0 -38 -1 -56q-6 -94 -54 -139q-25 -23 -61.5 -34.5t-59 -12.5t-71.5 -1h-252v706h274q94 0 155 -39q45 -29 57.5 -71t12.5 -109v-244zM334 190v318q0 36 -10.5 49t-43.5 13h-46v-438h46q33 0 43.5 12.5t10.5 45.5z" />
    <glyph glyph-name="E" unicode="E" horiz-adv-x="437" 
d="M420 0h-386v706h386v-137h-187v-143h173v-135h-173v-155h187v-136z" />
    <glyph glyph-name="F" unicode="F" horiz-adv-x="417" 
d="M415 570h-182v-143h168v-135h-168v-292h-198v706h380v-136z" />
    <glyph glyph-name="G" unicode="G" horiz-adv-x="562" 
d="M532 0h-191v77q-25 -47 -57.5 -67.5t-85.5 -20.5q-56 0 -96 21q-23 14 -36 31q-22 25 -32 63q-7 31 -7 88v306q0 59 10 97t45 68q63 55 200 55t198 -54q25 -21 38 -51q14 -32 14 -93v-58h-191v64q0 25 -11 38t-48 13q-34 0 -44 -13t-10 -36v-361q0 -57 54 -57
q31 0 45 12.5t14 41.5v80h-61v125h252v-369z" />
    <glyph glyph-name="H" unicode="H" horiz-adv-x="562" 
d="M526 0h-198v282h-93v-282h-200v706h200v-278h93v278h198v-706z" />
    <glyph glyph-name="I" unicode="I" horiz-adv-x="271" 
d="M235 0h-200v706h200v-706z" />
    <glyph glyph-name="J" unicode="J" horiz-adv-x="354" 
d="M319 187q0 -39 -2 -61t-14.5 -52.5t-37.5 -47.5q-36 -26 -120 -26h-133v135h54q17 0 26 3q29 8 29 57v511h198v-519z" />
    <glyph glyph-name="K" unicode="K" horiz-adv-x="562" 
d="M570 0h-212l-126 327v-327h-196v706h196v-324l120 324h200l-142 -338z" />
    <glyph glyph-name="L" unicode="L" horiz-adv-x="417" 
d="M416 0h-380v706h197v-572h183v-134z" />
    <glyph glyph-name="M" unicode="M" horiz-adv-x="750" 
d="M713 0h-166v484l-109 -484h-127l-110 475v-475h-166v706h251l90 -466l88 466h249v-706z" />
    <glyph glyph-name="N" unicode="N" horiz-adv-x="562" 
d="M525 0h-187l-136 414v-414h-166v706h183l141 -423l-1 423h166v-706z" />
    <glyph glyph-name="O" unicode="O" horiz-adv-x="562" 
d="M531 217q0 -39 -2 -61.5t-13.5 -52.5t-33.5 -51q-65 -62 -196 -62q-182 0 -234 92q-25 44 -25 135v266q0 36 1.5 55.5t7.5 47t20.5 48t38.5 37.5q64 45 183 45h1q19 0 40 -1.5t64 -9.5t78 -31.5t52 -59.5q18 -38 18 -127v-270zM331 179v351q0 16 -2 25t-14.5 18t-36.5 9
q-18 0 -29 -5t-15.5 -14.5t-5.5 -16t-1 -17.5v-351q0 -11 1 -17.5t5.5 -16t16 -14.5t29.5 -5q19 0 30.5 5t15.5 15t5 16t1 18z" />
    <glyph glyph-name="P" unicode="P" horiz-adv-x="542" 
d="M525 457q0 -103 -36 -147q-21 -26 -54 -38.5t-57 -14.5t-68 -2h-77v-255h-198v706h302q58 0 97.5 -12.5t63.5 -51.5q17 -27 22 -67t5 -118zM333 447v73q0 28 -11 39.5t-39 11.5h-50v-181h50q31 0 40.5 12.5t9.5 44.5z" />
    <glyph glyph-name="Q" unicode="Q" horiz-adv-x="562" 
d="M531 217q0 -41 -2.5 -65t-15.5 -54.5t-38 -52.5q-34 -29 -83 -42q-5 -1 -15.5 -3t-15.5 -3v-26q0 -27 10.5 -35.5t37.5 -8.5h53v-111h-156q-33 0 -52 5q-38 11 -50 38t-12 72v68q-77 17 -113 50q-33 29 -42.5 69.5t-9.5 98.5v266q0 36 1.5 55.5t7.5 47t20.5 48t38.5 37.5
q64 45 183 45h1q19 0 40 -1.5t64 -9.5t78 -31.5t52 -59.5q18 -38 18 -127v-270zM331 179v351q0 16 -2 25t-14.5 18t-36.5 9q-18 0 -29 -5t-15.5 -14.5t-5.5 -16t-1 -17.5v-351q0 -11 1 -17.5t5.5 -16t16 -14.5t29.5 -5q19 0 30.5 5t15.5 15t5 16t1 18z" />
    <glyph glyph-name="R" unicode="R" horiz-adv-x="562" 
d="M556 0h-208l-95 289h-18v-289h-201v706h257q130 0 179 -34q45 -32 53 -87q4 -29 4 -75q0 -92 -18 -131q-18 -41 -68 -64zM333 482v40q0 24 -10 34t-35 10h-53v-139h51q29 0 38 10.5t9 44.5z" />
    <glyph glyph-name="S" unicode="S" 
d="M502 186q0 -68 -23 -108q-50 -89 -216 -89q-54 0 -98 8q-93 14 -129 78q-21 38 -21 125v27h193v-47q0 -57 50 -57q15 0 26 7q20 12 20 52q0 26 -10.5 39.5t-48.5 40.5l-124 89q-59 43 -75.5 78.5t-16.5 89.5q0 62 17 98q47 101 219 101q115 0 177 -53q25 -21 37 -49
q15 -34 15 -99v-34h-185v47q0 15 -3 23q-9 29 -43 29q-44 0 -44 -46q0 -15 8 -27q4 -7 12 -14t26.5 -20t28.5 -20l97 -73q25 -19 50 -41q30 -28 45.5 -61t15.5 -94z" />
    <glyph glyph-name="T" unicode="T" horiz-adv-x="500" 
d="M498 571h-150v-571h-199v571h-150v135h499v-135z" />
    <glyph glyph-name="U" unicode="U" horiz-adv-x="562" 
d="M529 191q0 -65 -14 -102t-64 -66q-58 -33 -171 -33q-184 0 -231 91q-18 33 -18 98v527h198v-519q0 -57 51 -57q50 0 50 57v519h199v-515z" />
    <glyph glyph-name="V" unicode="V" horiz-adv-x="542" 
d="M540 706l-137 -706h-271l-133 706h195l74 -542l75 542h197z" />
    <glyph glyph-name="W" unicode="W" horiz-adv-x="833" 
d="M827 706l-88 -706h-245l-80 526l-81 -526h-242l-90 706h175l54 -501l70 501h228l72 -501l53 501h174z" />
    <glyph glyph-name="X" unicode="X" 
d="M517 0h-197l-60 244l-63 -244h-197l122 369l-122 337h201l59 -242l60 242h197l-117 -337z" />
    <glyph glyph-name="Y" unicode="Y" horiz-adv-x="562" 
d="M558 706l-176 -479v-227h-197v227l-185 479h197l85 -306l83 306h193z" />
    <glyph glyph-name="Z" unicode="Z" horiz-adv-x="479" 
d="M460 0h-444v137l229 435h-203v134h418v-139l-231 -430h231v-137z" />
    <glyph glyph-name="bracketleft" unicode="[" horiz-adv-x="333" 
d="M327 -201h-281v907h281v-65h-107v-778h107v-64z" />
    <glyph glyph-name="backslash" unicode="\" horiz-adv-x="333" 
d="M331 0h-150l-180 706h152z" />
    <glyph glyph-name="bracketright" unicode="]" horiz-adv-x="333" 
d="M286 -202h-282v66h108v778h-108v64h282v-908z" />
    <glyph glyph-name="asciicircum" unicode="^" horiz-adv-x="559" 
d="M527 359h-178l-66 193l-72 -193h-179l169 347h159z" />
    <glyph glyph-name="underscore" unicode="_" horiz-adv-x="500" 
d="M510 -239h-520v127h520v-127z" />
    <glyph glyph-name="grave" unicode="`" horiz-adv-x="271" 
d="M276 572h-151l-130 124h203z" />
    <glyph glyph-name="a" unicode="a" 
d="M513 0h-213v47q-21 -17 -33 -26t-46 -21.5t-71 -12.5q-51 0 -81 20.5t-40 47.5q-8 20 -8 83t19.5 97t75.5 55q26 9 76 21t71 18q27 9 37 14v35q0 45 -42 45q-40 0 -40 -47v-28h-175v39q0 41 12 69q39 89 219 89q150 -1 195 -74q20 -34 20 -91v-312q0 -29 5 -41.5
t19 -26.5zM300 140v116l-36 -14q-33 -11 -45 -27q-9 -12 -9 -36v-39q0 -50 43 -50q21 0 32.5 9.5t13 18t1.5 22.5z" />
    <glyph glyph-name="b" unicode="b" 
d="M497 167q0 -39 -2 -60.5t-15 -50t-40 -45.5q-36 -22 -84 -22q-69 0 -111 41q-11 11 -26 33v-63h-188v706h188v-236q9 16 17 26t23.5 23.5t38.5 20.5t53 7q56 0 92 -25q26 -18 38.5 -48.5t14 -51.5t1.5 -62v-193zM307 146v248q0 49 -44 49t-44 -49v-251q0 -51 43 -51
q17 0 29 7q16 10 16 47z" />
    <glyph glyph-name="c" unicode="c" horiz-adv-x="500" 
d="M479 154q0 -64 -28 -100q-38 -48 -120 -61q-28 -5 -64 -5q-19 0 -53 2q-137 9 -177 89q-14 28 -14 79v207q0 51 11 83t47 57q56 40 163 40q24 0 37 -1q88 -5 139 -44q23 -15 37 -40q15 -29 15 -76v-56h-180v53q0 9 -1 14t-4 13t-12.5 12t-23.5 4q-29 0 -37 -23
q-3 -6 -3 -20v-223v-7t0.5 -8t2 -10t4.5 -8.5t7 -8t10.5 -4.5t15.5 -2q7 0 12.5 1t9.5 2.5t7 4.5t5 5.5t3.5 6.5t2 6.5t1 7t0.5 6v6.5v4v32h187v-38z" />
    <glyph glyph-name="d" unicode="d" 
d="M489 0h-189v61q-21 -37 -46 -52q-32 -20 -83 -20q-71 0 -108 34q-20 18 -29 42q-10 28 -10 93v225q0 24 1 36q10 92 75 116q23 9 64 9q86 0 124 -50q8 -10 12 -18v230h189v-706zM300 142v243q0 43 -45 43q-32 0 -40 -24q-2 -7 -2 -19v-245q0 -12 2 -20t13 -15.5t30 -7.5
q42 0 42 45z" />
    <glyph glyph-name="e" unicode="e" horiz-adv-x="500" 
d="M480 156q0 -41 -7.5 -68.5t-32.5 -50.5q-51 -50 -187 -50q-40 0 -72 4q-107 16 -138 72q-20 34 -20 108v184q0 49 5 75q19 89 128 109q49 7 89 7q27 0 56 -3q125 -11 162 -77q17 -31 17 -92v-136h-267v-79v-11t2 -12.5t6 -15t13.5 -9t22.5 -4.5q42 0 42 48v30h181v-29z
M302 323v65q0 46 -44 46q-45 0 -45 -47v-64h89z" />
    <glyph glyph-name="f" unicode="f" horiz-adv-x="354" 
d="M360 605h-38q-31 0 -42 -9.5t-11 -39.5v-23h85v-102h-85v-431h-188v430h-81v103h81v42q0 72 32 102q31 29 105 29h142v-101z" />
    <glyph glyph-name="g" unicode="g" 
d="M489 -49q0 -67 -12 -96q-19 -45 -72 -70q-54 -26 -142 -26q-168 0 -214 84q-18 32 -18 100h180v-17q0 -24 10.5 -35.5t35.5 -11.5q21 0 32 9.5t12 17.5t1 21v130q-14 -22 -22 -28q-40 -40 -109 -40q-59 0 -94 25q-19 14 -31 34t-16.5 49.5t-5 44.5t-0.5 49v180
q0 39 2 60.5t16 49.5t42 43q35 20 82 20q77 0 118 -47q3 -3 18 -26v62h187v-582zM302 155v227q0 14 -1.5 22t-13 16.5t-32.5 8.5q-15 0 -25 -5q-19 -9 -19 -43v-227q0 -13 1.5 -21t12.5 -17t32 -9t32 9t12 17t1 22z" />
    <glyph glyph-name="h" unicode="h" 
d="M488 0h-188v398q0 43 -40 43q-42 0 -42 -45v-396h-188v706h188v-225q12 15 18 22q41 41 110 41q42 0 79 -21q40 -24 51.5 -58.5t11.5 -90.5v-374z" />
    <glyph glyph-name="i" unicode="i" horiz-adv-x="250" 
d="M219 580h-189v126h189v-126zM219 0h-189v533h189v-533z" />
    <glyph glyph-name="j" unicode="j" horiz-adv-x="250" 
d="M218 580h-188v126h188v-126zM219 -44q0 -70 -12 -95q-5 -9 -11 -16q-19 -22 -45 -28t-65 -6h-114v97q17 0 25 1q20 1 26.5 11.5t6.5 32.5v580h189v-577z" />
    <glyph glyph-name="k" unicode="k" 
d="M522 0h-198l-112 254v-254h-182v706h182v-393l102 220h184l-127 -242z" />
    <glyph glyph-name="l" unicode="l" horiz-adv-x="250" 
d="M219 0h-188v706h188v-706z" />
    <glyph glyph-name="m" unicode="m" horiz-adv-x="792" 
d="M758 0h-188v380q0 44 -38 44q-42 0 -42 -46v-378h-189v381q0 46 -42 46q-32 0 -39 -26q-2 -7 -2 -20v-381h-188v533h188v-63q33 55 91 69q16 4 40 4q65 0 102 -35q17 -16 31 -44q10 15 17 24t23.5 24t39.5 22.5t51 7.5q60 0 93.5 -25t44.5 -58q7 -19 7 -59v-400z" />
    <glyph glyph-name="n" unicode="n" 
d="M489 0h-190v381q0 50 -40 50t-40 -50v-381h-189v533h189v-53q22 27 44 41q36 23 82 23q47 0 83 -22q40 -25 50.5 -61.5t10.5 -96.5v-364z" />
    <glyph glyph-name="o" unicode="o" 
d="M495 170q0 -46 -4 -66q-8 -37 -30.5 -61.5t-56 -35.5t-63.5 -15t-68 -4q-48 0 -81.5 3t-77 18.5t-64.5 44.5q-25 35 -25 107v215q0 41 6.5 68t29.5 50q18 18 46 31q52 22 146 22q45 0 85 -6l6 -1q6 -1 11.5 -2t14.5 -3t17.5 -4.5t18.5 -6t19 -8.5t18 -11t17 -14t14 -17
q21 -32 21 -100v-204zM308 167v204q0 52 -49 52q-47 0 -47 -49v-209v-12.5t2.5 -13.5t7 -15.5t15 -10t24.5 -4.5q48 0 47 55v3z" />
    <glyph glyph-name="p" unicode="p" 
d="M496 154q0 -85 -31 -122q-37 -45 -112 -45q-60 0 -97 27q-14 11 -21 19q-3 4 -7 10t-7 11l-3 4v-227h-188v702h188v-66q9 19 16 28q35 49 114 49q60 0 93.5 -23.5t45.5 -56.5q9 -27 9 -67v-243zM307 152v226q0 49 -46 49q-43 0 -43 -51v-226q0 -48 44 -48q21 0 32 10
t12 18t1 22z" />
    <glyph glyph-name="q" unicode="q" 
d="M490 -168h-188v232q-41 -75 -132 -75q-88 0 -124 58q-15 24 -18.5 49.5t-3.5 87.5v180q0 29 1 44q7 101 81 126q26 10 64 10q78 0 116 -47q6 -7 16 -25v61h188v-701zM302 154v225q0 10 -1 16t-4.5 15t-14 13.5t-26.5 4.5q-14 0 -21 -3q-22 -9 -22 -45v-229q0 -13 1 -20.5
t11 -17t30 -9.5q47 0 47 50z" />
    <glyph glyph-name="r" unicode="r" horiz-adv-x="333" 
d="M333 367q-57 0 -70 -3q-44 -10 -44 -76v-288h-189v533h189v-83q18 28 21 32q34 47 93 58v-173z" />
    <glyph glyph-name="s" unicode="s" horiz-adv-x="479" 
d="M471 150q0 -164 -228 -164q-27 0 -45 0.5t-51.5 6t-55.5 15t-44 30t-31 49.5q-7 20 -7 65v7h189v-27q0 -47 42 -47q40 0 40 42q0 14 -10 26q-5 5 -19.5 12.5t-44 20t-41.5 18.5q-42 19 -64.5 32t-44.5 33.5t-30.5 47t-8.5 64.5q0 63 24 96q49 66 205 66q164 0 203 -81
q11 -22 11 -60v-31h-180v24q0 49 -43 49q-16 0 -25 -7.5t-11.5 -15t-2.5 -15.5q0 -6 0.5 -11t3 -9.5t4 -7.5t6.5 -6.5t7.5 -5.5t10 -5.5t11 -5l14 -6t14.5 -6.5q87 -39 128.5 -64t59.5 -58q14 -25 14 -71z" />
    <glyph glyph-name="t" unicode="t" horiz-adv-x="354" 
d="M353 0h-138q-39 0 -64 6.5t-45 29.5q-26 30 -26 96v298h-80v103h80v173h184v-173h84v-103h-84v-275q0 -24 10 -34.5t37 -11.5l42 -1v-108z" />
    <glyph glyph-name="u" unicode="u" 
d="M489 0h-189v54q-19 -23 -28 -30q-42 -36 -106 -36q-100 0 -127 90q-8 25 -8 79v376h188v-388q0 -34 16 -46q10 -6 24 -6q16 0 24 6q17 11 17 47v387h189v-533z" />
    <glyph glyph-name="v" unicode="v" horiz-adv-x="479" 
d="M479 533l-124 -533h-226l-130 533h187l54 -381l54 381h185z" />
    <glyph glyph-name="w" unicode="w" horiz-adv-x="750" 
d="M750 533l-106 -533h-210l-62 345l-64 -345h-210l-99 533h188l36 -372l61 372h183l54 -372l44 372h185z" />
    <glyph glyph-name="x" unicode="x" horiz-adv-x="500" 
d="M495 0h-186l-61 185l-57 -185h-189l123 272l-112 261h185l50 -173l61 173h186l-123 -261z" />
    <glyph glyph-name="y" unicode="y" horiz-adv-x="500" 
d="M499 533l-148 -527q-22 -77 -38 -111t-45 -58q-32 -26 -65.5 -33.5t-85.5 -7.5h-83l5 117h41q48 0 69 30q6 9 12 26l-161 564h187l65 -324l62 324h185z" />
    <glyph glyph-name="z" unicode="z" horiz-adv-x="458" 
d="M434 0h-419v108l193 318h-157v107h375v-107l-200 -318h208v-108z" />
    <glyph glyph-name="braceleft" unicode="{" horiz-adv-x="354" 
d="M339 -145h-17q-86 0 -119 10q-53 16 -75 54.5t-22 114.5v93q0 59 -5 84q-5 33 -31 53q-16 15 -42 16v74l5 1q44 9 59.5 42t14.5 116l-1 86q-1 53 8 83.5t30 52.5q19 19 39 26q28 11 58 14.5t98 3.5v-70q-33 -4 -47 -17q-21 -20 -21 -75v-95v-40q0 -88 -31 -123
q-23 -27 -79 -39v-6q43 -10 61 -23q28 -20 39 -56t11 -106v-100q0 -62 16 -82q19 -22 51 -22v-70z" />
    <glyph glyph-name="bar" unicode="|" horiz-adv-x="247" 
d="M203 -144h-159v923h159v-923z" />
    <glyph glyph-name="braceright" unicode="}" horiz-adv-x="354" 
d="M325 281l-5 -1q-43 -8 -58 -41t-15 -117v-86q0 -97 -38 -136q-16 -18 -39 -26q-45 -18 -155 -19v71q31 2 47 17q21 21 21 75v94v41q0 88 31 123q25 27 79 39v6q-44 10 -61 23q-28 20 -39 55.5t-11 106.5v100q0 61 -17 82q-18 21 -50 22v70h16q88 0 120 -10q52 -15 74 -54
t22 -115v-93q0 -56 6 -84q5 -33 30 -54q17 -13 42 -16v-73z" />
    <glyph glyph-name="asciitilde" unicode="~" horiz-adv-x="559" 
d="M502 267q-69 -70 -130 -70q-33 0 -87 27l-24 12q-42 21 -71 21q-24 0 -41 -10.5t-42 -39.5l-50 142q30 31 47 44q36 27 79 27q18 0 30 -4q16 -4 52 -20l44 -20q40 -18 59 -18q36 0 84 48z" />
    <glyph glyph-name="exclamdown" unicode="&#xa1;" horiz-adv-x="292" 
d="M213 555h-176v151h176v-151zM213 0h-176v174l27 306h123l26 -300v-180z" />
    <glyph glyph-name="cent" unicode="&#xa2;" horiz-adv-x="500" 
d="M479 155q0 -43 -9 -68q-10 -26 -31.5 -46t-42.5 -29t-45 -14.5t-34 -6.5t-15 -1v-142h-111v144q-1 0 -22 4t-35 8q-33 10 -56 28t-33.5 32.5t-16 37.5t-5.5 30.5v25.5v207q0 54 10 80q33 85 158 98v118h111v-119q61 -6 102.5 -31t57.5 -61q10 -23 10 -66v-56h-180v53
q0 12 -0.5 18t-10 15.5t-28.5 9.5q-42 0 -42 -43v-223q0 -48 40 -48q23 0 32 11t9 33v38h187v-37z" />
    <glyph glyph-name="sterling" unicode="&#xa3;" horiz-adv-x="625" 
d="M610 155q0 -9 -2 -27q-6 -83 -50 -117q-30 -23 -79 -23q-58 0 -162 53q-19 -16 -25 -20q-53 -36 -127 -36q-82 0 -122 46q-23 28 -23 68q0 51 30.5 83t81.5 31q24 0 71 -15q-8 40 -40 100h-131v108h74q-34 79 -34 138q0 85 56 130q59 44 173 44q154 0 206 -76
q24 -35 24 -101v-72h-178v73q0 55 -51 55q-40 0 -52 -29q-4 -8 -4 -26q0 -44 46 -136h194v-108h-142q28 -72 28 -120q0 -21 -6 -53q21 -5 32 -5q44 1 44 68v48h168v-81zM195 108q-30 17 -46 17q-12 0 -22.5 -7.5t-10.5 -19.5t11 -19t24 -7q32 1 44 36z" />
    <glyph glyph-name="currency" unicode="&#xa4;" horiz-adv-x="679" 
d="M670 115l-119 -116l-80 85q-67 -34 -132 -34q-69 0 -131 34l-82 -84l-117 118l82 84q-33 61 -33 136q0 77 34 137l-83 83l116 118l83 -82q56 34 132 34q66 0 131 -33l83 83l116 -119l-82 -82q33 -69 33 -137q0 -69 -34 -138zM451 338q0 53 -32 89.5t-79 36.5t-79.5 -36
t-32.5 -89q0 -52 32.5 -88t79.5 -36q46 0 78.5 36t32.5 87z" />
    <glyph glyph-name="yen" unicode="&#xa5;" horiz-adv-x="562" 
d="M558 706l-106 -285h82v-100h-118l-22 -59h140v-100h-152v-162h-197v162h-156v100h142l-21 59h-121v100h83l-112 285h197l86 -309l82 309h193z" />
    <glyph glyph-name="brokenbar" unicode="&#xa6;" horiz-adv-x="247" 
d="M203 378h-159v401h159v-401zM203 -144h-159v401h159v-401z" />
    <glyph glyph-name="section" unicode="&#xa7;" horiz-adv-x="458" 
d="M439 352q0 -68 -58 -102q-12 -7 -35 -13q39 -22 59.5 -47.5t20.5 -65.5q0 -71 -56 -103t-133 -32q-111 0 -228 63l62 105q5 -2 23 -12.5t31 -17t31 -15t32.5 -13t24.5 -4.5q15 0 26 8t11 23q0 5 -2 10t-6.5 9.5l-7.5 7.5t-10.5 8t-10 6.5t-11.5 6.5l-8 4q-13 7 -39.5 22
t-39.5 23q-25 15 -37 22.5t-30 23t-25.5 33.5t-7.5 40q0 44 27 74.5t71 43.5q-30 18 -44 28.5t-26.5 32t-12.5 49.5q0 72 56 108.5t132 36.5q52 0 94.5 -14t102.5 -44l-61 -103q-104 52 -125 52q-14 0 -23.5 -7.5t-9.5 -20.5q0 -6 3.5 -12.5t8 -11.5t12.5 -10.5t12.5 -8
t14 -7.5t11.5 -6q13 -8 38.5 -22t38.5 -22q25 -15 38 -23.5t31.5 -24.5t26.5 -35t8 -43zM322 315q0 14 -11 27q-4 4 -33 22t-65.5 39t-39.5 23q-34 -20 -34 -45q0 -9 3.5 -16.5t13 -15t14 -11t18.5 -11t15 -7.5l84 -49q35 16 35 44z" />
    <glyph glyph-name="dieresis" unicode="&#xa8;" horiz-adv-x="271" 
d="M341 574h-172v122h172v-122zM102 574h-172v122h172v-122z" />
    <glyph glyph-name="copyright" unicode="&#xa9;" horiz-adv-x="833" 
d="M773 354q0 -151 -103 -254t-254 -103q-148 0 -251.5 104t-103.5 252q0 149 103.5 252.5t252.5 103.5t252.5 -103t103.5 -252zM717 352q0 130 -87 219.5t-214 89.5q-124 0 -211.5 -90.5t-87.5 -218.5t87 -217.5t212 -89.5t213 89.5t88 217.5zM576 270q0 -79 -36 -111.5
t-124 -32.5q-46 0 -76 9q-27 7 -51 31q-19 19 -25.5 43t-6.5 69v154q0 79 32 112q40 43 131 43q85 0 120.5 -32.5t35.5 -110.5v-35h-123v34q0 28 -7.5 38.5t-27.5 10.5q-24 0 -31 -17q-6 -12 -6 -46v-156q0 -32 4 -42q7 -18 32 -18q22 0 29 11.5t7 46.5v35h123v-36z" />
    <glyph glyph-name="ordfeminine" unicode="&#xaa;" horiz-adv-x="354" 
d="M346 357h-149v29q-34 -36 -89 -36q-51 0 -68 25t-17 76t23 71.5t77 34.5q53 14 74 23v20q0 27 -23 27q-24 0 -24 -27v-20h-113v20q0 55 31 81q35 28 113 28q122 0 140 -74q3 -10 3 -50v-175q0 -37 22 -53zM197 448v70q-7 -3 -18 -7t-15 -6t-9 -6t-6.5 -9.5t-1.5 -13.5
v-11q0 -17 0.5 -24.5t5.5 -14t16 -6.5q28 0 28 28z" />
    <glyph glyph-name="guillemotleft" unicode="&#xab;" horiz-adv-x="375" 
d="M354 89l-160 132v145l160 132v-155l-62 -50l62 -50v-154zM171 91l-158 129v147l158 129v-155l-61 -48l61 -50v-152z" />
    <glyph glyph-name="logicalnot" unicode="&#xac;" horiz-adv-x="559" 
d="M474 43h-186v186h-239v145h425v-331z" />
    <glyph glyph-name="registered" unicode="&#xae;" horiz-adv-x="833" 
d="M773 354q0 -151 -103 -254t-254 -103q-148 0 -251.5 104t-103.5 252q0 149 103.5 252.5t252.5 103.5t252.5 -103t103.5 -252zM717 352q0 130 -87 219.5t-214 89.5q-124 0 -211.5 -90.5t-87.5 -218.5t87 -217.5t212 -89.5t213 89.5t88 217.5zM598 134h-132l-65 168h-14
v-168h-122v443h187q66 0 95 -22t29 -71v-76q0 -72 -59 -91zM455 436v12q0 35 -42 35h-26v-88h22q26 0 36 9t10 32z" />
    <glyph glyph-name="macron" unicode="&#xaf;" horiz-adv-x="271" 
d="M302 574h-333v85h333v-85z" />
    <glyph glyph-name="degree" unicode="&#xb0;" horiz-adv-x="354" 
d="M349 573q0 -71 -50.5 -122t-121.5 -51t-121.5 51t-50.5 122q0 72 50 122t122 50t122 -50t50 -122zM233 575q0 23 -16.5 39t-39.5 16t-39 -16t-16 -39t16.5 -39.5t38.5 -16.5q23 0 39.5 16.5t16.5 39.5z" />
    <glyph glyph-name="plusminus" unicode="&#xb1;" horiz-adv-x="559" 
d="M479 347h-106l-1 -137h-183v137h-108v147h108v136h184v-136h106v-147zM479 0h-398v147h398v-147z" />
    <glyph glyph-name="twosuperior" unicode="&#xb2;" horiz-adv-x="354" 
d="M328 265h-302v39q0 20 1.5 36t9.5 32t11.5 24.5t20.5 25t22.5 22.5t31 28t34.5 30q38 34 45 44q5 9 5 23v34q0 7 -0.5 10.5t-3 10t-9.5 9.5t-18 3q-19 0 -27.5 -7t-8.5 -26v-70h-114v58q0 41 8 57q30 64 144 64q109 0 138 -57q11 -22 11 -83q0 -12 -1.5 -21.5t-2 -17
t-6.5 -16t-8.5 -13t-14 -15.5t-17 -16t-24 -20.5t-28.5 -24.5q-49 -42 -57 -55q-4 -8 -6 -18h166v-90z" />
    <glyph glyph-name="threesuperior" unicode="&#xb3;" horiz-adv-x="354" 
d="M330 369q0 -39 -12 -58q-33 -54 -142 -54q-118 3 -145 67q-5 13 -5 45v46h116v-46q0 -17 7 -24.5t29 -7.5q20 0 26.5 9t6.5 29v46q0 16 -6 22t-23 6h-60v90h60q10 0 15.5 1t9.5 7t4 17v39q0 17 -8.5 23t-25.5 6h-1q-21 0 -27.5 -7t-6.5 -23v-32h-111v34q0 106 145 108
q108 0 140 -54q14 -22 14 -72q0 -63 -47 -88q21 -8 32 -21.5t13 -25t2 -31.5v-51z" />
    <glyph glyph-name="acute" unicode="&#xb4;" horiz-adv-x="271" 
d="M276 696l-131 -124h-150l77 124h204z" />
    <glyph glyph-name="mu" unicode="&#xb5;" 
d="M513 0h-212l-1 54q-9 -32 -19.5 -44t-30.5 -12q-19 0 -31 13v-179h-188v701h188v-394q0 -46 41 -46q22 0 31 12t9 41v387h189v-465q0 -28 4 -39.5t20 -28.5z" />
    <glyph glyph-name="paragraph" unicode="&#xb6;" horiz-adv-x="580" 
d="M525 612h-36v-780h-103v780h-77v-779h-103v468q-159 41 -159 196q0 86 53 141q35 37 83 52.5t126 15.5h216v-94z" />
    <glyph glyph-name="periodcentered" unicode="&#xb7;" horiz-adv-x="250" 
d="M211 268h-174v164h174v-164z" />
    <glyph glyph-name="cedilla" unicode="&#xb8;" horiz-adv-x="271" 
d="M248 -103q0 -41 -35 -70q-45 -37 -122 -37q-17 0 -37 3l-18 52q21 -6 34 -6q25 0 37 10.5t11 25.5q0 13 -6.5 21t-13 10t-12.5 2q-16 0 -40 -15l-23 44l102 105h97l-67 -76q32 0 40 -2q24 -5 38.5 -23.5t14.5 -43.5z" />
    <glyph glyph-name="onesuperior" unicode="&#xb9;" horiz-adv-x="354" 
d="M248 265h-119v317q-39 -22 -69 -25v84q15 4 25 8.5t22.5 18.5t21.5 38h119v-441z" />
    <glyph glyph-name="ordmasculine" unicode="&#xba;" horiz-adv-x="354" 
d="M330 461q0 -58 -32 -85.5t-115 -27.5q-71 0 -108 15.5t-48 58.5q-3 13 -3 46v126q0 36 6 52q14 35 49 49.5t96 15.5q112 0 144 -53q11 -18 11 -50v-147zM203 468v121q0 12 -0.5 17.5t-6.5 12t-19 6.5t-19.5 -6t-7.5 -12.5t-1 -17.5v-121q0 -19 5 -27.5t23 -8.5q13 0 19 6
t6.5 11.5t0.5 18.5z" />
    <glyph glyph-name="guillemotright" unicode="&#xbb;" horiz-adv-x="375" 
d="M360 217l-158 -130v154l60 49l-60 51v152l158 -129v-147zM179 218l-160 -131v153l61 50l-61 51v154l160 -132v-145z" />
    <glyph glyph-name="onequarter" unicode="&#xbc;" horiz-adv-x="833" 
d="M812 88h-51v-88h-116v88h-147v91l132 263h131v-263h51v-91zM564 706l-216 -706h-95l215 706h96zM248 265h-119v317q-39 -22 -69 -25v84q15 4 25 8.5t22.5 18.5t21.5 38h119v-441zM645 179v133l-68 -133h68z" />
    <glyph glyph-name="onehalf" unicode="&#xbd;" horiz-adv-x="833" 
d="M808 0h-304v39q0 20 2 36t9 31.5t12 25t20 25t22.5 22.5t31.5 27.5t35 30.5q5 4 23.5 21t21.5 22q5 10 5 24v34q0 7 -0.5 10.5t-3 10t-9.5 9.5t-18 3q-21 0 -28 -8t-7 -25v-70h-116v53q0 42 10 63q32 63 143 63q107 0 138 -57q11 -21 11 -83q0 -41 -12.5 -59.5
t-66.5 -64.5q-3 -3 -5 -4.5t-5.5 -4.5t-6 -5.5t-5.5 -4.5q-5 -4 -13 -11t-11.5 -10t-9.5 -8.5t-8.5 -8.5t-6.5 -7t-6 -7t-4 -7t-3 -7.5t-2 -7.5h167v-90zM537 706l-215 -706h-96l215 706h96zM248 265h-119v317q-39 -22 -69 -25v84q15 4 25 8.5t22.5 18.5t21.5 38h119v-441z
" />
    <glyph glyph-name="threequarters" unicode="&#xbe;" horiz-adv-x="833" 
d="M812 88h-51v-88h-116v88h-147v91l132 263h131v-263h51v-91zM593 706l-215 -706h-96l215 706h96zM330 369q0 -39 -12 -58q-33 -54 -142 -54q-118 3 -145 67q-5 13 -5 45v46h116v-46q0 -17 7 -24.5t29 -7.5q20 0 26.5 9t6.5 29v46q0 16 -6 22t-23 6h-60v90h60q10 0 15.5 1
t9.5 7t4 17v39q0 17 -8.5 23t-25.5 6h-1q-21 0 -27.5 -7t-6.5 -23v-32h-111v34q0 106 145 108q108 0 140 -54q14 -22 14 -72q0 -63 -47 -88q21 -8 32 -21.5t13 -25t2 -31.5v-51zM645 179v133l-68 -133h68z" />
    <glyph glyph-name="questiondown" unicode="&#xbf;" horiz-adv-x="479" 
d="M355 552h-174v154h174v-154zM400 146q0 -51 -16 -80q-17 -33 -61 -54t-114 -21q-151 0 -190 84q-12 26 -12 71q0 40 11 64q10 23 26.5 42.5t54.5 53.5q4 4 23.5 21t28.5 27q20 20 25 30t5 32v60h174v-37q0 -32 -3 -50q-5 -32 -22 -55.5t-49 -55.5q-5 -5 -15 -14.5
t-15 -14.5q-36 -34 -54 -52q-30 -30 -30 -57q0 -22 13 -32t26 -10q8 0 20 6q19 10 19 38v35h155v-31z" />
    <glyph glyph-name="Agrave" unicode="&#xc0;" horiz-adv-x="562" 
d="M362 765h-150l-103 111h191zM560 0h-197l-22 159h-121l-24 -159h-198l164 706h238zM323 285l-42 283l-43 -283h85z" />
    <glyph glyph-name="Aacute" unicode="&#xc1;" horiz-adv-x="562" 
d="M449 876l-103 -112h-149l61 112h191zM560 0h-197l-22 159h-121l-24 -159h-198l164 706h238zM323 285l-42 283l-43 -283h85z" />
    <glyph glyph-name="Acircumflex" unicode="&#xc2;" horiz-adv-x="562" 
d="M460 758h-149l-29 45l-28 -45h-149l77 109h203zM560 0h-197l-22 159h-121l-24 -159h-198l164 706h238zM323 285l-42 283l-43 -283h85z" />
    <glyph glyph-name="Atilde" unicode="&#xc3;" horiz-adv-x="562" 
d="M455 861q-2 -35 -8 -55q-23 -65 -104 -65q-29 0 -85 19q-40 14 -59 14q-24 0 -33 -28h-60q0 1 0.5 10t2.5 19.5t5 19.5q9 25 35 47t70 22q31 0 98 -20q37 -10 51 -10q26 0 32 27h55zM560 0h-197l-22 159h-121l-24 -159h-198l164 706h238zM323 285l-42 283l-43 -283h85z
" />
    <glyph glyph-name="Adieresis" unicode="&#xc4;" horiz-adv-x="562" 
d="M481 760h-165v110h165v-110zM246 760h-166v110h166v-110zM560 0h-197l-22 159h-121l-24 -159h-198l164 706h238zM323 285l-42 283l-43 -283h85z" />
    <glyph glyph-name="Aring" unicode="&#xc5;" horiz-adv-x="562" 
d="M387 825q0 -42 -30.5 -72t-72.5 -30q-41 0 -72 30q-30 30 -30 73q0 42 30 72t73 30q42 0 72 -30.5t30 -72.5zM560 0h-197l-22 159h-121l-24 -159h-198l164 706h238zM317 826q0 13 -9.5 22.5t-22.5 9.5q-14 0 -23 -9.5t-9 -23.5q0 -13 9 -22q10 -10 23 -10t22.5 10t9.5 23
zM323 285l-42 283l-43 -283h85z" />
    <glyph glyph-name="AE" unicode="&#xc6;" horiz-adv-x="792" 
d="M777 0h-379v189h-138l-61 -189h-200l257 706h521v-135h-187v-147h175v-134h-175v-157h187v-133zM398 315v285l-95 -285h95z" />
    <glyph glyph-name="Ccedilla" unicode="&#xc7;" horiz-adv-x="542" 
d="M527 210q0 -38 -3 -62t-13.5 -55t-36.5 -53t-67 -36q-48 -16 -100 -16l-19 -22q3 0 9 0.5t9 0.5q41 0 58 -22.5t17 -47.5q0 -46 -43 -76.5t-114 -30.5q-7 0 -37 3l-17 52q23 -6 33 -6q25 0 37.5 10.5t11.5 26.5q-2 32 -33 32q-15 0 -40 -15l-22 44l53 54q-38 6 -68.5 18
t-49 24t-31.5 33t-19 34t-9.5 38t-3.5 34v32v294q0 82 18 118q49 103 228 103q177 0 230 -99q19 -35 19 -107v-67h-195v84q0 49 -50 49q-52 0 -52 -49v-358q0 -47 50 -47q23 0 35.5 9.5t14.5 18.5t2 23v85h197q1 -17 1 -51z" />
    <glyph glyph-name="Egrave" unicode="&#xc8;" horiz-adv-x="437" 
d="M305 765h-150l-103 111h191zM420 0h-386v706h386v-137h-187v-143h173v-135h-173v-155h187v-136z" />
    <glyph glyph-name="Eacute" unicode="&#xc9;" horiz-adv-x="437" 
d="M392 876l-103 -112h-149l61 112h191zM420 0h-386v706h386v-137h-187v-143h173v-135h-173v-155h187v-136z" />
    <glyph glyph-name="Ecircumflex" unicode="&#xca;" horiz-adv-x="437" 
d="M402 758h-148l-30 45l-27 -45h-149l77 109h202zM420 0h-386v706h386v-137h-187v-143h173v-135h-173v-155h187v-136z" />
    <glyph glyph-name="Edieresis" unicode="&#xcb;" horiz-adv-x="437" 
d="M424 756h-166v111h166v-111zM189 756h-166v111h166v-111zM420 0h-386v706h386v-137h-187v-143h173v-135h-173v-155h187v-136z" />
    <glyph glyph-name="Igrave" unicode="&#xcc;" horiz-adv-x="271" 
d="M216 765h-150l-102 111h190zM235 0h-200v706h200v-706z" />
    <glyph glyph-name="Iacute" unicode="&#xcd;" horiz-adv-x="271" 
d="M303 876l-103 -112h-149l61 112h191zM235 0h-200v706h200v-706z" />
    <glyph glyph-name="Icircumflex" unicode="&#xce;" horiz-adv-x="271" 
d="M314 758h-149l-29 45l-28 -45h-149l77 109h203zM235 0h-200v706h200v-706z" />
    <glyph glyph-name="Idieresis" unicode="&#xcf;" horiz-adv-x="271" 
d="M335 756h-165v111h165v-111zM100 756h-166v111h166v-111zM235 0h-200v706h200v-706z" />
    <glyph glyph-name="Eth" unicode="&#xd0;" horiz-adv-x="562" 
d="M533 243q0 -82 -11.5 -125t-49.5 -76q-23 -19 -55.5 -29t-53.5 -11.5t-55 -1.5h-274v334h-34v101h34v271h229q41 0 68 -2t72.5 -12t76 -37t43.5 -69q10 -33 10 -99v-244zM334 190v317q0 34 -10 48.5t-44 14.5h-46v-135h61v-101h-61v-202h44q33 0 44.5 13t11.5 45z" />
    <glyph glyph-name="Ntilde" unicode="&#xd1;" horiz-adv-x="562" 
d="M460 861q-2 -39 -8 -55q-23 -65 -104 -65q-29 0 -85 19q-40 14 -59 14q-24 0 -33 -28h-59q0 29 7 49q9 25 35 47t71 22q27 0 97 -20q33 -10 51 -10q26 0 32 27h55zM525 0h-187l-136 414v-414h-166v706h183l141 -423l-1 423h166v-706z" />
    <glyph glyph-name="Ograve" unicode="&#xd2;" horiz-adv-x="562" 
d="M362 765h-150l-103 111h191zM531 217q0 -39 -2 -61.5t-13.5 -52.5t-33.5 -51q-65 -62 -196 -62q-182 0 -234 92q-25 44 -25 135v266q0 36 1.5 55.5t7.5 47t20.5 48t38.5 37.5q64 45 183 45h1q19 0 40 -1.5t64 -9.5t78 -31.5t52 -59.5q18 -38 18 -127v-270zM331 179v351
q0 16 -2 25t-14.5 18t-36.5 9q-18 0 -29 -5t-15.5 -14.5t-5.5 -16t-1 -17.5v-351q0 -11 1 -17.5t5.5 -16t16 -14.5t29.5 -5q19 0 30.5 5t15.5 15t5 16t1 18z" />
    <glyph glyph-name="Oacute" unicode="&#xd3;" horiz-adv-x="562" 
d="M449 876l-103 -112h-149l61 112h191zM531 217q0 -39 -2 -61.5t-13.5 -52.5t-33.5 -51q-65 -62 -196 -62q-182 0 -234 92q-25 44 -25 135v266q0 36 1.5 55.5t7.5 47t20.5 48t38.5 37.5q64 45 183 45h1q19 0 40 -1.5t64 -9.5t78 -31.5t52 -59.5q18 -38 18 -127v-270z
M331 179v351q0 16 -2 25t-14.5 18t-36.5 9q-18 0 -29 -5t-15.5 -14.5t-5.5 -16t-1 -17.5v-351q0 -11 1 -17.5t5.5 -16t16 -14.5t29.5 -5q19 0 30.5 5t15.5 15t5 16t1 18z" />
    <glyph glyph-name="Ocircumflex" unicode="&#xd4;" horiz-adv-x="562" 
d="M460 758h-149l-29 45l-28 -45h-149l77 109h203zM531 217q0 -39 -2 -61.5t-13.5 -52.5t-33.5 -51q-65 -62 -196 -62q-182 0 -234 92q-25 44 -25 135v266q0 36 1.5 55.5t7.5 47t20.5 48t38.5 37.5q64 45 183 45h1q19 0 40 -1.5t64 -9.5t78 -31.5t52 -59.5q18 -38 18 -127
v-270zM331 179v351q0 16 -2 25t-14.5 18t-36.5 9q-18 0 -29 -5t-15.5 -14.5t-5.5 -16t-1 -17.5v-351q0 -11 1 -17.5t5.5 -16t16 -14.5t29.5 -5q19 0 30.5 5t15.5 15t5 16t1 18z" />
    <glyph glyph-name="Otilde" unicode="&#xd5;" horiz-adv-x="562" 
d="M455 861q-2 -35 -8 -55q-23 -65 -104 -65q-29 0 -85 19q-40 14 -59 14q-24 0 -33 -28h-60q0 1 0.5 10t2.5 19.5t5 19.5q9 25 35 47t70 22q31 0 98 -20q37 -10 51 -10q26 0 32 27h55zM531 217q0 -39 -2 -61.5t-13.5 -52.5t-33.5 -51q-65 -62 -196 -62q-182 0 -234 92
q-25 44 -25 135v266q0 36 1.5 55.5t7.5 47t20.5 48t38.5 37.5q64 45 183 45h1q19 0 40 -1.5t64 -9.5t78 -31.5t52 -59.5q18 -38 18 -127v-270zM331 179v351q0 16 -2 25t-14.5 18t-36.5 9q-18 0 -29 -5t-15.5 -14.5t-5.5 -16t-1 -17.5v-351q0 -11 1 -17.5t5.5 -16t16 -14.5
t29.5 -5q19 0 30.5 5t15.5 15t5 16t1 18z" />
    <glyph glyph-name="Odieresis" unicode="&#xd6;" horiz-adv-x="562" 
d="M480 754h-165v111h165v-111zM246 754h-167v111h167v-111zM531 217q0 -39 -2 -61.5t-13.5 -52.5t-33.5 -51q-65 -62 -196 -62q-182 0 -234 92q-25 44 -25 135v266q0 36 1.5 55.5t7.5 47t20.5 48t38.5 37.5q64 45 183 45h1q19 0 40 -1.5t64 -9.5t78 -31.5t52 -59.5
q18 -38 18 -127v-270zM331 179v351q0 16 -2 25t-14.5 18t-36.5 9q-18 0 -29 -5t-15.5 -14.5t-5.5 -16t-1 -17.5v-351q0 -11 1 -17.5t5.5 -16t16 -14.5t29.5 -5q19 0 30.5 5t15.5 15t5 16t1 18z" />
    <glyph glyph-name="multiply" unicode="&#xd7;" horiz-adv-x="558" 
d="M485 224l-124 -128l-89 89l-79 -87l-103 99l81 90l-90 93l124 128l87 -89l78 86l104 -97l-81 -90z" />
    <glyph glyph-name="Oslash" unicode="&#xd8;" horiz-adv-x="562" 
d="M551 681l-40 -58q1 -4 4 -10t4 -9q9 -24 9 -105v-277q0 -48 -1 -68t-12.5 -55t-36.5 -56q-62 -53 -189 -53q-97 0 -152 24q-17 7 -34 18l-34 -47l-56 39l40 59q-5 7 -11 27q-10 39 -10 141v263q0 67 16 103q46 101 235 101q81 0 137 -22q6 -2 42 -22l32 46zM335 490v35
q0 11 -1 17.5t-5.5 17t-16 16t-30.5 5.5t-31 -6t-16 -18t-5 -18.5t-1 -18.5v-184zM335 181v187l-106 -153v-40q0 -10 1 -17t5.5 -17t16 -15t29.5 -5q26 0 39 12.5t14 22t1 25.5z" />
    <glyph glyph-name="Ugrave" unicode="&#xd9;" horiz-adv-x="562" 
d="M362 765h-150l-103 111h191zM529 191q0 -65 -14 -102t-64 -66q-58 -33 -171 -33q-184 0 -231 91q-18 33 -18 98v527h198v-519q0 -57 51 -57q50 0 50 57v519h199v-515z" />
    <glyph glyph-name="Uacute" unicode="&#xda;" horiz-adv-x="562" 
d="M449 876l-103 -112h-149l61 112h191zM529 191q0 -65 -14 -102t-64 -66q-58 -33 -171 -33q-184 0 -231 91q-18 33 -18 98v527h198v-519q0 -57 51 -57q50 0 50 57v519h199v-515z" />
    <glyph glyph-name="Ucircumflex" unicode="&#xdb;" horiz-adv-x="562" 
d="M460 758h-149l-29 45l-28 -45h-149l77 109h203zM529 191q0 -65 -14 -102t-64 -66q-58 -33 -171 -33q-184 0 -231 91q-18 33 -18 98v527h198v-519q0 -57 51 -57q50 0 50 57v519h199v-515z" />
    <glyph glyph-name="Udieresis" unicode="&#xdc;" horiz-adv-x="562" 
d="M479 758h-165v110h165v-110zM244 758h-166v110h166v-110zM529 191q0 -65 -14 -102t-64 -66q-58 -33 -171 -33q-184 0 -231 91q-18 33 -18 98v527h198v-519q0 -57 51 -57q50 0 50 57v519h199v-515z" />
    <glyph glyph-name="Yacute" unicode="&#xdd;" horiz-adv-x="562" 
d="M449 876l-103 -112h-149l61 112h191zM558 706l-176 -479v-227h-197v227l-185 479h197l85 -306l83 306h193z" />
    <glyph glyph-name="Thorn" unicode="&#xde;" horiz-adv-x="542" 
d="M525 340q0 -70 -12 -104q-12 -35 -35 -57t-57 -30t-54.5 -10t-56.5 -2h-77v-137h-198v706h198v-117h104q28 0 48 -2.5t46.5 -10t46.5 -27.5t32 -50q13 -35 13 -95q2 -46 2 -64zM333 329v73q0 29 -10 40t-40 11h-50v-181h50q31 0 40.5 12.5t9.5 44.5z" />
    <glyph glyph-name="germandbls" unicode="&#xdf;" 
d="M503 155q0 -27 -0.5 -39.5t-6 -33.5t-17.5 -36q-36 -50 -128 -50q-44 0 -97 5v76q32 0 40 2q28 8 28 53v157q0 25 -7 36q-3 4 -7.5 7t-8 4.5t-11 2.5t-11 1h-12.5h-11v109q37 0 46 15q5 8 5 28v64q0 51 -43 51q-33 0 -41 -24q-3 -7 -3 -21v-562h-188v540q0 54 12 83
q42 95 213 95q46 0 90 -7q101 -19 130 -81q11 -24 11 -59v-77q0 -52 -22 -75q-10 -10 -22 -16q-4 -2 -26 -11q40 -13 61 -34q26 -27 26 -90v-113z" />
    <glyph glyph-name="agrave" unicode="&#xe0;" 
d="M359 572h-151l-131 124h204zM513 0h-213v47q-21 -17 -33 -26t-46 -21.5t-71 -12.5q-51 0 -81 20.5t-40 47.5q-8 20 -8 83t19.5 97t75.5 55q26 9 76 21t71 18q27 9 37 14v35q0 45 -42 45q-40 0 -40 -47v-28h-175v39q0 41 12 69q39 89 219 89q150 -1 195 -74q20 -34 20 -91
v-312q0 -29 5 -41.5t19 -26.5zM300 140v116l-36 -14q-33 -11 -45 -27q-9 -12 -9 -36v-39q0 -50 43 -50q21 0 32.5 9.5t13 18t1.5 22.5z" />
    <glyph glyph-name="aacute" unicode="&#xe1;" 
d="M472 696l-131 -124h-149l77 124h203zM513 0h-213v47q-21 -17 -33 -26t-46 -21.5t-71 -12.5q-51 0 -81 20.5t-40 47.5q-8 20 -8 83t19.5 97t75.5 55q26 9 76 21t71 18q27 9 37 14v35q0 45 -42 45q-40 0 -40 -47v-28h-175v39q0 41 12 69q39 89 219 89q150 -1 195 -74
q20 -34 20 -91v-312q0 -29 5 -41.5t19 -26.5zM300 140v116l-36 -14q-33 -11 -45 -27q-9 -12 -9 -36v-39q0 -50 43 -50q21 0 32.5 9.5t13 18t1.5 22.5z" />
    <glyph glyph-name="acircumflex" unicode="&#xe2;" 
d="M455 574h-146l-38 53l-39 -53h-145l89 122h189zM513 0h-213v47q-21 -17 -33 -26t-46 -21.5t-71 -12.5q-51 0 -81 20.5t-40 47.5q-8 20 -8 83t19.5 97t75.5 55q26 9 76 21t71 18q27 9 37 14v35q0 45 -42 45q-40 0 -40 -47v-28h-175v39q0 41 12 69q39 89 219 89
q150 -1 195 -74q20 -34 20 -91v-312q0 -29 5 -41.5t19 -26.5zM300 140v116l-36 -14q-33 -11 -45 -27q-9 -12 -9 -36v-39q0 -50 43 -50q21 0 32.5 9.5t13 18t1.5 22.5z" />
    <glyph glyph-name="atilde" unicode="&#xe3;" 
d="M444 693q0 -21 -2 -33q-7 -39 -35 -63t-72 -24q-39 0 -88 18q-44 14 -59 14q-11 0 -19 -6.5t-9.5 -9.5t-4.5 -12l-60 1q1 21 4 35q9 38 39 60t70 22q34 0 91 -18q41 -12 57 -12q28 1 33 28h55zM513 0h-213v47q-21 -17 -33 -26t-46 -21.5t-71 -12.5q-51 0 -81 20.5
t-40 47.5q-8 20 -8 83t19.5 97t75.5 55q26 9 76 21t71 18q27 9 37 14v35q0 45 -42 45q-40 0 -40 -47v-28h-175v39q0 41 12 69q39 89 219 89q150 -1 195 -74q20 -34 20 -91v-312q0 -29 5 -41.5t19 -26.5zM300 140v116l-36 -14q-33 -11 -45 -27q-9 -12 -9 -36v-39
q0 -50 43 -50q21 0 32.5 9.5t13 18t1.5 22.5z" />
    <glyph glyph-name="adieresis" unicode="&#xe4;" 
d="M473 573h-173v122h173v-122zM233 573h-171v122h171v-122zM513 0h-213v47q-21 -17 -33 -26t-46 -21.5t-71 -12.5q-51 0 -81 20.5t-40 47.5q-8 20 -8 83t19.5 97t75.5 55q26 9 76 21t71 18q27 9 37 14v35q0 45 -42 45q-40 0 -40 -47v-28h-175v39q0 41 12 69q39 89 219 89
q150 -1 195 -74q20 -34 20 -91v-312q0 -29 5 -41.5t19 -26.5zM300 140v116l-36 -14q-33 -11 -45 -27q-9 -12 -9 -36v-39q0 -50 43 -50q21 0 32.5 9.5t13 18t1.5 22.5z" />
    <glyph glyph-name="aring" unicode="&#xe5;" 
d="M369 666q0 -43 -30 -72.5t-72 -29.5q-43 0 -73 30q-29 30 -29 73q0 42 30 72t72 30t72 -30.5t30 -72.5zM513 0h-213v47q-21 -17 -33 -26t-46 -21.5t-71 -12.5q-51 0 -81 20.5t-40 47.5q-8 20 -8 83t19.5 97t75.5 55q26 9 76 21t71 18q27 9 37 14v35q0 45 -42 45
q-40 0 -40 -47v-28h-175v39q0 41 12 69q39 89 219 89q150 -1 195 -74q20 -34 20 -91v-312q0 -29 5 -41.5t19 -26.5zM299 667q0 13 -9.5 22.5t-22.5 9.5q-14 0 -23 -9.5t-9 -23.5t9 -23t23 -9q13 0 22.5 10t9.5 23zM300 140v116l-36 -14q-33 -11 -45 -27q-9 -12 -9 -36v-39
q0 -50 43 -50q21 0 32.5 9.5t13 18t1.5 22.5z" />
    <glyph glyph-name="ae" unicode="&#xe6;" horiz-adv-x="771" 
d="M750 150q0 -15 -1 -23q-3 -42 -24 -70q-53 -69 -198 -69q-81 0 -136 19q-28 9 -48 24q-12 9 -29 29q-1 0 -9 -7.5t-10.5 -9.5t-11.5 -9.5t-13.5 -10.5t-15 -9t-18 -9t-19 -7.5t-22 -6.5t-23.5 -3.5t-27 -1.5q-37 0 -63 12t-38 25t-18 38t-6.5 35.5t-0.5 32.5q0 39 2 58
q1 17 4 29t11 27t26 27t45 21q13 4 129 31q33 8 61 18v41q0 46 -43 46q-41 0 -41 -48v-31h-175v40q0 40 11 67q38 89 189 89q82 0 128 -32q12 -10 23 -21q10 10 25 21q47 32 132 32q150 0 189 -86q15 -33 15 -103v-116h-268v-77v-12.5t2.5 -13t6.5 -14t13.5 -9t23.5 -4.5
q45 0 44 51v3v26h178v-39zM572 321v62q0 49 -44 49q-46 0 -46 -48v-63h90zM297 155v101l-43 -16q-37 -13 -45 -36q-4 -12 -4 -51q0 -13 1 -20q4 -39 41 -39q35 0 46 29q4 11 4 32z" />
    <glyph glyph-name="ccedilla" unicode="&#xe7;" horiz-adv-x="500" 
d="M479 155q0 -46 -9 -68q-11 -27 -33 -47t-44 -29.5t-47 -15t-35 -6t-15 -0.5h-9l-20 -23q3 0 9 0.5t9 0.5q41 0 58 -22.5t17 -47.5q-1 -46 -43.5 -76.5t-113.5 -30.5q-4 0 -37 3l-17 52q23 -6 33 -6q25 0 37.5 10.5t11.5 26.5q0 14 -9.5 23t-23.5 9q-15 0 -40 -15l-22 44
l54 55q-127 15 -159 101q-8 23 -8 65v207q0 67 19 99q48 81 201 81q122 0 180 -46q25 -20 37 -45q12 -24 12 -70v-56h-180v53q0 12 -0.5 18t-10 15.5t-28.5 9.5q-42 0 -42 -43v-223q0 -48 40 -48h2q39 0 39 44v38h187v-37z" />
    <glyph glyph-name="egrave" unicode="&#xe8;" horiz-adv-x="500" 
d="M348 572h-151l-130 124h203zM480 156q0 -41 -7.5 -68.5t-32.5 -50.5q-51 -50 -187 -50q-40 0 -72 4q-107 16 -138 72q-20 34 -20 108v184q0 49 5 75q19 89 128 109q49 7 89 7q27 0 56 -3q125 -11 162 -77q17 -31 17 -92v-136h-267v-79v-11t2 -12.5t6 -15t13.5 -9
t22.5 -4.5q42 0 42 48v30h181v-29zM302 323v65q0 46 -44 46q-45 0 -45 -47v-64h89z" />
    <glyph glyph-name="eacute" unicode="&#xe9;" horiz-adv-x="500" 
d="M462 696l-132 -124h-148l76 124h204zM480 156q0 -41 -7.5 -68.5t-32.5 -50.5q-51 -50 -187 -50q-40 0 -72 4q-107 16 -138 72q-20 34 -20 108v184q0 49 5 75q19 89 128 109q49 7 89 7q27 0 56 -3q125 -11 162 -77q17 -31 17 -92v-136h-267v-79v-11t2 -12.5t6 -15t13.5 -9
t22.5 -4.5q42 0 42 48v30h181v-29zM302 323v65q0 46 -44 46q-45 0 -45 -47v-64h89z" />
    <glyph glyph-name="ecircumflex" unicode="&#xea;" horiz-adv-x="500" 
d="M444 574h-145l-38 53l-39 -53h-146l90 122h189zM480 156q0 -41 -7.5 -68.5t-32.5 -50.5q-51 -50 -187 -50q-40 0 -72 4q-107 16 -138 72q-20 34 -20 108v184q0 49 5 75q19 89 128 109q49 7 89 7q27 0 56 -3q125 -11 162 -77q17 -31 17 -92v-136h-267v-79v-11t2 -12.5
t6 -15t13.5 -9t22.5 -4.5q42 0 42 48v30h181v-29zM302 323v65q0 46 -44 46q-45 0 -45 -47v-64h89z" />
    <glyph glyph-name="edieresis" unicode="&#xeb;" horiz-adv-x="500" 
d="M466 574h-172v122h172v-122zM227 574h-171v122h171v-122zM480 156q0 -41 -7.5 -68.5t-32.5 -50.5q-51 -50 -187 -50q-40 0 -72 4q-107 16 -138 72q-20 34 -20 108v184q0 49 5 75q19 89 128 109q49 7 89 7q27 0 56 -3q125 -11 162 -77q17 -31 17 -92v-136h-267v-79v-11
t2 -12.5t6 -15t13.5 -9t22.5 -4.5q42 0 42 48v30h181v-29zM302 323v65q0 46 -44 46q-45 0 -45 -47v-64h89z" />
    <glyph glyph-name="igrave" unicode="&#xec;" horiz-adv-x="250" 
d="M213 572h-151l-130 124h203zM219 0h-189v533h189v-533z" />
    <glyph glyph-name="iacute" unicode="&#xed;" horiz-adv-x="250" 
d="M326 696l-131 -124h-149l77 124h203zM219 0h-189v533h189v-533z" />
    <glyph glyph-name="icircumflex" unicode="&#xee;" horiz-adv-x="250" 
d="M309 574h-146l-37 53l-40 -53h-145l89 122h190zM219 0h-189v533h189v-533z" />
    <glyph glyph-name="idieresis" unicode="&#xef;" horiz-adv-x="250" 
d="M330 574h-171v122h171v-122zM91 574h-171v122h171v-122zM219 0h-189v533h189v-533z" />
    <glyph glyph-name="eth" unicode="&#xf0;" 
d="M496 640l-68 -14q15 -15 31 -50q20 -42 28 -84t8 -118v-218q0 -86 -49.5 -127t-172.5 -41q-53 0 -90 4.5t-70 16t-53.5 34t-28.5 56.5q-6 22 -6 62v215q0 62 16 91q19 36 62.5 57t104.5 21q36 0 59 -10t47 -37q-3 11 -5.5 19.5t-4 14.5t-5 13t-4.5 9.5t-5 9.5t-5 8.5
l-7 10.5t-8 11l-139 -29l-25 63l113 24q-5 5 -20.5 17.5t-18.5 14.5l155 49q8 -7 33 -32l14 -14l88 18zM308 167v204q0 52 -48 52t-48 -49v-213q0 -52 48 -52q8 0 14.5 1.5t11 3.5t8 5t6 6t4.5 8t2.5 7.5t1 7.5t0.5 7.5v6.5v5z" />
    <glyph glyph-name="ntilde" unicode="&#xf1;" 
d="M434 693q0 -15 -3 -33q-7 -40 -34 -63q-29 -24 -72 -24q-39 0 -89 18q-42 14 -59 14q-23 0 -33 -28l-59 1q1 21 4 35q10 38 39.5 60t69.5 22q34 0 91 -18q38 -12 56 -12q28 1 33 28h56zM489 0h-190v381q0 50 -40 50t-40 -50v-381h-189v533h189v-53q22 27 44 41
q36 23 82 23q47 0 83 -22q40 -25 50.5 -61.5t10.5 -96.5v-364z" />
    <glyph glyph-name="ograve" unicode="&#xf2;" 
d="M348 572h-151l-130 124h203zM495 170q0 -46 -4 -66q-8 -37 -30.5 -61.5t-56 -35.5t-63.5 -15t-68 -4q-52 0 -101 6q-88 13 -122 60q-25 35 -25 107v215q0 41 6.5 68t29.5 50q18 18 46 31q52 22 146 22q45 0 85 -6l6 -1q6 -1 11.5 -2t14.5 -3t17.5 -4.5t18.5 -6t19 -8.5
t18 -11t17 -14t14 -17q21 -32 21 -100v-204zM308 167v204q0 52 -49 52q-35 0 -44 -25q-3 -8 -3 -24v-209v-12.5t2.5 -13.5t7 -15.5t15 -10t24.5 -4.5q48 0 47 55v3z" />
    <glyph glyph-name="oacute" unicode="&#xf3;" 
d="M462 696l-132 -124h-148l76 124h204zM495 170q0 -46 -4 -66q-8 -37 -30.5 -61.5t-56 -35.5t-63.5 -15t-68 -4q-52 0 -101 6q-88 13 -122 60q-25 35 -25 107v215q0 41 6.5 68t29.5 50q18 18 46 31q52 22 146 22q45 0 85 -6l6 -1q6 -1 11.5 -2t14.5 -3t17.5 -4.5t18.5 -6
t19 -8.5t18 -11t17 -14t14 -17q21 -32 21 -100v-204zM308 167v204q0 52 -49 52q-35 0 -44 -25q-3 -8 -3 -24v-209v-12.5t2.5 -13.5t7 -15.5t15 -10t24.5 -4.5q48 0 47 55v3z" />
    <glyph glyph-name="ocircumflex" unicode="&#xf4;" 
d="M444 574h-145l-38 53l-39 -53h-146l90 122h189zM495 170q0 -46 -4 -66q-8 -37 -30.5 -61.5t-56 -35.5t-63.5 -15t-68 -4q-52 0 -101 6q-88 13 -122 60q-25 35 -25 107v215q0 41 6.5 68t29.5 50q18 18 46 31q52 22 146 22q45 0 85 -6l6 -1q6 -1 11.5 -2t14.5 -3t17.5 -4.5
t18.5 -6t19 -8.5t18 -11t17 -14t14 -17q21 -32 21 -100v-204zM308 167v204q0 52 -49 52q-35 0 -44 -25q-3 -8 -3 -24v-209v-12.5t2.5 -13.5t7 -15.5t15 -10t24.5 -4.5q48 0 47 55v3z" />
    <glyph glyph-name="otilde" unicode="&#xf5;" 
d="M434 693q0 -15 -3 -33q-7 -40 -34 -63q-29 -24 -72 -24q-39 0 -89 18q-42 14 -59 14q-23 0 -33 -28l-59 1q1 21 4 35q10 38 39.5 60t69.5 22q34 0 91 -18q38 -12 56 -12q28 1 33 28h56zM495 170q0 -46 -4 -66q-8 -37 -30.5 -61.5t-56 -35.5t-63.5 -15t-68 -4
q-52 0 -101 6q-88 13 -122 60q-25 35 -25 107v215q0 41 6.5 68t29.5 50q18 18 46 31q52 22 146 22q45 0 85 -6l6 -1q6 -1 11.5 -2t14.5 -3t17.5 -4.5t18.5 -6t19 -8.5t18 -11t17 -14t14 -17q21 -32 21 -100v-204zM308 167v204q0 52 -49 52q-35 0 -44 -25q-3 -8 -3 -24v-209
v-12.5t2.5 -13.5t7 -15.5t15 -10t24.5 -4.5q48 0 47 55v3z" />
    <glyph glyph-name="odieresis" unicode="&#xf6;" 
d="M465 575h-172v122h172v-122zM225 575h-171v122h171v-122zM495 170q0 -46 -4 -66q-8 -37 -30.5 -61.5t-56 -35.5t-63.5 -15t-68 -4q-52 0 -101 6q-88 13 -122 60q-25 35 -25 107v215q0 41 6.5 68t29.5 50q18 18 46 31q52 22 146 22q45 0 85 -6l6 -1q6 -1 11.5 -2t14.5 -3
t17.5 -4.5t18.5 -6t19 -8.5t18 -11t17 -14t14 -17q21 -32 21 -100v-204zM308 167v204q0 52 -49 52q-35 0 -44 -25q-3 -8 -3 -24v-209v-12.5t2.5 -13.5t7 -15.5t15 -10t24.5 -4.5q48 0 47 55v3z" />
    <glyph glyph-name="divide" unicode="&#xf7;" horiz-adv-x="559" 
d="M361 426h-162v170h162v-170zM492 227h-426v147h426v-147zM361 6h-162v170h162v-170z" />
    <glyph glyph-name="oslash" unicode="&#xf8;" 
d="M504 507l-34 -40q14 -23 18.5 -41t4.5 -60v-175q0 -37 -1.5 -57.5t-12.5 -49t-32 -46.5q-58 -49 -183 -49q-79 0 -137 22q-13 5 -39 19l-35 -40l-46 40l35 42q-16 33 -16 92v201q0 51 10.5 82.5t45.5 55.5q58 40 175 40q60 0 94.5 -9t71.5 -27l34 40zM311 381q0 21 -1 26
q-6 36 -51 36q-51 0 -51 -57v-125zM311 151v135l-103 -121v-27q0 -9 1.5 -16t6 -15t15 -12.5t27.5 -4.5q19 0 31 6t16 18t5 18.5t1 18.5z" />
    <glyph glyph-name="ugrave" unicode="&#xf9;" 
d="M348 572h-151l-130 124h203zM489 0h-189v54q-19 -23 -28 -30q-42 -36 -106 -36q-100 0 -127 90q-8 25 -8 79v376h188v-388q0 -34 16 -46q10 -6 24 -6q16 0 24 6q17 11 17 47v387h189v-533z" />
    <glyph glyph-name="uacute" unicode="&#xfa;" 
d="M462 696l-132 -124h-148l76 124h204zM489 0h-189v54q-19 -23 -28 -30q-42 -36 -106 -36q-100 0 -127 90q-8 25 -8 79v376h188v-388q0 -34 16 -46q10 -6 24 -6q16 0 24 6q17 11 17 47v387h189v-533z" />
    <glyph glyph-name="ucircumflex" unicode="&#xfb;" 
d="M444 574h-145l-38 53l-39 -53h-146l90 122h189zM489 0h-189v54q-19 -23 -28 -30q-42 -36 -106 -36q-100 0 -127 90q-8 25 -8 79v376h188v-388q0 -34 16 -46q10 -6 24 -6q16 0 24 6q17 11 17 47v387h189v-533z" />
    <glyph glyph-name="udieresis" unicode="&#xfc;" 
d="M462 574h-172v122h172v-122zM222 574h-170v122h170v-122zM489 0h-189v54q-19 -23 -28 -30q-42 -36 -106 -36q-100 0 -127 90q-8 25 -8 79v376h188v-388q0 -34 16 -46q10 -6 24 -6q16 0 24 6q17 11 17 47v387h189v-533z" />
    <glyph glyph-name="yacute" unicode="&#xfd;" horiz-adv-x="500" 
d="M451 696l-131 -124h-149l77 124h203zM499 533l-148 -526q-27 -95 -45 -126q-18 -29 -40.5 -47.5t-50 -26t-47.5 -9.5t-51 -2h-83l5 117h40q32 0 51.5 11t30.5 45l-161 564h187l65 -324l62 324h185z" />
    <glyph glyph-name="thorn" unicode="&#xfe;" 
d="M496 155v-22.5t-2.5 -27.5t-7 -34t-15 -30t-25.5 -28.5t-39 -17.5t-55 -8q-74 0 -115 44q-3 3 -6.5 8t-7 11t-5.5 8v-227h-188v875h190v-237q8 19 18 31q35 44 110 44q111 0 140 -82q8 -22 8 -65v-242zM307 152v225q0 50 -44 50q-45 0 -45 -51v-226q0 -48 45 -48
q44 0 44 50z" />
    <glyph glyph-name="ydieresis" unicode="&#xff;" horiz-adv-x="500" 
d="M455 574h-171v122h171v-122zM216 574h-171v122h171v-122zM499 533l-148 -527q-22 -77 -38 -111t-45 -58q-32 -26 -65.5 -33.5t-85.5 -7.5h-83l5 117h41q48 0 69 30q6 9 12 26l-161 564h187l65 -324l62 324h185z" />
    <glyph glyph-name="OE" unicode="&#x152;" horiz-adv-x="729" 
d="M711 0h-382l-1 29q-20 -17 -22 -18q-37 -21 -96 -21q-115 0 -156 71q-16 27 -21 59.5t-5 99.5v292q0 75 9 105q13 42 52.5 71.5t112.5 29.5q61 0 101 -21q5 -2 11 -6.5l10 -7.5l5 -3v26h382v-139h-184v-140h170v-136h-170v-155h184v-136zM331 165v373q0 13 -1 19t-5 18
t-16 18t-31 6q-18 0 -29.5 -6.5t-15 -19t-4 -17.5t-0.5 -17v-379q0 -36 17 -48q12 -8 32 -8q19 0 31 6t16 18t5 18.5t1 18.5z" />
    <glyph glyph-name="oe" unicode="&#x153;" horiz-adv-x="771" 
d="M749 150q0 -56 -14 -83q-16 -34 -62.5 -56t-117.5 -22q-78 0 -128 28q-14 8 -37 28q-11 -11 -26 -23q-51 -37 -132 -37q-28 0 -50 3q-115 18 -145 92q-12 30 -12 95v194q0 53 13 82q12 26 36 44.5t46 27t51 13t39 5t21 0.5q76 0 129 -32q5 -3 16.5 -11.5t14.5 -10.5
q25 23 26 23q49 34 129 34q73 0 120 -22.5t66 -57.5q17 -31 17 -97v-129h-267v-78q0 -55 42 -55q22 0 33 12t12 20t1 22v27h179v-36zM570 321v61q0 48 -46 48q-42 0 -42 -48v-61h88zM294 158v218q0 30 -17 41q-12 6 -25 6q-42 0 -42 -47v-220q0 -30 16 -43q12 -7 25 -7
q43 0 43 52z" />
    <glyph glyph-name="Scaron" unicode="&#x160;" 
d="M437 868l-77 -110h-202l-75 110h148l30 -46l28 46h148zM502 186q0 -68 -23 -108q-50 -89 -216 -89q-54 0 -98 8q-93 14 -129 78q-21 38 -21 125v27h193v-47q0 -57 50 -57q15 0 26 7q20 12 20 52q0 26 -10.5 39.5t-48.5 40.5l-124 89q-59 43 -75.5 78.5t-16.5 89.5
q0 62 17 98q47 101 219 101q115 0 177 -53q25 -21 37 -49q15 -34 15 -99v-34h-185v47q0 15 -3 23q-9 29 -43 29q-44 0 -44 -46q0 -15 8 -27q4 -7 12 -14t26.5 -20t28.5 -20l97 -73q25 -19 50 -41q30 -28 45.5 -61t15.5 -94z" />
    <glyph glyph-name="scaron" unicode="&#x161;" horiz-adv-x="479" 
d="M424 696l-90 -121h-189l-88 121h144l38 -52l39 52h146zM471 150q0 -164 -228 -164q-35 0 -58.5 2t-63 10t-66.5 31t-39 58q-7 20 -7 65v7h189v-27q0 -47 42 -47q40 0 40 42q0 14 -10 26q-5 5 -19.5 12.5t-44 20t-41.5 18.5q-42 19 -64.5 32t-44.5 33.5t-30.5 47
t-8.5 64.5q0 63 24 96q49 66 205 66q164 0 203 -81q11 -22 11 -60v-31h-180v24q0 49 -43 49q-16 0 -25 -7.5t-11.5 -15t-2.5 -15.5q0 -6 0.5 -11t3 -9.5t4 -7.5t6.5 -6.5t7.5 -5.5t10 -5.5t11 -5l14 -6t14.5 -6.5q87 -39 128.5 -64t59.5 -58q14 -25 14 -71z" />
    <glyph glyph-name="Ydieresis" unicode="&#x178;" horiz-adv-x="562" 
d="M481 756h-165v111h165v-111zM246 756h-166v111h166v-111zM558 706l-176 -479v-227h-197v227l-185 479h197l85 -306l83 306h193z" />
    <glyph glyph-name="florin" unicode="&#x192;" horiz-adv-x="437" 
d="M435 706l-13 -101h-37q-30 0 -43 -9t-17 -40l-4 -29h86l-12 -98h-86l-55 -442q-7 -55 -28 -87t-73 -42q-14 -3 -51 -3h-143l12 101h38q31 0 43.5 9t16.5 40l53 424h-82l13 98h81l6 48l1 9q1 9 2 14t3 15.5t5.5 18t8.5 17.5t12.5 17.5t17 15t22.5 13t28 8.5q14 3 52 3h143
z" />
    <glyph glyph-name="circumflex" unicode="&#x2c6;" horiz-adv-x="271" 
d="M320 574h-146l-37 53l-39 -53h-147l89 122h190z" />
    <glyph glyph-name="tilde" unicode="&#x2dc;" horiz-adv-x="271" 
d="M310 693q0 -21 -2 -33q-7 -38 -34 -63q-29 -24 -72 -24q-40 0 -89 18q-42 14 -59 14q-11 0 -19 -6.5t-9.5 -9.5t-4.5 -12l-59 1q0 25 2 35q10 38 39.5 60t69.5 22q35 0 92 -18q41 -12 56 -12q28 1 33 28h56z" />
    <glyph glyph-name="endash" unicode="&#x2013;" horiz-adv-x="546" 
d="M516 232h-487v137h487v-137z" />
    <glyph glyph-name="emdash" unicode="&#x2014;" horiz-adv-x="729" 
d="M700 232h-671v137h671v-137z" />
    <glyph glyph-name="quoteleft" unicode="&#x2018;" horiz-adv-x="250" 
d="M210 392h-172v162l90 152h64l-52 -152h70v-162z" />
    <glyph glyph-name="quoteright" unicode="&#x2019;" horiz-adv-x="250" 
d="M212 541l-87 -155h-63l46 155h-71v165h175v-165z" />
    <glyph glyph-name="quotesinglbase" unicode="&#x201a;" horiz-adv-x="250" 
d="M212 0l-87 -155h-63l46 155h-71v165h175v-165z" />
    <glyph glyph-name="quotedblleft" unicode="&#x201c;" horiz-adv-x="458" 
d="M421 389h-176v162l95 155h66l-56 -155h71v-162zM210 389h-176v162l93 155h64l-53 -155h72v-162z" />
    <glyph glyph-name="quotedblright" unicode="&#x201d;" horiz-adv-x="458" 
d="M421 544l-89 -154h-66l53 154h-74v162h176v-162zM211 544l-86 -154h-67l52 154h-76v162h177v-162z" />
    <glyph glyph-name="quotedblbase" unicode="&#x201e;" horiz-adv-x="458" 
d="M421 0l-92 -154h-65l54 154h-73v164h176v-164zM210 0l-95 -154h-66l56 154h-71v164h176v-164z" />
    <glyph glyph-name="dagger" unicode="&#x2020;" 
d="M512 383h-156v-383h-193v383h-156v150h156v173h193v-173h156v-150z" />
    <glyph glyph-name="daggerdbl" unicode="&#x2021;" horiz-adv-x="542" 
d="M522 132h-153v-132h-195v132h-156v151h156v144h-156v151h156v128h195v-128h153v-151h-153v-144h153v-151z" />
    <glyph glyph-name="bullet" unicode="&#x2022;" horiz-adv-x="333" 
d="M295 218h-257v257h257v-257z" />
    <glyph glyph-name="ellipsis" unicode="&#x2026;" horiz-adv-x="1000" 
d="M901 0h-136v145h136v-145zM569 0h-135v145h135v-145zM234 0h-135v145h135v-145z" />
    <glyph glyph-name="perthousand" unicode="&#x2030;" horiz-adv-x="1188" 
d="M1163 127q0 -45 -5 -61q-24 -76 -146 -74q-105 2 -139 55q-14 23 -14 68v206q-1 34 5 53q8 25 25.5 41t41 22.5t41 8.5t40.5 2q113 0 143 -62q8 -16 8 -58v-201zM808 127q0 -45 -5 -61q-24 -76 -146 -74q-105 2 -139 55q-14 23 -14 68v206q-1 34 5 53q8 25 25.5 41
t41.5 22.5t40.5 8t40.5 1.5q114 0 143 -61q8 -16 8 -58v-201zM572 706l-215 -706h-96l216 706h95zM330 392q0 -45 -5 -61q-24 -76 -147 -74q-104 1 -138 55q-15 24 -15 68v206q-1 34 5 53q8 25 25.5 41t41 22.5t41 8.5t40.5 2q113 0 143 -62q9 -18 9 -58v-201zM1045 96v245
q0 14 -6.5 22.5t-13.5 10.5t-14 1q-20 -1 -27 -11t-7 -29v-238q0 -30 34 -31q34 0 34 30zM690 96v245q0 14 -6.5 22.5t-13.5 10.5t-14 1q-20 -1 -27 -11t-7 -29v-238q0 -30 34 -31q34 0 34 30zM212 361v247q0 35 -35 32q-20 -1 -26.5 -10.5t-6.5 -29.5v-238q0 -32 33 -32
q35 0 35 31z" />
    <glyph glyph-name="guilsinglleft" unicode="&#x2039;" horiz-adv-x="187" 
d="M169 91l-158 129v147l158 129v-155l-61 -48l61 -50v-152z" />
    <glyph glyph-name="guilsinglright" unicode="&#x203a;" horiz-adv-x="187" 
d="M175 218l-160 -131v153l62 50l-62 51v154l160 -132v-145z" />
    <glyph glyph-name="Euro" unicode="&#x20ac;" horiz-adv-x="592" 
d="M577 665l-63 -143q-52 59 -121 59q-53 0 -80.5 -29.5t-27.5 -83.5q0 -2 0.5 -5t0.5 -4h204l-36 -80h-168v-40h156l-36 -81h-121v-8q0 -119 109 -119q75 0 138 61v-173q-79 -33 -175 -33q-145 0 -204 63t-59 209h-78l36 81h43l1 40h-76l34 80h40v13q0 127 75.5 188
t206.5 61q62 0 107 -12t94 -44z" />
    <glyph glyph-name="trademark" unicode="&#x2122;" horiz-adv-x="686" 
d="M633 706l-1 -332h-97l10 228l-47 -228h-74l-49 225l8 -225h-96v332h125l49 -201l43 201h129zM269 625h-76v-251h-103v251h-77v81h256v-81z" />
    </font>
</defs>
</svg>
