<?xml version="1.0" standalone="no"?>
<!DOCTYPE svg PUBLIC "-//W3C//DTD SVG 1.1//EN" "http://www.w3.org/Graphics/SVG/1.1/DTD/svg11.dtd" >
<svg xmlns="http://www.w3.org/2000/svg" xmlns:xlink="http://www.w3.org/1999/xlink" version="1.1">
<metadata>
Created by FontForge 20170731 at Thu May 17 20:00:03 2007
 By Aleksey,,,
Copyright  1997, 2001, Berthold LLC. All rights reserved. Akzidenz-Grotesk is a trademark of Berthold Types Limited.
</metadata>
<defs>
<font id="AkzidenzGroteskBQ-XBdCndItAlt" horiz-adv-x="500" >
  <font-face 
    font-family="Akzidenz-Grotesk BQ Extra Conde"
    font-weight="700"
    font-style="italic"
    font-stretch="condensed"
    units-per-em="1000"
    panose-1="0 0 0 0 0 0 0 0 0 0"
    ascent="800"
    descent="-200"
    x-height="536"
    cap-height="706"
    bbox="-96 -242 1142 896"
    underline-thickness="109"
    underline-position="-500"
    slope="-13"
    unicode-range="U+0020-2122"
  />
<missing-glyph 
 />
    <glyph glyph-name=".notdef" 
 />
    <glyph glyph-name=".null" horiz-adv-x="0" 
 />
    <glyph glyph-name="nonmarkingreturn" horiz-adv-x="333" 
 />
    <glyph glyph-name="space" unicode=" " horiz-adv-x="250" 
 />
    <glyph glyph-name="exclam" unicode="!" horiz-adv-x="292" 
d="M373 706q-5 -21 -15 -63.5t-15 -64.5q-4 -18 -10 -37t-14 -42.5t-12 -36.5l-73 -233h-91l33 227q2 11 6.5 51.5t9.5 62.5q5 23 16.5 68.5t16.5 67.5h148zM245 152l-35 -152h-148l35 152h148z" />
    <glyph glyph-name="quotedbl" unicode="&#x22;" horiz-adv-x="313" 
d="M441 741l-109 -288h-36l23 288h122zM279 741l-110 -288h-36l24 288h122z" />
    <glyph glyph-name="numbersign" unicode="#" horiz-adv-x="561" 
d="M643 515l-25 -107h-113l-30 -100h110l-26 -107h-119l-63 -201h-109l64 201h-91l-64 -201h-107l63 201h-105l26 107h113l30 100h-108l25 107h117l60 191h108l-59 -191h90l60 191h108l-59 -191h104zM396 408h-90l-31 -100h90z" />
    <glyph glyph-name="dollar" unicode="$" horiz-adv-x="521" 
d="M576 587q0 -29 -18 -105h-163q15 62 15 78q0 18 -12.5 28t-30.5 10q-23 0 -36 -10q-15 -11 -24 -40t-9 -51q0 -9 2.5 -17t5.5 -13.5t10.5 -12.5t10.5 -10t13.5 -10.5t12.5 -9.5q13 -10 37.5 -28.5t36.5 -28.5q30 -23 44 -36t28 -38t14 -54q0 -46 -22 -110
q-29 -83 -77.5 -110t-146.5 -33l-25 -103h-79l25 107q-2 0 -19.5 3.5t-26.5 5.5q-105 30 -105 129q0 37 21 115h171q-2 -8 -7.5 -28t-8.5 -34.5t-3 -28.5q0 -47 52 -47q28 0 46 19q12 12 20 43t8 52q0 9 -3.5 17t-12.5 17.5t-13 13.5t-18 14l-14 10q-46 34 -69 52
q-29 23 -42 35t-24 35t-11 53q0 54 30 128t70 99q37 23 128 25l20 92h79l-22 -96q142 -16 142 -127z" />
    <glyph glyph-name="percent" unicode="%" horiz-adv-x="792" 
d="M807 355q0 -17 -6 -47l-47 -205q-14 -62 -47 -87.5t-98 -25.5q-54 0 -90 22t-36 73q0 25 9 61l39 171q17 75 48.5 104.5t105.5 29.5q122 0 122 -96zM661 706l-349 -706h-79l348 706h80zM410 620q0 -24 -6 -48l-48 -205q-15 -63 -47 -87.5t-97 -24.5q-126 0 -126 95
q0 29 8 61l40 170q11 47 18 62q33 73 135 73q123 0 123 -96zM708 348q0 26 -31 26q-16 0 -26.5 -10.5t-13.5 -19.5t-7 -28l-45 -194q-5 -23 -5 -26q0 -25 33 -25q12 0 20 3.5t12.5 12t6.5 15t5 19.5l45 195q6 22 6 32zM312 613q0 26 -31 26q-16 0 -26.5 -10.5t-13.5 -19.5
t-7 -28l-45 -194q-5 -23 -5 -26q0 -25 32 -25q16 0 25.5 8t12.5 16.5t7 25.5l45 195q6 22 6 32z" />
    <glyph glyph-name="ampersand" unicode="&#x26;" horiz-adv-x="667" 
d="M660 368q-26 -145 -113 -237q38 -32 98 -30l-32 -115q-10 -1 -31 -1q-92 0 -156 52q-98 -48 -174 -48q-88 0 -148 45.5t-60 130.5q0 80 48 133t132 98q-14 68 -14 103q0 97 54.5 151t151.5 54q69 0 114.5 -33.5t45.5 -100.5q0 -37 -15.5 -69.5t-45.5 -59t-55.5 -44
t-63.5 -38.5q22 -58 73 -140q38 55 52 149h139zM441 569q0 16 -8 27t-23 11q-28 0 -40.5 -26.5t-12.5 -57.5q0 -26 7 -61q77 45 77 107zM351 123q-49 69 -87 159q-57 -49 -57 -105q0 -67 84 -67q33 0 60 13z" />
    <glyph glyph-name="quotesingle" unicode="'" horiz-adv-x="150" 
d="M279 741l-110 -288h-36l24 288h122z" />
    <glyph glyph-name="parenleft" unicode="(" horiz-adv-x="354" 
d="M474 706l-14 -62q-65 0 -88.5 -13.5t-36.5 -72.5l-138 -594q-8 -36 -8 -55q0 -9 2 -16t6.5 -12t8.5 -8.5t12 -5.5t12.5 -3t15 -1.5t14 -0.5t14.5 0.5t13 0.5l-14 -64q-5 0 -14 -0.5t-13 -0.5q-39 0 -62.5 2.5t-54 15t-48.5 37.5q-26 36 -26 90q0 49 22 141l108 466
q22 94 69.5 126t148.5 32q23 0 71 -2z" />
    <glyph glyph-name="parenright" unicode=")" horiz-adv-x="354" 
d="M361 568q0 -51 -22 -147l-107 -466q-22 -93 -70.5 -125.5t-147.5 -32.5q-24 0 -72 2l15 63q3 0 11 -0.5t11 -0.5q50 0 70.5 18.5t32.5 68.5l137 593q8 36 8 56q0 8 -2 15t-6.5 11.5l-8.5 8.5t-12 6t-13 3t-14.5 1.5t-14 0.5h-14.5h-13l15 64h27q42 0 72 -5t59 -19t44 -43
t15 -72z" />
    <glyph glyph-name="asterisk" unicode="*" horiz-adv-x="411" 
d="M489 498l-104 -13l43 -89l-97 -47l-46 96l-78 -69l-72 80l74 66l-90 49l51 95l94 -51l22 103l105 -23l-22 -103l108 12z" />
    <glyph glyph-name="plus" unicode="+" horiz-adv-x="558" 
d="M534 363l-29 -126h-119l-34 -146h-155l33 146h-121l29 126h121l34 146l155 -1l-33 -145h119z" />
    <glyph glyph-name="comma" unicode="," horiz-adv-x="250" 
d="M209 153l-36 -153l-121 -155h-64l91 155h-55l35 153h150z" />
    <glyph glyph-name="hyphen" unicode="-" horiz-adv-x="329" 
d="M353 357l-28 -122h-273l28 122h273z" />
    <glyph glyph-name="period" unicode="." horiz-adv-x="250" 
d="M206 153l-35 -153h-149l35 153h149z" />
    <glyph glyph-name="slash" unicode="/" horiz-adv-x="292" 
d="M389 706l-266 -706h-116l263 706h119z" />
    <glyph glyph-name="zero" unicode="0" horiz-adv-x="521" 
d="M564 570q0 -44 -17 -116l-55 -241q-22 -97 -41 -131q-29 -56 -87 -78q-42 -17 -105 -17q-53 0 -94.5 12t-71 46.5t-29.5 88.5q0 52 21 142l58 251q17 74 44 114.5t89 61.5q45 15 102 15q81 0 133.5 -35t52.5 -113zM413 556q0 45 -49 45q-17 0 -29 -5t-19.5 -18t-10 -21.5
t-7.5 -28.5q-1 -5 -2 -8l-76 -326q-6 -26 -6 -40q0 -22 13.5 -33.5t36.5 -11.5q18 0 30 6.5t19.5 21.5t10.5 24.5t8 30.5l77 335q4 20 4 29z" />
    <glyph glyph-name="one" unicode="1" horiz-adv-x="521" 
d="M508 706l-163 -706h-154l120 518q-47 -29 -117 -48l33 144q57 9 90.5 28t59.5 64h131z" />
    <glyph glyph-name="two" unicode="2" horiz-adv-x="521" 
d="M569 574q0 -48 -21 -119t-48 -105q-15 -18 -42.5 -38t-74 -48.5t-50.5 -31.5q-69 -45 -85 -65q-15 -19 -23 -40h269l-29 -127h-446q13 66 21 97.5t31 77.5t60 79q33 30 138 97q88 56 102 75q13 18 24 59.5t11 67.5q0 48 -47 48q-7 0 -13.5 -1.5t-11.5 -2.5t-9.5 -5
t-7.5 -6t-6.5 -8.5t-4.5 -8t-4 -10t-3.5 -10.5t-3.5 -12t-3 -11q-14 -52 -19 -79h-159l9 36q10 41 15 60t16 50t21.5 45t28.5 33t40.5 27.5t54.5 14.5t72 6q39 0 72 -7t62.5 -22.5t46.5 -45t17 -70.5z" />
    <glyph glyph-name="three" unicode="3" horiz-adv-x="521" 
d="M560 585q0 -34 -11.5 -83.5t-26.5 -76.5q-27 -50 -96 -55q77 -11 77 -82q0 -38 -19 -109.5t-38 -103.5q-53 -87 -198 -87q-54 0 -94.5 12.5t-69 46.5t-28.5 89q0 36 16 102h154q-1 -6 -9 -40.5t-8 -53.5q0 -21 13.5 -33t34.5 -12q19 0 32 6.5t20.5 21t10.5 25.5t8 32
q15 70 15 86q0 18 -11 27t-22.5 10.5t-30.5 1.5h-52l27 119h58q46 0 63 17q12 12 21.5 53.5t9.5 64.5q0 42 -45 42q-11 0 -20.5 -3.5t-16 -8t-12.5 -14t-9.5 -15.5t-7 -19t-4.5 -19t-3.5 -20t-3.5 -18h-155q29 133 59 168q55 63 182 63q76 0 133 -32t57 -102z" />
    <glyph glyph-name="four" unicode="4" horiz-adv-x="521" 
d="M568 706l-102 -441h66l-26 -113h-66l-35 -152h-155l36 152h-262l27 117l310 437h207zM393 584q-53 -87 -211 -315h131q55 232 80 315z" />
    <glyph glyph-name="five" unicode="5" horiz-adv-x="521" 
d="M589 706l-28 -121h-234l-44 -154q47 51 114 51q61 0 93 -34.5t32 -95.5q0 -50 -20.5 -137t-43.5 -128q-56 -99 -203 -99q-52 0 -93 12.5t-70 47t-29 87.5q0 33 14 93h155q-13 -60 -13 -71q0 -22 13 -35t35 -13q25 0 38 12t23 37q9 22 22.5 86.5t13.5 84.5q0 23 -12.5 36
t-35.5 13q-43 0 -57 -52h-149l98 380h381z" />
    <glyph glyph-name="six" unicode="6" horiz-adv-x="521" 
d="M569 585q0 -23 -13 -84h-150q13 42 13 57q0 19 -13.5 29.5t-33.5 10.5q-27 0 -45 -21q-7 -8 -18 -43t-24 -85.5t-14 -52.5q47 46 113 46q61 0 94.5 -34t33.5 -95q0 -36 -19 -112.5t-36 -110.5q-51 -101 -197 -101q-85 0 -138.5 35t-53.5 116q0 38 19 122l55 239
q25 109 61 152q55 65 178 65q47 0 87 -11t70.5 -42.5t30.5 -79.5zM358 294q0 21 -14.5 31.5t-36.5 10.5q-35 0 -55 -41q-9 -18 -21 -69.5t-12 -71.5q0 -46 47 -46q31 0 48 21q11 12 27.5 78t16.5 87z" />
    <glyph glyph-name="seven" unicode="7" horiz-adv-x="521" 
d="M611 706l-28 -121q-207 -281 -287 -585h-179q50 141 88 218q75 151 237 369l-165 -2l-22 -94h-139l50 215h445z" />
    <glyph glyph-name="eight" unicode="8" horiz-adv-x="521" 
d="M563 570q0 -42 -10.5 -82.5t-39 -74.5t-69.5 -38q19 -6 29 -15q31 -27 31 -79q0 -34 -19 -108q-25 -98 -72.5 -141.5t-144.5 -43.5q-90 0 -147.5 36.5t-57.5 121.5q0 53 21.5 124.5t55.5 98.5q21 16 65 26q-61 23 -61 93q0 40 17.5 92.5t42.5 80.5q52 57 164 57
q38 0 71 -7.5t62 -24t45.5 -46.5t16.5 -70zM414 556q0 43 -53 43q-14 0 -28 -7q-18 -9 -31.5 -54t-13.5 -71q0 -23 15.5 -34.5t38.5 -11.5q14 0 24 5t15.5 10t11 19t7 19t5.5 23q9 34 9 59zM350 279q0 21 -14 32t-36 11q-23 0 -36 -10q-10 -8 -17 -23q-6 -14 -19.5 -69
t-13.5 -69q0 -23 13.5 -35.5t36.5 -12.5q38 0 57 44q6 14 17.5 66.5t11.5 65.5z" />
    <glyph glyph-name="nine" unicode="9" horiz-adv-x="521" 
d="M562 567q0 -33 -10 -75l-64 -279q-27 -114 -58 -154q-57 -71 -180 -71q-47 0 -87 11t-71 42t-31 79q0 30 12 86h150q-13 -39 -13 -58t15 -29t35 -10q13 0 24 6t17.5 12.5t12.5 21.5t8 22.5t6 26t5 21.5q18 71 25 94q-38 -48 -112 -48q-58 0 -93.5 32.5t-35.5 89.5
q0 40 19.5 117t37.5 115q49 100 196 100q84 0 138 -36t54 -116zM411 551q0 22 -13 35t-36 13q-25 0 -38 -12t-19 -28q-8 -19 -21 -72.5t-13 -71.5q0 -44 47 -44q28 0 48 22q11 12 28 74t17 84z" />
    <glyph glyph-name="colon" unicode=":" horiz-adv-x="292" 
d="M337 542l-35 -153h-150l35 153h150zM246 153l-35 -153h-149l35 153h149z" />
    <glyph glyph-name="semicolon" unicode=";" horiz-adv-x="292" 
d="M341 542l-35 -153h-151l35 153h151zM251 153l-35 -153l-121 -155h-65l91 155h-56l35 153h151z" />
    <glyph glyph-name="less" unicode="&#x3c;" horiz-adv-x="559" 
d="M565 598l-36 -154l-247 -115l200 -111l-34 -142l-317 194l32 133z" />
    <glyph glyph-name="equal" unicode="=" horiz-adv-x="559" 
d="M554 479l-28 -122h-390l28 122h390zM504 267l-27 -122h-390l28 122h389z" />
    <glyph glyph-name="greater" unicode="&#x3e;" horiz-adv-x="559" 
d="M530 404l-31 -133l-403 -195l36 154l248 115l-200 110l34 142z" />
    <glyph glyph-name="question" unicode="?" horiz-adv-x="458" 
d="M542 593q0 -35 -14 -82q-11 -39 -25 -57.5t-48 -43.5q-13 -9 -37.5 -26t-30.5 -21q-47 -33 -60 -53.5t-24 -78.5h-150l5.5 27.5t7.5 33t8.5 28.5t12 31t14.5 23q19 23 55 46.5t64.5 39.5t50.5 46.5t22 71.5q0 37 -37 37q-25 0 -41 -20q-10 -13 -26 -89h-146q12 54 19 81
q14 51 34.5 77.5t65.5 41.5q41 14 103 14q177 0 177 -127zM285 153l-36 -153h-150l36 153h150z" />
    <glyph glyph-name="at" unicode="@" horiz-adv-x="834" 
d="M846 445q0 -69 -27 -146.5t-69 -130.5q-78 -100 -168 -100q-36 0 -59 18t-27 50q-59 -68 -128 -68q-60 0 -93.5 39.5t-33.5 110.5q0 118 72.5 212t163.5 94q22 0 43 -8q29 -10 52 -52l13 40h94l-44 -159q-32 -117 -36 -141q-2 -9 -2 -22q0 -24 18 -24q23 0 58 43
q36 46 58.5 111.5t22.5 126.5q0 94 -56 144.5t-160 50.5q-97 0 -183 -57.5t-137 -153.5t-51 -204q0 -119 72.5 -188.5t196.5 -69.5q180 0 338 141l44 -66q-68 -59 -132 -93q-126 -65 -258 -65q-163 0 -259 92.5t-96 250.5q0 132 64 245.5t174 180.5t237 67q134 0 216 -74
t82 -195zM531 348v8q0 32 -15.5 52t-41.5 20q-53 0 -92 -74q-33 -61 -33 -118q0 -34 14 -52.5t40 -18.5q40 0 79 50q20 27 34.5 65t14.5 68z" />
    <glyph glyph-name="A" unicode="A" horiz-adv-x="542" 
d="M565 706l-51 -706h-168l15 157h-131l-60 -157h-183l303 706h275zM404 641l-129 -363h97z" />
    <glyph glyph-name="B" unicode="B" horiz-adv-x="542" 
d="M602 591q0 -29 -11.5 -81.5t-24.5 -73.5q-17 -28 -43.5 -40.5t-66.5 -18.5q86 -21 86 -89q0 -31 -18 -105.5t-32 -104.5q-22 -47 -65.5 -62.5t-105.5 -15.5h-300l163 706h229q39 0 65.5 -3t58.5 -13.5t48.5 -35t16.5 -63.5zM440 545q0 35 -48 35h-66l-35 -156h60
q36 0 51.5 10.5t24.5 44.5q13 46 13 66zM379 270q0 35 -49 35h-67l-42 -181h74q18 0 29.5 3.5t18.5 14t10 18.5t8 29q18 67 18 81z" />
    <glyph glyph-name="C" unicode="C" horiz-adv-x="521" 
d="M590 573q0 -16 -3 -35t-6 -32t-9.5 -36t-8.5 -32h-164q2 8 8.5 32.5t10 41.5t3.5 33q0 44 -53 44q-47 0 -57 -42l-83 -362q-6 -22 -6 -33q0 -21 12.5 -32t33.5 -11q30 0 50 20t41 138h174q-31 -132 -37 -152q-26 -77 -83 -104q-52 -25 -151 -25q-132 0 -183 60
q-30 34 -30 80q0 33 16 99l68 297q14 62 30 95q30 61 84 81t134 20q43 0 76 -5.5t65.5 -20t50 -44.5t17.5 -75z" />
    <glyph glyph-name="D" unicode="D" horiz-adv-x="542" 
d="M607 586q0 -27 -9 -67l-79 -346q-13 -55 -23.5 -83.5t-31.5 -51.5t-54 -30.5t-87 -7.5h-301l163 706h239q31 0 53.5 -1.5t48.5 -8.5t42.5 -19.5t27.5 -35.5t11 -55zM432 548q0 38 -45 38h-59l-108 -468h43q45 0 62 13t27 56l78 341q2 7 2 20z" />
    <glyph glyph-name="E" unicode="E" horiz-adv-x="437" 
d="M538 706l-28 -121h-183l-37 -162h174l-27 -119h-174l-42 -180h200l-28 -124h-373l163 706h355z" />
    <glyph glyph-name="F" unicode="F" horiz-adv-x="417" 
d="M540 706l-28 -120h-185l-37 -161h178l-28 -122h-178l-70 -303h-170l163 706h355z" />
    <glyph glyph-name="G" unicode="G" horiz-adv-x="542" 
d="M585 585q0 -19 -4 -40t-11 -48.5t-10 -39.5h-164q2 6 7.5 27t8.5 35.5t3 28.5q0 42 -45 42q-32 0 -48 -19.5t-24 -54.5l-75 -324q-4 -15 -4 -33q0 -23 14.5 -35.5t37.5 -12.5t38.5 15t21 30t12.5 41q6 23 13 56h-68l26 114h231l-84 -367h-163l16 68q-30 -42 -63.5 -61
t-82.5 -19q-60 0 -92.5 32.5t-32.5 92.5q0 28 5 62t9.5 54.5t16 64t14.5 55.5q7 30 21.5 91.5t22.5 92.5q14 58 30 89q52 98 209 98q141 0 192 -69q22 -30 22 -66z" />
    <glyph glyph-name="H" unicode="H" horiz-adv-x="562" 
d="M645 706l-163 -706h-172l69 297h-117l-69 -297h-172l163 706h172l-66 -287h117l66 287h172z" />
    <glyph glyph-name="I" unicode="I" horiz-adv-x="271" 
d="M355 706l-163 -706h-171l163 706h171z" />
    <glyph glyph-name="J" unicode="J" horiz-adv-x="375" 
d="M463 706l-119 -515q-17 -69 -24 -86q-28 -64 -73.5 -84.5t-124.5 -20.5h-105l29 127h41q48 0 65 16.5t28 66.5l111 496h172z" />
    <glyph glyph-name="K" unicode="K" horiz-adv-x="542" 
d="M661 706l-228 -327l87 -379h-175l-67 379l-88 -379h-169l163 706h169l-72 -312l198 312h182z" />
    <glyph glyph-name="L" unicode="L" horiz-adv-x="396" 
d="M402 120l-28 -120h-352l163 706h171l-135 -586h181z" />
    <glyph glyph-name="M" unicode="M" horiz-adv-x="771" 
d="M852 706l-163 -706h-160l134 525l-235 -525h-144l5 525l-108 -525h-160l164 706h235q-12 -387 -19 -498q61 146 216 498h235z" />
    <glyph glyph-name="N" unicode="N" horiz-adv-x="562" 
d="M645 706l-163 -706h-165q-42 338 -50 435l-86 -435h-159l163 706h166q34 -263 51 -438q13 82 86 438h157z" />
    <glyph glyph-name="O" unicode="O" horiz-adv-x="542" 
d="M598 565q0 -45 -26 -155l-57 -238q-16 -65 -34 -97q-31 -53 -84.5 -71t-128.5 -18q-211 0 -211 158q0 42 11 88l65 273q17 76 31 104q30 62 86 85.5t134 23.5q214 0 214 -153zM431 547q0 21 -13 32.5t-35 11.5q-26 0 -39 -9t-21 -34q-5 -16 -34 -128q-34 -130 -50 -196
q-14 -62 -14 -70q0 -41 53 -41q14 0 26 6t18.5 13t13 22.5t8.5 23t6.5 27.5t5.5 23q4 17 12.5 50t12.5 49q5 22 16 67t17 67q17 66 17 86z" />
    <glyph glyph-name="P" unicode="P" horiz-adv-x="521" 
d="M600 594q0 -16 -3.5 -39.5t-7.5 -40t-10.5 -44.5t-8.5 -36q-20 -89 -56 -120.5t-126 -31.5h-130l-66 -282h-171l164 706h264q70 0 110.5 -23.5t40.5 -88.5zM433 550q0 35 -44 35h-61l-41 -175h66q18 0 30 4.5t19 16.5t10 20.5t8 29.5q13 60 13 69z" />
    <glyph glyph-name="Q" unicode="Q" horiz-adv-x="542" 
d="M595 570q0 -46 -20 -134l-56 -241q-23 -102 -62 -148.5t-134 -55.5q-17 -54 -17 -63q0 -32 60 -32q15 0 43 2l-30 -102h-55q-86 0 -115 9q-57 19 -58 73q0 15 5 35.5t14 46.5t11 35q-62 17 -92.5 53t-30.5 99q0 39 9 77l63 276q18 75 28 99q29 68 86 94.5t140 26.5
q211 0 211 -150zM428 550q0 43 -51 43q-31 0 -42.5 -15.5t-20.5 -51.5l-85 -339q-4 -20 -4 -29q0 -43 50 -43q20 0 33 6t21 21t11.5 25.5t8.5 32.5l73 316q6 22 6 34z" />
    <glyph glyph-name="R" unicode="R" horiz-adv-x="542" 
d="M184 706h206q42 0 67 -1q29 -2 50.5 -6.5t43.5 -16t33.5 -34.5t11.5 -56q0 -28 -9.5 -74.5t-21.5 -72.5q-9 -24 -30 -43q-17 -16 -41 -26t-37.5 -12t-19.5 -2q10 -1 19 -3.5t29 -10.5t32.5 -26t12.5 -42q0 -23 -7 -51l-21 -107q-13 -69 -13 -77q0 -31 30 -42v-6l-147 5
q-51 0 -51 45q0 16 6 42l27 127q7 28 7 43q0 38 -51 38h-49l-68 -297h-172zM328 585l-38 -164h54q36 0 52 13t23 50l9 43l2 11q1 10 1 16q0 31 -49 31h-54z" />
    <glyph glyph-name="S" unicode="S" horiz-adv-x="521" 
d="M576 586q0 -28 -18 -104h-163q16 64 16 76q0 19 -13 29t-32 10q-33 0 -51 -30q-6 -10 -11.5 -34.5t-5.5 -37.5q0 -19 10 -34q4 -7 29.5 -27t57 -43.5t38.5 -29.5q52 -41 67 -69q12 -22 12 -57q0 -41 -17 -97.5t-41 -84.5q-54 -65 -197 -65q-219 0 -219 138q0 37 21 117
h171q-20 -69 -20 -91q0 -47 51 -47q29 0 47 19q11 12 19.5 40.5t8.5 47.5q0 5 -1 10t-2 9t-4 8.5t-4.5 7.5t-5.5 7t-6 6.5t-7.5 6.5t-7.5 5.5t-7.5 6t-7.5 5.5q-6 5 -32.5 24.5t-44.5 33t-37 31.5t-26 31q-14 25 -14 59q0 40 21.5 106t45.5 94q47 55 168 55q212 0 212 -132z
" />
    <glyph glyph-name="T" unicode="T" horiz-adv-x="417" 
d="M548 706l-28 -122h-118l-135 -584h-172l135 584h-129l29 122h418z" />
    <glyph glyph-name="U" unicode="U" horiz-adv-x="542" 
d="M631 706l-116 -504q-14 -62 -29 -95q-54 -119 -224 -119q-89 0 -149.5 36.5t-60.5 119.5q0 38 25 149l97 413h171l-117 -504q-5 -22 -5 -39q0 -42 52 -42q18 0 30.5 6.5t20 20t11.5 24.5t8 30l117 504h169z" />
    <glyph glyph-name="V" unicode="V" 
d="M632 706l-296 -706h-238l31 706h165q-2 -36 -8.5 -136t-10.5 -151t-12 -131t-17 -146q27 90 52 158l150 406h184z" />
    <glyph glyph-name="W" unicode="W" horiz-adv-x="812" 
d="M944 706l-259 -706h-214q17 417 26 527q-36 -115 -106 -282l-103 -245h-219l63 706h168l-34 -243q-30 -217 -50 -308q25 74 34 97l183 454h206l-33 -541q22 99 47 176l120 365h171z" />
    <glyph glyph-name="X" unicode="X" 
d="M617 706l-206 -335l58 -371h-167l-27 266l-126 -266h-182l226 398l-63 308h169l29 -209l106 209h183z" />
    <glyph glyph-name="Y" unicode="Y" horiz-adv-x="521" 
d="M655 706l-196 -317q-10 -17 -32 -49.5t-38 -58.5t-28 -51q-3 -5 -15 -63q-24 -100 -38 -167h-169l56 244l-66 462h167l24 -288l144 288h191z" />
    <glyph glyph-name="Z" unicode="Z" horiz-adv-x="479" 
d="M576 706l-30 -130l-352 -446h249l-30 -130h-439l30 130l356 453h-238l29 123h425z" />
    <glyph glyph-name="bracketleft" unicode="[" horiz-adv-x="354" 
d="M476 706l-15 -64h-109l-186 -784h108l-14 -62h-259l217 910h258z" />
    <glyph glyph-name="backslash" unicode="\" horiz-adv-x="292" 
d="M265 0h-118l-17 706h116z" />
    <glyph glyph-name="bracketright" unicode="]" horiz-adv-x="354" 
d="M403 706l-215 -910h-258l14 62h112l181 784h-107l15 64h258z" />
    <glyph glyph-name="asciicircum" unicode="^" horiz-adv-x="559" 
d="M573 358h-147l-36 215l-139 -214h-159l253 347h137z" />
    <glyph glyph-name="underscore" unicode="_" 
d="M435 -229h-520l25 108h520z" />
    <glyph glyph-name="grave" unicode="`" horiz-adv-x="250" 
d="M247 606h-122l-141 124h168z" />
    <glyph glyph-name="a" unicode="a" horiz-adv-x="479" 
d="M504 429q0 -24 -9 -60l-71 -308q-3 -12 -3 -26q0 -24 14 -35h-182l14 56q-79 -70 -144 -70q-47 0 -76 25.5t-29 71.5q0 38 18.5 93.5t42.5 79.5q13 12 37 24.5t57.5 24t58.5 19.5t62 18t46 13q1 6 4.5 19t5.5 23.5t2 19.5q0 30 -43 30q-8 0 -14.5 -1.5t-11.5 -2.5
t-9.5 -5.5t-7.5 -6.5t-6 -8.5t-4.5 -8.5t-4.5 -10.5t-3.5 -11t-3 -12t-3.5 -11.5h-152q19 85 40 113q48 64 187 64q188 0 188 -117zM317 251q-4 -1 -19.5 -5.5t-26 -8t-24 -9t-23.5 -11.5t-15 -12q-9 -11 -17 -35q-10 -35 -10 -47q0 -33 37 -33q27 0 65 32z" />
    <glyph glyph-name="b" unicode="b" 
d="M525 438q0 -44 -29.5 -178.5t-47.5 -172.5q-49 -100 -149 -100q-75 0 -107 72l-14 -59h-162l163 706h162l-52 -227q27 36 55.5 53t69.5 17q51 0 81 -30t30 -81zM365 401q0 19 -12 30t-31 11t-33 -11.5t-19 -30.5l-56 -246q-2 -7 -2 -20q0 -18 11.5 -28.5t29.5 -10.5
q45 0 58 57l47 208q7 33 7 41z" />
    <glyph glyph-name="c" unicode="c" horiz-adv-x="489" 
d="M517 411q0 -21 -13 -75h-154q14 51 14 68t-11 26t-28 9q-31 0 -44.5 -17.5t-21.5 -51.5l-49 -214q-2 -7 -2 -20q0 -19 11.5 -30t30.5 -11q46 0 63 84q1 5 2 7h161q-9 -39 -16.5 -62t-22 -50t-37 -44.5t-55.5 -28.5q-42 -15 -97 -15q-51 0 -92.5 12.5t-72 46t-30.5 85.5
q0 22 4.5 51t9 49t13.5 54.5t12 47.5q18 76 29 102q14 34 35.5 57t49.5 35t57.5 17t67.5 5q48 0 88 -12t69 -44t29 -81z" />
    <glyph glyph-name="d" unicode="d" 
d="M595 706l-163 -706h-161l17 65q-61 -75 -130 -75q-51 0 -82 30t-31 81q0 39 29 160q28 120 30 128q8 33 23 68q18 41 43 62q35 30 93 30q38 0 72 -18t47 -51l52 226h161zM361 401q0 41 -42 41q-27 0 -39 -18.5t-19 -50.5l-46 -200q-7 -33 -7 -43q0 -18 11.5 -28.5
t29.5 -10.5q15 0 26 6.5t17.5 19.5t10 23t7.5 26l48 207q3 14 3 28z" />
    <glyph glyph-name="e" unicode="e" 
d="M517 419q0 -22 -4 -49t-8 -44.5t-12 -51t-11 -44.5h-256q-17 -78 -17 -97q0 -37 46 -37q14 0 24.5 5t16 10t10.5 19t6 19.5t5 23.5h162q-10 -40 -15.5 -56.5t-21 -43t-37.5 -44.5q-54 -43 -157 -43q-82 0 -138 34t-56 110q0 19 6 59q8 54 28 136t36 117q50 107 199 107
q194 0 194 -130zM365 401q0 41 -45 41q-14 0 -25 -6t-17.5 -13.5t-12 -22.5t-7.5 -23t-5.5 -26.5t-4.5 -22.5h103q1 7 5.5 22.5t6.5 27.5t2 23z" />
    <glyph glyph-name="f" unicode="f" horiz-adv-x="313" 
d="M447 707l-23 -98q-7 1 -21 1q-15 0 -26 -2.5t-17 -4.5t-10.5 -11.5t-6 -12.5t-5 -20t-5.5 -23h70l-23 -97h-70l-101 -439h-160l101 439h-64l22 97h65q22 95 33 116q22 44 81 54q27 4 65 4q47 0 95 -3z" />
    <glyph glyph-name="g" unicode="g" 
d="M559 536l-125 -542q-9 -40 -13 -56t-15.5 -48.5t-24 -49t-34 -35.5t-50.5 -30q-44 -17 -108 -17q-36 0 -68 6t-62 19.5t-48 41t-18 65.5q0 23 9 55h158q-9 -38 -9 -51q0 -37 42 -37q29 0 42 17.5t20 49.5l34 141q-60 -74 -130 -74q-54 0 -81.5 32t-27.5 86q0 51 28 166.5
t51 166.5q21 49 45 70q39 36 98 36q86 0 111 -76l15 64h161zM365 403q0 19 -12.5 29t-31.5 10q-45 0 -61 -65l-44 -189q-7 -28 -7 -48q0 -43 40 -43q26 0 41.5 19t21.5 47l51 222q2 12 2 18z" />
    <glyph glyph-name="h" unicode="h" 
d="M528 444q0 -15 -6 -45l-91 -399h-159l87 377q3 12 3 25q0 19 -11.5 30t-30.5 11q-39 0 -51 -49l-91 -394h-159l163 706h159l-53 -230q57 70 130 70q50 0 80 -26.5t30 -75.5z" />
    <glyph glyph-name="i" unicode="i" horiz-adv-x="250" 
d="M341 706l-28 -120h-159l28 120h159zM301 536l-124 -536h-158l123 536h159z" />
    <glyph glyph-name="j" unicode="j" horiz-adv-x="250" 
d="M341 706l-27 -119h-158l28 119h157zM302 536l-134 -580q-23 -99 -61 -126.5t-141 -27.5q-10 0 -31 0.5t-31 0.5l24 105h27t18.5 2.5t17.5 7.5t10 15.5t10 26.5l133 576h158z" />
    <glyph glyph-name="k" unicode="k" 
d="M601 536l-208 -231l92 -305h-164l-76 288l-66 -288h-159l163 706h159l-86 -372l166 202h179z" />
    <glyph glyph-name="l" unicode="l" horiz-adv-x="250" 
d="M342 706l-163 -706h-160l163 706h160z" />
    <glyph glyph-name="m" unicode="m" horiz-adv-x="771" 
d="M802 458q0 -17 -6 -47l-95 -411h-162l88 380q2 7 2 21q0 19 -11 30t-30 11q-44 0 -58 -61l-88 -381h-163l89 386q2 7 2 20q0 18 -11 28.5t-29 10.5q-48 0 -61 -59l-89 -386h-160l123 536h161l-14 -62q21 34 61.5 54t82.5 20q39 0 68 -18.5t33 -55.5q59 75 157 75
q47 0 78.5 -23t31.5 -68z" />
    <glyph glyph-name="n" unicode="n" 
d="M529 450q0 -26 -6 -51l-92 -399h-160l87 377q2 12 2 19q0 44 -37 44q-46 0 -60 -64l-87 -376h-156l123 536h157l-12 -54q63 66 141 66q47 0 73.5 -25.5t26.5 -72.5z" />
    <glyph glyph-name="o" unicode="o" 
d="M519 403q0 -47 -36 -196q-15 -62 -28 -97t-38 -66t-64.5 -43.5t-101.5 -12.5q-197 0 -197 144q0 18 2 37t7 43.5t7.5 37.5t10.5 43.5t9 36.5q16 72 30 104q28 65 77.5 90.5t125.5 25.5q196 0 196 -147zM364 404q0 18 -12 28.5t-31 10.5q-26 0 -38.5 -16t-19.5 -45
l-49 -214q-5 -25 -5 -31q0 -19 12 -30.5t32 -11.5q13 0 23 5t15 9.5t10 18t6 18t5 21.5l49 215q3 10 3 22z" />
    <glyph glyph-name="p" unicode="p" 
d="M532 440q0 -30 -8 -64l-52 -226q-18 -77 -52 -120t-105 -43q-45 0 -77 21.5t-41 63.5l-62 -265h-160l168 729h161l-18 -68q32 41 62 60t76 19q50 0 79 -29t29 -78zM368 405q0 18 -11.5 29.5t-29.5 11.5q-45 0 -56 -50l-51 -221q-5 -22 -5 -39q0 -19 11 -30.5t30 -11.5
q42 0 56 56l48 209q8 40 8 46z" />
    <glyph glyph-name="q" unicode="q" 
d="M554 536l-169 -733h-160l58 251q-55 -66 -124 -66q-52 0 -83.5 26.5t-31.5 77.5q0 45 29 177t48 176q44 104 142 104q93 0 117 -76l14 63h160zM360 403q0 41 -44 41q-25 0 -42 -25q-14 -20 -42 -137.5t-28 -147.5q0 -19 11 -31t30 -12q29 0 42 19.5t21 54.5l45 192
q7 26 7 46z" />
    <glyph glyph-name="r" unicode="r" horiz-adv-x="333" 
d="M438 545l-39 -149q-5 0 -16 0.5t-17 0.5q-29 0 -49.5 -7.5t-32 -16t-21.5 -30.5t-13.5 -35.5t-11.5 -46.5l-60 -261h-158l124 536h158l-25 -107q30 59 62.5 82t98.5 34z" />
    <glyph glyph-name="s" unicode="s" horiz-adv-x="458" 
d="M490 425q0 -19 -8 -55h-151q9 29 9 41q0 15 -11.5 23.5t-26.5 8.5q-24 0 -37 -14t-13 -38q0 -20 29.5 -43.5t65 -44t65 -54t29.5 -71.5q0 -30 -12 -67.5t-30 -59.5q-51 -62 -175 -62q-36 0 -67 5.5t-62 18.5t-49.5 39.5t-18.5 64.5q0 30 12 66h154q-11 -31 -11 -52
q0 -35 39 -35q26 0 39 17t13 44q0 13 -6 24q-9 14 -92 73q-28 21 -41 32t-27 34t-14 50q0 25 10.5 59t24.5 53q51 66 176 66q45 0 84 -9.5t70.5 -39t31.5 -74.5z" />
    <glyph glyph-name="t" unicode="t" horiz-adv-x="313" 
d="M394 536l-22 -97h-70l-65 -278q-4 -20 -4 -30q0 -7 2 -12.5t7 -8.5t9 -5t11.5 -2.5t12 -0.5h12.5h11l-24 -102h-77q-135 0 -135 80q0 18 8 52l75 307h-65l22 97h66l39 170h157l-40 -170h70z" />
    <glyph glyph-name="u" unicode="u" 
d="M556 536l-124 -536h-161l13 56q-61 -66 -137 -66q-49 0 -76.5 25.5t-27.5 75.5q0 25 7 56l90 389h161l-80 -350q-9 -38 -9 -51q0 -17 10.5 -28t27.5 -11q16 0 27.5 7.5t18.5 24.5t9.5 25t7.5 29l82 354h161z" />
    <glyph glyph-name="v" unicode="v" horiz-adv-x="437" 
d="M537 536l-240 -536h-215l12 536h155q-3 -42 -9.5 -126t-9.5 -126q-10 -132 -19 -197q38 126 57 180q19 53 58 154.5t44 114.5h167z" />
    <glyph glyph-name="w" unicode="w" horiz-adv-x="729" 
d="M830 536l-242 -536h-172q0 184 13 400q-19 -61 -42.5 -124.5t-59 -152.5t-48.5 -123h-176l-7 536h154q-17 -325 -26 -410q2 8 16.5 54t22.5 70q19 56 57 159.5t46 126.5h181q-2 -35 -6 -124.5t-7 -138.5q-1 -24 -14 -147q22 84 37 124l107 286h166z" />
    <glyph glyph-name="x" unicode="x" horiz-adv-x="458" 
d="M543 536l-181 -269l72 -267h-156l-34 156l-93 -156h-175l201 286l-72 250h158l30 -146l84 146h166z" />
    <glyph glyph-name="y" unicode="y" horiz-adv-x="437" 
d="M537 536l-217 -495q-53 -121 -78 -155q-44 -60 -127 -75q-41 -7 -102 -7q-12 0 -35.5 0.5t-35.5 0.5l22 118h36q23 0 34.5 1.5t23.5 7t16.5 18.5t4.5 35v9l16 542h159l-44 -471q10 50 29 104l125 367h173z" />
    <glyph glyph-name="z" unicode="z" horiz-adv-x="417" 
d="M487 536l-23 -98l-265 -330h206l-25 -108h-398l23 103l270 332h-181l23 101h370z" />
    <glyph glyph-name="braceleft" unicode="{" horiz-adv-x="396" 
d="M509 707l-17 -73q-24 -2 -29 -2q-30 -3 -43 -12q-9 -5 -16 -17q-7 -13 -12 -32q0 -2 -4.5 -17t-6.5 -27l-24 -108q-5 -24 -19 -65q-15 -46 -41 -69q-32 -27 -89 -35l-2 -6q28 -9 39 -16q41 -25 41 -80q0 -35 -15 -100l-18 -76q-9 -38 -9 -57q0 -28 21 -36q12 -5 51 -7
l-17 -73h-20q-76 0 -113 17q-55 27 -55 92q0 31 13 84l24 99q8 32 8 58q0 30 -14 44.5t-49 22.5l20 86q51 4 73.5 30.5t40.5 102.5l24 101q15 65 30 94.5t43 48.5q24 17 56 22.5t104 5.5h25z" />
    <glyph glyph-name="bar" unicode="|" horiz-adv-x="229" 
d="M313 707l-210 -906h-127l210 906h127z" />
    <glyph glyph-name="braceright" unicode="}" horiz-adv-x="396" 
d="M366 291l-20 -86q-51 -4 -73 -30.5t-40 -102.5l-24 -101q-15 -64 -30 -93.5t-43 -49.5q-24 -17 -56 -22.5t-104 -5.5h-25l16 73q5 0 15 0.5t14 1.5q31 3 44 12q8 5 15 16q8 14 13 33q7 30 10 44l25 107q6 27 18 65q15 47 41 70q30 25 90 34l1 6q-25 8 -39 17
q-40 23 -40 80q0 38 14 99l18 77q10 42 10 57q0 28 -21 36q-12 5 -52 7l17 73h20q76 0 113 -17q55 -27 55 -93q0 -30 -13 -83l-23 -99q-9 -36 -9 -58q0 -30 14 -44.5t49 -22.5z" />
    <glyph glyph-name="asciitilde" unicode="~" horiz-adv-x="559" 
d="M538 275q-37 -33 -65 -49q-36 -20 -70 -20q-31 0 -84 27l-23 12q-41 21 -70 21q-22 0 -40 -9.5t-46 -37.5l-9 -9l-22 126q29 29 49 43q37 26 82 26q15 0 29 -3q22 -6 50 -20l41 -20q37 -18 54 -18q25 0 52 16q19 13 49 39z" />
    <glyph glyph-name="exclamdown" unicode="&#xa1;" horiz-adv-x="292" 
d="M331 706l-35 -153h-149l36 153h148zM250 476l-34 -227q-1 -7 -6.5 -49t-10.5 -64q-5 -23 -15.5 -68t-15.5 -68h-148q5 21 14.5 63.5t14.5 63.5q4 18 10 37t14 42.5t12 36.5l73 233h92z" />
    <glyph glyph-name="cent" unicode="&#xa2;" horiz-adv-x="479" 
d="M517 408q0 -33 -13 -72h-154q14 51 14 68t-11 26t-28 9q-33 0 -45.5 -16.5t-20.5 -52.5l-49 -214q-2 -7 -2 -20q0 -19 11.5 -30t30.5 -11q46 0 63 84q1 5 2 7h161q-10 -43 -17 -65.5t-22 -49.5t-39 -43.5t-60 -28.5q-40 -13 -86 -13l-30 -128h-77l31 136
q-123 29 -123 136q0 17 2 36.5t7 42.5t8 37t10.5 42t9.5 36q21 84 26 97q45 121 187 124l25 110h78l-26 -113q5 -1 21 -4.5t25 -6.5q91 -29 91 -123z" />
    <glyph glyph-name="sterling" unicode="&#xa3;" horiz-adv-x="646" 
d="M649 581q0 -18 -2.5 -35t-9.5 -45t-8 -33h-152q18 72 18 87q0 48 -51 48q-24 0 -45 -21q-14 -15 -22 -57t-8 -72q0 -24 11 -86h199l-13 -57h-176q8 -44 8 -67q0 -41 -27 -105q24 -15 43 -15q26 0 43 23q14 19 28 90h155q-2 -8 -8 -36.5t-8.5 -39.5t-9.5 -36.5t-13 -36.5
t-16 -30.5t-22 -29t-27.5 -20t-35.5 -15t-43 -4.5q-79 0 -141 65q-63 -66 -154 -66q-60 0 -102 32t-42 90t41 95.5t100 37.5t113 -37q1 6 1 19q0 34 -19 86h-155l13 57h124q-21 82 -21 130q0 222 234 222q38 0 70.5 -6t63.5 -20.5t48.5 -43t17.5 -68.5zM253 116
q-44 50 -84 50q-25 0 -42 -13.5t-17 -38.5q0 -23 17.5 -35.5t41.5 -12.5q40 0 84 50z" />
    <glyph glyph-name="currency" unicode="&#xa4;" horiz-adv-x="687" 
d="M729 550l-86 -76q24 -54 24 -101q0 -104 -60 -188l68 -84l-107 -93l-68 84q-65 -33 -130 -33q-44 0 -76 10.5t-70 37.5l-87 -77l-82 102l87 76q-25 54 -25 108q0 101 60 178l-67 83l106 93l66 -82q65 34 134 34q74 0 144 -48l87 77zM522 356q0 58 -33.5 94.5t-85.5 36.5
q-59 0 -99.5 -47t-40.5 -115q0 -57 33 -94t83 -37q59 0 101 47.5t42 114.5z" />
    <glyph glyph-name="yen" unicode="&#xa5;" horiz-adv-x="521" 
d="M655 706l-168 -274h73l-23 -93h-110l-37 -63h130l-20 -93h-150l-41 -183h-170l42 183h-147l24 93h132l-8 63h-110l23 93h74l-40 274h167l23 -291l145 291h191z" />
    <glyph glyph-name="brokenbar" unicode="&#xa6;" horiz-adv-x="229" 
d="M313 707l-89 -383h-127l89 383h127zM192 184l-89 -383h-127l89 383h127z" />
    <glyph glyph-name="section" unicode="&#xa7;" horiz-adv-x="458" 
d="M517 635l-74 -80q-64 58 -113 58q-40 0 -40 -27q0 -17 29.5 -40t65 -45t65 -60t29.5 -80q0 -88 -94 -136q39 -47 39 -93q0 -72 -54 -108t-129 -36q-136 0 -220 108l78 81q22 -23 37.5 -37t41 -27.5t50.5 -13.5q16 0 29.5 7t13.5 22q0 14 -19 31t-46 36t-54 41t-46 54
t-19 67q0 89 93 129q-44 41 -44 92q0 67 55 104t125 37q118 0 201 -84zM369 314q0 15 -12 30q-8 10 -32.5 29.5t-60.5 45.5t-40 29q-25 -25 -25 -48q0 -16 12 -33q14 -20 129 -101q29 25 29 48z" />
    <glyph glyph-name="dieresis" unicode="&#xa8;" horiz-adv-x="250" 
d="M366 729l-28 -125h-141l29 125h140zM145 729l-29 -125h-139l29 125h139z" />
    <glyph glyph-name="copyright" unicode="&#xa9;" horiz-adv-x="833" 
d="M820 354q0 -151 -103 -254t-254 -103q-148 0 -251.5 104t-103.5 252q0 149 104 252.5t252 103.5q149 0 252.5 -103t103.5 -252zM769 352q0 132 -88.5 222.5t-216.5 90.5q-126 0 -215.5 -91.5t-89.5 -220.5q0 -130 88.5 -221t215.5 -91t216.5 91t89.5 220zM639 491
q0 -24 -5 -43l-9 -35h-103l9 40q4 20 4 24q0 30 -40 30q-25 0 -36.5 -14t-21.5 -55l-37 -162q-6 -26 -6 -35q0 -33 41 -33q23 0 34 11.5t18 41.5l10 43h103l-9 -39q-1 -4 -3 -13t-4 -14q-14 -51 -32 -73q-36 -44 -119 -44q-69 0 -106.5 26t-37.5 74q0 25 7 56l43 181
q17 68 56 100t109 32q66 0 100.5 -25.5t34.5 -73.5z" />
    <glyph glyph-name="ordfeminine" unicode="&#xaa;" horiz-adv-x="313" 
d="M395 642q0 -18 -5 -38l-44 -192q-2 -10 -2 -16q0 -13 11 -23h-118l8 32q-45 -40 -87 -40q-29 0 -48 15.5t-19 44.5q0 27 11.5 61.5t28.5 50.5q31 28 160 59q7 28 7 38q0 17 -25 17q-18 0 -28.5 -14.5t-12.5 -33.5h-97q1 4 5.5 21.5t8.5 29t9 19.5q31 43 119 43
q118 0 118 -74zM276 528q-3 -1 -14 -4t-16 -4.5t-13.5 -5.5t-13 -8t-9.5 -10.5t-8 -14.5q-6 -21 -6 -30q0 -19 23 -19q13 0 37 19z" />
    <glyph glyph-name="guillemotleft" unicode="&#xab;" horiz-adv-x="437" 
d="M472 482l-34 -145l-81 -57l55 -57l-30 -127l-130 127l29 127zM272 482l-33 -144l-83 -57l56 -58l-29 -125l-131 125l30 128z" />
    <glyph glyph-name="logicalnot" unicode="&#xac;" horiz-adv-x="559" 
d="M533 362l-70 -310h-158l42 186h-265l29 124h422z" />
    <glyph glyph-name="registered" unicode="&#xae;" horiz-adv-x="833" 
d="M819 354q0 -151 -103 -254t-254 -103q-148 0 -251.5 104t-103.5 252q0 149 103.5 252.5t252.5 103.5t252.5 -103t103.5 -252zM768 352q0 132 -88.5 222.5t-216.5 90.5q-126 0 -215.5 -91.5t-89.5 -220.5q0 -130 88.5 -221t215.5 -91t216.5 91t89.5 220zM634 497
q0 -14 -3 -26l-14 -60q-9 -39 -26 -57t-53 -28l39 -183h-104l-29 176h-13l-41 -176h-102l101 433h127q65 0 91.5 -18t26.5 -61zM530 474q0 13 -7.5 17.5t-29.5 4.5h-21l-21 -92h21q27 0 37.5 6.5t14.5 26.5l5 21q1 6 1 16z" />
    <glyph glyph-name="macron" unicode="&#xaf;" horiz-adv-x="250" 
d="M339 691l-19 -87h-325l20 87h324z" />
    <glyph glyph-name="degree" unicode="&#xb0;" horiz-adv-x="354" 
d="M396 573q0 -71 -50.5 -122t-121.5 -51t-121.5 51t-50.5 122q0 72 50 122t122 50t122 -50t50 -122zM281 575q0 23 -16.5 39t-39.5 16t-39.5 -16t-16.5 -39t16.5 -39.5t39.5 -16.5t39.5 16.5t16.5 39.5z" />
    <glyph glyph-name="plusminus" unicode="&#xb1;" horiz-adv-x="559" 
d="M556 458l-29 -125h-119l-34 -146h-155l33 146h-121l29 125h121l34 146h155l-33 -146h119zM480 126l-29 -126h-397l29 126h397z" />
    <glyph glyph-name="twosuperior" unicode="&#xb2;" horiz-adv-x="333" 
d="M409 624q0 -32 -11 -73.5t-28 -64.5q-19 -25 -88.5 -65t-84.5 -74h167l-19 -82h-279q5 41 14.5 70t17 46.5t33 39t38 30.5t58.5 39q48 29 57 42q7 9 14.5 36.5t7.5 41.5q0 26 -31 26q-10 0 -18.5 -6.5t-13.5 -20t-8 -22.5t-6.5 -26t-3.5 -19h-101q1 6 4 16q18 85 38 111
q32 44 118 44q125 0 125 -89z" />
    <glyph glyph-name="threesuperior" unicode="&#xb3;" horiz-adv-x="333" 
d="M406 629q0 -21 -8 -56.5t-18 -48.5q-21 -28 -48 -28q39 -9 39 -51q0 -22 -13 -74q-18 -66 -50 -89.5t-101 -23.5q-123 0 -123 93q0 25 11 64h99q-11 -42 -11 -59q0 -27 34 -27q5 0 9.5 1t8.5 3.5t6.5 4t5 6.5t4 7t3 8l2 8t2.5 9t2 8q9 38 9 52q0 22 -44 22
q-5 0 -14.5 -0.5t-14.5 -0.5l18 77q6 0 16.5 -0.5t15.5 -0.5q33 0 44 12q6 7 12 32.5t6 37.5q0 26 -28 26q-13 0 -21.5 -4t-13.5 -13t-7 -15.5t-5 -21t-4 -19.5h-99q3 10 8.5 33.5t9.5 36.5q15 45 49.5 61t87.5 16q49 0 85 -20t36 -66z" />
    <glyph glyph-name="acute" unicode="&#xb4;" horiz-adv-x="250" 
d="M338 730l-138 -125h-121l93 125h166z" />
    <glyph glyph-name="mu" unicode="&#xb5;" 
d="M556 536l-110 -475q-3 -14 -3 -25q0 -23 14 -36h-173l5 56q-14 -32 -29.5 -45.5t-39.5 -13.5q-23 0 -39 16l-48 -206h-161l168 729h161l-80 -350q-7 -29 -7 -32q-2 -10 -2 -18q0 -18 10.5 -29t27.5 -11q24 0 38 18.5t25 67.5l82 354h161z" />
    <glyph glyph-name="paragraph" unicode="&#xb6;" horiz-adv-x="574" 
d="M643 706l-21 -88h-36l-181 -786h-95l182 786h-83l-181 -785h-97l108 468q-36 15 -54 30q-61 47 -61 138q0 115 83 182q38 30 89.5 42.5t138.5 12.5h208z" />
    <glyph glyph-name="periodcentered" unicode="&#xb7;" horiz-adv-x="250" 
d="M267 426l-36 -152h-149l35 152h150z" />
    <glyph glyph-name="cedilla" unicode="&#xb8;" horiz-adv-x="250" 
d="M120 -122q0 -46 -36 -71t-84 -25q-40 0 -90 26v45q41 -15 58 -15q21 0 36 13t15 33q0 16 -12 26t-28 10q-6 0 -18 -2l-5 26l58 56h82l-48 -56q72 -9 72 -66z" />
    <glyph glyph-name="onesuperior" unicode="&#xb9;" horiz-adv-x="333" 
d="M359 706l-103 -441h-99l74 320q-27 -16 -74 -29l23 94q27 0 56 16.5t39 39.5h84z" />
    <glyph glyph-name="ordmasculine" unicode="&#xba;" horiz-adv-x="313" 
d="M394 626q0 -26 -17 -102.5t-28 -97.5q-33 -63 -119 -63q-128 0 -128 92q0 27 17 100t29 95q20 38 49.5 51.5t75.5 13.5q51 0 86 -21t35 -68zM295 623q0 23 -25 23q-12 0 -19 -6t-9.5 -12t-5.5 -19l-31 -133q-3 -18 -3 -19q0 -24 26 -24q11 0 18.5 7t10 13.5t5.5 19.5
q0 1 0.5 2t0.5 2l31 133q1 4 1 13z" />
    <glyph glyph-name="guillemotright" unicode="&#xbb;" horiz-adv-x="437" 
d="M456 356l-30 -128l-189 -130l33 143l83 57l-57 58l30 125zM257 356l-30 -128l-190 -131l33 143l82 60l-55 56l30 128z" />
    <glyph glyph-name="onequarter" unicode="&#xbc;" horiz-adv-x="792" 
d="M803 442l-63 -274h41l-16 -73h-41l-23 -95h-100l23 93h-162l17 77l193 272h131zM643 706l-348 -706h-79l348 706h79zM359 706l-103 -441h-99l74 320q-27 -16 -74 -29l23 94q27 0 56 16.5t39 39.5h84zM690 359q-25 -38 -125 -189h78q36 151 47 189z" />
    <glyph glyph-name="onehalf" unicode="&#xbd;" horiz-adv-x="792" 
d="M807 359q0 -32 -11 -73.5t-28 -64.5q-19 -25 -88.5 -65t-84.5 -74h167l-19 -82h-279q9 63 26.5 104t60.5 73q10 7 41 26.5t56.5 36.5t33.5 28q7 9 14.5 36t7.5 41q0 26 -31 26q-10 0 -18.5 -6.5t-13.5 -20t-8 -22.5t-6.5 -26t-3.5 -19h-101q1 6 4 17q19 84 38 110
q34 44 117 44q126 0 126 -89zM631 706l-348 -706h-79l348 706h79zM359 706l-103 -441h-99l74 320q-27 -16 -74 -29l23 94q27 0 56 16.5t39 39.5h84z" />
    <glyph glyph-name="threequarters" unicode="&#xbe;" horiz-adv-x="792" 
d="M803 442l-63 -274h41l-16 -73h-41l-23 -95h-100l23 93h-162l17 77l193 272h131zM673 706l-349 -706h-79l348 706h80zM406 629q0 -21 -8 -56.5t-18 -48.5q-21 -28 -48 -28q39 -9 39 -51q0 -22 -13 -74q-18 -66 -50 -89.5t-101 -23.5q-123 0 -123 93q0 25 11 64h99
q-11 -42 -11 -59q0 -27 34 -27q5 0 9.5 1t8.5 3.5t6.5 4t5 6.5t4 7t3 8l2 8t2.5 9t2 8q9 38 9 52q0 22 -44 22q-5 0 -14.5 -0.5t-14.5 -0.5l18 77q6 0 16.5 -0.5t15.5 -0.5q33 0 44 12q6 7 12 32.5t6 37.5q0 26 -28 26q-13 0 -21.5 -4t-13.5 -13t-7 -15.5t-5 -21t-4 -19.5
h-99q3 10 8.5 33.5t9.5 36.5q15 45 49.5 61t87.5 16q49 0 85 -20t36 -66zM690 359q-25 -38 -125 -189h78q36 151 47 189z" />
    <glyph glyph-name="questiondown" unicode="&#xbf;" horiz-adv-x="458" 
d="M467 707l-36 -153h-150l36 153h150zM423 201q-12 -54 -19 -81q-14 -51 -34.5 -77.5t-65.5 -41.5q-41 -14 -103 -14q-177 0 -177 127q0 35 14 82q11 39 25 57.5t48 43.5q13 9 37.5 26t30.5 21q47 33 60 53.5t24 78.5h150l-5.5 -27.5t-7.5 -33t-8.5 -28.5t-12 -31
t-14.5 -23q-19 -23 -55 -46.5t-64.5 -39.5t-50.5 -46.5t-22 -71.5q0 -37 37 -37q23 0 38 15q13 12 29 94h146z" />
    <glyph glyph-name="Agrave" unicode="&#xc0;" horiz-adv-x="542" 
d="M512 753h-122l-141 124h169zM565 706l-51 -706h-168l15 157h-131l-60 -157h-183l303 706h275zM404 641l-129 -363h97z" />
    <glyph glyph-name="Aacute" unicode="&#xc1;" horiz-adv-x="542" 
d="M604 878l-137 -124h-122l93 124h166zM565 706l-51 -706h-168l15 157h-131l-60 -157h-183l303 706h275zM404 641l-129 -363h97z" />
    <glyph glyph-name="Acircumflex" unicode="&#xc2;" horiz-adv-x="542" 
d="M586 753h-105l-37 62l-66 -62h-123l133 125h127zM565 706l-51 -706h-168l15 157h-131l-60 -157h-183l303 706h275zM404 641l-129 -363h97z" />
    <glyph glyph-name="Atilde" unicode="&#xc3;" horiz-adv-x="542" 
d="M602 877q-7 -52 -32.5 -85.5t-74.5 -33.5q-27 0 -71 17.5t-63 17.5q-29 0 -40 -29h-46q8 54 31.5 85.5t73.5 31.5q26 0 69 -17t64 -17q29 0 44 30h45zM565 706l-51 -706h-168l15 157h-131l-60 -157h-183l303 706h275zM404 641l-129 -363h97z" />
    <glyph glyph-name="Adieresis" unicode="&#xc4;" horiz-adv-x="542" 
d="M643 876l-30 -125h-139l29 125h140zM421 876l-29 -125h-139l29 125h139zM564 706l-50 -706h-168l15 157h-130l-61 -157h-183l303 706h274zM404 640l-128 -362h96z" />
    <glyph glyph-name="Aring" unicode="&#xc5;" horiz-adv-x="542" 
d="M554 809q0 -40 -31 -63t-72 -23q-43 0 -74.5 23t-31.5 64q0 44 29 65t74 21q43 0 74.5 -22.5t31.5 -64.5zM564 706l-49 -706h-169l15 157h-130l-61 -157h-183l303 706h274zM496 809q0 19 -14 33.5t-34 14.5q-19 0 -33 -14t-14 -34q0 -19 14 -33t33 -14q20 0 34 14t14 33z
M404 642l-129 -364h97z" />
    <glyph glyph-name="AE" unicode="&#xc6;" horiz-adv-x="792" 
d="M893 706l-29 -121h-182l-38 -164h172l-28 -121h-172l-41 -178h200l-28 -122h-370l46 196h-137l-103 -196h-193l409 706h494zM524 630l-172 -313h99z" />
    <glyph glyph-name="Ccedilla" unicode="&#xc7;" horiz-adv-x="521" 
d="M590 573q0 -16 -3 -35t-6 -32t-9.5 -36t-8.5 -32h-164q2 8 8.5 32.5t10 41.5t3.5 33q0 44 -53 44q-47 0 -57 -42l-83 -362q-6 -22 -6 -33q0 -43 49 -43q27 0 47 20q19 19 41 138h174q-3 -15 -10 -44q-8 -38 -12.5 -56t-14 -48.5t-19.5 -45.5t-27 -34.5t-38 -28.5t-51 -16
t-68 -7l-37 -43q72 -9 72 -66q0 -46 -36 -71t-84 -25q-41 0 -90 26v45q41 -15 58 -15q21 0 36.5 13t15.5 33q0 16 -12.5 26t-28.5 10q-6 0 -18 -2l-5 26l46 45q-65 3 -113 39t-48 98q0 33 16 99l68 297q14 62 30 95q29 61 83.5 81t134.5 20q43 0 76 -5.5t65.5 -20t50 -44.5
t17.5 -75z" />
    <glyph glyph-name="Egrave" unicode="&#xc8;" horiz-adv-x="437" 
d="M454 753h-121l-141 124h169zM538 706l-28 -121h-183l-37 -162h174l-27 -119h-174l-42 -180h200l-28 -124h-373l163 706h355z" />
    <glyph glyph-name="Eacute" unicode="&#xc9;" horiz-adv-x="437" 
d="M547 878l-137 -124h-122l93 124h166zM538 706l-28 -121h-183l-37 -162h174l-27 -119h-174l-42 -180h200l-28 -124h-373l163 706h355z" />
    <glyph glyph-name="Ecircumflex" unicode="&#xca;" horiz-adv-x="437" 
d="M529 753h-105l-38 62l-65 -62h-123l133 125h127zM538 706l-28 -121h-183l-37 -162h174l-27 -119h-174l-42 -180h200l-28 -124h-373l163 706h355z" />
    <glyph glyph-name="Edieresis" unicode="&#xcb;" horiz-adv-x="437" 
d="M575 876l-30 -125h-139l29 125h140zM353 876l-29 -125h-139l29 125h139zM538 706l-28 -121h-183l-37 -162h174l-27 -119h-174l-42 -180h200l-28 -124h-373l163 706h355z" />
    <glyph glyph-name="Igrave" unicode="&#xcc;" horiz-adv-x="271" 
d="M366 753h-122l-140 124h168zM355 706l-163 -706h-171l163 706h171z" />
    <glyph glyph-name="Iacute" unicode="&#xcd;" horiz-adv-x="271" 
d="M459 878l-138 -124h-122l94 124h166zM355 706l-163 -706h-171l163 706h171z" />
    <glyph glyph-name="Icircumflex" unicode="&#xce;" horiz-adv-x="271" 
d="M440 753h-105l-37 62l-66 -62h-122l132 125h127zM355 706l-163 -706h-171l163 706h171z" />
    <glyph glyph-name="Idieresis" unicode="&#xcf;" horiz-adv-x="271" 
d="M486 876l-29 -125h-140l29 125h140zM264 876l-28 -125h-139l28 125h139zM355 706l-163 -706h-171l163 706h171z" />
    <glyph glyph-name="Eth" unicode="&#xd0;" horiz-adv-x="542" 
d="M607 586q0 -27 -9 -67l-79 -346q-13 -55 -23.5 -83.5t-31.5 -51.5t-54 -30.5t-87 -7.5h-301l77 333h-54l24 102h54l62 271h239q31 0 53.5 -1.5t48.5 -8.5t42.5 -19.5t27.5 -35.5t11 -55zM432 548q0 38 -45 38h-59l-35 -151h65l-24 -102h-64l-50 -215h43q45 0 62 13t27 56
l78 341q2 7 2 20z" />
    <glyph glyph-name="Ntilde" unicode="&#xd1;" horiz-adv-x="562" 
d="M602 877q-7 -52 -32.5 -85.5t-74.5 -33.5q-27 0 -71 17.5t-63 17.5q-29 0 -40 -29h-46q8 54 31.5 85.5t73.5 31.5q26 0 69 -17t64 -17q29 0 44 30h45zM645 706l-163 -706h-165q-42 338 -50 435l-86 -435h-159l163 706h166q34 -263 51 -438q13 82 86 438h157z" />
    <glyph glyph-name="Ograve" unicode="&#xd2;" horiz-adv-x="542" 
d="M501 753h-122l-140 124h169zM598 565q0 -45 -26 -155l-57 -238q-16 -65 -34 -97q-31 -53 -84.5 -71t-128.5 -18q-211 0 -211 158q0 42 11 88l65 273q17 76 31 104q30 62 86 85.5t134 23.5q214 0 214 -153zM431 547q0 21 -13 32.5t-35 11.5q-26 0 -39 -9t-21 -34
q-5 -16 -34 -128q-34 -130 -50 -196q-14 -62 -14 -70q0 -41 53 -41q14 0 26 6t18.5 13t13 22.5t8.5 23t6.5 27.5t5.5 23q4 17 12.5 50t12.5 49q5 22 16 67t17 67q17 66 17 86z" />
    <glyph glyph-name="Oacute" unicode="&#xd3;" horiz-adv-x="542" 
d="M599 878l-137 -124h-122l93 124h166zM598 565q0 -45 -26 -155l-57 -238q-16 -65 -34 -97q-31 -53 -84.5 -71t-128.5 -18q-211 0 -211 158q0 42 11 88l65 273q17 76 31 104q30 62 86 85.5t134 23.5q214 0 214 -153zM431 547q0 21 -13 32.5t-35 11.5q-26 0 -39 -9t-21 -34
q-5 -16 -34 -128q-34 -130 -50 -196q-14 -62 -14 -70q0 -41 53 -41q14 0 26 6t18.5 13t13 22.5t8.5 23t6.5 27.5t5.5 23q4 17 12.5 50t12.5 49q5 22 16 67t17 67q17 66 17 86z" />
    <glyph glyph-name="Ocircumflex" unicode="&#xd4;" horiz-adv-x="542" 
d="M581 753h-105l-37 62l-66 -62h-123l133 125h127zM598 565q0 -45 -26 -155l-57 -238q-16 -65 -34 -97q-31 -53 -84.5 -71t-128.5 -18q-211 0 -211 158q0 42 11 88l65 273q17 76 31 104q30 62 86 85.5t134 23.5q214 0 214 -153zM431 547q0 21 -13 32.5t-35 11.5
q-26 0 -39 -9t-21 -34q-5 -16 -34 -128q-34 -130 -50 -196q-14 -62 -14 -70q0 -41 53 -41q14 0 26 6t18.5 13t13 22.5t8.5 23t6.5 27.5t5.5 23q4 17 12.5 50t12.5 49q5 22 16 67t17 67q17 66 17 86z" />
    <glyph glyph-name="Otilde" unicode="&#xd5;" horiz-adv-x="542" 
d="M597 877q-7 -52 -32.5 -85.5t-74.5 -33.5q-28 0 -72 17.5t-62 17.5q-29 0 -40 -29h-46q8 54 31.5 85.5t73.5 31.5q26 0 69 -17t64 -17q29 0 44 30h45zM598 565q0 -45 -26 -155l-57 -238q-16 -65 -34 -97q-31 -53 -84.5 -71t-128.5 -18q-211 0 -211 158q0 42 11 88l65 273
q17 76 31 104q30 62 86 85.5t134 23.5q214 0 214 -153zM431 547q0 21 -13 32.5t-35 11.5q-26 0 -39 -9t-21 -34q-5 -16 -34 -128q-34 -130 -50 -196q-14 -62 -14 -70q0 -41 53 -41q14 0 26 6t18.5 13t13 22.5t8.5 23t6.5 27.5t5.5 23q4 17 12.5 50t12.5 49q5 22 16 67t17 67
q17 66 17 86z" />
    <glyph glyph-name="Odieresis" unicode="&#xd6;" horiz-adv-x="542" 
d="M634 876l-29 -125h-140l29 125h140zM412 876l-29 -125h-139l29 125h139zM598 565q0 -45 -26 -155l-57 -238q-16 -65 -34 -97q-31 -53 -84.5 -71t-128.5 -18q-211 0 -211 158q0 42 11 88l65 273q17 76 31 104q30 62 86 85.5t134 23.5q214 0 214 -153zM431 547
q0 21 -13 32.5t-35 11.5q-26 0 -39 -9t-21 -34q-5 -16 -34 -128q-34 -130 -50 -196q-14 -62 -14 -70q0 -41 53 -41q14 0 26 6t18.5 13t13 22.5t8.5 23t6.5 27.5t5.5 23q4 17 12.5 50t12.5 49q5 22 16 67t17 67q17 66 17 86z" />
    <glyph glyph-name="multiply" unicode="&#xd7;" horiz-adv-x="558" 
d="M506 421l-99 -111l83 -119l-116 -99l-71 102l-91 -100l-85 95l101 111l-85 121l116 99l74 -104l88 99z" />
    <glyph glyph-name="Oslash" unicode="&#xd8;" horiz-adv-x="542" 
d="M653 658l-54 -59q2 -18 2 -28q0 -47 -34 -190q-42 -180 -63 -243q-28 -85 -77 -117.5t-140 -32.5q-68 0 -113 10t-83 45l-38 -39l-42 39l51 56q-4 30 -4 46q0 20 9 76q28 168 83 334q30 94 80 128.5t150 34.5q64 0 109.5 -12t84.5 -48l37 40zM441 543q0 27 -16 41.5
t-43 14.5q-48 0 -72 -57q-10 -23 -30 -94q-7 -26 -21 -78.5t-21 -79.5l200 219q3 33 3 34zM416 399l-196 -214q-2 -16 -2 -23q0 -25 16 -39t42 -14q29 0 52 23q14 14 31 63.5t36.5 125t20.5 78.5z" />
    <glyph glyph-name="Ugrave" unicode="&#xd9;" horiz-adv-x="542" 
d="M501 753h-122l-140 124h169zM631 706l-116 -504q-14 -62 -29 -95q-54 -119 -224 -119q-89 0 -149.5 36.5t-60.5 119.5q0 38 25 149l97 413h171l-117 -504q-5 -22 -5 -39q0 -42 52 -42q18 0 30.5 6.5t20 20t11.5 24.5t8 30l117 504h169z" />
    <glyph glyph-name="Uacute" unicode="&#xda;" horiz-adv-x="542" 
d="M594 878l-137 -124h-122l93 124h166zM631 706l-116 -504q-14 -62 -29 -95q-54 -119 -224 -119q-89 0 -149.5 36.5t-60.5 119.5q0 38 25 149l97 413h171l-117 -504q-5 -22 -5 -39q0 -42 52 -42q18 0 30.5 6.5t20 20t11.5 24.5t8 30l117 504h169z" />
    <glyph glyph-name="Ucircumflex" unicode="&#xdb;" horiz-adv-x="542" 
d="M576 753h-106l-37 62l-66 -62h-122l132 125h128zM631 706l-116 -504q-14 -62 -29 -95q-54 -119 -224 -119q-89 0 -149.5 36.5t-60.5 119.5q0 38 25 149l97 413h171l-117 -504q-5 -22 -5 -39q0 -42 52 -42q18 0 30.5 6.5t20 20t11.5 24.5t8 30l117 504h169z" />
    <glyph glyph-name="Udieresis" unicode="&#xdc;" horiz-adv-x="542" 
d="M620 876l-29 -125h-139l29 125h139zM401 876l-29 -125h-140l29 125h140zM631 706l-116 -504q-14 -62 -29 -95q-54 -119 -224 -119q-89 0 -149.5 36.5t-60.5 119.5q0 38 25 149l97 413h171l-117 -504q-5 -22 -5 -39q0 -42 52 -42q18 0 30.5 6.5t20 20t11.5 24.5t8 30
l117 504h169z" />
    <glyph glyph-name="Yacute" unicode="&#xdd;" horiz-adv-x="521" 
d="M584 878l-138 -124h-122l94 124h166zM655 706l-196 -317q-10 -17 -32 -49.5t-38 -58.5t-28 -51q-3 -5 -15 -63q-24 -100 -38 -167h-169l56 244l-66 462h167l24 -288l144 288h191z" />
    <glyph glyph-name="Thorn" unicode="&#xde;" horiz-adv-x="521" 
d="M572 477q0 -19 -3 -42t-6.5 -38t-10.5 -42.5t-9 -38.5q-8 -33 -12.5 -48.5t-18 -39.5t-32.5 -37q-40 -27 -119 -27h-131l-38 -164h-171l164 706l172 5l-29 -122h94q69 0 109.5 -23.5t40.5 -88.5zM406 433q0 34 -41 34h-64l-41 -175h66q18 0 30 4.5t19 16t10 21t8 29.5
q13 60 13 70z" />
    <glyph glyph-name="germandbls" unicode="&#xdf;" horiz-adv-x="521" 
d="M565 601q0 -29 -12 -83t-25 -77q-25 -44 -86 -52q76 -19 76 -85q0 -30 -20.5 -116.5t-34.5 -114.5q-38 -79 -157 -79q-34 0 -102 6l20 87q26 -4 39 -4t23 4t15.5 8.5t11 16t7 16.5t5 21.5t4.5 19.5q2 8 11.5 43t13.5 57.5t4 43.5q0 35 -42 39q-4 0 -25 1l22 98h23
q33 0 47 14q11 10 21 50.5t10 60.5q0 36 -48 36q-30 0 -41.5 -15t-19.5 -49l-127 -548h-160l127 548q14 60 29 86q27 50 76.5 67.5t118.5 17.5q33 0 63.5 -5t62.5 -16.5t51 -36.5t19 -60z" />
    <glyph glyph-name="agrave" unicode="&#xe0;" horiz-adv-x="479" 
d="M434 606h-122l-141 124h169zM504 429q0 -24 -9 -60l-71 -308q-3 -12 -3 -26q0 -24 14 -35h-182l14 56q-79 -70 -144 -70q-47 0 -76 25.5t-29 71.5q0 38 18.5 93.5t42.5 79.5q13 12 37 24.5t57.5 24t58.5 19.5t62 18t46 13q1 6 4.5 19t5.5 23.5t2 19.5q0 30 -43 30
q-8 0 -14.5 -1.5t-11.5 -2.5t-9.5 -5.5t-7.5 -6.5t-6 -8.5t-4.5 -8.5t-4.5 -10.5t-3.5 -11t-3 -12t-3.5 -11.5h-152q19 85 40 113q48 64 187 64q188 0 188 -117zM317 251q-4 -1 -19.5 -5.5t-26 -8t-24 -9t-23.5 -11.5t-15 -12q-9 -11 -17 -35q-10 -35 -10 -47q0 -33 37 -33
q27 0 65 32z" />
    <glyph glyph-name="aacute" unicode="&#xe1;" horiz-adv-x="479" 
d="M526 730l-138 -125h-122l94 125h166zM504 429q0 -24 -9 -60l-71 -308q-3 -12 -3 -26q0 -24 14 -35h-182l14 56q-79 -70 -144 -70q-47 0 -76 25.5t-29 71.5q0 38 18.5 93.5t42.5 79.5q13 12 37 24.5t57.5 24t58.5 19.5t62 18t46 13q1 6 4.5 19t5.5 23.5t2 19.5
q0 30 -43 30q-8 0 -14.5 -1.5t-11.5 -2.5t-9.5 -5.5t-7.5 -6.5t-6 -8.5t-4.5 -8.5t-4.5 -10.5t-3.5 -11t-3 -12t-3.5 -11.5h-152q19 85 40 113q48 64 187 64q188 0 188 -117zM317 251q-4 -1 -19.5 -5.5t-26 -8t-24 -9t-23.5 -11.5t-15 -12q-9 -11 -17 -35q-10 -35 -10 -47
q0 -33 37 -33q27 0 65 32z" />
    <glyph glyph-name="acircumflex" unicode="&#xe2;" horiz-adv-x="479" 
d="M507 605h-105l-37 62l-67 -62h-123l134 125h126zM504 429q0 -24 -9 -60l-71 -308q-3 -12 -3 -26q0 -24 14 -35h-182l14 56q-79 -70 -144 -70q-47 0 -76 25.5t-29 71.5q0 38 18.5 93.5t42.5 79.5q13 12 37 24.5t57.5 24t58.5 19.5t62 18t46 13q1 6 4.5 19t5.5 23.5t2 19.5
q0 30 -43 30q-8 0 -14.5 -1.5t-11.5 -2.5t-9.5 -5.5t-7.5 -6.5t-6 -8.5t-4.5 -8.5t-4.5 -10.5t-3.5 -11t-3 -12t-3.5 -11.5h-152q19 85 40 113q48 64 187 64q188 0 188 -117zM317 251q-4 -1 -19.5 -5.5t-26 -8t-24 -9t-23.5 -11.5t-15 -12q-9 -11 -17 -35q-10 -35 -10 -47
q0 -33 37 -33q27 0 65 32z" />
    <glyph glyph-name="atilde" unicode="&#xe3;" horiz-adv-x="479" 
d="M525 729q-9 -56 -34 -87.5t-77 -31.5q-25 0 -68 17.5t-63 17.5q-25 0 -40 -30h-45q7 55 30.5 86t74.5 31q24 0 67 -16t66 -16q30 0 44 29h45zM504 429q0 -24 -9 -60l-71 -308q-3 -12 -3 -26q0 -24 14 -35h-182l14 56q-79 -70 -144 -70q-47 0 -76 25.5t-29 71.5
q0 38 18.5 93.5t42.5 79.5q13 12 37 24.5t57.5 24t58.5 19.5t62 18t46 13q1 6 4.5 19t5.5 23.5t2 19.5q0 30 -43 30q-8 0 -14.5 -1.5t-11.5 -2.5t-9.5 -5.5t-7.5 -6.5t-6 -8.5t-4.5 -8.5t-4.5 -10.5t-3.5 -11t-3 -12t-3.5 -11.5h-152q19 85 40 113q48 64 187 64
q188 0 188 -117zM317 251q-4 -1 -19.5 -5.5t-26 -8t-24 -9t-23.5 -11.5t-15 -12q-9 -11 -17 -35q-10 -35 -10 -47q0 -33 37 -33q27 0 65 32z" />
    <glyph glyph-name="adieresis" unicode="&#xe4;" horiz-adv-x="479" 
d="M550 729l-29 -125h-140l29 125h140zM328 729l-29 -125h-138l29 125h138zM504 429q0 -24 -9 -60l-71 -308q-3 -12 -3 -26q0 -24 14 -35h-182l14 56q-79 -70 -144 -70q-47 0 -76 25.5t-29 71.5q0 38 18.5 93.5t42.5 79.5q13 12 37 24.5t57.5 24t58.5 19.5t62 18t46 13
q1 6 4.5 19t5.5 23.5t2 19.5q0 30 -43 30q-8 0 -14.5 -1.5t-11.5 -2.5t-9.5 -5.5t-7.5 -6.5t-6 -8.5t-4.5 -8.5t-4.5 -10.5t-3.5 -11t-3 -12t-3.5 -11.5h-152q19 85 40 113q48 64 187 64q188 0 188 -117zM317 251q-4 -1 -19.5 -5.5t-26 -8t-24 -9t-23.5 -11.5t-15 -12
q-9 -11 -17 -35q-10 -35 -10 -47q0 -33 37 -33q27 0 65 32z" />
    <glyph glyph-name="aring" unicode="&#xe5;" horiz-adv-x="479" 
d="M465 673q0 -40 -30.5 -63t-72.5 -23t-74 23.5t-32 63.5q0 44 29.5 65t74.5 21q43 0 74 -22.5t31 -64.5zM504 429q0 -24 -9 -60l-71 -308q-3 -12 -3 -26q0 -24 14 -35h-182l14 56q-79 -70 -144 -70q-47 0 -76 25.5t-29 71.5q0 38 18.5 93.5t42.5 79.5q13 12 37 24.5
t57.5 24t58.5 19.5t62 18t46 13q1 6 4.5 19t5.5 23.5t2 19.5q0 30 -43 30q-8 0 -14.5 -1.5t-11.5 -2.5t-9.5 -5.5t-7.5 -6.5t-6 -8.5t-4.5 -8.5t-4.5 -10.5t-3.5 -11t-3 -12t-3.5 -11.5h-152q19 85 40 113q48 64 187 64q188 0 188 -117zM408 673q0 19 -14 33.5t-34 14.5
t-34 -14.5t-14 -33.5t14 -33t34 -14t34 14t14 33zM317 251q-4 -1 -19.5 -5.5t-26 -8t-24 -9t-23.5 -11.5t-15 -12q-9 -11 -17 -35q-10 -35 -10 -47q0 -33 37 -33q27 0 65 32z" />
    <glyph glyph-name="ae" unicode="&#xe6;" horiz-adv-x="729" 
d="M748 417q0 -21 -3.5 -46.5t-7 -42t-10.5 -47.5t-10 -43h-253q-2 -8 -7.5 -31t-8 -39t-2.5 -32q0 -39 41 -39q13 0 23.5 6t16 11t11 20.5t6.5 19.5t5 23h163q-19 -75 -46 -115t-89 -61q-43 -14 -95 -14q-134 0 -164 75q-18 -24 -30 -34q-52 -42 -139 -42q-55 0 -92.5 26.5
t-37.5 79.5q0 34 15 81q12 37 24.5 59t36.5 37t40.5 21t62.5 20l133 40q1 6 4.5 18t5.5 22t2 19q0 38 -41 38q-10 0 -18 -2t-14.5 -8.5t-10.5 -10t-8 -14.5t-5 -14t-5 -17.5t-4 -15.5h-153q1 4 6.5 27t7 27.5t7 23t9.5 23.5t12.5 18.5t17 19.5t21.5 14t28 14q48 18 109 18
q95 0 134 -56q43 55 140 55q73 0 122.5 -31.5t49.5 -100.5zM596 404q0 38 -43 38q-26 0 -44 -24q-10 -14 -24 -86h97q14 56 14 72zM308 248q-5 -2 -28.5 -9t-31 -10.5t-23 -12.5t-24 -20.5t-14.5 -27.5q-8 -21 -8 -43q0 -37 37 -37q30 0 62 30z" />
    <glyph glyph-name="ccedilla" unicode="&#xe7;" horiz-adv-x="489" 
d="M517 411q0 -21 -13 -75h-154q14 51 14 68t-11 26t-28 9q-31 0 -44.5 -17.5t-21.5 -51.5l-49 -214q-2 -7 -2 -20q0 -19 11.5 -30t30.5 -11q46 0 63 84q1 5 2 7h161q-15 -61 -20 -76q-41 -113 -184 -123l-37 -43q73 -9 73 -66q0 -46 -37 -71t-84 -25q-40 0 -90 26v45
q41 -15 58 -15q21 0 36.5 13t15.5 33q0 16 -12.5 26t-28.5 10q-6 0 -18 -2l-5 26l48 47q-65 13 -101.5 45t-36.5 94q0 52 41 211q20 76 27 93q28 66 79.5 90t130.5 24q48 0 88 -12t69 -44t29 -81z" />
    <glyph glyph-name="egrave" unicode="&#xe8;" 
d="M445 606h-123l-141 124h169zM517 419q0 -22 -4 -49t-8 -44.5t-12 -51t-11 -44.5h-256q-17 -78 -17 -97q0 -37 46 -37q14 0 24.5 5t16 10t10.5 19t6 19.5t5 23.5h162q-10 -40 -15.5 -56.5t-21 -43t-37.5 -44.5q-54 -43 -157 -43q-82 0 -138 34t-56 110q0 19 6 59
q8 54 28 136t36 117q50 107 199 107q194 0 194 -130zM365 401q0 41 -45 41q-14 0 -25 -6t-17.5 -13.5t-12 -22.5t-7.5 -23t-5.5 -26.5t-4.5 -22.5h103q1 7 5.5 22.5t6.5 27.5t2 23z" />
    <glyph glyph-name="eacute" unicode="&#xe9;" 
d="M536 730l-138 -125h-121l93 125h166zM517 419q0 -22 -4 -49t-8 -44.5t-12 -51t-11 -44.5h-256q-17 -78 -17 -97q0 -37 46 -37q14 0 24.5 5t16 10t10.5 19t6 19.5t5 23.5h162q-10 -40 -15.5 -56.5t-21 -43t-37.5 -44.5q-54 -43 -157 -43q-82 0 -138 34t-56 110q0 19 6 59
q8 54 28 136t36 117q50 107 199 107q194 0 194 -130zM365 401q0 41 -45 41q-14 0 -25 -6t-17.5 -13.5t-12 -22.5t-7.5 -23t-5.5 -26.5t-4.5 -22.5h103q1 7 5.5 22.5t6.5 27.5t2 23z" />
    <glyph glyph-name="ecircumflex" unicode="&#xea;" 
d="M517 605h-105l-37 62l-67 -62h-122l133 125h126zM517 419q0 -22 -4 -49t-8 -44.5t-12 -51t-11 -44.5h-256q-17 -78 -17 -97q0 -37 46 -37q14 0 24.5 5t16 10t10.5 19t6 19.5t5 23.5h162q-10 -40 -15.5 -56.5t-21 -43t-37.5 -44.5q-54 -43 -157 -43q-82 0 -138 34t-56 110
q0 19 6 59q8 54 28 136t36 117q50 107 199 107q194 0 194 -130zM365 401q0 41 -45 41q-14 0 -25 -6t-17.5 -13.5t-12 -22.5t-7.5 -23t-5.5 -26.5t-4.5 -22.5h103q1 7 5.5 22.5t6.5 27.5t2 23z" />
    <glyph glyph-name="edieresis" unicode="&#xeb;" 
d="M564 729l-28 -125h-141l29 125h140zM343 729l-29 -125h-139l29 125h139zM517 419q0 -22 -4 -49t-8 -44.5t-12 -51t-11 -44.5h-256q-17 -78 -17 -97q0 -37 46 -37q14 0 24.5 5t16 10t10.5 19t6 19.5t5 23.5h162q-10 -40 -15.5 -56.5t-21 -43t-37.5 -44.5q-54 -43 -157 -43
q-82 0 -138 34t-56 110q0 19 6 59q8 54 28 136t36 117q50 107 199 107q194 0 194 -130zM365 401q0 41 -45 41q-14 0 -25 -6t-17.5 -13.5t-12 -22.5t-7.5 -23t-5.5 -26.5t-4.5 -22.5h103q1 7 5.5 22.5t6.5 27.5t2 23z" />
    <glyph glyph-name="igrave" unicode="&#xec;" horiz-adv-x="250" 
d="M320 606h-123l-141 124h169zM302 536l-124 -536h-159l123 536h160z" />
    <glyph glyph-name="iacute" unicode="&#xed;" horiz-adv-x="250" 
d="M411 730l-138 -125h-121l93 125h166zM302 536l-124 -536h-159l123 536h160z" />
    <glyph glyph-name="icircumflex" unicode="&#xee;" horiz-adv-x="250" 
d="M392 605h-105l-37 62l-67 -62h-122l133 125h126zM302 536l-124 -536h-159l123 536h160z" />
    <glyph glyph-name="idieresis" unicode="&#xef;" horiz-adv-x="250" 
d="M439 729l-28 -125h-141l29 125h140zM218 729l-29 -125h-139l29 125h139zM302 536l-124 -536h-159l123 536h160z" />
    <glyph glyph-name="eth" unicode="&#xf0;" 
d="M546 655l-57 -17q37 -76 37 -153q0 -118 -53 -318q-15 -56 -26 -80q-48 -99 -196 -99q-140 0 -182 72q-15 26 -15 72q0 40 21.5 138t37.5 143q14 40 32 66q53 73 144 73q64 0 97 -40q-2 40 -26 91l-119 -34l-22 59l108 31q-12 21 -24 34l126 39q3 -5 13 -17t14 -20l67 20
zM364 404q0 18 -12 28.5t-31 10.5q-26 0 -38.5 -16t-19.5 -45l-49 -214q-5 -25 -5 -31q0 -19 12 -30.5t32 -11.5q13 0 23 5t15 9.5t10 18t6 18t5 21.5l49 215q3 10 3 22z" />
    <glyph glyph-name="ntilde" unicode="&#xf1;" 
d="M535 729q-9 -56 -33.5 -87.5t-76.5 -31.5q-25 0 -69 17.5t-63 17.5q-27 0 -40 -30h-44q7 56 30 86.5t75 30.5q24 0 67 -16t66 -16q30 0 43 29h45zM529 450q0 -26 -6 -51l-92 -399h-160l87 377q2 12 2 19q0 44 -37 44q-46 0 -60 -64l-87 -376h-156l123 536h157l-12 -54
q63 66 141 66q47 0 73.5 -25.5t26.5 -72.5z" />
    <glyph glyph-name="ograve" unicode="&#xf2;" 
d="M445 606h-123l-141 124h169zM519 403q0 -47 -36 -196q-15 -62 -28 -97t-38 -66t-64.5 -43.5t-101.5 -12.5q-197 0 -197 144q0 18 2 37t7 43.5t7.5 37.5t10.5 43.5t9 36.5q16 72 30 104q28 65 77.5 90.5t125.5 25.5q196 0 196 -147zM364 404q0 18 -12 28.5t-31 10.5
q-26 0 -38.5 -16t-19.5 -45l-49 -214q-5 -25 -5 -31q0 -19 12 -30.5t32 -11.5q13 0 23 5t15 9.5t10 18t6 18t5 21.5l49 215q3 10 3 22z" />
    <glyph glyph-name="oacute" unicode="&#xf3;" 
d="M536 730l-138 -125h-121l93 125h166zM519 403q0 -47 -36 -196q-15 -62 -28 -97t-38 -66t-64.5 -43.5t-101.5 -12.5q-197 0 -197 144q0 18 2 37t7 43.5t7.5 37.5t10.5 43.5t9 36.5q16 72 30 104q28 65 77.5 90.5t125.5 25.5q196 0 196 -147zM364 404q0 18 -12 28.5
t-31 10.5q-26 0 -38.5 -16t-19.5 -45l-49 -214q-5 -25 -5 -31q0 -19 12 -30.5t32 -11.5q13 0 23 5t15 9.5t10 18t6 18t5 21.5l49 215q3 10 3 22z" />
    <glyph glyph-name="ocircumflex" unicode="&#xf4;" 
d="M517 605h-105l-37 62l-67 -62h-122l133 125h126zM519 403q0 -47 -36 -196q-15 -62 -28 -97t-38 -66t-64.5 -43.5t-101.5 -12.5q-197 0 -197 144q0 18 2 37t7 43.5t7.5 37.5t10.5 43.5t9 36.5q16 72 30 104q28 65 77.5 90.5t125.5 25.5q196 0 196 -147zM364 404
q0 18 -12 28.5t-31 10.5q-26 0 -38.5 -16t-19.5 -45l-49 -214q-5 -25 -5 -31q0 -19 12 -30.5t32 -11.5q13 0 23 5t15 9.5t10 18t6 18t5 21.5l49 215q3 10 3 22z" />
    <glyph glyph-name="otilde" unicode="&#xf5;" 
d="M535 729q-9 -56 -33.5 -87.5t-76.5 -31.5q-25 0 -69 17.5t-63 17.5q-27 0 -40 -30h-44q7 56 30 86.5t75 30.5q24 0 67 -16t66 -16q30 0 43 29h45zM519 403q0 -47 -36 -196q-15 -62 -28 -97t-38 -66t-64.5 -43.5t-101.5 -12.5q-197 0 -197 144q0 18 2 37t7 43.5t7.5 37.5
t10.5 43.5t9 36.5q16 72 30 104q28 65 77.5 90.5t125.5 25.5q196 0 196 -147zM364 404q0 18 -12 28.5t-31 10.5q-26 0 -38.5 -16t-19.5 -45l-49 -214q-5 -25 -5 -31q0 -19 12 -30.5t32 -11.5q13 0 23 5t15 9.5t10 18t6 18t5 21.5l49 215q3 10 3 22z" />
    <glyph glyph-name="odieresis" unicode="&#xf6;" 
d="M566 729l-29 -125h-140l29 125h140zM344 729l-29 -125h-138l29 125h138zM519 403q0 -47 -36 -196q-15 -62 -28 -97t-38 -66t-64.5 -43.5t-101.5 -12.5q-197 0 -197 144q0 18 2 37t7 43.5t7.5 37.5t10.5 43.5t9 36.5q16 72 30 104q28 65 77.5 90.5t125.5 25.5
q196 0 196 -147zM364 404q0 18 -12 28.5t-31 10.5q-26 0 -38.5 -16t-19.5 -45l-49 -214q-5 -25 -5 -31q0 -19 12 -30.5t32 -11.5q13 0 23 5t15 9.5t10 18t6 18t5 21.5l49 215q3 10 3 22z" />
    <glyph glyph-name="divide" unicode="&#xf7;" horiz-adv-x="559" 
d="M450 567l-35 -150h-139l35 150h139zM542 363l-29 -126h-419l29 126h419zM363 183l-35 -151h-139l34 151h140z" />
    <glyph glyph-name="oslash" unicode="&#xf8;" 
d="M537 540l-43 -50q26 -37 26 -83q0 -53 -39 -204q-19 -77 -32 -106q-29 -64 -76.5 -87t-123.5 -23q-102 0 -150 38l-41 -47l-36 31l44 52q-15 28 -15 70q0 17 1.5 34.5t6.5 39.5t7 32.5t10 39t9 33.5q12 46 18.5 67t20 55.5t28 50.5t37.5 34t54.5 25t72.5 7q89 0 141 -30
l43 51zM371 420q-13 29 -47 29q-47 0 -69 -68l-50 -160zM370 344l-178 -211q8 -46 52 -46q29 0 49 23q21 23 77 234z" />
    <glyph glyph-name="ugrave" unicode="&#xf9;" 
d="M445 606h-123l-141 124h169zM556 536l-124 -536h-161l13 56q-61 -66 -137 -66q-49 0 -76.5 25.5t-27.5 75.5q0 25 7 56l90 389h161l-80 -350q-9 -38 -9 -51q0 -17 10.5 -28t27.5 -11q16 0 27.5 7.5t18.5 24.5t9.5 25t7.5 29l82 354h161z" />
    <glyph glyph-name="uacute" unicode="&#xfa;" 
d="M536 730l-138 -125h-121l93 125h166zM556 536l-124 -536h-161l13 56q-61 -66 -137 -66q-49 0 -76.5 25.5t-27.5 75.5q0 25 7 56l90 389h161l-80 -350q-9 -38 -9 -51q0 -17 10.5 -28t27.5 -11q16 0 27.5 7.5t18.5 24.5t9.5 25t7.5 29l82 354h161z" />
    <glyph glyph-name="ucircumflex" unicode="&#xfb;" 
d="M517 605h-105l-37 62l-67 -62h-122l133 125h126zM556 536l-124 -536h-161l13 56q-61 -66 -137 -66q-49 0 -76.5 25.5t-27.5 75.5q0 25 7 56l90 389h161l-80 -350q-9 -38 -9 -51q0 -17 10.5 -28t27.5 -11q16 0 27.5 7.5t18.5 24.5t9.5 25t7.5 29l82 354h161z" />
    <glyph glyph-name="udieresis" unicode="&#xfc;" 
d="M573 729l-29 -125h-140l29 125h140zM351 729l-29 -125h-138l29 125h138zM556 536l-124 -536h-161l13 56q-61 -66 -137 -66q-49 0 -76.5 25.5t-27.5 75.5q0 25 7 56l90 389h161l-80 -350q-9 -38 -9 -51q0 -17 10.5 -28t27.5 -11q16 0 27.5 7.5t18.5 24.5t9.5 25t7.5 29
l82 354h161z" />
    <glyph glyph-name="yacute" unicode="&#xfd;" horiz-adv-x="437" 
d="M505 730l-138 -125h-121l93 125h166zM537 536l-217 -495q-53 -121 -78 -155q-44 -60 -127 -75q-41 -7 -102 -7q-12 0 -35.5 0.5t-35.5 0.5l22 118h36q23 0 34.5 1.5t23.5 7t16.5 18.5t4.5 35v9l16 542h159l-44 -471q10 50 29 104l125 367h173z" />
    <glyph glyph-name="thorn" unicode="&#xfe;" 
d="M532 440q0 -30 -8 -64l-52 -226q-18 -77 -52 -120t-105 -43q-45 0 -77 21.5t-41 63.5l-62 -265h-160l207 899h161l-57 -238q32 41 62 60t76 19q50 0 79 -29t29 -78zM368 405q0 18 -11.5 29.5t-29.5 11.5q-45 0 -56 -50l-51 -221q-5 -22 -5 -39q0 -19 11 -30.5t30 -11.5
q42 0 56 56l48 209q8 40 8 46z" />
    <glyph glyph-name="ydieresis" unicode="&#xff;" horiz-adv-x="437" 
d="M533 729l-29 -125h-140l29 125h140zM311 729l-28 -125h-139l29 125h138zM537 536l-217 -495q-53 -121 -78 -155q-44 -60 -127 -75q-41 -7 -102 -7q-12 0 -35.5 0.5t-35.5 0.5l22 118h36q23 0 34.5 1.5t23.5 7t16.5 18.5t4.5 35v9l16 542h159l-44 -471q10 50 29 104
l125 367h173z" />
    <glyph glyph-name="OE" unicode="&#x152;" horiz-adv-x="708" 
d="M816 706l-28 -121h-179l-38 -162h169l-29 -123h-168l-41 -177h194l-28 -123h-366l10 44q-45 -56 -123 -56q-137 0 -137 132q0 15 7 66q15 99 55 247q36 133 48 164q22 58 47 82q43 40 117 40q80 0 131 -48l8 35h351zM427 560q0 44 -48 44q-29 0 -47 -22
q-15 -19 -61 -210.5t-46 -228.5q0 -42 48 -42q30 0 50 26q15 21 43 147l52 226q9 36 9 60z" />
    <glyph glyph-name="oe" unicode="&#x153;" horiz-adv-x="750" 
d="M777 421q0 -27 -5.5 -56.5t-16.5 -72.5t-14 -56h-252q-20 -83 -20 -102q0 -17 11.5 -26.5t28.5 -9.5q18 0 29 5t18 19.5t9.5 22t7.5 29.5h163q-26 -101 -73 -143.5t-148 -42.5q-102 0 -136 58q-25 -23 -33 -28q-48 -32 -122 -32t-122 35.5t-48 106.5q0 62 39 213
q21 82 31 104q50 106 196 106q94 0 135 -57q55 55 155 55q70 0 118.5 -31t48.5 -97zM623 403q0 40 -41 40q-14 0 -25 -6t-17.5 -13t-12 -22t-7.5 -22.5t-5.5 -26.5t-4.5 -22h99q2 7 6 22.5t6 27t2 22.5zM363 404q0 38 -42 38q-21 0 -34.5 -13.5t-18.5 -26.5t-10 -37
l-46 -198q-4 -20 -4 -31q0 -18 11.5 -28.5t30.5 -10.5q45 0 57 55l49 213q7 30 7 39z" />
    <glyph glyph-name="Scaron" unicode="&#x160;" horiz-adv-x="521" 
d="M598 878l-133 -125h-126l-72 125h106l36 -62l67 62h122zM576 586q0 -28 -18 -104h-163q16 64 16 76q0 19 -13 29t-32 10q-33 0 -51 -30q-6 -10 -11.5 -34.5t-5.5 -37.5q0 -19 10 -34q4 -7 29.5 -27t57 -43.5t38.5 -29.5q52 -41 67 -69q12 -22 12 -57q0 -41 -17 -97.5
t-41 -84.5q-54 -65 -197 -65q-219 0 -219 138q0 37 21 117h171q-20 -69 -20 -91q0 -47 51 -47q29 0 47 19q11 12 19.5 40.5t8.5 47.5q0 5 -1 10t-2 9t-4 8.5t-4.5 7.5t-5.5 7t-6 6.5t-7.5 6.5t-7.5 5.5t-7.5 6t-7.5 5.5q-6 5 -32.5 24.5t-44.5 33t-37 31.5t-26 31
q-14 25 -14 59q0 40 21.5 106t45.5 94q47 55 168 55q212 0 212 -132z" />
    <glyph glyph-name="scaron" unicode="&#x161;" horiz-adv-x="458" 
d="M530 730l-133 -125h-127l-71 125h106l37 -62l66 62h122zM490 425q0 -19 -8 -55h-151q9 29 9 41q0 15 -11.5 23.5t-26.5 8.5q-24 0 -37 -14t-13 -38q0 -20 29.5 -43.5t65 -44t65 -54t29.5 -71.5q0 -30 -12 -67.5t-30 -59.5q-51 -62 -175 -62q-36 0 -67 5.5t-62 18.5
t-49.5 39.5t-18.5 64.5q0 30 12 66h154q-11 -31 -11 -52q0 -35 39 -35q26 0 39 17t13 44q0 13 -6 24q-9 14 -92 73q-28 21 -41 32t-27 34t-14 50q0 25 10.5 59t24.5 53q51 66 176 66q45 0 84 -9.5t70.5 -39t31.5 -74.5z" />
    <glyph glyph-name="Ydieresis" unicode="&#x178;" horiz-adv-x="521" 
d="M606 876l-29 -125h-140l29 125h140zM384 876l-29 -125h-139l29 125h139zM655 706l-196 -317q-10 -17 -32 -49.5t-38 -58.5t-28 -51q-3 -5 -15 -63q-24 -100 -38 -167h-169l56 244l-66 462h167l24 -288l144 288h191z" />
    <glyph glyph-name="florin" unicode="&#x192;" horiz-adv-x="333" 
d="M457 707l-23 -98q-7 1 -22 1q-13 0 -22.5 -1t-16.5 -5l-10.5 -6t-7.5 -11t-5 -12.5t-4 -18t-4 -20.5h70l-23 -97h-70l-116 -493q-18 -76 -51.5 -98.5t-115.5 -22.5q-31 0 -95 2l23 98h23q34 0 49 13q13 11 57 200t67 301h-65l23 97h64q24 95 34 115q22 44 81 54
q26 5 66 5q47 0 94 -3z" />
    <glyph glyph-name="circumflex" unicode="&#x2c6;" horiz-adv-x="250" 
d="M319 605h-105l-37 62l-67 -62h-122l134 125h126z" />
    <glyph glyph-name="tilde" unicode="&#x2dc;" horiz-adv-x="250" 
d="M337 729q-9 -56 -33.5 -87.5t-76.5 -31.5q-26 0 -69.5 17.5t-62.5 17.5q-27 0 -40 -30h-44q7 56 30 86.5t75 30.5q24 0 67 -16t66 -16q30 0 43 29h45z" />
    <glyph glyph-name="endash" unicode="&#x2013;" horiz-adv-x="493" 
d="M517 357l-28 -122h-437l28 122h437z" />
    <glyph glyph-name="emdash" unicode="&#x2014;" horiz-adv-x="664" 
d="M688 357l-29 -122h-607l28 122h608z" />
    <glyph glyph-name="quoteleft" unicode="&#x2018;" horiz-adv-x="250" 
d="M333 706l-91 -153h56l-36 -154h-150l36 154l121 153h64z" />
    <glyph glyph-name="quoteright" unicode="&#x2019;" horiz-adv-x="250" 
d="M337 706l-35 -152l-122 -156h-65l91 156h-55l35 152h151z" />
    <glyph glyph-name="quotesinglbase" unicode="&#x201a;" horiz-adv-x="250" 
d="M205 152l-36 -152l-122 -156h-64l91 156h-55l35 152h151z" />
    <glyph glyph-name="quotedblleft" unicode="&#x201c;" horiz-adv-x="437" 
d="M530 706l-91 -156h55l-35 -151h-149l34 151l120 156h66zM328 706l-89 -156h53l-35 -151h-149l35 151l116 156h69z" />
    <glyph glyph-name="quotedblright" unicode="&#x201d;" horiz-adv-x="437" 
d="M534 706l-35 -151l-116 -155h-69l90 155h-54l35 151h149zM333 706l-35 -151l-120 -155h-66l91 155h-55l35 151h150z" />
    <glyph glyph-name="quotedblbase" unicode="&#x201e;" horiz-adv-x="437" 
d="M396 153l-35 -153l-116 -154h-68l88 154h-53l36 153h148zM195 153l-36 -153l-118 -154h-67l91 154h-55l35 153h150z" />
    <glyph glyph-name="dagger" unicode="&#x2020;" horiz-adv-x="437" 
d="M512 536l-29 -129h-127l-93 -407h-161l98 407h-123l29 129h124l40 170h156l-40 -170h126z" />
    <glyph glyph-name="daggerdbl" unicode="&#x2021;" horiz-adv-x="458" 
d="M536 576l-28 -121h-122l-43 -178h124l-29 -121h-122l-38 -156h-151l37 156h-130l30 121h128l42 178h-128l28 121h128l31 130h151l-31 -130h123z" />
    <glyph glyph-name="bullet" unicode="&#x2022;" horiz-adv-x="333" 
d="M362 471l-57 -246h-234l57 246h234z" />
    <glyph glyph-name="ellipsis" unicode="&#x2026;" horiz-adv-x="1000" 
d="M896 133l-31 -133h-120l31 133h120zM563 133l-30 -133h-120l30 133h120zM230 133l-31 -133h-120l31 133h120z" />
    <glyph glyph-name="perthousand" unicode="&#x2030;" horiz-adv-x="1125" 
d="M1142 354q0 -28 -8 -58l-37 -155q-1 -5 -6 -28t-8 -31.5t-9.5 -24.5t-16.5 -26.5t-23 -19.5q-32 -21 -88 -21q-128 0 -128 93q0 28 12 82l34 143q11 48 17 62q32 80 144 80q52 0 84.5 -23.5t32.5 -72.5zM809 354q0 -28 -8 -58l-37 -155q-20 -84 -47.5 -117.5
t-103.5 -33.5q-129 0 -129 93q0 23 13 82l34 143q11 48 17 62q33 80 142 80q52 0 85.5 -23t33.5 -73zM661 706l-349 -706h-79l348 706h80zM411 619q0 -29 -8 -59l-37 -154q-20 -84 -47 -117.5t-104 -33.5q-128 0 -128 93q0 27 12 81l34 144q11 48 17 62q33 80 142 80
q53 0 86 -23t33 -73zM1043 348q0 24 -26 24q-19 0 -29 -7.5t-13 -15.5t-8 -30l-43 -182q-8 -37 -8 -43q0 -25 32 -25q20 0 28.5 10t13.5 31l46 199q7 30 7 39zM710 348q0 24 -27 24q-6 0 -11 -0.5t-8.5 -1.5t-7 -3.5t-5.5 -3.5t-4.5 -5t-3.5 -6t-2.5 -7.5t-2 -7.5t-2 -9
t-2.5 -9l-43 -182q-9 -42 -9 -43q0 -25 33 -25q20 0 28 9.5t13 31.5l47 199q7 30 7 39zM312 613q0 24 -27 24q-6 0 -11 -0.5t-8.5 -1.5t-7 -3.5t-5.5 -3.5t-4.5 -5t-3.5 -6t-2.5 -7.5t-2 -7.5t-2 -9t-2.5 -9l-43 -182q-8 -37 -8 -43q0 -25 32 -25q20 0 28 9.5t13 31.5
l47 199q7 30 7 39z" />
    <glyph glyph-name="guilsinglleft" unicode="&#x2039;" horiz-adv-x="229" 
d="M268 480l-34 -146l-84 -56l59 -58l-30 -125l-132 125l31 128z" />
    <glyph glyph-name="guilsinglright" unicode="&#x203a;" horiz-adv-x="229" 
d="M251 354l-30 -127l-190 -132l33 146l84 55l-57 58l29 126z" />
    <glyph glyph-name="Euro" unicode="&#x20ac;" horiz-adv-x="542" 
d="M604 649l-73 -137q-41 62 -98 62q-12 0 -21.5 -2.5t-17.5 -8.5t-14 -11t-11 -16t-8.5 -17t-7 -20t-5 -19.5t-4.5 -20.5t-4 -18h158l-35 -66h-138l-10 -44h129l-34 -65h-110q-13 -42 -13 -78q0 -38 19.5 -54t58.5 -16q78 0 140 47l-37 -154q-64 -25 -159 -25
q-200 0 -200 158q0 40 19 122h-66l35 65h46l10 44h-61l34 66h42l18 82q43 196 244 196q104 0 174 -70z" />
    <glyph glyph-name="trademark" unicode="&#x2122;" horiz-adv-x="642" 
d="M728 706l-77 -332h-84l60 253l-104 -253h-71l5 257l-57 -257h-82l77 332h125l-3 -189l85 189h126zM370 706l-15 -68h-69l-61 -264h-90l61 264h-72l16 68h230z" />
    </font>
</defs>
</svg>
