<?xml version="1.0" standalone="no"?>
<!DOCTYPE svg PUBLIC "-//W3C//DTD SVG 1.1//EN" "http://www.w3.org/Graphics/SVG/1.1/DTD/svg11.dtd" >
<svg xmlns="http://www.w3.org/2000/svg" xmlns:xlink="http://www.w3.org/1999/xlink" version="1.1">
<metadata>
Created by FontForge 20170731 at Thu May 17 20:00:02 2007
 By Aleksey,,,
Copyright  1997, 2001, Berthold LLC. All rights reserved. Akzidenz-Grotesk is a trademark of Berthold Types Limited.
</metadata>
<defs>
<font id="AkzidenzGroteskBQ-XBdCnd" horiz-adv-x="500" >
  <font-face 
    font-family="Akzidenz-Grotesk BQ Extra Conde"
    font-weight="700"
    font-stretch="condensed"
    units-per-em="1000"
    panose-1="0 0 0 0 0 0 0 0 0 0"
    ascent="800"
    descent="-200"
    x-height="531"
    cap-height="706"
    bbox="-59 -243 1101 927"
    underline-thickness="109"
    underline-position="-500"
    unicode-range="U+0020-2122"
  />
<missing-glyph 
 />
    <glyph glyph-name=".notdef" 
 />
    <glyph glyph-name=".null" horiz-adv-x="0" 
 />
    <glyph glyph-name="nonmarkingreturn" horiz-adv-x="333" 
 />
    <glyph glyph-name="space" unicode=" " horiz-adv-x="271" 
 />
    <glyph glyph-name="exclam" unicode="!" horiz-adv-x="292" 
d="M240 621q0 -58 -10 -174q-3 -36 -9.5 -108.5t-10.5 -109.5h-92q-3 35 -8.5 106t-7.5 107q-10 120 -10 179v85h148v-85zM239 0h-148v154h148v-154z" />
    <glyph glyph-name="quotedbl" unicode="&#x22;" horiz-adv-x="313" 
d="M299 741l-43 -288h-36l-43 288h122zM136 741l-43 -288h-36l-43 288h122z" />
    <glyph glyph-name="numbersign" unicode="#" horiz-adv-x="561" 
d="M551 408h-112l-8 -100h109v-107h-119l-17 -201h-109l18 201h-91l-18 -201h-107l17 201h-105v107h114l8 100h-108v107h117l17 191h108l-16 -191h90l16 191h109l-16 -191h103v-107zM330 408h-90l-9 -100h91z" />
    <glyph glyph-name="dollar" unicode="$" 
d="M477 192q0 -51 -9.5 -88t-39.5 -64q-41 -38 -136 -49v-128h-83v128q-15 1 -38 5q-65 8 -103 44q-28 28 -36 66.5t-6 120.5h169v-50q0 -22 3 -32q8 -32 51 -32q17 0 29 4.5t17 9.5t8 16t3 15v17q0 23 -5 36q-2 4 -4.5 8.5t-5.5 8t-8.5 8t-8.5 7.5t-11 8.5t-12 8.5t-14 10
t-15 10q-18 12 -49.5 34t-38.5 27q-39 26 -61 50q-38 41 -38 129q0 99 38 144q37 45 136 53v117h83v-117q33 -3 51.5 -6t44.5 -14.5t41 -31.5q17 -21 24.5 -54t7 -62.5t-0.5 -59.5h-162v52q0 19 -2 29q-6 28 -50 28q-16 0 -25.5 -5.5t-13.5 -18t-4.5 -20.5t-0.5 -26
q0 -24 5 -36q9 -19 86 -67q69 -46 94 -63q37 -26 53 -44q37 -40 37 -126z" />
    <glyph glyph-name="percent" unicode="%" horiz-adv-x="792" 
d="M764 130q0 -61 -20 -89q-32 -45 -114 -45q-84 0 -119 35q-17 17 -24 41q-5 18 -5 46v203q0 36 6 58q22 73 137 73q19 0 39 -3q75 -9 94 -62q6 -16 6 -50v-207zM545 706l-233 -706h-71l233 706h71zM309 395q0 -62 -21 -90q-32 -45 -113 -45q-85 1 -120 36q-19 22 -24 41
q-4 15 -4 46v202q0 38 6 58q22 73 137 73q13 0 39 -2q74 -9 93 -62q7 -20 7 -51v-206zM661 110v230q0 18 -6.5 26t-31.5 8q-34 0 -34 -34v-231q0 -9 1.5 -14.5t9.5 -11t23 -5.5q23 0 30.5 8t7.5 24zM205 375v229q0 18 -6.5 26t-31.5 8q-34 0 -34 -34v-230q0 -9 1.5 -14.5
t9.5 -11t22 -5.5q24 0 31.5 8t7.5 24z" />
    <glyph glyph-name="ampersand" unicode="&#x26;" horiz-adv-x="604" 
d="M592 0h-113q-38 0 -54 6t-36 24q-66 -42 -145 -42q-18 0 -37 2t-53.5 10.5t-65 32t-48.5 58.5q-19 41 -19 88q0 53 24 90q19 30 74 73q10 8 29.5 23t29.5 22l-27 42q-39 60 -39 115q0 59 43 101q51 51 138 51q60 -1 100 -20.5t59 -45.5q25 -36 25 -85q0 -37 -17 -70
q-11 -22 -31 -43t-35 -33t-43 -32l73 -122q11 54 11 108h119q-2 -50 -7 -92q-1 -11 -3 -21.5t-4 -19t-5 -17.5t-4.5 -15.5t-5.5 -14.5t-5.5 -12.5t-6 -12t-5.5 -10t-5.5 -10t-5.5 -9.5q10 -18 28 -25t67 -5v-89zM365 549q0 24 -18.5 39t-42.5 15q-21 0 -34 -14.5t-13 -36.5
q0 -31 38 -88l21 15q49 33 49 70zM331 126l-93 156l-15 -10q-57 -38 -57 -81q0 -21 15.5 -46.5t33.5 -38.5q17 -11 39 -11q10 0 20.5 2.5t20 7t16 8.5t13 8.5t7.5 4.5z" />
    <glyph glyph-name="quotesingle" unicode="'" horiz-adv-x="150" 
d="M136 741l-43 -288h-36l-43 288h122z" />
    <glyph glyph-name="parenleft" unicode="(" horiz-adv-x="354" 
d="M331 -196h-9q-84 0 -146.5 37t-83.5 114q-8 31 -8 83v444q0 58 13.5 97.5t52.5 72.5q37 31 79 42t102 15v-62q-61 -6 -81 -27.5t-20 -81.5v-574q0 -54 23 -76t78 -24v-60z" />
    <glyph glyph-name="parenright" unicode=")" horiz-adv-x="354" 
d="M270 31q0 -58 -13.5 -97.5t-52.5 -72.5q-57 -49 -181 -56v61q61 6 81 27.5t20 81.5v574q0 39 -11.5 61t-46.5 34q-10 4 -43 6v59h9q84 0 146.5 -37t83.5 -114q8 -31 8 -83v-444z" />
    <glyph glyph-name="asterisk" unicode="*" horiz-adv-x="411" 
d="M394 534l-99 -34l61 -78l-85 -67l-66 85l-61 -85l-87 64l57 79l-98 29l31 104l101 -30v105h108v-105l103 35z" />
    <glyph glyph-name="plus" unicode="+" horiz-adv-x="558" 
d="M477 237h-119v-146h-156v146h-121v126h121v146h156v-146h119v-126z" />
    <glyph glyph-name="comma" unicode="," horiz-adv-x="250" 
d="M199 0l-84 -152h-70l54 152h-47v153h147v-153z" />
    <glyph glyph-name="hyphen" unicode="-" horiz-adv-x="329" 
d="M301 235h-273v122h273v-122z" />
    <glyph glyph-name="period" unicode="." horiz-adv-x="250" 
d="M199 0h-148v152h148v-152z" />
    <glyph glyph-name="slash" unicode="/" horiz-adv-x="313" 
d="M305 706l-174 -706h-122l172 706h124z" />
    <glyph glyph-name="zero" unicode="0" 
d="M466 193q0 -98 -41 -146q-51 -59 -175 -59q-37 0 -66 4q-108 17 -138 101q-13 35 -13 87v336q0 48 8 78q33 125 202 125q111 0 167 -49q30 -24 44 -62q12 -31 12 -110v-305zM303 171v361q0 15 -2 24q-9 34 -52 34q-15 0 -30 -7q-24 -12 -24 -50v-361q0 -16 3 -29
q8 -35 51 -35q22 0 34 8q20 12 20 55z" />
    <glyph glyph-name="one" unicode="1" 
d="M343 0h-151v519q-61 -35 -107 -50v143q26 4 34 7q22 7 39 18t28.5 26t16 22.5t10.5 20.5h130v-706z" />
    <glyph glyph-name="two" unicode="2" 
d="M460 525q0 -42 -1 -59t-9.5 -46.5t-26.5 -52.5q-20 -24 -62 -61q-9 -9 -28.5 -27t-29.5 -27q-46 -43 -61 -63t-25 -55h241v-134h-420v57q0 115 73 195q17 18 35.5 36.5t47.5 44t38 34.5q46 42 58.5 62t12.5 55v52q0 65 -54 64q-42 0 -54 -36q-3 -9 -3 -29v-99h-148v91
q0 49 8 81t37 59q54 52 164 52q98 0 156 -48q28 -24 39 -51q12 -29 12 -95z" />
    <glyph glyph-name="three" unicode="3" 
d="M459 195q0 -70 -7.5 -102.5t-32.5 -57.5q-49 -48 -174 -48q-156 0 -191 81q-13 29 -13 91v85h156v-74q0 -46 22 -59q14 -8 32 -8q44 0 52 39q3 12 3 58q0 64 -3 75q-8 39 -56 33h-66v121q46 0 69 1q34 2 46 15q11 12 11 51q0 6 -0.5 19t-0.5 20q-2 36 -12 52t-44 16
q-43 0 -52 -32q-2 -8 -2 -24v-59h-149v68q0 42 8 65q33 98 191 98q26 0 52 -3q116 -14 145 -89q11 -29 11 -108q0 -64 -18 -93q-16 -25 -61 -54q62 -22 77 -68q7 -19 7 -109z" />
    <glyph glyph-name="four" unicode="4" 
d="M479 155h-74v-155h-143v155h-228v129l202 422h169v-427h74v-124zM262 279v262l-125 -262h125z" />
    <glyph glyph-name="five" unicode="5" 
d="M458 192q0 -35 -1 -52q-2 -35 -11 -57.5t-32 -43.5q-55 -50 -166 -50q-163 0 -199 89q-13 32 -13 106v46h155v-55q0 -44 20 -56q15 -10 35 -10q18 0 31 7q24 14 24 62v126q0 6 -1 16l-1 10q-7 44 -55 44q-23 0 -37 -10q-9 -10 -12 -17q-4 -10 -4 -24h-146v383h396v-125
h-250v-150q4 8 18 20q33 32 93 32q56 0 94 -25q22 -15 36 -34.5t19 -48t6 -46t1 -51.5v-86z" />
    <glyph glyph-name="six" unicode="6" 
d="M458 182q0 -82 -22 -115q-10 -16 -30 -32q-57 -47 -156 -47q-97 0 -153 47q-27 23 -41 60q-12 35 -12 106v321q0 27 1 40q4 60 36 97q48 59 165 59q158 0 196 -93q12 -28 12 -82v-49h-146v37q0 61 -52 61q-59 0 -59 -67v-131q14 14 23.5 21.5t32.5 16t52 8.5
q59 0 94.5 -23t48.5 -54q10 -26 10 -65v-116zM308 208q0 41 -1 62v3q1 70 -55 70q-24 0 -37 -11q-19 -16 -19 -66v-86v-3q-1 -65 57 -65q21 0 36 11q12 10 15.5 28t3.5 57z" />
    <glyph glyph-name="seven" unicode="7" 
d="M463 578q-29 -49 -38 -68q-68 -137 -118 -323q-9 -32 -15 -68q-10 -60 -10 -119h-169q4 46 8 69q13 85 49.5 185.5t63.5 157.5t85 172h-152v-94h-140v216h436v-128z" />
    <glyph glyph-name="eight" unicode="8" 
d="M458 158q0 -42 -8 -69t-33 -50q-54 -49 -172 -49q-100 0 -153 43q-30 23 -41 56q-12 32 -12 98v24v22.5v19t0.5 18.5t1.5 15.5t2.5 15t4 12.5t5.5 12.5t7 10.5q15 20 67 42q-30 10 -38 15q-19 13 -29 40.5t-11.5 46.5t-1.5 50q0 68 17 103q43 85 188 85q140 0 184 -86
q17 -32 17 -87q0 -60 -3.5 -85t-20.5 -46q-16 -20 -57 -36q29 -12 40 -19q22 -14 32.5 -35t12 -37t1.5 -48v-82zM304 487v19.5v18.5v15.5t-1 14.5t-2.5 11.5t-4 11t-5.5 7.5q-15 13 -41 13q-17 0 -28.5 -5.5t-17 -11.5t-8.5 -20.5t-3 -22v-27.5q0 -5 0.5 -15.5t0.5 -16.5
v-6.5t0.5 -8t1.5 -8t2.5 -8.5t3.5 -8t6 -8t9 -5.5t12 -4t15 -1.5q19 0 30 4q14 5 21 15.5t8 20t1 26.5zM302 221q0 49 -3 64q-6 36 -50 35q-38 0 -49 -25q-7 -14 -7 -62q0 -26 2 -78q3 -53 51 -53q30 0 42 14.5t13 45.5q1 19 1 59z" />
    <glyph glyph-name="nine" unicode="9" 
d="M451 198q0 -42 -3 -63q-9 -72 -66 -109q-53 -36 -141 -36q-67 0 -123.5 25t-74.5 82q-9 28 -9 117h152v-50q0 -58 55 -58q18 0 30 5q28 10 28 56v148q-48 -43 -104 -43q-48 0 -85 21q-47 27 -60 73t-13 116q0 66 6 99q2 13 7 29q11 32 34 54.5t45.5 33t52 16t41 6
t25.5 0.5q119 0 171 -72q17 -25 25 -53q7 -27 7 -80v-317zM301 489q0 33 -1 49q-5 65 -57 64q-20 0 -37 -12q-14 -12 -16.5 -27t-2.5 -56v-63q0 -36 8 -52q15 -25 48 -25q30 0 46 22q10 14 11 37q1 21 1 63z" />
    <glyph glyph-name="colon" unicode=":" horiz-adv-x="292" 
d="M238 386h-147v152h147v-152zM238 0h-147v152h147v-152z" />
    <glyph glyph-name="semicolon" unicode=";" horiz-adv-x="292" 
d="M235 386h-147v153h147v-153zM235 0l-84 -152h-69l51 152h-45v153h147v-153z" />
    <glyph glyph-name="less" unicode="&#x3c;" horiz-adv-x="559" 
d="M444 76l-358 193v133l358 195v-141l-222 -116l222 -109v-155z" />
    <glyph glyph-name="equal" unicode="=" horiz-adv-x="559" 
d="M474 357h-389v122h389v-122zM474 145h-389v122h389v-122z" />
    <glyph glyph-name="greater" unicode="&#x3e;" horiz-adv-x="559" 
d="M473 271l-358 -195v141l222 116l-222 109v155l358 -193v-133z" />
    <glyph glyph-name="question" unicode="?" 
d="M459 548q0 -50 -22 -77q-13 -16 -91 -90q-43 -38 -50 -56q-6 -16 -6 -39v-56h-146v50q0 28 2 39q4 29 17 48.5t37 43.5l75 73q21 20 28 33t7 38q0 55 -42 55q-9 0 -16 -2.5t-11.5 -5.5t-7.5 -8.5t-4.5 -9.5t-2.5 -10t-1 -9v-9v-5v-49h-143v55q0 57 9 84q28 79 171 79
q50 0 97 -11q55 -15 77 -48q23 -35 23 -113zM290 1h-148v151h148v-151z" />
    <glyph glyph-name="at" unicode="@" horiz-adv-x="834" 
d="M796 432q0 -142 -75 -253t-170 -111q-36 0 -59.5 18t-29.5 50q-56 -68 -126 -68q-62 0 -98.5 44t-36.5 120q0 116 66.5 204t153.5 88q23 0 44 -8q31 -12 55 -52l11 40h93l-35 -159q-25 -112 -28 -141q-2 -14 -2 -19q0 -27 20 -27q18 0 42 27q36 40 59.5 106.5t23.5 130.5
q0 100 -57.5 156t-160.5 56q-145 0 -251.5 -117.5t-106.5 -278.5q0 -128 73 -198q38 -37 95.5 -58t119.5 -21q175 0 324 141l48 -66q-65 -59 -127 -93q-123 -65 -254 -65q-84 0 -157 27.5t-123 78.5q-93 93 -93 250q0 133 60 243t165.5 173.5t231.5 63.5q136 0 220.5 -78.5
t84.5 -203.5zM485 347q0 37 -17 59t-45 22q-44 0 -79 -57t-35 -128q0 -37 15.5 -57.5t42.5 -20.5q41 0 76 50q18 25 30 62.5t12 69.5z" />
    <glyph glyph-name="A" unicode="A" horiz-adv-x="521" 
d="M518 0h-167l-24 161h-131l-25 -161h-167l143 706h228zM310 280l-47 314l-48 -314h95z" />
    <glyph glyph-name="B" unicode="B" horiz-adv-x="521" 
d="M488 193q0 -63 -13 -103.5t-39.5 -59t-54 -24.5t-68.5 -6h-262v706h232q58 0 84 -6q114 -26 112 -150v-6q0 -53 -4.5 -81t-21.5 -47q-19 -24 -69 -42q54 -16 76 -42q19 -22 23.5 -51t4.5 -88zM328 507q0 42 -11 58t-41 16h-65v-151h70q30 0 38.5 17t8.5 60zM331 213
q0 55 -9 74t-45 19h-66v-179h66q35 0 44.5 18t9.5 68z" />
    <glyph glyph-name="C" unicode="C" horiz-adv-x="521" 
d="M494 206q0 -38 -2 -61.5t-14 -54t-34 -51.5q-23 -21 -58 -32.5t-61.5 -13.5t-66.5 -2q-117 0 -168 43q-20 14 -33 40q-17 34 -17 99v348q0 49 9 81.5t38 60.5q56 56 177 56q166 0 210 -95q16 -33 16 -94v-85h-168v89q0 19 -2 29q-8 33 -57 33q-23 0 -34 -8
q-19 -13 -19 -56v-351q0 -38 10.5 -54t46.5 -16q15 0 25 3q14 5 21 18t7.5 22t0.5 27v88h173v-63z" />
    <glyph glyph-name="D" unicode="D" horiz-adv-x="542" 
d="M504 178q0 -90 -32 -128q-26 -31 -64.5 -40.5t-92.5 -9.5h-265v706h258q50 0 79 -6q63 -13 94 -62q23 -36 23 -108v-352zM332 182v338q0 21 -2 28q-9 36 -62 36h-52v-462h54q18 0 31 4q20 5 25.5 19t5.5 37z" />
    <glyph glyph-name="E" unicode="E" horiz-adv-x="437" 
d="M416 0h-365v706h365v-124h-194v-163h183v-124h-183v-170h194v-125z" />
    <glyph glyph-name="F" unicode="F" horiz-adv-x="396" 
d="M396 585h-175v-158h161v-124h-161v-303h-172v706h347v-121z" />
    <glyph glyph-name="G" unicode="G" horiz-adv-x="521" 
d="M483 0h-165v65q-15 -22 -37 -39q-37 -28 -93 -28q-27 0 -42 4q-47 10 -75 52q-31 46 -31 176v263q0 107 33 157q16 26 45 43q47 26 141 26q55 0 94 -8q86 -20 114 -77q16 -33 16 -106v-63h-165v67v14.5t-2.5 15.5t-7.5 17.5t-16.5 11t-27.5 5.5q-19 0 -33 -8
q-20 -12 -20 -59v-352q0 -45 22 -59q13 -9 32 -9q17 0 31 8q22 13 22 59v80h-65v118h230v-374z" />
    <glyph glyph-name="H" unicode="H" horiz-adv-x="562" 
d="M511 0h-171v296h-119v-296h-170v706h170v-285h119v285h171v-706z" />
    <glyph glyph-name="I" unicode="I" horiz-adv-x="271" 
d="M220 0h-171v706h171v-706z" />
    <glyph glyph-name="J" unicode="J" horiz-adv-x="333" 
d="M292 185q0 -60 -5 -84q-10 -54 -57 -81q-35 -20 -112 -20h-102v122h57q28 0 38 13t10 42v529h171v-521z" />
    <glyph glyph-name="K" unicode="K" horiz-adv-x="521" 
d="M542 0h-180l-143 345v-345h-169v706h169v-320l130 320h174l-142 -334z" />
    <glyph glyph-name="L" unicode="L" horiz-adv-x="417" 
d="M398 0h-348v706h172v-581h176v-125z" />
    <glyph glyph-name="M" unicode="M" horiz-adv-x="771" 
d="M721 0h-152v508l-109 -508h-150l-109 508v-508h-149v706h228l105 -518l105 518h231v-706z" />
    <glyph glyph-name="N" unicode="N" horiz-adv-x="562" 
d="M512 0h-172l-147 460v-460h-144v706h169l148 -458v458h146v-706z" />
    <glyph glyph-name="O" unicode="O" horiz-adv-x="542" 
d="M499 221q0 -37 -1.5 -58t-10 -49.5t-25.5 -51.5q-54 -71 -188 -71q-119 0 -176 50q-28 25 -41 58q-17 41 -17 117v291q0 84 33 133q54 80 197 80q114 0 170 -49q33 -30 47 -71q12 -36 12 -109v-270zM329 175v362q0 17 -2 25q-9 32 -60 32q-23 0 -34 -6q-21 -10 -21 -51
v-362q0 -15 1 -22t5.5 -18t17.5 -15.5t34 -4.5q22 0 35 6q24 12 24 54z" />
    <glyph glyph-name="P" unicode="P" horiz-adv-x="521" 
d="M500 416q0 -24 -1 -36q-5 -72 -50 -101q-32 -21 -105 -21h-124v-258h-170v706h285q51 0 75 -6q23 -6 39.5 -16t26 -25t15 -25t7.5 -29.5t2 -23v-19.5v-146zM340 449q2 76 -1 98q-3 31 -28 36q-17 3 -91 3v-204h58q26 0 38 5t17.5 17t6 20t0.5 25z" />
    <glyph glyph-name="Q" unicode="Q" horiz-adv-x="542" 
d="M499 221q0 -35 -1.5 -55.5t-9.5 -48.5t-23 -50q-38 -56 -128 -72v-37q0 -19 8 -27.5t35 -8.5h73v-107h-139q-60 0 -86 22q-31 25 -31 91v68q-76 18 -112 58q-45 50 -45 162v291q0 84 33 133q54 80 197 80q114 0 170 -49q33 -30 47 -71q12 -36 12 -109v-270zM329 175v362
q0 17 -2 25q-9 32 -60 32q-23 0 -34 -6q-21 -10 -21 -51v-362q0 -15 1 -22t5.5 -18t17.5 -15.5t34 -4.5q22 0 35 6q24 12 24 54z" />
    <glyph glyph-name="R" unicode="R" horiz-adv-x="521" 
d="M504 0h-170l-96 301h-28v-301h-160v706h241q135 0 167 -77q16 -39 16 -122q0 -82 -18.5 -120.5t-70.5 -63.5zM322 495q0 38 -3 56q-4 33 -57 33h-52v-162h53q34 0 46.5 15.5t12.5 57.5z" />
    <glyph glyph-name="S" unicode="S" horiz-adv-x="479" 
d="M463 188q0 -101 -49 -148q-52 -50 -174 -50q-158 0 -202 79q-19 36 -19 115v42h169v-56q0 -56 50 -56q54 0 54 49q0 42 -8 56t-56 49l-102 74q-42 31 -53 40q-24 22 -35 50.5t-11 82.5q0 33 4 61q11 91 82 122q47 21 134 21q52 0 93 -9q64 -14 89 -68q10 -22 14 -49.5
t3.5 -52t-0.5 -51.5h-161v50q0 31 -9 45t-39 14q-16 0 -27 -8q-15 -11 -15 -55q0 -38 10 -52q5 -7 22 -20l145 -101q29 -18 50 -39q22 -22 31.5 -51t9.5 -84z" />
    <glyph glyph-name="T" unicode="T" horiz-adv-x="479" 
d="M467 583h-141v-583h-173v583h-140v123h454v-123z" />
    <glyph glyph-name="U" unicode="U" horiz-adv-x="542" 
d="M493 198q0 -54 -6 -82q-12 -61 -61 -94t-151 -33q-167 0 -210 91q-17 36 -17 113v513h170v-532q0 -21 5 -33q11 -30 49 -30q15 0 29 8q21 11 21 52v535h171v-508z" />
    <glyph glyph-name="V" unicode="V" 
d="M498 706l-126 -706h-243l-132 706h173l78 -569l78 569h172z" />
    <glyph glyph-name="W" unicode="W" horiz-adv-x="812" 
d="M808 706l-85 -706h-221l-96 552l-92 -552h-222l-90 706h162l55 -562l86 562h197l101 -560l41 560h164z" />
    <glyph glyph-name="X" unicode="X" horiz-adv-x="479" 
d="M479 0h-174l-64 270l-65 -270h-172l122 374l-127 332h172l70 -227l68 227h170l-125 -332z" />
    <glyph glyph-name="Y" unicode="Y" horiz-adv-x="521" 
d="M515 706l-176 -458v-248h-167v248l-168 458h168l86 -312l86 312h171z" />
    <glyph glyph-name="Z" unicode="Z" horiz-adv-x="437" 
d="M427 0h-428v138l245 444h-214v124h391v-139l-245 -442h251v-125z" />
    <glyph glyph-name="bracketleft" unicode="[" horiz-adv-x="354" 
d="M341 -206h-254v912h254v-64h-107v-781h107v-67z" />
    <glyph glyph-name="backslash" unicode="\" horiz-adv-x="313" 
d="M305 0h-124l-172 706h122z" />
    <glyph glyph-name="bracketright" unicode="]" horiz-adv-x="354" 
d="M268 -208h-254v67h106v781h-106v66h254v-914z" />
    <glyph glyph-name="asciicircum" unicode="^" horiz-adv-x="559" 
d="M518 359h-152l-84 215l-88 -215h-154l172 347h137z" />
    <glyph glyph-name="underscore" unicode="_" 
d="M510 -230h-520v109h520v-109z" />
    <glyph glyph-name="grave" unicode="`" horiz-adv-x="271" 
d="M270 609h-128l-141 127h174z" />
    <glyph glyph-name="a" unicode="a" 
d="M473 0h-182v45q-12 -10 -17 -15q-54 -45 -116 -45q-24 0 -51 8q-76 24 -76 131q0 37 5 62q9 40 30.5 62.5t60.5 39.5q15 6 56 21.5t62 24.5q16 7 46 21v32q0 22 -8 34q-11 17 -40 17q-33 0 -41 -28q-3 -8 -3 -24v-31h-153q-1 36 0.5 57t12.5 48t34 46q50 40 149 40
q19 0 64 -5q106 -17 134 -86q10 -25 10 -72v-300q0 -36 4.5 -50.5t18.5 -32.5zM291 156v111l-49 -27q-35 -19 -41 -34t-6 -62q0 -19 1.5 -29t11 -19t27.5 -9q11 0 24 4q18 6 25 20t7 45z" />
    <glyph glyph-name="b" unicode="b" 
d="M460 151q0 -44 -6 -67q-11 -46 -43.5 -72t-79.5 -26q-64 0 -127 59v-45h-159v706h159v-217l9.5 9.5t16.5 14.5q41 33 97 33q72 0 106 -45q27 -35 27 -124v-226zM302 160v217q0 58 -47 58q-37 0 -46 -26q-5 -11 -5 -32v-219q0 -42 18 -56q11 -9 29 -9q19 0 30 7
q21 14 21 60z" />
    <glyph glyph-name="c" unicode="c" horiz-adv-x="465" 
d="M439 138v-7v-8.5t-0.5 -9.5t-1 -11t-2 -11t-3.5 -12t-5 -12t-7 -13t-9.5 -12t-12.5 -12q-52 -45 -152 -45q-109 0 -162 41q-48 38 -48 122v220q0 48 9.5 79.5t39.5 56.5q50 41 151 41q73 0 119.5 -21t65.5 -54q18 -31 18 -91v-51h-158v60q0 15 -3 24q-8 26 -38 26
q-33 0 -42 -25q-3 -9 -3 -25v-251q0 -49 46 -49q40 0 40 49v50h158v-49z" />
    <glyph glyph-name="d" unicode="d" 
d="M454 0h-159v57q-14 -21 -23 -31q-40 -41 -105 -41q-46 0 -76 21q-24 16 -37 46t-15 53t-2 59v214q0 4 0.5 13t0.5 14q0 14 1.5 26.5t9 35t19.5 38.5t36.5 28.5t57.5 12.5q65 0 106 -39q13 -13 27 -33v232h159v-706zM295 166v215q0 17 -3 25q-10 30 -49 30q-34 0 -44 -27
q-4 -10 -4 -30v-217q0 -42 24 -54q12 -6 28 -6q37 0 46 34q2 9 2 30z" />
    <glyph glyph-name="e" unicode="e" horiz-adv-x="479" 
d="M446 176q0 -29 -1 -44.5t-5.5 -38t-15.5 -39t-30 -30.5q-21 -15 -51 -25q-39 -14 -100 -14q-119 0 -169 58q-17 20 -26 48.5t-10 48.5t-1 55v144q0 93 30 141q42 66 174 66q144 0 183 -79q16 -32 16 -103v-134h-242v-87q0 -51 45 -51q37 0 47 28q3 8 3 25v31h153z
M290 331v55q0 58 -44 58q-48 -1 -48 -58v-55h92z" />
    <glyph glyph-name="f" unicode="f" horiz-adv-x="313" 
d="M304 432h-71v-432h-158v432h-70v99h70v60q0 59 22 84q12 14 31.5 21.5t33 8.5t38.5 1h104v-100h-30q-23 0 -32 -9t-9 -32v-34h71v-99z" />
    <glyph glyph-name="g" unicode="g" 
d="M454 -46q0 -33 -2 -54.5t-12 -49t-29 -45.5q-48 -48 -167 -48q-33 0 -58.5 3t-55 11t-51 27.5t-32.5 48.5q-12 33 -10 97h159v-32q0 -55 46 -55q51 0 51 60v127q-8 -12 -15 -20q-32 -40 -102 -38q-106 0 -131 86q-8 26 -8 69v236q0 34 4 62q10 64 54 89q32 18 78 18
q54 0 87 -25q4 -3 16 -15q10 -11 17 -25v50h161v-577zM293 153v225q0 37 -20 50q-12 7 -27 7t-29 -8q-21 -13 -21 -53v-234q0 -48 47 -48q13 0 25 6q25 14 25 55z" />
    <glyph glyph-name="h" unicode="h" 
d="M454 0h-159v368q0 63 -46 63q-47 0 -47 -60v-371h-158v706h158v-223q15 20 23 29t34 22t59 13q49 0 82 -22q34 -23 44 -56t10 -85v-384z" />
    <glyph glyph-name="i" unicode="i" horiz-adv-x="250" 
d="M204 584h-159v122h159v-122zM204 0h-159v531h159v-531z" />
    <glyph glyph-name="j" unicode="j" horiz-adv-x="250" 
d="M200 585h-159v121h159v-121zM200 -65q0 -79 -47 -107q-19 -11 -39 -15q-19 -3 -53 -3h-91v106q56 -3 67 19q5 9 5 32v564h158v-596z" />
    <glyph glyph-name="k" unicode="k" 
d="M503 0h-178l-122 271v-271h-158v706h158v-376l111 201h178l-143 -228z" />
    <glyph glyph-name="l" unicode="l" horiz-adv-x="250" 
d="M205 0h-160v706h160v-706z" />
    <glyph glyph-name="m" unicode="m" horiz-adv-x="750" 
d="M701 0h-159v383q0 53 -44 53q-31 0 -40 -23q-5 -10 -5 -28v-385h-160v385q0 16 -2 22q-7 30 -42 30q-16 0 -27 -8q-17 -12 -17 -44v-385h-159v531h159v-56l15 24q38 47 104 47q65 0 105 -44q4 -4 8 -10t7.5 -11t4.5 -6q4 7 14 21q40 50 108 50q57 0 90 -30q19 -19 28 -42
q12 -31 12 -89v-385z" />
    <glyph glyph-name="n" unicode="n" 
d="M457 0h-158v378q0 37 -18 50q-12 8 -29 8q-35 0 -45 -29q-3 -7 -3 -26v-381h-159v531h159l1 -49q52 64 118 64q24 0 48 -8q23 -8 47 -29t33 -60q6 -24 6 -65v-384z" />
    <glyph glyph-name="o" unicode="o" horiz-adv-x="479" 
d="M442 167q0 -27 -1 -40q-6 -73 -62 -111q-49 -32 -136 -32q-97 0 -150 39q-24 15 -38 41q-19 36 -19 110v183q0 69 16 103q40 85 187 85q91 0 143 -35q22 -12 37 -36q23 -36 23 -105v-202zM285 157v219q0 60 -46 60q-16 0 -26 -8q-20 -15 -20 -55v-224q0 -52 46 -52t46 60
z" />
    <glyph glyph-name="p" unicode="p" 
d="M465 164q0 -28 -3 -57q-16 -121 -130 -121q-56 0 -92 26q-10 8 -35 37v-236h-159v718h159v-56l5 7q5 7 12.5 16t13.5 14q36 34 100 34q96 0 122 -85q6 -22 6 -56zM307 165v202q0 62 -50 62q-52 0 -52 -60v-205q0 -65 51 -65q15 0 24 4q27 12 27 62z" />
    <glyph glyph-name="q" unicode="q" 
d="M454 -188h-159v235q-10 -14 -15 -20q-39 -42 -104 -42q-58 0 -88 27.5t-41 61.5q-10 30 -10 92v189q0 71 12 106q28 84 125 84q70 0 107 -45q8 -9 14 -21v52h159v-719zM295 167v204q0 62 -51 62q-49 0 -49 -64v-204q0 -16 2 -26q7 -38 49 -38q20 0 31 8q18 13 18 58z" />
    <glyph glyph-name="r" unicode="r" horiz-adv-x="354" 
d="M352 405h-46q-31 0 -46 -4q-33 -9 -43.5 -33t-10.5 -63v-305h-160v531h160v-78q13 27 22 38q36 46 124 52v-138z" />
    <glyph glyph-name="s" unicode="s" horiz-adv-x="437" 
d="M422 160q0 -60 -16 -91q-41 -83 -189 -83q-140 0 -180 77q-16 32 -16 101h153v-14q-1 -39 18 -50q12 -7 26 -7q24 0 33.5 13t9.5 27q0 13 -7.5 24t-15 16t-22.5 13l-75 41q-66 36 -85 58q-30 33 -30 104q1 52 15.5 79t42.5 45q51 33 137 33q147 0 183 -87q12 -28 12 -85
h-151v5v9t-0.5 10.5t-2 11.5t-5 11t-8 9.5t-11.5 6t-16 2.5q-15 0 -28.5 -9.5t-13.5 -35.5q0 -20 13.5 -31.5t52.5 -30.5l92 -46q21 -10 41 -26q26 -19 34.5 -41.5t8.5 -58.5z" />
    <glyph glyph-name="t" unicode="t" horiz-adv-x="313" 
d="M300 0h-90q-18 0 -27 1q-65 5 -91 40q-21 27 -21 90v301h-71v99h71v175h158v-175h71v-99h-71v-276q0 -23 6 -33q11 -17 65 -17v-106z" />
    <glyph glyph-name="u" unicode="u" 
d="M454 0h-158v57q-10 -15 -16 -22.5t-21 -21t-36 -20.5t-48 -7q-74 0 -109 53q-24 35 -24 113v379h158v-371q0 -14 2 -22q7 -30 45 -30q49 0 49 54v369h158v-531z" />
    <glyph glyph-name="v" unicode="v" horiz-adv-x="437" 
d="M434 531l-108 -531h-212l-110 531h155l64 -421l53 421h158z" />
    <glyph glyph-name="w" unicode="w" horiz-adv-x="708" 
d="M712 531l-112 -531h-164l-80 368l-81 -368h-164l-111 531h162l40 -386l66 386h179l63 -386l42 386h160z" />
    <glyph glyph-name="x" unicode="x" horiz-adv-x="437" 
d="M437 0h-166l-50 163l-58 -163h-164l125 276l-118 255h166l49 -156l44 156h162l-114 -255z" />
    <glyph glyph-name="y" unicode="y" horiz-adv-x="437" 
d="M436 531l-127 -546q-8 -35 -12.5 -50.5t-17 -41.5t-30.5 -41q-21 -19 -52 -29t-53.5 -11.5t-59.5 -1.5h-77v103h71q30 0 42.5 11t15.5 41l-138 566h156l64 -417l59 417h159z" />
    <glyph glyph-name="z" unicode="z" horiz-adv-x="396" 
d="M385 430l-197 -328h181v-102h-359v102l196 328h-160v101h339v-101z" />
    <glyph glyph-name="braceleft" unicode="{" horiz-adv-x="354" 
d="M331 -196q-84 0 -111 7q-35 9 -57.5 25.5t-33 41.5t-14 49.5t-3.5 62.5v82q0 25 -0.5 39.5t-5 36.5t-12.5 35t-24 23.5t-39 12.5v75q20 2 35 9t23.5 21.5t13.5 25.5t7 34.5t2 32v33.5v85q0 65 19.5 104.5t75.5 58.5q13 5 28 6.5t38 2.5t29 1q10 1 29 1v-70
q-55 0 -70.5 -22.5t-15.5 -79.5v-114q0 -71 -23 -112.5t-88 -51.5v-6q34 -5 57 -19t34.5 -37.5t15.5 -48.5t4 -59v-101q0 -27 0.5 -39.5t5 -30.5t13 -25t25.5 -13t42 -6v-70z" />
    <glyph glyph-name="bar" unicode="|" horiz-adv-x="229" 
d="M178 -199h-127v906h127v-906z" />
    <glyph glyph-name="braceright" unicode="}" horiz-adv-x="354" 
d="M331 219q-20 -2 -35 -9t-23.5 -21.5t-13.5 -25.5t-7 -34.5t-2 -32v-33.5v-82q0 -70 -21.5 -111t-82.5 -58q-29 -8 -115 -8v70q55 0 70.5 22.5t15.5 78.5v113q0 34 4 59t15.5 48.5t34 38t56.5 19.5v6q-23 3 -41 12t-29.5 18.5t-19.5 27.5t-12 29.5t-6 36.5t-2 36v39v92
q0 50 -18.5 69.5t-67.5 19.5v70q84 0 111 -7q46 -11 71 -38.5t31 -58.5t6 -81v-103q0 -55 16 -88.5t65 -38.5v-75z" />
    <glyph glyph-name="asciitilde" unicode="~" horiz-adv-x="561" 
d="M502 277q-68 -71 -129 -71q-33 0 -88 27l-25 12q-45 21 -72 21q-32 0 -53 -20q-12 -9 -30 -30l-46 118q28 31 46 44q36 28 79 28q30 0 81 -23l46 -21q40 -18 60 -18q38 0 84 49z" />
    <glyph glyph-name="exclamdown" unicode="&#xa1;" horiz-adv-x="292" 
d="M197 554h-148v152h148v-152zM197 0h-148v87q0 46 11 174q8 79 19 218h93l15 -213q10 -120 10 -179v-87z" />
    <glyph glyph-name="cent" unicode="&#xa2;" horiz-adv-x="458" 
d="M439 139q0 -48 -12 -72q-11 -22 -30 -38t-37 -23.5t-38 -12t-28.5 -5.5t-12.5 -1v-129h-83v130q-134 14 -156 104q-6 22 -6 56v220v9.5v13.5t1 16t2.5 19t5 19.5t9 20t13.5 19.5t18.5 19t25 15.5t31.5 13.5q11 4 22.5 6t21 3t12.5 2v107h83v-108q106 -10 143 -78
q15 -27 15 -80v-57h-158v60q0 52 -43 50q-43 -1 -43 -50v-251q0 -49 44 -49q42 0 42 46v53h158v-48z" />
    <glyph glyph-name="sterling" unicode="&#xa3;" horiz-adv-x="583" 
d="M565 235q0 -108 -5 -139q-14 -105 -123 -105q-51 0 -165 52q-58 -55 -130 -55q-63 0 -94 40q-20 26 -20 62q0 28 14 52q26 45 91 45q25 0 81 -15q-1 37 -9 63.5t-36 80.5h-138v80l99 1q-19 47 -26.5 75.5t-7.5 69.5q0 53 14 87q31 71 151 87q52 4 60 4q119 0 163 -58
q20 -27 26 -65.5t4 -109.5h-138v47q0 77 -63 76q-63 0 -63 -68q0 -15 2.5 -32t6 -30.5t8.5 -29t8.5 -24.5t8 -19t4.5 -11h162v-80h-130q24 -74 24 -111q0 -35 -14 -74q34 -17 59 -17q14 0 23 6q16 11 16 47v69zM196 95q-28 21 -44 21q-14 -1 -20 -8.5t-6 -15.5
q0 -15 10.5 -20.5t18.5 -5.5q24 0 41 29z" />
    <glyph glyph-name="currency" unicode="&#xa4;" horiz-adv-x="679" 
d="M658 570l-78 -80q41 -75 41 -150q0 -79 -42 -153l78 -82l-93 -95l-79 82q-70 -42 -145 -42q-81 0 -148 44l-79 -82l-93 95l80 82q-42 64 -42 148q0 81 41 153l-78 80l93 95l78 -80q64 43 148 43q75 0 146 -43l79 81zM476 338q0 64 -39.5 108.5t-96.5 44.5
q-58 0 -97.5 -44.5t-39.5 -108.5q0 -63 39.5 -106.5t97.5 -43.5q57 0 96.5 44t39.5 106z" />
    <glyph glyph-name="yen" unicode="&#xa5;" horiz-adv-x="521" 
d="M515 706l-125 -324h88v-87h-121l-17 -43v-12h138v-86h-139v-154h-167v154h-138v86h137v12l-16 43h-121v87h90l-120 324h168l87 -310l85 310h171z" />
    <glyph glyph-name="brokenbar" unicode="&#xa6;" horiz-adv-x="229" 
d="M178 324h-127v383h127v-383zM178 -199h-127v382h127v-382z" />
    <glyph glyph-name="section" unicode="&#xa7;" horiz-adv-x="437" 
d="M419 667l-58 -107q-106 53 -136 53q-15 0 -25 -8.5t-10 -23.5q0 -21 35 -42.5t77.5 -39.5t77.5 -55t35 -85q0 -61 -64 -123q57 -40 57 -95q0 -73 -61 -112.5t-138 -39.5q-57 0 -99.5 14.5t-105.5 48.5l63 109q105 -64 143 -64q17 0 29 10t12 26q0 14 -13 27q-4 4 -109 63
q-49 28 -73.5 55t-24.5 74q0 70 76 119q-33 22 -49.5 46.5t-16.5 61.5q0 70 51 105.5t124 35.5q54 0 98 -13t105 -40zM315 323q0 17 -13 30q-6 6 -32 22t-60.5 35t-37.5 21q-31 -19 -31 -46q0 -17 12 -32q7 -9 132 -78q30 23 30 48z" />
    <glyph glyph-name="dieresis" unicode="&#xa8;" horiz-adv-x="271" 
d="M318 609h-142v124h142v-124zM97 609h-144v124h144v-124z" />
    <glyph glyph-name="copyright" unicode="&#xa9;" horiz-adv-x="799" 
d="M756 354q0 -151 -103 -254t-254 -103q-148 0 -251.5 104t-103.5 252q0 149 104 252.5t252 103.5q149 0 252.5 -103t103.5 -252zM705 352q0 132 -88.5 222.5t-216.5 90.5q-126 0 -215.5 -91.5t-89.5 -220.5q0 -130 88.5 -221t215.5 -91t216.5 91t89.5 220zM546 265
q0 -78 -33 -110.5t-113 -32.5q-42 0 -74 11q-41 13 -59 47t-18 97v158q0 78 30 112q37 43 122 43q79 0 112 -32.5t33 -109.5v-35h-103v40q0 29 -10.5 41.5t-33.5 12.5q-29 0 -40 -20q-7 -14 -7 -49v-162q0 -36 7 -49q9 -20 40 -20q23 0 33.5 12.5t10.5 41.5v43h103v-39z" />
    <glyph glyph-name="ordfeminine" unicode="&#xaa;" horiz-adv-x="354" 
d="M325 371h-118v23q-1 -1 -9 -6t-11 -6.5t-11 -6t-14 -6.5t-14 -4.5t-17 -3.5t-18 -1q-28 0 -45.5 9t-24 26.5t-8 26.5t-2.5 25q-1 40 10.5 62t37.5 36q3 2 23.5 9t51.5 18t51 19v19q0 10 -1.5 16t-9 11t-22.5 5q-32 0 -32 -29v-22h-100v19q0 33 7 48q25 54 121 54
q91 0 123 -38q7 -10 11 -22q6 -15 6 -61v-167q0 -34 15 -53zM207 468v64l-37 -13q-19 -7 -25 -17.5t-6 -37.5q0 -20 6.5 -29.5t26.5 -9.5q35 0 35 43z" />
    <glyph glyph-name="guillemotleft" unicode="&#xab;" horiz-adv-x="396" 
d="M353 138l-141 116v120l141 117v-128l-58 -48l58 -52v-125zM173 137l-142 116v121l142 116v-126l-58 -48l58 -51v-128z" />
    <glyph glyph-name="logicalnot" unicode="&#xac;" horiz-adv-x="559" 
d="M474 52h-157v186h-265v124h422v-310z" />
    <glyph glyph-name="registered" unicode="&#xae;" horiz-adv-x="799" 
d="M756 354q0 -151 -103 -254t-254 -103q-148 0 -251.5 104t-103.5 252q0 149 104 252.5t252 103.5q149 0 252.5 -103t103.5 -252zM705 352q0 132 -88.5 222.5t-216.5 90.5q-126 0 -215.5 -91.5t-89.5 -220.5q0 -130 88.5 -221t215.5 -91t216.5 91t89.5 220zM570 130h-109
l-67 183h-18v-183h-104v449h152q66 0 94 -21t28 -70v-76q0 -64 -55 -90zM444 448v14q0 35 -42 35h-26v-96h22q26 0 36 10.5t10 36.5z" />
    <glyph glyph-name="macron" unicode="&#xaf;" horiz-adv-x="271" 
d="M291 609h-311v90h311v-90z" />
    <glyph glyph-name="degree" unicode="&#xb0;" horiz-adv-x="354" 
d="M349 573q0 -71 -50.5 -122t-121.5 -51t-121.5 51t-50.5 122q0 72 50 122t122 50t122 -50t50 -122zM233 575q0 23 -16.5 39t-39.5 16t-39 -16t-16 -39t16.5 -39.5t38.5 -16.5q23 0 39.5 16.5t16.5 39.5z" />
    <glyph glyph-name="plusminus" unicode="&#xb1;" horiz-adv-x="559" 
d="M478 332h-120v-145h-155v145h-121v126h121v146h155v-146h120v-126zM478 0h-396v126h396v-126z" />
    <glyph glyph-name="twosuperior" unicode="&#xb2;" horiz-adv-x="333" 
d="M304 585q0 -49 -10 -72t-38 -48q-8 -7 -22 -18.5t-22 -19.5q-43 -41 -62 -75h153v-88h-274v34q0 52 16.5 86t65.5 78q22 20 54 47q25 19 32 31q6 10 6 42v16t-2 14t-5.5 13t-11.5 7t-19 3q-38 -1 -38 -43v-59h-98v37v14.5v15.5t0.5 14.5t1.5 15.5l3.5 14t5.5 14.5l8 12
t11 12.5t14.5 10t18.5 9q29 11 70 11q106 0 134 -61q8 -17 8 -67z" />
    <glyph glyph-name="threesuperior" unicode="&#xb3;" horiz-adv-x="333" 
d="M299 363q0 -53 -31 -79.5t-108 -25.5q-83 1 -108.5 26t-25.5 86v52h99v-44q0 -44 37 -44h2q35 0 35 39v11q0 6 0.5 17t0.5 18q0 22 -10 29t-32 7q-9 0 -24.5 -0.5t-24.5 -0.5v81h44q27 0 37 7.5t10 26.5q0 45 -6 56.5t-38 11.5q-31 0 -31 -34v-37h-99v45q0 50 28.5 75.5
t99.5 25.5q77 0 109.5 -23t32.5 -76v-34q0 -61 -46 -82q17 -6 27.5 -15.5t15 -23t5.5 -23t1 -25.5v-47z" />
    <glyph glyph-name="acute" unicode="&#xb4;" horiz-adv-x="271" 
d="M263 735l-137 -125h-118l87 125h168z" />
    <glyph glyph-name="mu" unicode="&#xb5;" 
d="M477 0h-176l-5 58q-10 -36 -24 -50t-38 -14q-21 0 -34 14v-195h-158v718h158v-374q0 -49 47 -49q49 0 49 54v369h158v-448q0 -34 4 -49t19 -34z" />
    <glyph glyph-name="paragraph" unicode="&#xb6;" horiz-adv-x="575" 
d="M516 618h-36v-786h-94v786h-83v-785h-97v468q-159 41 -159 196q0 86 53 141q35 37 83 52.5t126 15.5h207v-88z" />
    <glyph glyph-name="periodcentered" unicode="&#xb7;" horiz-adv-x="250" 
d="M199 280h-148v152h148v-152z" />
    <glyph glyph-name="cedilla" unicode="&#xb8;" horiz-adv-x="271" 
d="M237 -136q0 -51 -52 -79q-37 -22 -122 -18l-18 48q37 -4 55 2q14 5 24 16.5t10 25.5q0 34 -42 34q-19 0 -41 -11l-17 35l90 103h88l-66 -78q8 0 20 -2q41 -8 58 -34q13 -19 13 -42z" />
    <glyph glyph-name="onesuperior" unicode="&#xb9;" horiz-adv-x="333" 
d="M228 265h-99v316q-27 -18 -66 -30v94q31 6 50 19t32 42h83v-441z" />
    <glyph glyph-name="ordmasculine" unicode="&#xba;" horiz-adv-x="333" 
d="M302 473q0 -53 -27.5 -84t-104.5 -31q-62 0 -94 22q-21 14 -32 39t-11.5 37t-0.5 35v64q0 39 0.5 52.5t4 32.5t12.5 30q8 12 29 24q33 18 87 17q97 -2 125 -51q12 -19 12 -62v-125zM200 464v138q0 20 -6 29.5t-27 9.5q-20 0 -26 -9.5t-6 -29.5v-129q0 -42 33 -41
q32 1 32 32z" />
    <glyph glyph-name="guillemotright" unicode="&#xbb;" horiz-adv-x="396" 
d="M364 257l-142 -116v125l57 47l-57 51v128l142 -117v-118zM183 255l-141 -116v128l56 47l-56 52v126l141 -117v-120z" />
    <glyph glyph-name="onequarter" unicode="&#xbc;" horiz-adv-x="792" 
d="M771 92h-45v-92h-95v92h-152v85l124 265h123v-265h45v-85zM551 706l-240 -706h-72l240 706h72zM228 264h-99v316q-27 -18 -66 -30v94q31 6 50 19t32 42h83v-441zM631 177v169l-79 -169h79z" />
    <glyph glyph-name="onehalf" unicode="&#xbd;" horiz-adv-x="792" 
d="M763 321q0 -47 -9 -69.5t-36 -47.5q-9 -8 -25 -21.5t-25 -21.5q-41 -39 -60 -73h153v-88h-274v34q0 24 2.5 43t13 38.5t16.5 30t28.5 32t32 29.5t43.5 37q30 25 34 33q5 8 5 41q0 13 -0.5 20t-4 16t-12 13t-22.5 4q-37 -1 -37 -43v-59h-99v38v9q0 24 1 36.5t6.5 31.5
t19.5 32t37 22q26 11 69 11q109 0 136 -66q7 -17 7 -62zM528 706l-240 -706h-73l240 706h73zM228 265h-99v316q-27 -18 -66 -30v94q31 6 50 19t32 42h83v-441z" />
    <glyph glyph-name="threequarters" unicode="&#xbe;" horiz-adv-x="792" 
d="M771 92h-45v-92h-95v92h-152v85l124 265h123v-265h45v-85zM569 706l-240 -706h-73l240 706h73zM299 363q0 -53 -31 -79.5t-108 -25.5q-83 1 -108.5 26t-25.5 86v52h99v-44q0 -44 37 -44h2q35 0 35 39v11q0 6 0.5 17t0.5 18q0 22 -10 29t-32 7q-9 0 -24.5 -0.5t-24.5 -0.5
v81h44q27 0 37 7.5t10 26.5q0 45 -6 56.5t-38 11.5q-31 0 -31 -34v-37h-99v45q0 50 28.5 75.5t99.5 25.5q77 0 109.5 -23t32.5 -76v-34q0 -61 -46 -82q17 -6 27.5 -15.5t15 -23t5.5 -23t1 -25.5v-47zM631 177v169l-79 -169h79z" />
    <glyph glyph-name="questiondown" unicode="&#xbf;" 
d="M356 555h-148v151h148v-151zM417 152q0 -58 -10 -85q-28 -79 -170 -79q-107 0 -153 36q-24 18 -34.5 49t-10.5 87q0 52 22 78q13 16 91 89q44 39 51 56q5 13 5 40v56h147v-50q0 -28 -2 -40q-3 -28 -16.5 -48.5t-38.5 -43.5l-75 -72q-21 -20 -28 -33.5t-7 -38.5
q0 -55 42 -55q8 0 14.5 1.5t11 5t8 6.5t5.5 8t3 9t1.5 9.5t0.5 8.5v7v5v48h143v-54z" />
    <glyph glyph-name="Agrave" unicode="&#xc0;" horiz-adv-x="521" 
d="M337 766h-109l-149 142h161zM518 0h-167l-24 161h-131l-25 -161h-167l143 706h228zM310 280l-47 314l-48 -314h95z" />
    <glyph glyph-name="Aacute" unicode="&#xc1;" horiz-adv-x="521" 
d="M451 910l-151 -142h-106l94 142h163zM518 0h-167l-24 161h-131l-25 -161h-167l143 706h228zM310 280l-47 314l-48 -314h95z" />
    <glyph glyph-name="Acircumflex" unicode="&#xc2;" horiz-adv-x="521" 
d="M450 765h-130l-59 83l-58 -83h-122l96 142h167zM518 0h-167l-24 161h-131l-25 -161h-167l143 706h228zM310 280l-47 314l-48 -314h95z" />
    <glyph glyph-name="Atilde" unicode="&#xc3;" horiz-adv-x="521" 
d="M424 898q-12 -87 -59 -111q-22 -11 -47 -11q-31 1 -79 19q-49 19 -61 19q-30 0 -33 -33h-50q3 26 6 42t14 35t30 30q25 14 55 14q36 0 80 -19q40 -16 56 -16q25 0 33 18q3 4 4 14zM518 0h-167l-24 161h-131l-25 -161h-167l143 706h228zM310 280l-47 314l-48 -314h95z" />
    <glyph glyph-name="Adieresis" unicode="&#xc4;" horiz-adv-x="521" 
d="M423 786h-135v112h135v-112zM231 786h-135v112h135v-112zM517 0h-167l-23 161h-132l-24 -161h-168l144 706h227zM309 280l-46 313l-48 -313h94z" />
    <glyph glyph-name="Aring" unicode="&#xc5;" horiz-adv-x="521" 
d="M358 828q0 -41 -29 -70t-70 -29q-43 0 -70 30q-29 29 -29 70q0 40 29 69t70 29t70 -29t29 -70zM517 0h-167l-23 161h-132l-24 -161h-168l144 706h228zM296 829q0 15 -11 25.5t-26 10.5q-16 0 -26.5 -11t-10.5 -26t11 -26q9 -11 26 -11q16 0 26.5 11t10.5 27zM309 279
l-46 315l-48 -315h94z" />
    <glyph glyph-name="AE" unicode="&#xc6;" horiz-adv-x="771" 
d="M748 0h-358v191h-146l-64 -191h-178l273 706h473v-127h-188v-157h175v-126h-175v-170h188v-126zM390 311v268h-12l-92 -268h104z" />
    <glyph glyph-name="Ccedilla" unicode="&#xc7;" horiz-adv-x="521" 
d="M494 206q0 -39 -3 -63.5t-14 -56.5t-37.5 -53t-68.5 -32q-17 -5 -63 -9l-42 -50q87 -7 90 -75q2 -42 -36.5 -71.5t-104.5 -29.5q-21 0 -32 1l-18 48q20 -2 29 -2q30 0 45 13.5t15 32.5q0 34 -43 34q-21 0 -40 -11l-16 35l65 75h-16t-33 5t-45.5 13.5t-41 28.5t-32.5 48
q-12 32 -12 86v348q0 58 12 89q41 109 215 109q179 -3 215 -114q8 -24 8 -75v-85h-168v88q0 15 -0.5 21t-5 18.5t-17.5 18t-34 5.5h-2q-32 0 -42.5 -16.5t-10.5 -47.5v-351q0 -24 2.5 -37t15.5 -23t38 -10q32 0 43.5 15t11.5 45v98h173v-63z" />
    <glyph glyph-name="Egrave" unicode="&#xc8;" horiz-adv-x="437" 
d="M306 766h-109l-150 142h162zM416 0h-365v706h365v-124h-194v-163h183v-124h-183v-170h194v-125z" />
    <glyph glyph-name="Eacute" unicode="&#xc9;" horiz-adv-x="437" 
d="M419 910l-150 -142h-106l94 142h162zM416 0h-365v706h365v-124h-194v-163h183v-124h-183v-170h194v-125z" />
    <glyph glyph-name="Ecircumflex" unicode="&#xca;" horiz-adv-x="437" 
d="M419 765h-130l-60 83l-58 -83h-121l96 142h167zM416 0h-365v706h365v-124h-194v-163h183v-124h-183v-170h194v-125z" />
    <glyph glyph-name="Edieresis" unicode="&#xcb;" horiz-adv-x="437" 
d="M392 784h-135v113h135v-113zM200 784h-135v113h135v-113zM416 0h-365v706h365v-124h-194v-163h183v-124h-183v-170h194v-125z" />
    <glyph glyph-name="Igrave" unicode="&#xcc;" horiz-adv-x="271" 
d="M212 766h-109l-149 142h161zM220 0h-171v706h171v-706z" />
    <glyph glyph-name="Iacute" unicode="&#xcd;" horiz-adv-x="271" 
d="M326 910l-151 -142h-106l94 142h163zM220 0h-171v706h171v-706z" />
    <glyph glyph-name="Icircumflex" unicode="&#xce;" horiz-adv-x="271" 
d="M325 765h-130l-59 83l-58 -83h-122l96 142h167zM220 0h-171v706h171v-706z" />
    <glyph glyph-name="Idieresis" unicode="&#xcf;" horiz-adv-x="271" 
d="M298 784h-134v113h134v-113zM107 784h-136v113h136v-113zM220 0h-171v706h171v-706z" />
    <glyph glyph-name="Eth" unicode="&#xd0;" horiz-adv-x="542" 
d="M504 170q0 -100 -46 -135t-143 -35h-265v333h-49v102h49v271h258q63 0 99 -11t62 -42q20 -22 28 -52q7 -24 7 -71v-360zM332 182v338q0 35 -14.5 49.5t-49.5 14.5h-52v-149h64v-102h-64v-211h53q35 0 49 12.5t14 47.5z" />
    <glyph glyph-name="Ntilde" unicode="&#xd1;" horiz-adv-x="562" 
d="M445 898q-12 -87 -59 -111q-22 -11 -48 -11q-24 1 -79 19q-47 19 -60 19q-30 0 -33 -33h-50q3 26 6 42t14 35t30 30q22 14 55 14q22 0 79 -19q37 -16 57 -16q23 0 33 18q3 4 4 14zM512 0h-172l-147 460v-460h-144v706h169l148 -458v458h146v-706z" />
    <glyph glyph-name="Ograve" unicode="&#xd2;" horiz-adv-x="542" 
d="M347 766h-109l-149 142h162zM499 221q0 -37 -1.5 -58t-10 -49.5t-25.5 -51.5q-54 -71 -188 -71q-119 0 -176 50q-28 25 -41 58q-17 41 -17 117v291q0 84 33 133q54 80 197 80q114 0 170 -49q33 -30 47 -71q12 -36 12 -109v-270zM329 175v362q0 17 -2 25q-9 32 -60 32
q-23 0 -34 -6q-21 -10 -21 -51v-362q0 -15 1 -22t5.5 -18t17.5 -15.5t34 -4.5q22 0 35 6q24 12 24 54z" />
    <glyph glyph-name="Oacute" unicode="&#xd3;" horiz-adv-x="542" 
d="M461 910l-150 -142h-106l93 142h163zM499 221q0 -37 -1.5 -58t-10 -49.5t-25.5 -51.5q-54 -71 -188 -71q-119 0 -176 50q-28 25 -41 58q-17 41 -17 117v291q0 84 33 133q54 80 197 80q114 0 170 -49q33 -30 47 -71q12 -36 12 -109v-270zM329 175v362q0 17 -2 25
q-9 32 -60 32q-23 0 -34 -6q-21 -10 -21 -51v-362q0 -15 1 -22t5.5 -18t17.5 -15.5t34 -4.5q22 0 35 6q24 12 24 54z" />
    <glyph glyph-name="Ocircumflex" unicode="&#xd4;" horiz-adv-x="542" 
d="M461 765h-130l-60 83l-58 -83h-121l95 142h167zM499 221q0 -37 -1.5 -58t-10 -49.5t-25.5 -51.5q-54 -71 -188 -71q-119 0 -176 50q-28 25 -41 58q-17 41 -17 117v291q0 84 33 133q54 80 197 80q114 0 170 -49q33 -30 47 -71q12 -36 12 -109v-270zM329 175v362
q0 17 -2 25q-9 32 -60 32q-23 0 -34 -6q-21 -10 -21 -51v-362q0 -15 1 -22t5.5 -18t17.5 -15.5t34 -4.5q22 0 35 6q24 12 24 54z" />
    <glyph glyph-name="Otilde" unicode="&#xd5;" horiz-adv-x="542" 
d="M434 898q-10 -86 -58 -111q-22 -11 -48 -11q-24 1 -79 19q-47 19 -60 19q-14 0 -22 -7.5t-9 -11.5t-3 -14h-50q3 28 6 43t14 34t30 30q25 14 56 14q22 0 79 -19q37 -16 56 -16q24 0 34 18l4 14zM499 221q0 -37 -1.5 -58t-10 -49.5t-25.5 -51.5q-54 -71 -188 -71
q-119 0 -176 50q-28 25 -41 58q-17 41 -17 117v291q0 84 33 133q54 80 197 80q114 0 170 -49q33 -30 47 -71q12 -36 12 -109v-270zM329 175v362q0 17 -2 25q-9 32 -60 32q-23 0 -34 -6q-21 -10 -21 -51v-362q0 -15 1 -22t5.5 -18t17.5 -15.5t34 -4.5q22 0 35 6q24 12 24 54z
" />
    <glyph glyph-name="Odieresis" unicode="&#xd6;" horiz-adv-x="542" 
d="M433 788h-135v111h135v-111zM241 788h-135v111h135v-111zM499 221q0 -37 -1.5 -58t-10 -49.5t-25.5 -51.5q-54 -71 -188 -71q-119 0 -176 50q-28 25 -41 58q-17 41 -17 117v291q0 84 33 133q54 80 197 80q114 0 170 -49q33 -30 47 -71q12 -36 12 -109v-270zM329 175v362
q0 17 -2 25q-9 32 -60 32q-23 0 -34 -6q-21 -10 -21 -51v-362q0 -15 1 -22t5.5 -18t17.5 -15.5t34 -4.5q22 0 35 6q24 12 24 54z" />
    <glyph glyph-name="multiply" unicode="&#xd7;" horiz-adv-x="558" 
d="M475 224l-99 -114l-98 93l-79 -95l-91 79l82 99l-100 96l100 113l97 -92l77 93l90 -81l-79 -96z" />
    <glyph glyph-name="Oslash" unicode="&#xd8;" horiz-adv-x="542" 
d="M533 687l-53 -78q18 -44 18 -120v-269q0 -35 -1.5 -55.5t-9.5 -48.5t-23 -51q-54 -76 -192 -76q-95 0 -145 29q-4 2 -31 22l-39 -56l-52 35l52 79q-11 30 -14.5 49.5t-3.5 66.5v291q0 49 9 83.5t36 66.5q56 64 185 64q90 0 139 -28q11 -6 33 -24l39 55zM333 507v30
q0 28 -11 42t-50 14q-51 0 -63 -27q-5 -13 -5 -29v-220zM333 165v225l-129 -189v-34q0 -20 3 -30q9 -35 58 -35q16 0 30 2q24 4 31 19t7 42z" />
    <glyph glyph-name="Ugrave" unicode="&#xd9;" horiz-adv-x="542" 
d="M347 766h-109l-149 142h162zM493 198q0 -54 -6 -82q-12 -61 -61 -94t-151 -33q-167 0 -210 91q-17 36 -17 113v513h170v-532q0 -21 5 -33q11 -30 49 -30q15 0 29 8q21 11 21 52v535h171v-508z" />
    <glyph glyph-name="Uacute" unicode="&#xda;" horiz-adv-x="542" 
d="M461 910l-150 -142h-106l93 142h163zM493 198q0 -54 -6 -82q-12 -61 -61 -94t-151 -33q-167 0 -210 91q-17 36 -17 113v513h170v-532q0 -21 5 -33q11 -30 49 -30q15 0 29 8q21 11 21 52v535h171v-508z" />
    <glyph glyph-name="Ucircumflex" unicode="&#xdb;" horiz-adv-x="542" 
d="M461 765h-130l-60 83l-58 -83h-121l95 142h167zM493 198q0 -54 -6 -82q-12 -61 -61 -94t-151 -33q-167 0 -210 91q-17 36 -17 113v513h170v-532q0 -21 5 -33q11 -30 49 -30q15 0 29 8q21 11 21 52v535h171v-508z" />
    <glyph glyph-name="Udieresis" unicode="&#xdc;" horiz-adv-x="542" 
d="M433 785h-134v112h134v-112zM241 785h-134v112h134v-112zM493 198q0 -54 -6 -82q-12 -61 -61 -94t-151 -33q-167 0 -210 91q-17 36 -17 113v513h170v-532q0 -21 5 -33q11 -30 49 -30q15 0 29 8q21 11 21 52v535h171v-508z" />
    <glyph glyph-name="Yacute" unicode="&#xdd;" horiz-adv-x="521" 
d="M451 910l-151 -142h-106l94 142h163zM515 706l-176 -458v-248h-167v248l-168 458h168l86 -312l86 312h171z" />
    <glyph glyph-name="Thorn" unicode="&#xde;" horiz-adv-x="521" 
d="M500 299q0 -28 -2 -45.5t-9.5 -42.5t-26.5 -41t-49 -24q-22 -6 -69 -6h-124v-140h-170v706h170v-117h115q42 0 70 -6q58 -14 76.5 -49t18.5 -90v-145zM341 372v8q0 62 -9.5 75t-56.5 13h-55v-203h58q19 0 31 3.5t18.5 8t9.5 19t3.5 24.5t0.5 36v16z" />
    <glyph glyph-name="germandbls" unicode="&#xdf;" horiz-adv-x="521" 
d="M486 177q0 -78 -8 -101q-25 -76 -146 -76q-36 0 -87 7v78q15 -6 35 -6q45 0 45 52v169q0 27 -13 39q-13 13 -64 11v97q2 -2 24 -2q37 2 37 45v61q0 40 -19 53q-14 9 -35 9q-16 0 -27 -5.5t-16 -10.5t-7.5 -18t-2.5 -15v-14v-550h-157v543q0 49 9.5 79.5t41.5 55.5
q54 40 153 40q161 0 203 -90q14 -32 14 -105t-17 -98q-16 -24 -49 -35q31 -11 49 -25t27 -40q10 -32 10 -148z" />
    <glyph glyph-name="agrave" unicode="&#xe0;" 
d="M359 609h-128l-140 127h174zM473 0h-182v45q-12 -10 -17 -15q-54 -45 -116 -45q-24 0 -51 8q-76 24 -76 131q0 37 5 62q9 40 30.5 62.5t60.5 39.5q15 6 56 21.5t62 24.5q16 7 46 21v32q0 22 -8 34q-11 17 -40 17q-33 0 -41 -28q-3 -8 -3 -24v-31h-153q-1 36 0.5 57
t12.5 48t34 46q50 40 149 40q19 0 64 -5q106 -17 134 -86q10 -25 10 -72v-300q0 -36 4.5 -50.5t18.5 -32.5zM291 156v111l-49 -27q-35 -19 -41 -34t-6 -62q0 -19 1.5 -29t11 -19t27.5 -9q11 0 24 4q18 6 25 20t7 45z" />
    <glyph glyph-name="aacute" unicode="&#xe1;" 
d="M404 735l-137 -125h-117l86 125h168zM473 0h-182v45q-12 -10 -17 -15q-54 -45 -116 -45q-24 0 -51 8q-76 24 -76 131q0 37 5 62q9 40 30.5 62.5t60.5 39.5q15 6 56 21.5t62 24.5q16 7 46 21v32q0 22 -8 34q-11 17 -40 17q-33 0 -41 -28q-3 -8 -3 -24v-31h-153
q-1 36 0.5 57t12.5 48t34 46q50 40 149 40q19 0 64 -5q106 -17 134 -86q10 -25 10 -72v-300q0 -36 4.5 -50.5t18.5 -32.5zM291 156v111l-49 -27q-35 -19 -41 -34t-6 -62q0 -19 1.5 -29t11 -19t27.5 -9q11 0 24 4q18 6 25 20t7 45z" />
    <glyph glyph-name="acircumflex" unicode="&#xe2;" 
d="M413 612h-118l-46 59l-43 -59h-119l99 124h126zM473 0h-182v45q-12 -10 -17 -15q-54 -45 -116 -45q-24 0 -51 8q-76 24 -76 131q0 37 5 62q9 40 30.5 62.5t60.5 39.5q15 6 56 21.5t62 24.5q16 7 46 21v32q0 22 -8 34q-11 17 -40 17q-33 0 -41 -28q-3 -8 -3 -24v-31h-153
q-1 36 0.5 57t12.5 48t34 46q50 40 149 40q19 0 64 -5q106 -17 134 -86q10 -25 10 -72v-300q0 -36 4.5 -50.5t18.5 -32.5zM291 156v111l-49 -27q-35 -19 -41 -34t-6 -62q0 -19 1.5 -29t11 -19t27.5 -9q11 0 24 4q18 6 25 20t7 45z" />
    <glyph glyph-name="atilde" unicode="&#xe3;" 
d="M413 738q-10 -85 -58 -110q-22 -11 -48 -11q-25 0 -79 18q-47 19 -60 19q-30 0 -33 -33h-51q3 28 6 43t14.5 34t30.5 30q22 14 55 14q22 0 79 -19q43 -16 56 -16q24 0 34 18q3 10 4 14zM473 0h-182v45q-12 -10 -17 -15q-54 -45 -116 -45q-24 0 -51 8q-76 24 -76 131
q0 37 5 62q9 40 30.5 62.5t60.5 39.5q15 6 56 21.5t62 24.5q16 7 46 21v32q0 22 -8 34q-11 17 -40 17q-33 0 -41 -28q-3 -8 -3 -24v-31h-153q-1 36 0.5 57t12.5 48t34 46q50 40 149 40q19 0 64 -5q106 -17 134 -86q10 -25 10 -72v-300q0 -36 4.5 -50.5t18.5 -32.5zM291 156
v111l-49 -27q-35 -19 -41 -34t-6 -62q0 -19 1.5 -29t11 -19t27.5 -9q11 0 24 4q18 6 25 20t7 45z" />
    <glyph glyph-name="adieresis" unicode="&#xe4;" 
d="M441 609h-141v124h141v-124zM220 609h-143v124h143v-124zM473 0h-182v45q-12 -10 -17 -15q-54 -45 -116 -45q-24 0 -51 8q-76 24 -76 131q0 37 5 62q9 40 30.5 62.5t60.5 39.5q15 6 56 21.5t62 24.5q16 7 46 21v32q0 22 -8 34q-11 17 -40 17q-33 0 -41 -28q-3 -8 -3 -24
v-31h-153q-1 36 0.5 57t12.5 48t34 46q50 40 149 40q19 0 64 -5q106 -17 134 -86q10 -25 10 -72v-300q0 -36 4.5 -50.5t18.5 -32.5zM291 156v111l-49 -27q-35 -19 -41 -34t-6 -62q0 -19 1.5 -29t11 -19t27.5 -9q11 0 24 4q18 6 25 20t7 45z" />
    <glyph glyph-name="aring" unicode="&#xe5;" 
d="M358 664q0 -40 -29 -69t-70 -29t-70 29t-29 70t29 70t70 29q41 -1 70 -30t29 -70zM473 0h-182v45q-12 -10 -17 -15q-54 -45 -116 -45q-24 0 -51 8q-76 24 -76 131q0 37 5 62q9 40 30.5 62.5t60.5 39.5q15 6 56 21.5t62 24.5q16 7 46 21v32q0 22 -8 34q-11 17 -40 17
q-33 0 -41 -28q-3 -8 -3 -24v-31h-153q-1 36 0.5 57t12.5 48t34 46q50 40 149 40q19 0 64 -5q106 -17 134 -86q10 -25 10 -72v-300q0 -36 4.5 -50.5t18.5 -32.5zM296 665q0 16 -11 26.5t-26 10.5t-26 -11.5t-11 -26.5t11 -26q10 -10 26 -10t26.5 11t10.5 26zM291 156v111
l-49 -27q-35 -19 -41 -34t-6 -62q0 -19 1.5 -29t11 -19t27.5 -9q11 0 24 4q18 6 25 20t7 45z" />
    <glyph glyph-name="ae" unicode="&#xe6;" horiz-adv-x="729" 
d="M692 175q2 -65 -5.5 -91.5t-35.5 -49.5q-59 -49 -162 -49q-63 0 -111 18q-20 6 -45 25q-13 10 -33 35q-3 -3 -7.5 -8.5t-8.5 -10t-8 -8.5q-48 -52 -117 -52q-48 0 -79 20q-48 30 -48 138q0 72 40 110q8 7 18 14t16.5 11.5t20 10.5l18 8t21 9t19.5 8q68 28 102 43v39
q0 47 -44 47q-43 0 -43 -47v-39h-151q0 73 10 99q18 49 69.5 70t110.5 21q61 0 100 -21q5 -3 11.5 -7t11.5 -8l5 -4q7 8 25 18q42 23 108 23q114 0 159 -60q16 -20 23.5 -50t8.5 -48.5t1 -55.5v-99h-248v-100q0 -10 3 -22q8 -26 44 -26q45 0 45 48v41h156zM536 329v68
q0 46 -44 46q-36 0 -45 -24q-3 -9 -3 -23v-67h92zM287 144l-1 121q-71 -36 -84 -58q-9 -13 -9 -43v-23q0 -48 45 -48q27 0 38 12t11 39z" />
    <glyph glyph-name="ccedilla" unicode="&#xe7;" horiz-adv-x="465" 
d="M439 139q0 -47 -13 -72q-20 -41 -66 -61t-88 -20l-37 -44q87 -8 90 -75q2 -42 -36.5 -71.5t-104.5 -29.5q-22 0 -32 1l-18 48q18 -2 29 -2q29 0 44.5 14t15.5 32q0 34 -43 34q-21 0 -40 -11l-17 35l64 72q-50 7 -82.5 23.5t-46.5 40.5t-18 45t-4 50v220q0 49 9 77
q34 100 195 100q138 -2 183 -77q16 -28 16 -82v-58h-158v60q0 52 -43 50q-43 -1 -43 -50v-251q0 -49 44 -49q42 0 42 46v53h158v-48z" />
    <glyph glyph-name="egrave" unicode="&#xe8;" horiz-adv-x="479" 
d="M339 609h-128l-140 127h173zM446 176q0 -29 -1 -44.5t-5.5 -38t-15.5 -39t-30 -30.5q-21 -15 -51 -25q-39 -14 -100 -14q-119 0 -169 58q-17 20 -26 48.5t-10 48.5t-1 55v144q0 93 30 141q42 66 174 66q144 0 183 -79q16 -32 16 -103v-134h-242v-87q0 -51 45 -51
q37 0 47 28q3 8 3 25v31h153zM290 331v55q0 58 -44 58q-48 -1 -48 -58v-55h92z" />
    <glyph glyph-name="eacute" unicode="&#xe9;" horiz-adv-x="479" 
d="M404 735l-137 -125h-117l86 125h168zM446 176q0 -29 -1 -44.5t-5.5 -38t-15.5 -39t-30 -30.5q-21 -15 -51 -25q-39 -14 -100 -14q-119 0 -169 58q-17 20 -26 48.5t-10 48.5t-1 55v144q0 93 30 141q42 66 174 66q144 0 183 -79q16 -32 16 -103v-134h-242v-87q0 -51 45 -51
q37 0 47 28q3 8 3 25v31h153zM290 331v55q0 58 -44 58q-48 -1 -48 -58v-55h92z" />
    <glyph glyph-name="ecircumflex" unicode="&#xea;" horiz-adv-x="479" 
d="M403 612h-118l-46 59l-43 -59h-119l98 124h126zM446 176q0 -29 -1 -44.5t-5.5 -38t-15.5 -39t-30 -30.5q-21 -15 -51 -25q-39 -14 -100 -14q-119 0 -169 58q-17 20 -26 48.5t-10 48.5t-1 55v144q0 93 30 141q42 66 174 66q144 0 183 -79q16 -32 16 -103v-134h-242v-87
q0 -51 45 -51q37 0 47 28q3 8 3 25v31h153zM290 331v55q0 58 -44 58q-48 -1 -48 -58v-55h92z" />
    <glyph glyph-name="edieresis" unicode="&#xeb;" horiz-adv-x="479" 
d="M420 609h-141v124h141v-124zM200 609h-144v124h144v-124zM446 176q0 -29 -1 -44.5t-5.5 -38t-15.5 -39t-30 -30.5q-21 -15 -51 -25q-39 -14 -100 -14q-119 0 -169 58q-17 20 -26 48.5t-10 48.5t-1 55v144q0 93 30 141q42 66 174 66q144 0 183 -79q16 -32 16 -103v-134
h-242v-87q0 -51 45 -51q37 0 47 28q3 8 3 25v31h153zM290 331v55q0 58 -44 58q-48 -1 -48 -58v-55h92z" />
    <glyph glyph-name="igrave" unicode="&#xec;" horiz-adv-x="250" 
d="M235 609h-129l-140 127h174zM204 0h-159v531h159v-531z" />
    <glyph glyph-name="iacute" unicode="&#xed;" horiz-adv-x="250" 
d="M279 735l-137 -125h-117l86 125h168zM204 0h-159v531h159v-531z" />
    <glyph glyph-name="icircumflex" unicode="&#xee;" horiz-adv-x="250" 
d="M288 612h-118l-46 59l-43 -59h-119l99 124h126zM204 0h-159v531h159v-531z" />
    <glyph glyph-name="idieresis" unicode="&#xef;" horiz-adv-x="250" 
d="M306 609h-142v124h142v-124zM85 609h-144v124h144v-124zM204 0h-159v531h159v-531z" />
    <glyph glyph-name="eth" unicode="&#xf0;" horiz-adv-x="479" 
d="M442 167q0 -58 -11 -87q-40 -97 -191 -96q-141 0 -186 82q-18 33 -18 108v192q0 32 2 52t16 50t40 51q35 28 87 26q61 -2 99 -62q-12 61 -46 111l-122 -32l-20 56l99 26q-21 21 -57 47l146 39q14 -9 34 -26.5t22 -20.5l68 19l22 -53l-50 -14q15 -18 31 -54t24 -73.5
t9.5 -64.5t1.5 -74v-202zM285 157v219q0 60 -45 60q-47 0 -47 -63v-224q0 -52 47 -52q45 0 45 60z" />
    <glyph glyph-name="ntilde" unicode="&#xf1;" 
d="M413 738q-10 -85 -58 -110q-22 -11 -48 -11q-25 0 -79 18q-47 19 -60 19q-30 0 -33 -33h-51q3 28 6 43t14.5 34t30.5 30q22 14 55 14q22 0 79 -19q43 -16 56 -16q24 0 34 18q3 10 4 14zM457 0h-158v378q0 37 -18 50q-12 8 -29 8q-35 0 -45 -29q-3 -7 -3 -26v-381h-159
v531h159l1 -49q52 64 118 64q24 0 48 -8q23 -8 47 -29t33 -60q6 -24 6 -65v-384z" />
    <glyph glyph-name="ograve" unicode="&#xf2;" horiz-adv-x="479" 
d="M349 609h-128l-140 127h174zM442 167q0 -27 -1 -40q-6 -73 -62 -111q-49 -32 -136 -32q-97 0 -150 39q-24 15 -38 41q-19 36 -19 110v183q0 69 16 103q40 85 187 85q91 0 143 -35q22 -12 37 -36q23 -36 23 -105v-202zM285 157v219q0 60 -46 60q-16 0 -26 -8
q-20 -15 -20 -55v-224q0 -52 46 -52t46 60z" />
    <glyph glyph-name="oacute" unicode="&#xf3;" horiz-adv-x="479" 
d="M394 735l-137 -125h-117l86 125h168zM442 167q0 -27 -1 -40q-6 -73 -62 -111q-49 -32 -136 -32q-97 0 -150 39q-24 15 -38 41q-19 36 -19 110v183q0 69 16 103q40 85 187 85q91 0 143 -35q22 -12 37 -36q23 -36 23 -105v-202zM285 157v219q0 60 -46 60q-16 0 -26 -8
q-20 -15 -20 -55v-224q0 -52 46 -52t46 60z" />
    <glyph glyph-name="ocircumflex" unicode="&#xf4;" horiz-adv-x="479" 
d="M403 612h-118l-46 59l-43 -59h-119l98 124h126zM442 167q0 -27 -1 -40q-6 -73 -62 -111q-49 -32 -136 -32q-97 0 -150 39q-24 15 -38 41q-19 36 -19 110v183q0 69 16 103q40 85 187 85q91 0 143 -35q22 -12 37 -36q23 -36 23 -105v-202zM285 157v219q0 60 -46 60
q-16 0 -26 -8q-20 -15 -20 -55v-224q0 -52 46 -52t46 60z" />
    <glyph glyph-name="otilde" unicode="&#xf5;" horiz-adv-x="479" 
d="M403 738q-12 -86 -59 -110q-22 -11 -47 -11q-31 0 -79 18q-49 19 -61 19q-30 0 -33 -33h-50q3 26 6 42t14 35t30 30q25 14 56 14q22 0 79 -19q43 -16 56 -16q25 0 33 18q3 4 4 14zM442 167q0 -27 -1 -40q-6 -73 -62 -111q-49 -32 -136 -32q-97 0 -150 39q-24 15 -38 41
q-19 36 -19 110v183q0 69 16 103q40 85 187 85q91 0 143 -35q22 -12 37 -36q23 -36 23 -105v-202zM285 157v219q0 60 -46 60q-16 0 -26 -8q-20 -15 -20 -55v-224q0 -52 46 -52t46 60z" />
    <glyph glyph-name="odieresis" unicode="&#xf6;" horiz-adv-x="479" 
d="M421 612h-142v124h142v-124zM200 612h-144v124h144v-124zM442 167q0 -27 -1 -40q-6 -73 -62 -111q-49 -32 -136 -32q-97 0 -150 39q-24 15 -38 41q-19 36 -19 110v183q0 69 16 103q40 85 187 85q91 0 143 -35q22 -12 37 -36q23 -36 23 -105v-202zM285 157v219
q0 60 -46 60q-16 0 -26 -8q-20 -15 -20 -55v-224q0 -52 46 -52t46 60z" />
    <glyph glyph-name="divide" unicode="&#xf7;" horiz-adv-x="559" 
d="M350 417h-139v150h139v-150zM489 237h-419v126h419v-126zM350 32h-139v151h139v-151z" />
    <glyph glyph-name="oslash" unicode="&#xf8;" horiz-adv-x="479" 
d="M456 526l-35 -51q9 -17 12.5 -25.5t6.5 -26t3 -44.5v-194q0 -63 -12 -98q-37 -101 -193 -101q-65 0 -110 19q-7 3 -28 15l-30 -42l-52 36l38 55q-12 26 -16.5 45t-4.5 60v199q0 22 3 46q12 64 61 95q53 34 141 34q60 0 105 -17q10 -4 28 -12l31 43zM290 401q-2 12 -4 15
q-11 25 -47 25q-52 0 -52 -69v-118zM290 154v138l-103 -152q1 -12 3.5 -20t14.5 -17t32 -9q53 1 53 60z" />
    <glyph glyph-name="ugrave" unicode="&#xf9;" 
d="M359 609h-128l-140 127h174zM454 0h-158v57q-10 -15 -16 -22.5t-21 -21t-36 -20.5t-48 -7q-74 0 -109 53q-24 35 -24 113v379h158v-371q0 -14 2 -22q7 -30 45 -30q49 0 49 54v369h158v-531z" />
    <glyph glyph-name="uacute" unicode="&#xfa;" 
d="M404 735l-137 -125h-117l86 125h168zM454 0h-158v57q-10 -15 -16 -22.5t-21 -21t-36 -20.5t-48 -7q-74 0 -109 53q-24 35 -24 113v379h158v-371q0 -14 2 -22q7 -30 45 -30q49 0 49 54v369h158v-531z" />
    <glyph glyph-name="ucircumflex" unicode="&#xfb;" 
d="M413 612h-118l-46 59l-43 -59h-119l99 124h126zM454 0h-158v57q-10 -15 -16 -22.5t-21 -21t-36 -20.5t-48 -7q-74 0 -109 53q-24 35 -24 113v379h158v-371q0 -14 2 -22q7 -30 45 -30q49 0 49 54v369h158v-531z" />
    <glyph glyph-name="udieresis" unicode="&#xfc;" 
d="M426 611h-141v124h141v-124zM206 611h-144v124h144v-124zM454 0h-158v57q-10 -15 -16 -22.5t-21 -21t-36 -20.5t-48 -7q-74 0 -109 53q-24 35 -24 113v379h158v-371q0 -14 2 -22q7 -30 45 -30q49 0 49 54v369h158v-531z" />
    <glyph glyph-name="yacute" unicode="&#xfd;" horiz-adv-x="437" 
d="M373 735l-137 -125h-117l86 125h168zM436 531l-127 -546q-8 -33 -12.5 -49t-15.5 -41t-24.5 -37.5t-37 -25t-55.5 -17.5q-35 -5 -80 -5h-77v103h70q19 0 31 3.5t17.5 13t7 15.5t3.5 20l-138 566h156l64 -417l59 417h159z" />
    <glyph glyph-name="thorn" unicode="&#xfe;" 
d="M465 164q0 -37 -4 -63t-16 -54.5t-39.5 -44t-69.5 -16.5q-68 -1 -109 38q-4 3 -22 25v-236h-159v893h159v-232q23 35 51.5 53.5t79.5 18.5q91 0 120 -78q8 -23 8 -63zM307 165v202q0 45 -24 56q-11 6 -28 6q-50 0 -50 -60v-204q0 -66 51 -66t51 66z" />
    <glyph glyph-name="ydieresis" unicode="&#xff;" horiz-adv-x="437" 
d="M399 609h-141v124h141v-124zM179 609h-144v124h144v-124zM436 531l-127 -546q-8 -35 -12.5 -50.5t-17 -41.5t-30.5 -41q-21 -19 -52 -29t-53.5 -11.5t-59.5 -1.5h-77v103h71q30 0 42.5 11t15.5 41l-138 566h156l64 -417l59 417h159z" />
    <glyph glyph-name="OE" unicode="&#x152;" horiz-adv-x="708" 
d="M685 0h-359v31q-59 -41 -119 -41q-110 0 -148 102q-17 45 -17 123v283q0 15 2 43q13 178 161 178q55 0 97 -27q17 -12 24 -19v33h359v-125h-189v-158h174v-125h-174v-172h189v-126zM326 171v376q0 12 -2 22q-10 36 -54 36q-42 0 -54 -30q-4 -12 -4 -28v-375q0 -66 56 -66
q27 0 41 13.5t15.5 24t1.5 27.5z" />
    <glyph glyph-name="oe" unicode="&#x153;" horiz-adv-x="729" 
d="M695 139q0 -39 -11 -66q-37 -88 -181 -88q-66 0 -108 18q-12 6 -28 17q-21 -12 -34 -18t-40 -11.5t-62 -5.5q-73 0 -115 21q-19 10 -34 25q-24 21 -35 52q-12 32 -12 111v172q0 45 5 66q21 87 117 105q35 8 79 8q64 0 103 -20q5 -2 15.5 -8.5t13.5 -8.5q11 10 18 14
q34 23 107 23q93 -1 144 -39q27 -20 39 -44q17 -34 17 -104v-127h-249v-92q0 -18 3 -28q10 -27 46 -27q20 0 32 9q8 6 11.5 18.5t4 22t0.5 36.5h154v-31zM539 327v62q0 18 -2 24q-8 27 -46 27q-47 0 -47 -50v-63h95zM285 139v256q0 15 -2 22q-7 29 -45 29q-16 0 -26.5 -4.5
t-14 -13t-4.5 -14.5t-1 -15v-263q0 -52 46 -52q17 0 27.5 5.5t14.5 16.5t4.5 16.5t0.5 16.5z" />
    <glyph glyph-name="Scaron" unicode="&#x160;" horiz-adv-x="479" 
d="M418 909l-95 -141h-167l-107 141h131l59 -82l58 82h121zM463 188q0 -101 -49 -148q-52 -50 -174 -50q-158 0 -202 79q-19 36 -19 115v42h169v-56q0 -56 50 -56q54 0 54 49q0 42 -8 56t-56 49l-102 74q-42 31 -53 40q-24 22 -35 50.5t-11 82.5q0 33 4 61q11 91 82 122
q47 21 134 21q52 0 93 -9q64 -14 89 -68q10 -22 14 -49.5t3.5 -52t-0.5 -51.5h-161v50q0 31 -9 45t-39 14q-16 0 -27 -8q-15 -11 -15 -55q0 -38 10 -52q5 -7 22 -20l145 -101q29 -18 50 -39q22 -22 31.5 -51t9.5 -84z" />
    <glyph glyph-name="scaron" unicode="&#x161;" horiz-adv-x="437" 
d="M381 736l-97 -125h-126l-103 125h119l46 -59l42 59h119zM422 160q0 -63 -16 -93q-44 -81 -188 -81q-152 0 -187 90q-10 27 -10 88h153q-1 -7 -1 -19q0 -52 45 -52q23 0 33 13t10 28q0 8 -3 15t-6.5 12t-10 9.5t-10 7t-9.5 5.5l-6 3l-74 41q-71 39 -93.5 67.5t-22.5 92.5
q0 63 23 94q47 65 173 65q149 0 184 -93q10 -27 10 -79h-151v12q0 53 -43 53q-20 0 -31 -12t-11 -31q0 -22 13 -33t53 -31l92 -46q52 -26 68 -51t16 -75z" />
    <glyph glyph-name="Ydieresis" unicode="&#x178;" horiz-adv-x="521" 
d="M423 784h-134v113h134v-113zM232 784h-136v113h136v-113zM515 706l-176 -458v-248h-167v248l-168 458h168l86 -312l86 312h171z" />
    <glyph glyph-name="florin" unicode="&#x192;" horiz-adv-x="354" 
d="M370 706l-12 -100h-30q-23 0 -32 -8.5t-13 -32.5l-5 -34h71l-12 -99h-71l-58 -486q-4 -29 -9.5 -47t-23 -36.5t-48.5 -26.5q-20 -5 -59 -5h-104l12 100h30q13 0 20 1.5t15.5 11t10.5 28.5l56 460h-70l12 99h70l7 60q4 29 9.5 47.5t23.5 37t49 26.5q14 4 58 4h103z" />
    <glyph glyph-name="circumflex" unicode="&#x2c6;" horiz-adv-x="271" 
d="M299 612h-118l-45 59l-43 -59h-121l99 124h126z" />
    <glyph glyph-name="tilde" unicode="&#x2dc;" horiz-adv-x="271" 
d="M300 738q-10 -87 -58 -110q-18 -11 -48 -11q-25 0 -79 18q-47 19 -60 19q-30 0 -33 -33h-51q3 27 6.5 42.5t14.5 34.5t30 30q22 14 55 14q22 0 79 -19q43 -16 56 -16q24 0 34 18q4 10 4 14z" />
    <glyph glyph-name="endash" unicode="&#x2013;" horiz-adv-x="493" 
d="M465 235h-437v122h437v-122z" />
    <glyph glyph-name="emdash" unicode="&#x2014;" horiz-adv-x="664" 
d="M636 235h-608v122h608v-122z" />
    <glyph glyph-name="quoteleft" unicode="&#x2018;" horiz-adv-x="250" 
d="M202 401h-147v153l80 152h67l-46 -152h46v-153z" />
    <glyph glyph-name="quoteright" unicode="&#x2019;" horiz-adv-x="250" 
d="M198 554l-80 -152h-67l46 152h-46v152h147v-152z" />
    <glyph glyph-name="quotesinglbase" unicode="&#x201a;" horiz-adv-x="250" 
d="M197 0l-88 -152h-68l56 152h-45v152h145v-152z" />
    <glyph glyph-name="quotedblleft" unicode="&#x201c;" horiz-adv-x="437" 
d="M402 706l-55 -154h44v-151h-145v151l87 154h69zM206 706l-56 -154h43v-151h-145v151l89 154h69z" />
    <glyph glyph-name="quotedblright" unicode="&#x201d;" horiz-adv-x="437" 
d="M390 556l-89 -153h-68l56 153h-45v150h146v-150zM192 556l-87 -153h-69l56 153h-46v150h146v-150z" />
    <glyph glyph-name="quotedblbase" unicode="&#x201e;" horiz-adv-x="437" 
d="M390 0l-89 -152h-68l56 152h-45v152h146v-152zM191 0l-86 -152h-69l56 152h-46v152h145v-152z" />
    <glyph glyph-name="dagger" unicode="&#x2020;" horiz-adv-x="542" 
d="M504 406h-153v-406h-157v406h-153v133h153v167h157v-167h153v-133z" />
    <glyph glyph-name="daggerdbl" unicode="&#x2021;" horiz-adv-x="542" 
d="M504 159h-154v-160h-157v160h-152v122h152v173h-152v123h152v128h157v-128h154v-123h-154v-173h154v-122z" />
    <glyph glyph-name="bullet" unicode="&#x2022;" horiz-adv-x="333" 
d="M283 225h-234v246h234v-246z" />
    <glyph glyph-name="ellipsis" unicode="&#x2026;" horiz-adv-x="1000" 
d="M893 0h-120v133h120v-133zM560 0h-120v133h120v-133zM227 0h-120v133h120v-133z" />
    <glyph glyph-name="perthousand" unicode="&#x2030;" horiz-adv-x="1125" 
d="M1101 128q0 -22 -2 -38t-10 -36t-22.5 -32.5t-41.5 -21t-65 -8.5q-51 1 -82.5 14.5t-43.5 39.5t-14.5 43.5t-2.5 48.5v8v160q0 78 32 109.5t110 31.5q42 0 70 -9t42 -20t21 -34t8 -36.5t1 -41.5v-178zM768 128q0 -37 -5 -55q-12 -41 -43.5 -61.5t-93.5 -19.5
q-66 0 -100 28t-38 52t-4 66v8v160q0 78 32 109.5t110 31.5q41 0 69.5 -9t42.5 -20t21 -33.5t8 -36.5t1 -42v-178zM551 706l-240 -706h-72l240 706h72zM310 393q0 -74 -33.5 -105.5t-108.5 -30.5q-41 0 -69.5 11t-42.5 24t-21 36.5t-8 37t-1 37.5v8v160q0 78 31.5 109.5
t109.5 31.5q30 0 53 -4.5t38 -11t25.5 -19t15.5 -22t7.5 -27.5t3 -27.5t0.5 -29.5v-178zM996 108v229q0 19 -10 26t-29 7t-26 -9t-7 -28v-225q0 -19 8 -26.5t27 -7.5q23 0 30 8.5t7 25.5zM662 108v229q0 20 -9 26.5t-29 6.5q-19 0 -26.5 -9t-7.5 -28v-225q0 -19 8 -26.5
t27 -7.5q24 0 30.5 8.5t6.5 25.5zM204 373v229q0 33 -38 33q-16 0 -24 -7.5t-9 -13.5t-1 -16v-225q0 -20 8 -27t27 -7q23 0 30 8.5t7 25.5z" />
    <glyph glyph-name="guilsinglleft" unicode="&#x2039;" horiz-adv-x="208" 
d="M170 137l-143 116v121l143 116v-126l-59 -48l59 -51v-128z" />
    <glyph glyph-name="guilsinglright" unicode="&#x203a;" horiz-adv-x="208" 
d="M180 255l-142 -116v128l57 47l-57 52v126l142 -117v-120z" />
    <glyph glyph-name="Euro" unicode="&#x20ac;" horiz-adv-x="520" 
d="M513 674l-45 -130q-47 52 -121 52q-28 0 -46.5 -7.5t-28 -17.5t-14.5 -31t-5.5 -36t-0.5 -45h187l-27 -80h-160v-41h146l-28 -80h-118v-23v-12v-13t0.5 -12t1.5 -13t2.5 -11.5t4 -12t6 -10t8.5 -9.5q26 -22 71 -22q68 0 128 52l1 -150q-80 -31 -175 -31q-129 0 -176 53
q-9 10 -15.5 22.5t-11 23.5t-7.5 28t-5 27.5t-2.5 30t-0.5 28v29v25.5h-65l26 80h40v41h-66l26 80h39v48q0 95 47 149q35 39 83 51t115 12q115 0 186 -45z" />
    <glyph glyph-name="trademark" unicode="&#x2122;" horiz-adv-x="642" 
d="M596 374h-81l1 253l-48 -253h-71l-53 257l3 -257h-84v332h130l41 -183l40 183h122v-332zM239 638h-69v-264h-90v264h-72v68h231v-68z" />
    </font>
</defs>
</svg>
