<?xml version="1.0" standalone="no"?>
<!DOCTYPE svg PUBLIC "-//W3C//DTD SVG 1.1//EN" "http://www.w3.org/Graphics/SVG/1.1/DTD/svg11.dtd" >
<svg xmlns="http://www.w3.org/2000/svg" xmlns:xlink="http://www.w3.org/1999/xlink" version="1.1">
<metadata>
Created by FontForge 20170731 at Thu May 17 20:00:02 2007
 By Aleksey,,,
Copyright  1997, 2001, Berthold LLC. All rights reserved. Akzidenz-Grotesk is a trademark of Berthold Types Limited.
</metadata>
<defs>
<font id="AkzidenzGroteskBQ-Super" horiz-adv-x="646" >
  <font-face 
    font-family="Akzidenz-Grotesk BQ Super"
    font-weight="500"
    font-stretch="normal"
    units-per-em="1000"
    panose-1="0 0 0 0 0 0 0 0 0 0"
    ascent="800"
    descent="-200"
    x-height="518"
    cap-height="706"
    bbox="-60 -240 1414 930"
    underline-thickness="127"
    underline-position="-554"
    unicode-range="U+0020-2122"
  />
<missing-glyph horiz-adv-x="500" 
 />
    <glyph glyph-name=".notdef" horiz-adv-x="500" 
 />
    <glyph glyph-name=".null" horiz-adv-x="0" 
 />
    <glyph glyph-name="nonmarkingreturn" horiz-adv-x="333" 
 />
    <glyph glyph-name="space" unicode=" " horiz-adv-x="313" 
 />
    <glyph glyph-name="exclam" unicode="!" horiz-adv-x="292" 
d="M257 515l-39 -257h-101l-43 259v189h183v-191zM257 0h-183v188h183v-188z" />
    <glyph glyph-name="quotedbl" unicode="&#x22;" horiz-adv-x="306" 
d="M287 743l-34 -308h-40l-35 308h109zM129 743l-35 -308h-39l-36 308h110z" />
    <glyph glyph-name="numbersign" unicode="#" horiz-adv-x="668" 
d="M632 397h-109l-10 -80h96v-139h-116l-25 -178h-143l26 178h-82l-25 -178h-142l24 178h-92v139h112l11 80h-98v139h117l24 170h142l-24 -170h83l23 170h142l-23 -170h89v-139zM382 397h-83l-11 -80h82z" />
    <glyph glyph-name="dollar" unicode="$" horiz-adv-x="667" 
d="M647 216q0 -19 -4.5 -41t-16 -51t-37.5 -57t-63 -46q-46 -23 -137 -34v-101h-96v101q-110 13 -156.5 29t-112.5 56l106 126l33 -21q49 -31 130 -41v132q-23 5 -69 17q-32 8 -53.5 15.5t-46.5 20.5t-43 32.5t-30 45.5q-16 37 -16 78q0 18 4 38t14 47t33 53t56 45
q13 7 26.5 13t27 10t24.5 6.5t23.5 4t19.5 2.5t17.5 1.5t12.5 0.5v65h96v-68q50 -6 73 -12q66 -16 144 -65l-104 -122q-22 16 -34 23q-32 19 -79 25v-112q92 -13 149 -44q109 -61 109 -172zM293 449v98q-17 0 -36 -9q-32 -16 -32 -43q0 -18 16 -30q12 -8 52 -16zM456 201
q0 6 -4 18q-6 13 -19 20t-44 14v-115q44 11 59 36q8 14 8 27z" />
    <glyph glyph-name="percent" unicode="%" horiz-adv-x="1000" 
d="M977 226q0 -101 -51.5 -168.5t-150.5 -67.5q-96 0 -145 64t-49 163q0 89 35 143t82 75q36 16 85 16q75 0 119 -37q75 -61 75 -188zM699 706l-302 -706h-91l301 706h92zM416 470q0 -102 -51 -169t-150 -67q-97 0 -146 64t-49 163q0 88 35 142.5t82 75.5q34 15 86 15
q73 1 118 -36q75 -62 75 -188zM838 225q0 81 -17 108q-16 22 -40 22q-13 0 -24 -6q-37 -20 -37 -128q0 -51 4 -74q6 -40 31 -53q15 -5 24 -5q25 0 40 21q19 28 19 115zM278 468q0 80 -18 109q-13 22 -39 22q-14 0 -25 -6q-37 -21 -37 -129q0 -44 4 -73q6 -40 32 -53
q10 -5 23 -5q27 0 40 20q20 29 20 115z" />
    <glyph glyph-name="ampersand" unicode="&#x26;" horiz-adv-x="688" 
d="M675 137l-1 -136q-68 -5 -82 -5q-60 0 -91 16q-6 4 -14 10t-13.5 10.5t-6.5 4.5q-15 -9 -34 -19q-69 -33 -154 -33q-115 0 -188 65q-44 39 -60 81q-14 38 -14 82q0 83 48 135q26 30 50 46.5t65 36.5q-46 64 -46 129q0 63 41 103q53 50 157 50q46 0 84 -10
q36 -11 60.5 -29.5t35.5 -40t15 -39.5t4 -36q0 -66 -46 -116q-19 -22 -43 -38q-15 -10 -50 -26q40 -50 85 -100q18 48 25 88l151 -57q-23 -69 -35 -96.5t-34 -61.5q32 -16 60 -16q7 0 31 2zM380 553q0 10 -5 18q-10 23 -45 23q-44 0 -44 -40q0 -23 33 -67q61 33 61 66z
M371 150q-29 36 -50 63q-13 16 -37 48t-28 38q-2 -2 -5.5 -5t-5.5 -4q-40 -33 -40 -74q0 -16 5 -30q21 -59 85 -59q34 0 76 23z" />
    <glyph glyph-name="quotesingle" unicode="'" horiz-adv-x="148" 
d="M129 743l-35 -308h-39l-36 308h110z" />
    <glyph glyph-name="parenleft" unicode="(" horiz-adv-x="344" 
d="M355 -85l-64 -81q-4 4 -9.5 8t-9.5 7t-6 5q-73 59 -116 109q-123 143 -123 345q0 205 126 363q55 69 133 132l69 -70l-13 -16q-43 -54 -65.5 -91t-39.5 -83q-38 -99 -38 -224q0 -120 35 -219q38 -108 121 -185z" />
    <glyph glyph-name="parenright" unicode=")" horiz-adv-x="344" 
d="M317 326q0 -139 -57 -256q-53 -109 -187 -226l-15 -13l-69 69l13 16q72 88 105 175q38 102 38 224q0 258 -156 404l64 81q22 -18 25 -20q76 -62 116 -110q123 -144 123 -344z" />
    <glyph glyph-name="asterisk" unicode="*" horiz-adv-x="437" 
d="M423 516l-100 -34l61 -78l-97 -77l-68 86l-64 -87l-101 74l59 80l-100 29l35 119l105 -30l-1 107h125v-107l106 36z" />
    <glyph glyph-name="plus" unicode="+" horiz-adv-x="724" 
d="M633 258h-171v-194h-200v194h-171v153h171v189h200v-189h171v-153z" />
    <glyph glyph-name="comma" unicode="," horiz-adv-x="250" 
d="M216 37q0 -73 -23 -121.5t-84 -74.5q-23 -10 -75 -18v88q35 12 48 31.5t14 57.5h-62v188h182v-151z" />
    <glyph glyph-name="hyphen" unicode="-" horiz-adv-x="374" 
d="M344 230h-315v171h315v-171z" />
    <glyph glyph-name="period" unicode="." horiz-adv-x="250" 
d="M216 0h-182v188h182v-188z" />
    <glyph glyph-name="slash" unicode="/" horiz-adv-x="500" 
d="M497 706l-301 -706h-195l303 706h193z" />
    <glyph glyph-name="zero" unicode="0" 
d="M623 351q0 -98 -29 -170t-68 -114q-79 -84 -212 -84q-70 0 -122 24q-79 36 -125 118q-47 83 -47 208q0 131 52 224q46 81 126 118q59 27 135 25q104 0 175 -58q47 -38 81 -110.5t34 -180.5zM420 335q0 45 -5 100q-9 61 -19 82q-22 47 -72 47q-32 0 -59 -27q-8 -9 -17 -27
q-24 -52 -24 -190q0 -107 24 -151q25 -45 73 -45q36 0 61 31q38 50 38 180z" />
    <glyph glyph-name="one" unicode="1" 
d="M463 0h-206v456q-2 -1 -8.5 -3.5t-10.5 -3.5q-27 -8 -128 -10v155h11q11 -1 18.5 -0.5t21.5 1.5t25 4t25 8t25 13q18 12 32 30q9 13 17 37h178v-687z" />
    <glyph glyph-name="two" unicode="2" 
d="M606 476q0 -93 -69 -167q-32 -34 -79.5 -67t-139.5 -85q105 3 106 3h173v-160h-570v130q98 64 163 112q82 59 133 105q24 22 37 36.5t25.5 39t12.5 50.5q0 17 -5 32q-18 48 -77 48q-88 0 -88 -102q0 -27 7 -50l-203 25q0 13 2 39q9 108 65 162q74 70 234 70q67 0 116 -14
q76 -21 116.5 -75t40.5 -132z" />
    <glyph glyph-name="three" unicode="3" 
d="M621 203q0 -40 -16 -79t-43 -66q-19 -19 -57 -38q-70 -34 -195 -34q-18 0 -48 2q-155 11 -218 107q-25 37 -41 111l191 36q2 -20 4 -30q11 -54 56 -74q30 -12 57 -11q13 0 26 2.5t32 9.5t31 26.5t12 48.5q0 15 -4 24q-18 48 -112 48q-31 0 -50 -5v136q5 0 14 -1
t16.5 -1.5t14.5 -0.5q17 0 33 3q57 6 73 40q7 16 7 32q0 29 -21.5 50.5t-71.5 21.5q-25 0 -43 -9t-27.5 -19t-15.5 -28t-7 -25l-3 -21l-189 12q11 67 27 100q62 128 271 128q58 0 98 -9q130 -28 166 -120q11 -29 11 -64q0 -86 -65 -128q-16 -11 -45 -22q35 -9 56 -20
q76 -41 76 -133z" />
    <glyph glyph-name="four" unicode="4" 
d="M622 143h-87v-143h-196v143h-320v137l312 408h204v-409h87v-136zM344 502q-20 -31 -44 -65l-117 -158h156l2 158q0 34 3 65z" />
    <glyph glyph-name="five" unicode="5" 
d="M621 243q0 -65 -31 -123q-73 -137 -281 -137q-118 0 -192 49q-43 30 -68 72q-18 32 -33 104l204 20q0 -34 4 -48q6 -22 27 -40.5t60 -18.5q47 0 74.5 29.5t27.5 77.5q-1 50 -29 78t-76 28q-41 0 -64 -19q-10 -8 -20 -25l-172 21l39 372h509l-14 -143h-350l-9 -96
q18 10 27 13q45 17 106 17q52 0 102 -17q73 -24 116 -81t43 -133z" />
    <glyph glyph-name="six" unicode="6" 
d="M627 227q0 -66 -34 -121q-39 -62 -109.5 -92t-150.5 -30q-76 0 -143 27q-172 71 -172 314q0 127 48 217q30 53 70 87q82 73 214 72q110 0 179 -51q31 -26 44 -45q20 -27 37 -82l-195 -29q-3 20 -9 32q-19 40 -71 40q-61 0 -97 -55q-26 -38 -30 -127q19 23 31 31
q19 14 59.5 27.5t87.5 13.5q53 0 101 -19q66 -26 103 -82t37 -128zM430 222q0 28 -11 51q-23 49 -89 53q-22 0 -43 -9q-25 -10 -40 -31t-18 -36t-3 -29q1 -45 29 -74.5t73 -29.5q31 0 50 12q52 26 52 93z" />
    <glyph glyph-name="seven" unicode="7" 
d="M594 557q-25 -25 -44 -48q-65 -73 -116 -178q-14 -28 -25.5 -56t-20 -49.5t-16 -48t-11.5 -41.5t-9 -40.5t-6.5 -34t-5.5 -33.5t-5 -28h-215q17 77 36 130q52 155 152 309q20 32 66 94h-331v156h551v-132z" />
    <glyph glyph-name="eight" unicode="8" 
d="M626 200q0 -109 -99 -168q-76 -46 -206 -46q-29 0 -44 1q-19 1 -39 4t-57.5 12t-72.5 32t-58 57q-32 45 -32 103q0 95 77 147q12 8 42 20q-28 18 -38 27q-46 43 -46 114q0 47 26 90q63 104 245 104q25 0 37 -1q138 -6 197 -79q39 -47 39 -112q0 -71 -43 -114
q-9 -9 -36 -28q33 -15 50 -29q28 -22 43 -59t15 -75zM411 496q0 19 -8 32q-19 36 -79 38q-61 1 -81 -37q-9 -16 -9 -33q0 -26 22 -49t68 -23t66.5 22.5t20.5 49.5zM426 203q0 32 -24.5 60t-80.5 27q-61 0 -87 -40q-15 -23 -15 -49q0 -32 23.5 -59t78.5 -27q56 0 80.5 27.5
t24.5 60.5z" />
    <glyph glyph-name="nine" unicode="9" 
d="M626 358q0 -125 -49 -216q-30 -53 -69 -88q-82 -71 -215 -71q-110 0 -178 50q-29 23 -44 45q-19 26 -37 82l195 29q3 -20 9 -32q19 -40 71 -40q60 0 97 55q27 39 29 127q-17 -21 -30 -31q-59 -41 -147 -40q-55 0 -102 18q-65 26 -102.5 83t-36.5 128q0 105 75 170
q83 73 219 73q123 0 206 -62q29 -22 53 -56q56 -83 56 -224zM417 463q-1 46 -28.5 75t-72.5 29q-26 0 -50 -12q-52 -27 -52 -93q0 -28 11 -51q24 -53 88 -53q22 0 44 8q25 10 39.5 31t17.5 36.5t3 29.5z" />
    <glyph glyph-name="colon" unicode=":" horiz-adv-x="292" 
d="M256 330h-182v188h182v-188zM256 0h-182v188h182v-188z" />
    <glyph glyph-name="semicolon" unicode=";" horiz-adv-x="292" 
d="M256 330h-182v188h182v-188zM256 37q0 -73 -23 -121.5t-84 -74.5q-23 -10 -75 -18v88q35 12 48 31.5t14 57.5h-62v188h182v-151z" />
    <glyph glyph-name="less" unicode="&#x3c;" horiz-adv-x="724" 
d="M577 36l-465 222v179l465 216v-184l-284 -115l284 -124v-194z" />
    <glyph glyph-name="equal" unicode="=" horiz-adv-x="724" 
d="M625 353h-525v155h525v-155zM625 124h-525v154h525v-154z" />
    <glyph glyph-name="greater" unicode="&#x3e;" horiz-adv-x="724" 
d="M605 252l-464 -216v184l284 115l-285 124l1 194l464 -222v-179z" />
    <glyph glyph-name="question" unicode="?" horiz-adv-x="604" 
d="M593 526q0 -68 -44 -115q-17 -19 -66.5 -51.5t-51.5 -33.5q-33 -23 -46 -43q-5 -9 -9 -25l-173 1q4 39 10 55q17 48 95 103q24 16 37 26.5t29.5 32.5t16.5 43q0 23 -18 43.5t-57 20.5q-23 0 -44 -9q-20 -9 -32.5 -27.5t-16 -33.5t-7.5 -41l-170 57q20 77 74 123
q76 66 209 66q63 0 107 -12q69 -17 113 -64t44 -116zM380 0h-183v188h183v-188z" />
    <glyph glyph-name="at" unicode="@" horiz-adv-x="850" 
d="M811 417q0 -142 -73.5 -246.5t-173.5 -104.5q-35 0 -59.5 18.5t-31.5 49.5q-55 -67 -124 -67q-65 0 -105.5 47t-40.5 123q0 114 67 200t156 86q27 0 48 -9q19 -8 31 -18t28 -33l10 40h104l-42 -196q-17 -82 -17 -110q0 -25 17 -25t46 40q59 85 59 194q0 81 -35 130
q-61 86 -192 86q-143 0 -245.5 -109t-102.5 -261q0 -129 81.5 -205.5t218.5 -76.5q166 0 318 140l57 -71q-70 -61 -126 -94q-120 -69 -254 -69q-126 0 -227 58q-172 98 -172 312q0 195 137 331t333 136q142 0 226 -80.5t84 -215.5zM498 342v3q0 35 -17.5 56t-46.5 21
q-44 0 -78 -53.5t-34 -122.5q0 -36 16 -57t44 -21q42 0 76 48q17 24 28.5 60t11.5 66z" />
    <glyph glyph-name="A" unicode="A" horiz-adv-x="792" 
d="M787 0h-240l-31 99h-246l-31 -99h-240l270 706h254zM470 256l-75 249l-77 -249h152z" />
    <glyph glyph-name="B" unicode="B" horiz-adv-x="729" 
d="M709 202q0 -94 -55 -147q-18 -18 -49 -32q-51 -23 -129 -23h-432v706h418q33 0 60 -4q80 -11 122 -55q18 -21 28 -42q18 -36 18 -78q0 -84 -64 -135q-19 -13 -47 -26l30 -9q29 -9 56 -36q44 -46 44 -119zM463 497q0 21 -9 35q-16 25 -59 25h-128v-119h123q50 0 65 26
q8 12 8 33zM482 220q0 21 -10 38q-19 32 -71 32h-135v-138h140q45 0 64 28q12 17 12 40z" />
    <glyph glyph-name="C" unicode="C" horiz-adv-x="750" 
d="M737 182q-29 -54 -55 -84q-105 -120 -289 -120q-144 0 -239 81q-127 107 -127 290q0 134 73 236q104 147 294 147q106 0 180 -40t116 -89q23 -26 46 -68l-187 -93q-2 3 -5.5 10t-4.5 11q-48 97 -137 96q-46 0 -81 -25q-67 -50 -67 -172q0 -124 65 -176q36 -28 84 -28
q83 0 127 76q8 16 16 40z" />
    <glyph glyph-name="D" unicode="D" horiz-adv-x="750" 
d="M724 356q0 -58 -11 -110q-45 -186 -196 -230q-54 -16 -179 -16h-294v706h240q32 0 94 -2q86 -4 144.5 -19.5t106.5 -61.5q95 -93 95 -267zM499 353q0 126 -64 168q-32 20 -83 20h-84v-379h85q39 0 65 13q29 14 47.5 41.5t24.5 60.5t7.5 47.5t1.5 28.5z" />
    <glyph glyph-name="E" unicode="E" 
d="M633 0h-589v706h559v-155h-335v-105h313v-153h-314v-140h366v-153z" />
    <glyph glyph-name="F" unicode="F" horiz-adv-x="625" 
d="M602 551h-336v-127h314v-153h-314v-271h-222v706h558v-155z" />
    <glyph glyph-name="G" unicode="G" horiz-adv-x="792" 
d="M758 517l-200 -56q-7 33 -18 50q-35 55 -119 55q-48 0 -86 -22q-81 -46 -81 -187q0 -51 9 -84q12 -40 39.5 -71t65.5 -44q29 -9 59 -9q60 0 97 30q14 11 23 26q7 13 13 44h-131v142h324v-391h-166v49q-28 -20 -46 -30q-72 -38 -167 -38q-81 0 -148 31q-31 15 -61 38.5
t-63.5 63t-54 100.5t-20.5 134q0 158 92 265q105 122 284 122q92 0 177 -34t136 -101q22 -30 42 -83z" />
    <glyph glyph-name="H" unicode="H" horiz-adv-x="750" 
d="M705 0h-225v272h-213v-272h-223v706h223v-257h213v257h225v-706z" />
    <glyph glyph-name="I" unicode="I" horiz-adv-x="313" 
d="M268 0h-224v706h224v-706z" />
    <glyph glyph-name="J" unicode="J" horiz-adv-x="417" 
d="M371 196q0 -42 -5 -66q-14 -79 -82 -109q-50 -21 -135 -21h-149v174q30 -6 57 -6q68 0 83 36q8 18 8 45v457h223v-510z" />
    <glyph glyph-name="K" unicode="K" horiz-adv-x="771" 
d="M779 0h-251l-156 282l-105 -115v-167h-223v706h223v-267l222 267h272l-245 -268z" />
    <glyph glyph-name="L" unicode="L" horiz-adv-x="542" 
d="M540 0h-496v706h223v-528h273v-178z" />
    <glyph glyph-name="M" unicode="M" horiz-adv-x="958" 
d="M911 0h-213l2 512l-141 -512h-166l-139 512l1 -512h-212v706h320l115 -444l113 444h320v-706z" />
    <glyph glyph-name="N" unicode="N" horiz-adv-x="771" 
d="M726 0h-241l-235 410l2 -410h-208v706h237l239 -411l-3 411h209v-706z" />
    <glyph glyph-name="O" unicode="O" horiz-adv-x="812" 
d="M784 359q0 -23 -3 -49t-12.5 -67.5t-33.5 -85t-59 -78.5q-102 -102 -274 -102q-174 0 -273 101q-50 50 -76.5 122.5t-26.5 152.5q0 172 105 277q104 102 275 102q170 0 269 -97q109 -106 109 -276zM559 360q0 128 -75 173q-35 21 -78 21q-65 0 -105 -42q-51 -53 -51 -159
q0 -96 39 -146q19 -24 47 -37q33 -14 70 -14q64 0 103 44q50 54 50 160z" />
    <glyph glyph-name="P" unicode="P" horiz-adv-x="708" 
d="M708 476q0 -56 -17 -101q-7 -18 -18.5 -38t-40.5 -48t-64 -41q-47 -18 -128 -18h-172v-230h-224v706h403q62 0 106.5 -10t81.5 -43q73 -63 73 -177zM486 469q0 29 -11 49q-22 40 -81 40h-126v-180h127q22 0 40 6q51 18 51 85z" />
    <glyph glyph-name="Q" unicode="Q" horiz-adv-x="812" 
d="M822 72l-69 -155q-88 16 -142 62q-6 5 -33 32q-30 -13 -38 -15q-63 -20 -142 -20q-92 0 -164 30q-103 44 -155 137.5t-52 210.5q0 65 15 120t40.5 93t49 62t49.5 42q90 62 230 62q90 0 154 -25q103 -41 161 -137t58 -209q0 -107 -43 -191q-4 -9 -12 -21t-13.5 -20.5
t-5.5 -9.5q66 -44 112 -48zM557 361q0 98 -46 149q-22 23 -45 33q-26 11 -61 11t-61 -13q-91 -44 -91 -191q0 -56 15 -99q33 -95 135 -95q65 0 105 46q49 55 49 159z" />
    <glyph glyph-name="R" unicode="R" horiz-adv-x="708" 
d="M720 0h-250l-137 249h-65v-249h-224v706h382q31 0 61 -3q121 -12 172 -96q33 -58 33 -127q0 -111 -83 -166q-19 -12 -62 -29zM469 476q0 28 -14 50q-8 12 -21 18q-25 14 -75 14h-91v-164h93q85 0 103 51q5 20 5 31z" />
    <glyph glyph-name="S" unicode="S" horiz-adv-x="729" 
d="M700 229q0 -116 -93 -185q-88 -65 -240 -65q-178 0 -285 80q-39 29 -75 76l171 109q20 -32 34 -43q28 -24 74.5 -37t88.5 -13q48 0 77.5 14t29.5 40q0 2 -5 17q-9 18 -34 26q-11 4 -29 8t-50 9.5t-54 10.5q-129 25 -183 73q-62 54 -61 143q0 60 26 107q20 37 55.5 64
t67.5 39t72.5 19t56 7.5t34.5 0.5q160 0 264 -76q18 -13 54 -49l-141 -117q-13 17 -20 23q-53 49 -165 49q-32 0 -53 -9q-28 -14 -28 -37q0 -19 18 -32q21 -13 79 -22q100 -16 161 -36q153 -49 153 -194z" />
    <glyph glyph-name="T" unicode="T" horiz-adv-x="583" 
d="M581 532h-179v-532h-223v532h-180v174h582v-174z" />
    <glyph glyph-name="U" unicode="U" horiz-adv-x="729" 
d="M686 283q0 -67 -22 -125q-35 -90 -117.5 -133.5t-185.5 -43.5q-91 0 -166 33q-100 43 -135 135q-18 48 -18 138v419h224v-441q0 -35 7 -54q19 -57 90 -57q70 0 91 56q7 18 7 55v441h225v-423z" />
    <glyph glyph-name="V" unicode="V" horiz-adv-x="708" 
d="M708 706l-239 -706h-233l-236 706h228l126 -433l125 433h229z" />
    <glyph glyph-name="W" unicode="W" horiz-adv-x="1042" 
d="M1040 706l-176 -706h-239l-107 440l-104 -440h-240l-176 706h218l100 -461l108 461h189l113 -461l97 461h217z" />
    <glyph glyph-name="X" unicode="X" horiz-adv-x="833" 
d="M833 0h-263l-154 254l-156 -254h-262l273 379l-229 327h262l112 -194l114 194h255l-223 -326z" />
    <glyph glyph-name="Y" unicode="Y" horiz-adv-x="792" 
d="M788 706l-284 -409v-297h-224v297l-283 409h258l139 -235l136 235h258z" />
    <glyph glyph-name="Z" unicode="Z" horiz-adv-x="667" 
d="M654 562l-356 -390h355v-172h-651v141l362 396h-341v169h631v-144z" />
    <glyph glyph-name="bracketleft" unicode="[" horiz-adv-x="299" 
d="M284 -144h-240v923h240v-95h-84v-733h84v-95z" />
    <glyph glyph-name="backslash" unicode="\" horiz-adv-x="500" 
d="M497 0h-193l-303 706h195z" />
    <glyph glyph-name="bracketright" unicode="]" horiz-adv-x="299" 
d="M255 -144h-241v95h85v733h-85v95h241v-923z" />
    <glyph glyph-name="asciicircum" unicode="^" horiz-adv-x="724" 
d="M669 279h-197l-102 255l-106 -255h-208l218 427h184z" />
    <glyph glyph-name="underscore" unicode="_" horiz-adv-x="500" 
d="M510 -240h-520v127h520v-127z" />
    <glyph glyph-name="grave" unicode="`" horiz-adv-x="313" 
d="M301 587h-127l-162 137h213z" />
    <glyph glyph-name="a" unicode="a" horiz-adv-x="604" 
d="M580 0h-203v40q-20 -15 -38 -24q-56 -28 -134 -28q-48 0 -83 13q-50 19 -76.5 60t-26.5 94q0 86 71 134q42 28 148 43q64 9 89 14q30 7 40 10q0 16 -3 24q-10 36 -67 36q-15 0 -30 -3q-7 -2 -12 -4.5t-9 -6.5t-6.5 -7t-4.5 -8l-3 -7.5t-2 -7t-1 -5.5l-193 -5
q1 6 3.5 16.5t3.5 14.5q14 54 57 88q69 54 216 54q185 0 231 -97q15 -31 15 -92v-282q0 -27 3.5 -38t14.5 -26zM366 241q-39 -13 -78 -24q-53 -12 -69 -32q-9 -13 -9 -24q0 -15 12.5 -27.5t38.5 -12.5q22 0 50 14q20 11 32.5 25t17 32t5 25.5t0.5 23.5z" />
    <glyph glyph-name="b" unicode="b" horiz-adv-x="625" 
d="M605 270q0 -15 -1 -31t-7.5 -49.5t-17.5 -61.5t-35 -59t-56 -51q-52 -31 -117 -31t-108 29q-9 7 -22 22v-38h-199v706h205l1 -224q12 12 27 23q42 28 104 28q98 0 161 -69q65 -71 65 -194zM402 260q0 65 -22 96q-21 30 -57 30q-24 0 -44 -15q-37 -30 -37 -111t34 -108
q19 -16 46 -16q30 0 52 22q28 30 28 102z" />
    <glyph glyph-name="c" unicode="c" horiz-adv-x="577" 
d="M561 138q-19 -38 -33 -55q-31 -40 -89.5 -71.5t-144.5 -31.5q-67 0 -118 22q-52 22 -86.5 58.5t-48.5 78.5t-18.5 69.5t-4.5 53.5q0 53 17 104q20 59 57.5 97.5t82.5 53.5t73.5 19.5t58.5 4.5q104 0 177 -50q32 -24 50 -46q11 -14 26 -39l-156 -88q-6 18 -10 27
q-24 51 -79 51q-26 0 -44 -13q-49 -33 -49 -127q0 -60 24 -90q8 -12 29 -21q24 -8 37 -8q63 1 90 86q1 1 1 2z" />
    <glyph glyph-name="d" unicode="d" horiz-adv-x="625" 
d="M582 0h-199l-1 37l-4 -4q-3 -4 -8 -8.5t-9 -8.5q-40 -29 -109 -29q-65 0 -112 29q-41 24 -68.5 63t-37.5 80.5t-13 67t-2 44.5q0 66 18 116q8 21 21 42t37 46.5t63.5 41.5t87.5 16q60 0 103 -28q11 -8 28 -23v224h205v-706zM382 261q0 55 -16 85q-22 40 -65 40
q-23 0 -43 -15q-36 -28 -36 -111q0 -72 29 -102q20 -22 52 -22q24 0 40 13q39 27 39 112z" />
    <glyph glyph-name="e" unicode="e" horiz-adv-x="604" 
d="M588 222h-361q0 -24 5 -40q20 -58 82 -57q37 0 59 20q15 12 35 47l169 -71q-14 -23 -25 -35q-40 -46 -95 -74q-69 -33 -153 -33q-69 0 -123 22q-78 32 -121 103t-43 158q0 126 79 202t206 76q136 0 216 -86q38 -41 55 -96q15 -48 15 -136zM379 331q-5 28 -5 29
q-16 49 -68 49q-18 -1 -32 -8q-35 -16 -45 -70h150z" />
    <glyph glyph-name="f" unicode="f" horiz-adv-x="375" 
d="M375 394h-93v-394h-206v394h-77v112h77v51q0 40 10 69q33 92 181 92q41 0 108 -14v-141q-19 7 -38 7q-17 0 -28.5 -5.5t-16.5 -10.5t-7.5 -18t-2.5 -15v-15h93v-112z" />
    <glyph glyph-name="g" unicode="g" horiz-adv-x="625" 
d="M582 29q0 -5 -1 -14.5t-1 -14.5q-4 -87 -60 -134q-72 -61 -233 -61q-47 0 -84 4q-119 15 -158 74q-23 36 -25 110h187q0 -35 16 -49q20 -18 65 -18q46 0 71 19t25 69q0 11 0.5 32.5t0.5 31.5q-11 -16 -18 -22q-38 -31 -116 -31q-89 0 -146 44q-87 66 -87 205
q0 122 66 192q62 66 178 66q73 0 116 -34q12 -9 27 -29l-1 49h178v-489zM380 277q0 83 -43 104q-18 9 -37 8q-19 0 -37 -8q-49 -24 -49 -112q0 -60 23 -85q9 -11 25 -17q12 -6 33 -6q22 0 39 8q46 20 46 108z" />
    <glyph glyph-name="h" unicode="h" 
d="M603 0h-206v296q0 14 -3 27q-9 47 -71 47q-60 0 -73 -48q-3 -10 -3 -30v-292h-206v706h205v-240q11 14 23 26q51 48 142 48q92 0 144 -52q33 -33 42 -83q6 -30 6 -67v-338z" />
    <glyph glyph-name="i" unicode="i" horiz-adv-x="292" 
d="M248 569h-206v137h206v-137zM248 0h-206v518h206v-518z" />
    <glyph glyph-name="j" unicode="j" horiz-adv-x="292" 
d="M249 569h-206v137h206v-137zM249 8q0 -48 -2 -71q-8 -62 -42 -89q-51 -42 -183 -42q-9 0 -28.5 0.5t-28.5 0.5l1 150q26 0 33 1q44 7 44 55v505h206v-510z" />
    <glyph glyph-name="k" unicode="k" 
d="M648 0h-235l-112 197l-54 -52v-145h-206v706h206v-336l141 148h251l-197 -187z" />
    <glyph glyph-name="l" unicode="l" horiz-adv-x="292" 
d="M248 0h-207v706h207v-706z" />
    <glyph glyph-name="m" unicode="m" horiz-adv-x="1000" 
d="M955 0h-206v271v4q1 86 -72 86q-58 0 -72 -50q-3 -12 -3 -35v-276h-206v280q0 20 -3 32q-13 49 -69 49q-55 0 -71 -48q-5 -15 -5 -32v-281h-207v518h199v-74q15 26 28 39q49 47 135 47q104 0 154 -56q9 -9 26 -40q9 21 27 39q56 58 151 57q40 0 68 -8q89 -24 116 -105
q10 -30 10 -90v-327z" />
    <glyph glyph-name="n" unicode="n" 
d="M597 0h-206v283q0 23 -3 35q-12 43 -67 43q-75 0 -75 -85v-276h-205v518h194v-69q13 19 25 31q52 52 146 52q82 0 132 -43q38 -31 52 -90q7 -30 7 -72v-327z" />
    <glyph glyph-name="o" unicode="o" 
d="M624 258q0 -111 -67 -186q-83 -92 -242 -92q-122 0 -199 61q-96 76 -96 214q0 119 71 196q83 90 235 89q131 0 211 -70q42 -37 64.5 -94.5t22.5 -117.5zM416 263q0 105 -62 127q-15 5 -34 5q-40 -1 -65 -29q-30 -32 -30 -105q0 -68 26 -104q13 -17 31 -25q14 -7 39 -7
q39 0 62 23q33 33 33 115z" />
    <glyph glyph-name="p" unicode="p" horiz-adv-x="625" 
d="M606 256q0 -117 -57 -193t-171 -76q-69 0 -112 29q-5 4 -22 19v-223h-202v706h201v-40q12 15 20 20q43 34 117 34q114 0 170 -79t56 -197zM403 254q0 70 -22 100q-21 28 -55 28q-22 0 -40 -10q-44 -24 -44 -116q0 -91 43 -115q16 -9 36 -9q21 0 40 11q42 26 42 111z" />
    <glyph glyph-name="q" unicode="q" horiz-adv-x="625" 
d="M584 -188h-203v223q-1 0 -4.5 -3.5t-8.5 -8t-9 -7.5q-41 -29 -112 -29q-115 0 -171.5 76t-56.5 193q0 54 10 92q6 27 17 52.5t34 58.5t66 53t100 20q70 0 111 -30q12 -9 26 -24v40h201v-706zM384 257q0 83 -36 110q-23 16 -49 15q-13 0 -30 -7q-47 -23 -47 -122
q0 -83 40 -108q19 -13 42 -13q17 0 37 10q43 25 43 115z" />
    <glyph glyph-name="r" unicode="r" horiz-adv-x="417" 
d="M411 355q-20 2 -30 2q-104 6 -129 -64q-6 -17 -6 -49v-244h-205v518h198v-45q16 14 28 22q31 22 63 28t81 6v-174z" />
    <glyph glyph-name="s" unicode="s" horiz-adv-x="542" 
d="M523 173q0 -46 -21 -84q-20 -37 -54 -61.5t-72 -33.5t-58.5 -11.5t-40.5 -2.5q-121 0 -221 63q-7 4 -57 41l116 105q18 -16 29 -25q62 -44 131 -44q21 0 34 6q20 9 20 27q0 8 -4 12q-5 7 -13 11.5t-14 6t-23 3.5t-25 4q-51 8 -102 26q-41 14 -66.5 32t-41.5 52
q-14 31 -14 62q0 49 30 92q61 85 205 85q116 0 197 -42q22 -12 50 -33l-111 -101q-75 50 -133 50q-18 0 -29 -5q-15 -8 -15 -22q0 -15 14 -20q6 -4 54 -15q20 -5 50 -12t44 -10.5t30.5 -9t28.5 -11.5q30 -15 56 -48t26 -87z" />
    <glyph glyph-name="t" unicode="t" horiz-adv-x="375" 
d="M369 4q-93 -11 -130 -11q-138 0 -165 94q-6 23 -6 56l3 251h-71v112h72l2 163h207l-1 -163h88v-112h-90l-3 -199q0 -14 2.5 -24t16 -20t38.5 -10q17 0 37 4v-141z" />
    <glyph glyph-name="u" unicode="u" 
d="M602 0h-196v76q-15 -29 -35 -46q-52 -43 -136 -43q-85 0 -137 44q-36 31 -50 84q-9 32 -9 88v315h207v-282q0 -12 0.5 -18.5t4 -21t10.5 -22.5t22.5 -15t37.5 -7q35 0 53 18q21 22 21 74v274h207v-518z" />
    <glyph glyph-name="v" unicode="v" horiz-adv-x="562" 
d="M561 518l-172 -518h-219l-173 518h218l63 -320l67 320h216z" />
    <glyph glyph-name="w" unicode="w" horiz-adv-x="854" 
d="M851 518l-155 -518h-205l-68 317l-63 -317h-205l-156 518h210l64 -331l63 331h177l66 -330l61 330h211z" />
    <glyph glyph-name="x" unicode="x" horiz-adv-x="604" 
d="M606 0h-220l-85 168l-84 -168h-221l174 272l-154 246h221l64 -155l68 155h222l-157 -245z" />
    <glyph glyph-name="y" unicode="y" horiz-adv-x="583" 
d="M581 518l-189 -548q-32 -91 -73 -125q-19 -16 -43 -23t-39.5 -8t-49.5 -1q-43 0 -52 1l-57 6v147q7 0 19 -1t21.5 -1.5t18.5 -0.5q43 0 43 25q0 7 -16 53l-164 476h215l74 -338q77 332 78 338h214z" />
    <glyph glyph-name="z" unicode="z" horiz-adv-x="542" 
d="M529 400l-241 -245h239v-155h-519v114l246 250h-215v154h490v-118z" />
    <glyph glyph-name="braceleft" unicode="{" horiz-adv-x="332" 
d="M320 -148l-74 -1q-54 -1 -78.5 6.5t-43.5 28.5q-17 20 -23 44q-6 26 -6 83v6v143q0 52 -10 72q-16 28 -77 34v98q38 4 57 15q18 10 24 28.5t6 62.5v142v7q0 60 6 82q6 25 23 44q20 21 44 28.5t76 6.5l76 -1v-95h-15q-25 0 -38 -15q-8 -9 -11 -22q-4 -15 -4 -71v-127
q0 -62 -17 -89t-66 -46q29 -9 47 -24q20 -17 28 -41t8 -69v-127q0 -52 5 -71q10 -38 53 -38h10v-94z" />
    <glyph glyph-name="bar" unicode="|" horiz-adv-x="264" 
d="M210 -144h-156v923h156v-923z" />
    <glyph glyph-name="braceright" unicode="}" horiz-adv-x="332" 
d="M324 267q-37 -4 -57 -15q-17 -10 -23.5 -29t-6.5 -62l1 -143v-6q0 -51 -7 -83q-6 -25 -23 -43q-20 -21 -43 -28t-77 -7h-76v95h16q24 0 37 15q8 12 11 22q4 16 4 71v128q0 62 17 89t66 46q-30 9 -47 24q-20 17 -28 41t-8 69v127q0 58 -4 71q-5 17 -19.5 27.5t-34.5 10.5
h-10v94h75q54 0 78 -7t43 -28q17 -18 23 -43q7 -31 7 -83v-6l-1 -143q0 -54 11 -73q15 -27 76 -33v-98z" />
    <glyph glyph-name="asciitilde" unicode="~" horiz-adv-x="724" 
d="M655 302q-38 -47 -73 -70q-45 -29 -91 -29q-42 0 -122 38l-36 17q-66 31 -103 31q-18 0 -33 -6q-26 -10 -70 -62l-10 -12l-48 161q27 37 54 61q44 38 105 38q21 0 41 -5q37 -12 74 -28l63 -29q55 -25 78 -25q34 0 67 23q25 18 56 56z" />
    <glyph glyph-name="exclamdown" unicode="&#xa1;" horiz-adv-x="292" 
d="M215 518h-183v188h183v-188zM215 0h-183v192l39 256h101l43 -258v-190z" />
    <glyph glyph-name="cent" unicode="&#xa2;" horiz-adv-x="583" 
d="M566 131q-13 -27 -25 -44q-59 -85 -184 -106v-128h-101v128h-7q-112 16 -169 89t-57 178q0 106 59.5 188.5t173.5 94.5v116h101v-115q138 -16 205 -132l-155 -88q-16 45 -37 61q-22 16 -52 16q-43 0 -66.5 -35.5t-23.5 -101.5q0 -120 85 -120q10 0 18.5 2t16 5t14 8.5
t11.5 9.5t10 11t7.5 11.5t6 12t5 10t4.5 8.5l2 7z" />
    <glyph glyph-name="sterling" unicode="&#xa3;" horiz-adv-x="729" 
d="M707 233q1 -95 -7 -134q-17 -74 -85 -102q-34 -14 -75 -14q-32 0 -61 8q-50 13 -125 63q-20 -18 -31 -26q-59 -43 -146 -43q-30 0 -60 8q-13 3 -26.5 9.5t-32.5 19.5t-31 36.5t-12 53.5q0 41 27 73q48 57 138 57q14 0 33.5 -2t21.5 -2q-12 25 -38 61h-134v101l69 1
q-44 56 -43 114q0 100 90 154q71 43 192 43q96 0 164 -25q38 -14 63 -34q36 -28 52 -71q17 -43 15 -126h-178q2 15 1 23q-5 88 -105 88q-21 0 -43 -6q-55 -16 -55 -69q0 -36 45 -92h156v-101l-90 -1q26 -42 26 -88q0 -11 -4 -42q60 -38 82 -38q18 0 27 11.5t10.5 23
t1.5 29.5q0 21 -4 39h172zM247 127q-32 18 -62 18q-31 0 -42 -18q-5 -8 -5 -16q2 -30 38 -30q14 0 28 7q22 10 43 39z" />
    <glyph glyph-name="currency" unicode="&#xa4;" horiz-adv-x="700" 
d="M677 570l-81 -80q42 -71 42 -150q0 -80 -43 -153l81 -82l-96 -95l-81 82q-72 -42 -149 -42q-82 0 -152 44l-81 -82l-95 95l82 82q-44 65 -44 148q0 80 43 153l-80 80l95 95l80 -80q67 43 153 43q77 0 149 -43l81 81zM481 338q0 57 -38 96t-93 39t-93.5 -39t-38.5 -95
t38 -94.5t94 -38.5q55 0 93 38.5t38 93.5z" />
    <glyph glyph-name="yen" unicode="&#xa5;" horiz-adv-x="792" 
d="M788 698l-154 -220h76v-122h-162l-44 -63v-7h206v-122h-206v-164h-224v164h-198v122h198v7l-44 63h-154v122h69l-154 220h258l138 -238l137 238h258z" />
    <glyph glyph-name="brokenbar" unicode="&#xa6;" horiz-adv-x="264" 
d="M210 382h-156v397h156v-397zM210 -144h-156v397h156v-397z" />
    <glyph glyph-name="section" unicode="&#xa7;" horiz-adv-x="625" 
d="M606 252q0 -52 -26 -90.5t-75 -71.5q35 -32 35 -89q0 -78 -63.5 -119t-146.5 -41h-3q-72 0 -132.5 23t-140.5 69l99 105q117 -67 182 -67q42 0 42 24q0 10 -15 25q-7 6 -46 24t-85.5 38t-55.5 24q-76 35 -117 77t-41 112q0 54 24.5 90.5t73.5 67.5q-34 44 -34 87
q0 79 63 122t146 43q124 0 271 -85l-92 -105q-108 57 -182 57q-41 0 -41 -22q0 -10 12 -20q7 -6 45.5 -23.5t84.5 -37t55 -23.5q38 -18 62.5 -32.5t50 -37t38 -52t12.5 -66.5v-6zM449 230q0 12 -8.5 24t-24.5 22.5t-28.5 17t-32 15.5t-23.5 11q-84 40 -125 61
q-34 -34 -34 -60q0 -24 27 -47q18 -15 113 -58q17 -8 50.5 -23.5t50.5 -22.5q35 31 35 60z" />
    <glyph glyph-name="dieresis" unicode="&#xa8;" horiz-adv-x="313" 
d="M362 605h-166v119h166v-119zM117 605h-166v119h166v-119z" />
    <glyph glyph-name="copyright" unicode="&#xa9;" horiz-adv-x="833" 
d="M773 360q0 -155 -102 -259t-255 -104q-148 0 -251.5 104t-103.5 252q0 149 103.5 252.5t252.5 103.5q146 0 251 -102.5t105 -246.5zM717 346q0 134 -86.5 224.5t-214.5 90.5q-124 0 -211.5 -90.5t-87.5 -218.5t87 -217.5t212 -89.5q123 0 212 89t89 212zM608 198
q-45 -44 -87 -62.5t-98 -18.5q-106 0 -171 65.5t-65 171.5q0 105 66 171.5t170 66.5q58 0 100 -18.5t85 -62.5l-82 -94q-26 29 -47.5 40t-52.5 11q-47 0 -76.5 -32.5t-29.5 -84.5q0 -49 29 -79.5t76 -30.5q30 0 51 10t51 39z" />
    <glyph glyph-name="ordfeminine" unicode="&#xaa;" horiz-adv-x="396" 
d="M376 374h-131v26q-38 -34 -103 -34q-66 0 -94.5 33t-28.5 75q0 38 23 65q8 10 19 17.5t20 11.5t24 8t21.5 5.5t23.5 4t20 2.5q8 1 69 13q-1 19 -9 27.5t-33 8.5q-14 0 -21 -1.5t-13.5 -9t-8.5 -22.5h-124q5 31 16 47q40 64 152 64q131 0 159 -67q8 -19 8 -46v-201
q0 -15 11 -27zM238 526q-24 -8 -37 -12q-46 -12 -54 -22q-5 -6 -5 -14q0 -13 10 -19.5t22 -6.5q18 0 35 12q10 8 16.5 14.5t9 16.5t2.5 14t1 17z" />
    <glyph glyph-name="guillemotleft" unicode="&#xab;" horiz-adv-x="417" 
d="M383 100l-158 125v183l158 125v-149l-90 -69l90 -67v-148zM189 100l-157 125v183l157 125v-149l-89 -69l89 -67v-148z" />
    <glyph glyph-name="logicalnot" unicode="&#xac;" horiz-adv-x="724" 
d="M633 31h-200v222h-366v158h566v-380z" />
    <glyph glyph-name="registered" unicode="&#xae;" horiz-adv-x="833" 
d="M773 360q0 -155 -102 -259t-255 -104q-148 0 -251.5 104t-103.5 252q0 149 103.5 252.5t252.5 103.5q146 0 251 -102.5t105 -246.5zM717 346q0 134 -86.5 224.5t-214.5 90.5q-124 0 -211.5 -90.5t-87.5 -218.5t87 -217.5t212 -89.5q123 0 212 89t89 212zM616 144h-135
l-64 155h-37v-155h-126v432h140q4 0 10 -0.5t17.5 -1t22.5 -0.5q61 -2 90 -19q68 -39 68 -119q0 -78 -72 -120zM477 436q0 46 -62 46h-36v-93h37q33 0 47 11t14 36z" />
    <glyph glyph-name="macron" unicode="&#xaf;" horiz-adv-x="313" 
d="M362 605h-411v93h411v-93z" />
    <glyph glyph-name="degree" unicode="&#xb0;" horiz-adv-x="354" 
d="M349 573q0 -71 -50.5 -122t-121.5 -51t-121.5 51t-50.5 122q0 72 50 122t122 50t122 -50t50 -122zM233 575q0 23 -16.5 39t-39.5 16t-39 -16t-16 -39t16.5 -39.5t38.5 -16.5q23 0 39.5 16.5t16.5 39.5z" />
    <glyph glyph-name="plusminus" unicode="&#xb1;" horiz-adv-x="724" 
d="M633 383h-172v-178h-199v178h-170l-1 152h172v171h199v-171h171v-152zM632 0h-541v154h541v-154z" />
    <glyph glyph-name="twosuperior" unicode="&#xb2;" horiz-adv-x="437" 
d="M407 549q0 -36 -12 -64.5t-40.5 -53.5t-49 -39t-63.5 -39h160v-110h-382v89q102 57 166 106l4 3q4 3 10 8t12.5 10.5t14 12.5t12.5 13q27 30 27 58q0 26 -17 38.5t-41 11.5q-53 -2 -53 -62q0 -21 4 -37l-137 17q1 31 4.5 52.5t15 47.5t31.5 41.5t57 26.5t88 12
q130 2 173 -73q16 -30 16 -69z" />
    <glyph glyph-name="threesuperior" unicode="&#xb3;" horiz-adv-x="437" 
d="M409 379q0 -50 -29 -86q-48 -58 -167 -58q-78 0 -123 22.5t-68 71.5q-5 11 -13 42l128 24q9 -60 72 -60q60 0 60 48q0 41 -64 41q-5 0 -14.5 -0.5t-13.5 -0.5v93h21h16t16 2t17.5 6t10.5 12.5t5 20.5q0 18 -13.5 29.5t-40.5 11.5q-28 0 -41 -12t-18 -41l-128 7
q6 39 18 61q41 81 176 81q89 0 134.5 -34t45.5 -93q0 -35 -16 -55.5t-42 -36.5q71 -26 71 -96z" />
    <glyph glyph-name="acute" unicode="&#xb4;" horiz-adv-x="313" 
d="M301 724l-161 -137h-128l77 137h212z" />
    <glyph glyph-name="mu" unicode="&#xb5;" horiz-adv-x="676" 
d="M668 0q-50 -14 -109 -14q-53 0 -88 21q-16 9 -25 19.5t-24 37.5q-12 -39 -31 -55.5t-53 -16.5q-59 0 -82 57l3 -265h-207v733h208v-263q0 -34 7 -62q13 -55 64 -55q33 0 48 27q14 24 17 69q2 36 2 94v190h207v-329q0 -50 34 -50q13 0 29 7v-145z" />
    <glyph glyph-name="paragraph" unicode="&#xb6;" horiz-adv-x="637" 
d="M556 610h-36v-777h-102v777h-99v-777h-103v459q-154 40 -154 199q0 101 66 161q22 21 50 33q47 21 133 21h245v-96z" />
    <glyph glyph-name="periodcentered" unicode="&#xb7;" horiz-adv-x="250" 
d="M218 197h-186v185h186v-185z" />
    <glyph glyph-name="cedilla" unicode="&#xb8;" horiz-adv-x="313" 
d="M260 -130q0 -24 -16 -45q-32 -43 -114 -43q-34 0 -77 7l3 55q20 -4 22 -4q30 0 40 14q3 3 3 9q0 4 -2 7q-6 9 -23 9q-11 0 -38 -6l3 35l66 98l47 -15l-24 -50q72 8 98 -30q12 -18 12 -41z" />
    <glyph glyph-name="onesuperior" unicode="&#xb9;" horiz-adv-x="437" 
d="M308 243h-138v285q-30 -8 -68 -8h-25v106h9q48 0 69.5 13t32.5 46h120v-442z" />
    <glyph glyph-name="ordmasculine" unicode="&#xba;" horiz-adv-x="417" 
d="M399 530q-2 -46 -21 -80t-42 -50.5t-54 -26t-47.5 -11t-32.5 -1.5q-80 0 -133 46.5t-53 128.5q0 86 52 133.5t139 47.5q58 0 99.5 -19.5t60.5 -51t26 -60t6 -56.5zM266 540q0 83 -56 83q-19 0 -33 -8q-30 -19 -30 -78q0 -84 61 -83h2q56 1 56 86z" />
    <glyph glyph-name="guillemotright" unicode="&#xbb;" horiz-adv-x="417" 
d="M383 225l-158 -125v149l90 69l-90 67v148l158 -125v-183zM189 225l-157 -125v149l90 69l-90 67v148l157 -125v-183z" />
    <glyph glyph-name="onequarter" unicode="&#xbc;" horiz-adv-x="1000" 
d="M977 90h-64v-90h-130v89h-209v88l203 266h136v-257h64v-96zM699 706l-302 -706h-91l301 706h92zM308 243h-138v285q-30 -8 -68 -8h-25v106h9q48 0 69.5 13t32.5 46h120v-442zM788 317q-40 -64 -91 -131h87q1 66 4 131z" />
    <glyph glyph-name="onehalf" unicode="&#xbd;" horiz-adv-x="1000" 
d="M970 306q0 -29 -10.5 -54.5t-22.5 -42.5t-39 -38t-43 -30.5t-51 -30.5h160v-110h-382v89q106 59 166 106q35 26 53 47q28 32 28 59q0 26 -17.5 38t-41.5 11q-53 -2 -53 -62q0 -10 2 -23t2 -14l-136 17q1 39 7 65.5t24.5 55t59.5 43.5t104 16q36 0 61 -3t59.5 -20.5
t52.5 -49.5q17 -29 17 -69zM675 706l-301 -706h-92l301 706h92zM308 243h-138v285q-30 -8 -68 -8h-25v106h9q48 0 69.5 13t32.5 46h120v-442z" />
    <glyph glyph-name="threequarters" unicode="&#xbe;" horiz-adv-x="1000" 
d="M977 90h-64v-90h-130v89h-209v88l203 266h136v-257h64v-96zM699 706l-302 -706h-91l301 706h92zM409 379q0 -50 -29 -86q-48 -58 -167 -58q-78 0 -123 22.5t-68 71.5q-5 11 -13 42l128 24q9 -60 72 -60q60 0 60 48q0 41 -64 41q-5 0 -14.5 -0.5t-13.5 -0.5v93h21h16t16 2
t17.5 6t10.5 12.5t5 20.5q0 18 -13.5 29.5t-40.5 11.5q-28 0 -41 -12t-18 -41l-128 7q6 39 18 61q41 81 176 81q89 0 134.5 -34t45.5 -93q0 -35 -16 -55.5t-42 -36.5q71 -26 71 -96zM788 317q-40 -64 -91 -131h87q1 66 4 131z" />
    <glyph glyph-name="questiondown" unicode="&#xbf;" horiz-adv-x="604" 
d="M406 518h-182v188h182v-188zM558 178q-21 -78 -74 -124q-75 -65 -209 -65q-57 0 -107 12q-70 18 -114 64.5t-44 115.5q0 66 45 114q13 14 34 29t47 31.5t36 24.5q36 26 47 44q4 7 8 24h174q-4 -37 -10 -56q-4 -10 -10 -20t-13.5 -19t-16.5 -17.5t-16.5 -15.5t-16 -13.5
t-14 -10.5t-10.5 -7l-4 -3q-77 -53 -77 -99q0 -23 17.5 -43.5t56.5 -20.5q22 0 44 10q29 14 40 38.5t16 63.5z" />
    <glyph glyph-name="Agrave" unicode="&#xc0;" horiz-adv-x="792" 
d="M488 754h-131l-150 120h217zM787 0h-240l-31 99h-246l-31 -99h-240l270 706h254zM470 256l-75 249l-77 -249h152z" />
    <glyph glyph-name="Aacute" unicode="&#xc1;" horiz-adv-x="792" 
d="M586 874l-150 -120h-131l64 120h217zM787 0h-240l-31 99h-246l-31 -99h-240l270 706h254zM470 256l-75 249l-77 -249h152z" />
    <glyph glyph-name="Acircumflex" unicode="&#xc2;" horiz-adv-x="792" 
d="M574 751h-143l-34 53l-31 -53h-141l93 123h161zM787 0h-240l-31 99h-246l-31 -99h-240l270 706h254zM470 256l-75 249l-77 -249h152z" />
    <glyph glyph-name="Atilde" unicode="&#xc3;" horiz-adv-x="792" 
d="M596 877q-7 -36 -12 -51q-25 -71 -105 -71q-29 0 -97 15q-41 9 -48 9q-21 0 -24 -23h-101l6 27q16 71 70 89q13 5 38 5q30 0 89 -12q40 -8 48 -8q23 0 30 20h106zM787 0h-240l-31 99h-246l-31 -99h-240l270 706h254zM470 256l-75 249l-77 -249h152z" />
    <glyph glyph-name="Adieresis" unicode="&#xc4;" horiz-adv-x="792" 
d="M594 757h-166v119h166v-119zM364 757h-166v119h166v-119zM787 0h-240l-31 99h-246l-31 -99h-240l270 706h254zM470 256l-75 249l-77 -249h152z" />
    <glyph glyph-name="Aring" unicode="&#xc5;" horiz-adv-x="792" 
d="M510 829q0 -34 -28 -67t-89 -33q-51 0 -83 29t-32 72q0 16 6 33q26 67 110 67q30 0 57 -12q23 -10 37 -29t18 -33t4 -27zM787 0h-240l-31 99h-246l-31 -99h-240l270 706h254zM430 830q0 15 -10.5 25t-25.5 10q-16 0 -26 -10.5t-10 -25.5q0 -14 11 -25q8 -11 25 -11
q15 0 25.5 11t10.5 26zM470 256l-75 249l-77 -249h152z" />
    <glyph glyph-name="AE" unicode="&#xc6;" horiz-adv-x="1104" 
d="M1089 0h-576v100h-227l-51 -100h-252l413 706h658v-153h-325v-106h300v-155h-300v-137h360v-155zM517 553l-151 -299h148z" />
    <glyph glyph-name="Ccedilla" unicode="&#xc7;" horiz-adv-x="750" 
d="M737 182q-36 -60 -39 -64q-68 -91 -192 -126q-19 -5 -37.5 -8t-36 -4.5t-19.5 -1.5l-17 -45q26 6 40 7q45 1 64.5 -25.5t19.5 -53.5q0 -43 -35.5 -71t-100.5 -28q-31 0 -73 6l-1 58q12 -4 33 -4q40 0 40 26q0 21 -30 21q-16 0 -44 -12l-1 45l50 77l-9 1
q-147 17 -233 118.5t-89 241.5q-3 160 97 275.5t267 116.5q101 1 177.5 -37.5t123.5 -94.5q16 -19 44 -65l-187 -93q-11 23 -18 35.5t-25 35.5t-44.5 34.5t-60.5 11.5q-64 -1 -105.5 -50t-41.5 -144q-1 -100 40 -153.5t107 -53.5q86 0 129 76q7 12 16 40z" />
    <glyph glyph-name="Egrave" unicode="&#xc8;" 
d="M415 754h-131l-150 120h217zM633 0h-589v706h559v-155h-335v-105h313v-153h-314v-140h366v-153z" />
    <glyph glyph-name="Eacute" unicode="&#xc9;" 
d="M513 874l-149 -120h-132l64 120h217zM633 0h-589v706h559v-155h-335v-105h313v-153h-314v-140h366v-153z" />
    <glyph glyph-name="Ecircumflex" unicode="&#xca;" 
d="M502 751h-144l-34 53l-31 -53h-141l93 123h161zM633 0h-589v706h559v-155h-335v-105h313v-153h-314v-140h366v-153z" />
    <glyph glyph-name="Edieresis" unicode="&#xcb;" 
d="M523 757h-166v119h166v-119zM293 757h-165v119h165v-119zM633 0h-589v706h559v-155h-335v-105h313v-153h-314v-140h366v-153z" />
    <glyph glyph-name="Igrave" unicode="&#xcc;" horiz-adv-x="313" 
d="M249 754h-132l-150 120h217zM268 0h-224v706h224v-706z" />
    <glyph glyph-name="Iacute" unicode="&#xcd;" horiz-adv-x="313" 
d="M347 874l-150 -120h-132l65 120h217zM268 0h-224v706h224v-706z" />
    <glyph glyph-name="Icircumflex" unicode="&#xce;" horiz-adv-x="313" 
d="M335 751h-143l-35 53l-30 -53h-142l93 123h162zM268 0h-224v706h224v-706z" />
    <glyph glyph-name="Idieresis" unicode="&#xcf;" horiz-adv-x="313" 
d="M356 757h-166v119h166v-119zM127 757h-166v119h166v-119zM268 0h-224v706h224v-706z" />
    <glyph glyph-name="Eth" unicode="&#xd0;" horiz-adv-x="750" 
d="M724 364v-1q-2 -6 0 -22t-2.5 -43l-9.5 -57t-20.5 -63.5t-35 -63t-53.5 -55.5t-76 -40q-55 -19 -165 -19h-318v300h-44v131h44v275h240q190 0 261 -29q38 -16 68.5 -41.5t48.5 -51t31.5 -59.5t19 -55.5t8.5 -51.5t3 -35.5v-18.5zM499 353q0 125 -66 169q-29 19 -81 19
h-84v-110h144v-131h-144v-138h85q41 0 68 15q78 42 78 176z" />
    <glyph glyph-name="Ntilde" unicode="&#xd1;" horiz-adv-x="771" 
d="M586 877q-7 -36 -12 -51q-28 -71 -106 -71q-28 0 -96 15q-41 9 -48 9q-21 0 -24 -23h-101q1 4 2.5 13t2.5 14q22 73 71 89q13 5 38 5q30 0 88 -12q42 -8 49 -8q22 0 29 20h107zM726 0h-241l-235 410l2 -410h-208v706h237l239 -411l-3 411h209v-706z" />
    <glyph glyph-name="Ograve" unicode="&#xd2;" horiz-adv-x="812" 
d="M499 754h-132l-150 120h217zM784 359q0 -23 -3 -49t-12.5 -67.5t-33.5 -85t-59 -78.5q-102 -102 -274 -102q-174 0 -273 101q-50 50 -76.5 122.5t-26.5 152.5q0 172 105 277q104 102 275 102q170 0 269 -97q109 -106 109 -276zM559 360q0 128 -75 173q-35 21 -78 21
q-65 0 -105 -42q-51 -53 -51 -159q0 -96 39 -146q19 -24 47 -37q33 -14 70 -14q64 0 103 44q50 54 50 160z" />
    <glyph glyph-name="Oacute" unicode="&#xd3;" horiz-adv-x="812" 
d="M597 874l-150 -120h-132l65 120h217zM784 359q0 -23 -3 -49t-12.5 -67.5t-33.5 -85t-59 -78.5q-102 -102 -274 -102q-174 0 -273 101q-50 50 -76.5 122.5t-26.5 152.5q0 172 105 277q104 102 275 102q170 0 269 -97q109 -106 109 -276zM559 360q0 128 -75 173
q-35 21 -78 21q-65 0 -105 -42q-51 -53 -51 -159q0 -96 39 -146q19 -24 47 -37q33 -14 70 -14q64 0 103 44q50 54 50 160z" />
    <glyph glyph-name="Ocircumflex" unicode="&#xd4;" horiz-adv-x="812" 
d="M585 751h-143l-35 53l-30 -53h-142l93 123h162zM784 359q0 -23 -3 -49t-12.5 -67.5t-33.5 -85t-59 -78.5q-102 -102 -274 -102q-174 0 -273 101q-50 50 -76.5 122.5t-26.5 152.5q0 172 105 277q104 102 275 102q170 0 269 -97q109 -106 109 -276zM559 360q0 128 -75 173
q-35 21 -78 21q-65 0 -105 -42q-51 -53 -51 -159q0 -96 39 -146q19 -24 47 -37q33 -14 70 -14q64 0 103 44q50 54 50 160z" />
    <glyph glyph-name="Otilde" unicode="&#xd5;" horiz-adv-x="812" 
d="M607 877q-6 -30 -13 -51q-25 -71 -105 -71q-29 0 -97 15q-40 9 -48 9q-21 0 -23 -23h-101q1 9 5 27q16 70 71 89q15 5 38 5q30 0 88 -12q42 -8 48 -8q23 0 30 20h107zM784 359q0 -23 -3 -49t-12.5 -67.5t-33.5 -85t-59 -78.5q-102 -102 -274 -102q-174 0 -273 101
q-50 50 -76.5 122.5t-26.5 152.5q0 172 105 277q104 102 275 102q170 0 269 -97q109 -106 109 -276zM559 360q0 128 -75 173q-35 21 -78 21q-65 0 -105 -42q-51 -53 -51 -159q0 -96 39 -146q19 -24 47 -37q33 -14 70 -14q64 0 103 44q50 54 50 160z" />
    <glyph glyph-name="Odieresis" unicode="&#xd6;" horiz-adv-x="812" 
d="M604 757h-165v119h165v-119zM375 757h-166v119h166v-119zM784 359q0 -23 -3 -49t-12.5 -67.5t-33.5 -85t-59 -78.5q-102 -102 -274 -102q-174 0 -273 101q-50 50 -76.5 122.5t-26.5 152.5q0 172 105 277q104 102 275 102q170 0 269 -97q109 -106 109 -276zM559 360
q0 128 -75 173q-35 21 -78 21q-65 0 -105 -42q-51 -53 -51 -159q0 -96 39 -146q19 -24 47 -37q33 -14 70 -14q64 0 103 44q50 54 50 160z" />
    <glyph glyph-name="multiply" unicode="&#xd7;" horiz-adv-x="724" 
d="M627 224l-134 -147l-143 131l-116 -126l-112 103l115 126l-139 128l135 147l139 -128l116 127l112 -103l-116 -127z" />
    <glyph glyph-name="Oslash" unicode="&#xd8;" horiz-adv-x="812" 
d="M801 658l-83 -78q18 -27 28 -47q38 -76 38 -172q0 -123 -64 -224.5t-177 -139.5q-63 -21 -137 -21q-120 0 -204 45q-22 12 -46 32l-77 -72l-65 69l78 74q-13 18 -24 41q-40 83 -40 188q0 186 119 292q49 44 116 68q60 20 138 20q112 0 186 -35q26 -12 68 -44l80 75z
M509 516q-7 10 -13 14q-33 27 -87 27q-68 0 -110 -43q-50 -52 -50 -158q0 -27 6 -79zM561 358q0 33 -5 71l-255 -241q46 -36 99 -36q44 0 77 19q84 47 84 187z" />
    <glyph glyph-name="Ugrave" unicode="&#xd9;" horiz-adv-x="729" 
d="M457 754h-132l-149 120h217zM686 283q0 -67 -22 -125q-35 -90 -117.5 -133.5t-185.5 -43.5q-91 0 -166 33q-100 43 -135 135q-18 48 -18 138v419h224v-441q0 -35 7 -54q19 -57 90 -57q70 0 91 56q7 18 7 55v441h225v-423z" />
    <glyph glyph-name="Uacute" unicode="&#xda;" horiz-adv-x="729" 
d="M555 874l-150 -120h-131l64 120h217zM686 283q0 -67 -22 -125q-35 -90 -117.5 -133.5t-185.5 -43.5q-91 0 -166 33q-100 43 -135 135q-18 48 -18 138v419h224v-441q0 -35 7 -54q19 -57 90 -57q70 0 91 56q7 18 7 55v441h225v-423z" />
    <glyph glyph-name="Ucircumflex" unicode="&#xdb;" horiz-adv-x="729" 
d="M543 751h-143l-34 53l-31 -53h-142l93 123h162zM686 283q0 -67 -22 -125q-35 -90 -117.5 -133.5t-185.5 -43.5q-91 0 -166 33q-100 43 -135 135q-18 48 -18 138v419h224v-441q0 -35 7 -54q19 -57 90 -57q70 0 91 56q7 18 7 55v441h225v-423z" />
    <glyph glyph-name="Udieresis" unicode="&#xdc;" horiz-adv-x="729" 
d="M561 757h-165v119h165v-119zM332 757h-166v119h166v-119zM686 283q0 -67 -22 -125q-35 -90 -117.5 -133.5t-185.5 -43.5q-91 0 -166 33q-100 43 -135 135q-18 48 -18 138v419h224v-441q0 -35 7 -54q19 -57 90 -57q70 0 91 56q7 18 7 55v441h225v-423z" />
    <glyph glyph-name="Yacute" unicode="&#xdd;" horiz-adv-x="792" 
d="M586 874l-150 -120h-131l64 120h217zM788 706l-284 -409v-297h-224v297l-283 409h258l139 -235l136 235h258z" />
    <glyph glyph-name="Thorn" unicode="&#xde;" horiz-adv-x="708" 
d="M708 375q-1 -96 -49 -157q-39 -51 -94 -72q-45 -16 -125 -16h-172v-130h-224v706h224v-100h179q90 0 138 -21q123 -54 123 -210zM486 369q0 89 -92 89h-126v-180h127q28 0 44 8q47 21 47 83z" />
    <glyph glyph-name="germandbls" unicode="&#xdf;" horiz-adv-x="625" 
d="M601 227q0 -126 -65 -188q-56 -52 -157 -52q-50 0 -94 21v130q30 -20 51 -20q29 0 47 21q21 26 21 96q0 41 -8 63q-8 27 -27.5 37t-65.5 10v110q12 -3 22 -2q48 7 48 66q0 69 -62 69q-39 0 -52 -23.5t-13 -64.5v-500h-205v455q0 56 7 92.5t31 71.5q66 94 241 94
q119 0 182 -51q25 -20 41 -50q18 -36 18 -82q0 -66 -35 -100q-11 -11 -30 -22q34 -9 51 -21q54 -42 54 -160z" />
    <glyph glyph-name="agrave" unicode="&#xe0;" horiz-adv-x="604" 
d="M421 587h-127l-162 137h213zM580 0h-203v40q-20 -15 -38 -24q-56 -28 -134 -28q-48 0 -83 13q-50 19 -76.5 60t-26.5 94q0 86 71 134q42 28 148 43q64 9 89 14q30 7 40 10q0 16 -3 24q-10 36 -67 36q-15 0 -30 -3q-7 -2 -12 -4.5t-9 -6.5t-6.5 -7t-4.5 -8l-3 -7.5t-2 -7
t-1 -5.5l-193 -5q1 6 3.5 16.5t3.5 14.5q14 54 57 88q69 54 216 54q185 0 231 -97q15 -31 15 -92v-282q0 -27 3.5 -38t14.5 -26zM366 241q-39 -13 -78 -24q-53 -12 -69 -32q-9 -13 -9 -24q0 -15 12.5 -27.5t38.5 -12.5q22 0 50 14q20 11 32.5 25t17 32t5 25.5t0.5 23.5z" />
    <glyph glyph-name="aacute" unicode="&#xe1;" horiz-adv-x="604" 
d="M519 724l-161 -137h-128l77 137h212zM580 0h-203v40q-20 -15 -38 -24q-56 -28 -134 -28q-48 0 -83 13q-50 19 -76.5 60t-26.5 94q0 86 71 134q42 28 148 43q64 9 89 14q30 7 40 10q0 16 -3 24q-10 36 -67 36q-15 0 -30 -3q-7 -2 -12 -4.5t-9 -6.5t-6.5 -7t-4.5 -8
l-3 -7.5t-2 -7t-1 -5.5l-193 -5q1 6 3.5 16.5t3.5 14.5q14 54 57 88q69 54 216 54q185 0 231 -97q15 -31 15 -92v-282q0 -27 3.5 -38t14.5 -26zM366 241q-39 -13 -78 -24q-53 -12 -69 -32q-9 -13 -9 -24q0 -15 12.5 -27.5t38.5 -12.5q22 0 50 14q20 11 32.5 25t17 32t5 25.5
t0.5 23.5z" />
    <glyph glyph-name="acircumflex" unicode="&#xe2;" horiz-adv-x="604" 
d="M487 586h-143l-41 66l-40 -66h-142l106 138h156zM580 0h-203v40q-20 -15 -38 -24q-56 -28 -134 -28q-48 0 -83 13q-50 19 -76.5 60t-26.5 94q0 86 71 134q42 28 148 43q64 9 89 14q30 7 40 10q0 16 -3 24q-10 36 -67 36q-15 0 -30 -3q-7 -2 -12 -4.5t-9 -6.5t-6.5 -7
t-4.5 -8l-3 -7.5t-2 -7t-1 -5.5l-193 -5q1 6 3.5 16.5t3.5 14.5q14 54 57 88q69 54 216 54q185 0 231 -97q15 -31 15 -92v-282q0 -27 3.5 -38t14.5 -26zM366 241q-39 -13 -78 -24q-53 -12 -69 -32q-9 -13 -9 -24q0 -15 12.5 -27.5t38.5 -12.5q22 0 50 14q20 11 32.5 25
t17 32t5 25.5t0.5 23.5z" />
    <glyph glyph-name="atilde" unicode="&#xe3;" horiz-adv-x="604" 
d="M485 723q-1 -14 -5 -35q-10 -58 -33.5 -81t-59.5 -23q-44 0 -107 21q-40 10 -54 10q-22 0 -25 -28l-88 1q3 23 5.5 38.5t9.5 36.5t17 33.5t27.5 21.5t40.5 9q29 0 106 -21q40 -11 48 -11q21 0 27 16q1 3 1 12h90zM580 0h-203v40q-20 -15 -38 -24q-56 -28 -134 -28
q-48 0 -83 13q-50 19 -76.5 60t-26.5 94q0 86 71 134q42 28 148 43q64 9 89 14q30 7 40 10q0 16 -3 24q-10 36 -67 36q-15 0 -30 -3q-7 -2 -12 -4.5t-9 -6.5t-6.5 -7t-4.5 -8l-3 -7.5t-2 -7t-1 -5.5l-193 -5q1 6 3.5 16.5t3.5 14.5q14 54 57 88q69 54 216 54q185 0 231 -97
q15 -31 15 -92v-282q0 -27 3.5 -38t14.5 -26zM366 241q-39 -13 -78 -24q-53 -12 -69 -32q-9 -13 -9 -24q0 -15 12.5 -27.5t38.5 -12.5q22 0 50 14q20 11 32.5 25t17 32t5 25.5t0.5 23.5z" />
    <glyph glyph-name="adieresis" unicode="&#xe4;" horiz-adv-x="604" 
d="M525 605h-165v119h165v-119zM281 605h-167v119h167v-119zM580 0h-203v40q-20 -15 -38 -24q-56 -28 -134 -28q-48 0 -83 13q-50 19 -76.5 60t-26.5 94q0 86 71 134q42 28 148 43q64 9 89 14q30 7 40 10q0 16 -3 24q-10 36 -67 36q-15 0 -30 -3q-7 -2 -12 -4.5t-9 -6.5
t-6.5 -7t-4.5 -8l-3 -7.5t-2 -7t-1 -5.5l-193 -5q1 6 3.5 16.5t3.5 14.5q14 54 57 88q69 54 216 54q185 0 231 -97q15 -31 15 -92v-282q0 -27 3.5 -38t14.5 -26zM366 241q-39 -13 -78 -24q-53 -12 -69 -32q-9 -13 -9 -24q0 -15 12.5 -27.5t38.5 -12.5q22 0 50 14
q20 11 32.5 25t17 32t5 25.5t0.5 23.5z" />
    <glyph glyph-name="aring" unicode="&#xe5;" horiz-adv-x="604" 
d="M432 688q0 -46 -32.5 -78t-78.5 -32t-79 33q-32 32 -32 78t33 78.5t78 32.5q46 0 78.5 -33t32.5 -79zM580 0h-203v40q-20 -15 -38 -24q-56 -28 -134 -28q-48 0 -83 13q-50 19 -76.5 60t-26.5 94q0 86 71 134q42 28 148 43q64 9 89 14q30 7 40 10q0 16 -3 24
q-10 36 -67 36q-15 0 -30 -3q-7 -2 -12 -4.5t-9 -6.5t-6.5 -7t-4.5 -8l-3 -7.5t-2 -7t-1 -5.5l-193 -5q1 6 3.5 16.5t3.5 14.5q14 54 57 88q69 54 216 54q185 0 231 -97q15 -31 15 -92v-282q0 -27 3.5 -38t14.5 -26zM356 689q0 15 -10 25.5t-25 10.5q-15 -1 -25.5 -11.5
t-10.5 -24.5q0 -15 11 -26q10 -10 25 -10t25 10.5t10 25.5zM366 241q-39 -13 -78 -24q-53 -12 -69 -32q-9 -13 -9 -24q0 -15 12.5 -27.5t38.5 -12.5q22 0 50 14q20 11 32.5 25t17 32t5 25.5t0.5 23.5z" />
    <glyph glyph-name="ae" unicode="&#xe6;" horiz-adv-x="938" 
d="M921 223h-360q0 -24 3 -38q15 -60 85 -60q47 0 73 32q10 12 23 37l168 -70q-29 -45 -63 -74q-83 -71 -206 -71q-91 0 -159 40q-7 4 -33 23q-33 -18 -52.5 -27.5t-70 -22.5t-101.5 -13q-112 1 -161.5 52.5t-49.5 118.5q0 74 51 120q20 18 48 29.5t47.5 15t56.5 8.5
q87 13 105 16q28 6 42 10q0 13 -1 22.5t-7 21t-21 17.5t-38 6q-28 0 -44 -8.5t-19.5 -18t-6.5 -26.5l-194 -4q5 40 17 66q16 33 46.5 56.5t58 34t63.5 16t48 6t28 0.5q88 0 150 -22q17 -6 41 -21q20 12 39 21q51 23 119 23q124 0 203 -82q38 -41 56 -91q18 -52 16 -143z
M711 331q0 17 -4 29q-13 45 -67 45q-51 -2 -68 -41q-5 -11 -7 -33h146zM372 236l-51 -15q-9 -2 -28 -6t-28 -7q-44 -11 -53 -30q-4 -10 -4 -18t6 -20q13 -21 47 -21q47 0 81 36q25 26 30 81z" />
    <glyph glyph-name="ccedilla" unicode="&#xe7;" horiz-adv-x="577" 
d="M561 139q-18 -38 -34 -58q-66 -82 -198 -100l-20 -40q18 2 29 2q42 -1 61.5 -23.5t19.5 -48.5q0 -28 -18 -49q-34 -40 -108 -40q-36 0 -80 7l2 55q20 -4 23 -4q18 0 30.5 6t12.5 17q0 16 -25 16q-7 0 -16 -1.5t-16 -3.5l-7 -1l3 35l49 73q-33 0 -70 12q-94 29 -137.5 105
t-43.5 164q0 32 6 65t25.5 73t49.5 70t84 50.5t124 20.5q148 0 227 -96l26 -39l-156 -88q-22 78 -88 78q-44 0 -69.5 -38t-24.5 -104q0 -106 74 -116q7 -1 14 -1q24 0 42 10t29.5 30.5t14 26t7.5 21.5z" />
    <glyph glyph-name="egrave" unicode="&#xe8;" horiz-adv-x="604" 
d="M405 587h-127l-162 137h213zM588 222h-361q0 -24 5 -40q20 -58 82 -57q37 0 59 20q15 12 35 47l169 -71q-14 -23 -25 -35q-40 -46 -95 -74q-69 -33 -153 -33q-69 0 -123 22q-78 32 -121 103t-43 158q0 126 79 202t206 76q136 0 216 -86q38 -41 55 -96q15 -48 15 -136z
M379 331q-5 28 -5 29q-16 49 -68 49q-18 -1 -32 -8q-35 -16 -45 -70h150z" />
    <glyph glyph-name="eacute" unicode="&#xe9;" horiz-adv-x="604" 
d="M493 724l-161 -137h-128l77 137h212zM588 222h-361q0 -24 5 -40q20 -58 82 -57q37 0 59 20q15 12 35 47l169 -71q-14 -23 -25 -35q-40 -46 -95 -74q-69 -33 -153 -33q-69 0 -123 22q-78 32 -121 103t-43 158q0 126 79 202t206 76q136 0 216 -86q38 -41 55 -96
q15 -48 15 -136zM379 331q-5 28 -5 29q-16 49 -68 49q-18 -1 -32 -8q-35 -16 -45 -70h150z" />
    <glyph glyph-name="ecircumflex" unicode="&#xea;" horiz-adv-x="604" 
d="M487 586h-143l-41 66l-40 -66h-142l106 138h156zM588 222h-361q0 -24 5 -40q20 -58 82 -57q37 0 59 20q15 12 35 47l169 -71q-14 -23 -25 -35q-40 -46 -95 -74q-69 -33 -153 -33q-69 0 -123 22q-78 32 -121 103t-43 158q0 126 79 202t206 76q136 0 216 -86q38 -41 55 -96
q15 -48 15 -136zM379 331q-5 28 -5 29q-16 49 -68 49q-18 -1 -32 -8q-35 -16 -45 -70h150z" />
    <glyph glyph-name="edieresis" unicode="&#xeb;" horiz-adv-x="604" 
d="M507 605h-165v119h165v-119zM263 605h-166v119h166v-119zM588 222h-361q0 -24 5 -40q20 -58 82 -57q37 0 59 20q15 12 35 47l169 -71q-14 -23 -25 -35q-40 -46 -95 -74q-69 -33 -153 -33q-69 0 -123 22q-78 32 -121 103t-43 158q0 126 79 202t206 76q136 0 216 -86
q38 -41 55 -96q15 -48 15 -136zM379 331q-5 28 -5 29q-16 49 -68 49q-18 -1 -32 -8q-35 -16 -45 -70h150z" />
    <glyph glyph-name="igrave" unicode="&#xec;" horiz-adv-x="292" 
d="M249 587h-127l-162 137h213zM248 0h-206v518h206v-518z" />
    <glyph glyph-name="iacute" unicode="&#xed;" horiz-adv-x="292" 
d="M337 724l-162 -137h-127l76 137h213zM248 0h-206v518h206v-518z" />
    <glyph glyph-name="icircumflex" unicode="&#xee;" horiz-adv-x="292" 
d="M330 586h-142l-42 66l-40 -66h-141l106 138h156zM248 0h-206v518h206v-518z" />
    <glyph glyph-name="idieresis" unicode="&#xef;" horiz-adv-x="292" 
d="M351 605h-165v119h165v-119zM106 605h-166v119h166v-119zM248 0h-206v518h206v-518z" />
    <glyph glyph-name="eth" unicode="&#xf0;" 
d="M625 293q0 -72 -20 -126q-29 -81 -103 -134t-192 -53h-25t-46.5 6.5t-65.5 19t-62.5 40.5t-56.5 68q-34 62 -34 137q-1 18 2 40.5t13 62.5t41 80t78 68q64 39 137 39q83 0 141 -68q-40 88 -73 126l-168 -38l-15 54l142 33q-16 20 -39 44l143 32q3 -3 9 -10t9 -10l20 -23
l91 20l18 -55l-69 -15q125 -160 125 -338zM416 266q-1 67 -25.5 98.5t-70.5 30.5q-39 -2 -61 -24q-34 -34 -34 -108q0 -23 3 -44t12.5 -43.5t30 -36.5t50.5 -14t51 14t29.5 37.5t11.5 44.5t3 45z" />
    <glyph glyph-name="ntilde" unicode="&#xf1;" 
d="M506 723q-1 -6 -2.5 -17.5t-2.5 -17.5q-10 -58 -33.5 -81t-60.5 -23q-43 0 -106 21q-40 10 -54 10q-21 0 -25 -28l-89 1q4 30 8.5 48.5t14.5 42.5t30 36t48 12q30 0 106 -21q38 -11 48 -11q20 0 26 16q2 6 2 12h90zM597 0h-206v283q0 23 -3 35q-12 43 -67 43
q-75 0 -75 -85v-276h-205v518h194v-69q13 19 25 31q52 52 146 52q82 0 132 -43q38 -31 52 -90q7 -30 7 -72v-327z" />
    <glyph glyph-name="ograve" unicode="&#xf2;" 
d="M426 587h-127l-162 137h213zM624 258q0 -111 -67 -186q-83 -92 -242 -92q-122 0 -199 61q-96 76 -96 214q0 119 71 196q83 90 235 89q131 0 211 -70q42 -37 64.5 -94.5t22.5 -117.5zM416 263q0 105 -62 127q-15 5 -34 5q-40 -1 -65 -29q-30 -32 -30 -105q0 -68 26 -104
q13 -17 31 -25q14 -7 39 -7q39 0 62 23q33 33 33 115z" />
    <glyph glyph-name="oacute" unicode="&#xf3;" 
d="M514 724l-162 -137h-127l76 137h213zM624 258q0 -111 -67 -186q-83 -92 -242 -92q-122 0 -199 61q-96 76 -96 214q0 119 71 196q83 90 235 89q131 0 211 -70q42 -37 64.5 -94.5t22.5 -117.5zM416 263q0 105 -62 127q-15 5 -34 5q-40 -1 -65 -29q-30 -32 -30 -105
q0 -68 26 -104q13 -17 31 -25q14 -7 39 -7q39 0 62 23q33 33 33 115z" />
    <glyph glyph-name="ocircumflex" unicode="&#xf4;" 
d="M507 586h-142l-41 66l-40 -66h-142l106 138h156zM624 258q0 -111 -67 -186q-83 -92 -242 -92q-122 0 -199 61q-96 76 -96 214q0 119 71 196q83 90 235 89q131 0 211 -70q42 -37 64.5 -94.5t22.5 -117.5zM416 263q0 105 -62 127q-15 5 -34 5q-40 -1 -65 -29
q-30 -32 -30 -105q0 -68 26 -104q13 -17 31 -25q14 -7 39 -7q39 0 62 23q33 33 33 115z" />
    <glyph glyph-name="otilde" unicode="&#xf5;" 
d="M506 723q-1 -6 -2.5 -17.5t-2.5 -17.5q-10 -58 -33.5 -81t-60.5 -23q-43 0 -106 21q-40 10 -54 10q-21 0 -25 -28l-89 1q4 30 8.5 48.5t14.5 42.5t30 36t48 12q30 0 106 -21q38 -11 48 -11q21 0 26 16q2 4 2 12h90zM624 258q0 -111 -67 -186q-83 -92 -242 -92
q-122 0 -199 61q-96 76 -96 214q0 119 71 196q83 90 235 89q131 0 211 -70q42 -37 64.5 -94.5t22.5 -117.5zM416 263q0 105 -62 127q-15 5 -34 5q-40 -1 -65 -29q-30 -32 -30 -105q0 -68 26 -104q13 -17 31 -25q14 -7 39 -7q39 0 62 23q33 33 33 115z" />
    <glyph glyph-name="odieresis" unicode="&#xf6;" 
d="M527 605h-165v119h165v-119zM283 605h-166v119h166v-119zM624 258q0 -111 -67 -186q-83 -92 -242 -92q-122 0 -199 61q-96 76 -96 214q0 119 71 196q83 90 235 89q131 0 211 -70q42 -37 64.5 -94.5t22.5 -117.5zM416 263q0 105 -62 127q-15 5 -34 5q-40 -1 -65 -29
q-30 -32 -30 -105q0 -68 26 -104q13 -17 31 -25q14 -7 39 -7q39 0 62 23q33 33 33 115z" />
    <glyph glyph-name="divide" unicode="&#xf7;" horiz-adv-x="724" 
d="M449 462h-176v175h176v-175zM644 251h-565v164h565v-164zM448 29h-176v175h176v-175z" />
    <glyph glyph-name="oslash" unicode="&#xf8;" 
d="M627 256q0 -75 -34 -139q-26 -48 -67.5 -80t-87.5 -44t-72.5 -15.5t-52.5 -3.5q-92 0 -154 34q-15 7 -49 32l-62 -54l-44 53l60 52q-1 3 -6.5 12t-7.5 13l-6.5 13t-6.5 15.5t-6 16.5t-5.5 19.5t-3.5 21t-3 24.5t-1 27q0 136 82.5 214t220.5 78q98 0 170 -36q10 -5 34 -22
l55 48l45 -52l-53 -46q2 -3 10 -15.5t11 -19.5q34 -65 34 -146zM391 372q0 4 -8 10q-21 21 -61 21q-54 0 -77 -38.5t-22 -95.5q0 -27 1 -41zM422 254q0 17 -4 53l-171 -150q7 -13 13 -19q22 -22 63 -22q34 0 57 19t30.5 48.5t9.5 43.5t2 27z" />
    <glyph glyph-name="ugrave" unicode="&#xf9;" 
d="M426 587h-127l-162 137h213zM602 0h-196v76q-15 -29 -35 -46q-52 -43 -136 -43q-85 0 -137 44q-36 31 -50 84q-9 32 -9 88v315h207v-282q0 -12 0.5 -18.5t4 -21t10.5 -22.5t22.5 -15t37.5 -7q35 0 53 18q21 22 21 74v274h207v-518z" />
    <glyph glyph-name="uacute" unicode="&#xfa;" 
d="M514 724l-162 -137h-127l76 137h213zM602 0h-196v76q-15 -29 -35 -46q-52 -43 -136 -43q-85 0 -137 44q-36 31 -50 84q-9 32 -9 88v315h207v-282q0 -12 0.5 -18.5t4 -21t10.5 -22.5t22.5 -15t37.5 -7q35 0 53 18q21 22 21 74v274h207v-518z" />
    <glyph glyph-name="ucircumflex" unicode="&#xfb;" 
d="M507 586h-142l-41 66l-40 -66h-142l106 138h156zM602 0h-196v76q-15 -29 -35 -46q-52 -43 -136 -43q-85 0 -137 44q-36 31 -50 84q-9 32 -9 88v315h207v-282q0 -12 0.5 -18.5t4 -21t10.5 -22.5t22.5 -15t37.5 -7q35 0 53 18q21 22 21 74v274h207v-518z" />
    <glyph glyph-name="udieresis" unicode="&#xfc;" 
d="M525 605h-165v119h165v-119zM281 605h-167v119h167v-119zM602 0h-196v76q-15 -29 -35 -46q-52 -43 -136 -43q-85 0 -137 44q-36 31 -50 84q-9 32 -9 88v315h207v-282q0 -12 0.5 -18.5t4 -21t10.5 -22.5t22.5 -15t37.5 -7q35 0 53 18q21 22 21 74v274h207v-518z" />
    <glyph glyph-name="yacute" unicode="&#xfd;" horiz-adv-x="583" 
d="M483 724l-162 -137h-127l76 137h213zM581 518l-189 -548q-32 -91 -73 -125q-19 -16 -43 -23t-39.5 -8t-49.5 -1q-43 0 -52 1l-57 6v147q7 0 19 -1t21.5 -1.5t18.5 -0.5q43 0 43 25q0 7 -16 53l-164 476h215l74 -338q77 332 78 338h214z" />
    <glyph glyph-name="thorn" unicode="&#xfe;" horiz-adv-x="625" 
d="M606 261q2 -119 -56 -198t-179 -76q-78 2 -127 48v-223h-202v894h201v-228q14 16 24 24q45 31 117 30q60 -1 104.5 -25.5t69 -64t36.5 -85t12 -96.5zM403 253q0 126 -77 129q-32 2 -55 -21q-29 -27 -29 -102q0 -28 2 -45.5t11 -38t27 -32.5q16 -11 41 -11q22 0 40 13
q40 29 40 108z" />
    <glyph glyph-name="ydieresis" unicode="&#xff;" horiz-adv-x="583" 
d="M497 605h-166v119h166v-119zM252 605h-166v119h166v-119zM581 518l-189 -548q-32 -91 -73 -125q-19 -16 -43 -23t-39.5 -8t-49.5 -1q-43 0 -52 1l-57 6v147q7 0 19 -1t21.5 -1.5t18.5 -0.5q43 0 43 25q0 7 -16 53l-164 476h215l74 -338q77 332 78 338h214z" />
    <glyph glyph-name="OE" unicode="&#x152;" horiz-adv-x="1104" 
d="M1088 0h-570v25q-12 -8 -28 -16q-50 -24 -121 -24q-81 0 -146 30q-32 15 -61.5 39t-61 63.5t-50.5 100.5t-19 134q0 149 82 248q46 56 113.5 87t141.5 31q64 0 116 -22q12 -6 34 -19v29h536v-154h-322v-104h300v-154h-300v-140h356v-154zM518 195v317q-17 11 -25.5 16
t-31 11.5t-50.5 6.5q-33 0 -54 -7q-104 -33 -104 -187q0 -45 10 -81q4 -15 11.5 -30.5t22.5 -36t42 -33.5t61 -13q52 0 118 37z" />
    <glyph glyph-name="oe" unicode="&#x153;" horiz-adv-x="1000" 
d="M990 224h-364q3 -32 11 -52.5t31 -33.5q21 -12 45 -12q20 0 35 6q7 3 14 6.5t12 7.5t10 9t8 8.5t6.5 9t5 8l4.5 7.5l3 5l169 -71q-24 -36 -49 -59q-34 -32 -92 -57.5t-136 -25.5q-44 0 -86 12t-57.5 20.5t-43.5 24.5q-24 -16 -37 -23q-68 -33 -159 -33q-74 0 -135 23
q-79 32 -122.5 100t-43.5 154q0 116 68 192q32 36 91 63.5t143 27.5q94 0 171 -34q17 -7 34 -18q16 10 34 20q69 33 146 33q89 -1 161.5 -44.5t101.5 -122.5q18 -51 21 -151zM778 333q-4 48 -31 64q-18 12 -41 12q-24 0 -42.5 -13t-26.5 -34q-2 -6 -7 -29h148zM417 269
q0 66 -26 98q-13 16 -31 22q-19 8 -39 7q-37 0 -61 -24q-35 -33 -35 -112q0 -65 22 -98q12 -17 30 -25q20 -9 43 -9q15 0 32 5q41 15 56 65q9 27 9 71z" />
    <glyph glyph-name="Scaron" unicode="&#x160;" horiz-adv-x="729" 
d="M538 874l-93 -123h-162l-95 123h143l34 -52l31 52h142zM700 229q0 -116 -93 -185q-88 -65 -240 -65q-178 0 -285 80q-39 29 -75 76l171 109q20 -32 34 -43q28 -24 74.5 -37t88.5 -13q48 0 77.5 14t29.5 40q0 2 -5 17q-9 18 -34 26q-11 4 -29 8t-50 9.5t-54 10.5
q-129 25 -183 73q-62 54 -61 143q0 60 26 107q20 37 55.5 64t67.5 39t72.5 19t56 7.5t34.5 0.5q160 0 264 -76q18 -13 54 -49l-141 -117q-13 17 -20 23q-53 49 -165 49q-32 0 -53 -9q-28 -14 -28 -37q0 -19 18 -32q21 -13 79 -22q100 -16 161 -36q153 -49 153 -194z" />
    <glyph glyph-name="scaron" unicode="&#x161;" horiz-adv-x="542" 
d="M452 724l-105 -138h-156l-104 138h143l41 -66l40 66h141zM523 176q1 -77 -60.5 -136t-181.5 -60q-124 0 -222 61q-14 9 -60 43l116 106q70 -68 158 -70q21 -1 38.5 7t17.5 25q0 7 -2.5 12t-7.5 8.5t-9.5 6t-12 4t-11.5 2t-11 1.5t-8 1q-141 24 -190 64q-24 19 -37 49
q-14 28 -14 58q-1 52 31 97q60 81 197 84q120 1 204 -42q20 -10 50 -33l-111 -101q-75 50 -134 50q-21 0 -32.5 -7.5t-10.5 -21.5q0 -5 3 -9t5.5 -6t9 -4.5t9.5 -3.5t11 -2.5t10 -2.5q21 -5 57 -13.5t52.5 -12.5t36.5 -11t32 -14q76 -42 77 -129z" />
    <glyph glyph-name="Ydieresis" unicode="&#x178;" horiz-adv-x="792" 
d="M596 757h-166v119h166v-119zM366 757h-166v119h166v-119zM788 706l-284 -409v-297h-224v297l-283 409h258l139 -235l136 235h258z" />
    <glyph glyph-name="florin" unicode="&#x192;" horiz-adv-x="437" 
d="M446 687l-16 -142q-18 7 -35 8q-26 1 -41 -11.5t-18 -21t-5 -27.5q-1 -3 -1 -4h93l-12 -113h-93l-34 -307q-1 -12 -4 -42t-4.5 -39.5t-5 -32.5t-6.5 -31.5t-9.5 -25t-14 -25t-19 -19t-25.5 -19.5q-49 -30 -132 -30q-47 0 -108 13l16 141q17 -7 35 -7q35 -2 52 20
q4 5 6.5 11.5t4.5 17.5t3 19.5t2.5 24.5t2.5 24l34 307h-77l12 113h78l5 51q4 48 26 83q51 77 182 77q47 0 108 -13z" />
    <glyph glyph-name="circumflex" unicode="&#x2c6;" horiz-adv-x="313" 
d="M340 586h-143l-41 66l-40 -66h-143l106 138h156z" />
    <glyph glyph-name="tilde" unicode="&#x2dc;" horiz-adv-x="313" 
d="M343 723h-1q0 -7 -2 -19.5t-2 -15.5q-11 -58 -34 -81t-59 -23q-44 0 -107 21q-40 10 -54 10q-22 0 -25 -28l-89 1q3 23 5.5 38.5t9.5 36.5t17 33.5t27.5 21.5t40.5 9q30 0 106 -21q40 -11 48 -11q22 0 27 16q1 2 1 12h91z" />
    <glyph glyph-name="endash" unicode="&#x2013;" horiz-adv-x="629" 
d="M600 230h-571v171h571v-171z" />
    <glyph glyph-name="emdash" unicode="&#x2014;" horiz-adv-x="948" 
d="M918 230h-889v171h889v-171z" />
    <glyph glyph-name="quoteleft" unicode="&#x2018;" horiz-adv-x="250" 
d="M216 343h-182v150q0 74 22.5 122t84.5 75q27 11 75 19v-89q-35 -11 -48 -31t-14 -58h62v-188z" />
    <glyph glyph-name="quoteright" unicode="&#x2019;" horiz-adv-x="250" 
d="M216 555q0 -73 -23 -121.5t-84 -74.5q-23 -10 -75 -18v88q35 12 48 31.5t14 57.5h-62v188h182v-151z" />
    <glyph glyph-name="quotesinglbase" unicode="&#x201a;" horiz-adv-x="250" 
d="M216 37q0 -73 -23 -121.5t-84 -74.5q-23 -10 -75 -18v88q35 12 48 31.5t14 57.5h-62v188h182v-151z" />
    <glyph glyph-name="quotedblleft" unicode="&#x201c;" horiz-adv-x="521" 
d="M478 343h-182v150q0 74 22.5 122t84.5 75q27 11 75 19v-89q-35 -11 -48 -31t-14 -58h62v-188zM224 343h-183v150q0 74 23 122.5t84 74.5q28 12 76 19v-89q-35 -11 -48 -31t-14 -58h62v-188z" />
    <glyph glyph-name="quotedblright" unicode="&#x201d;" horiz-adv-x="521" 
d="M478 555q0 -73 -23 -121.5t-84 -74.5q-23 -10 -75 -18v88q35 12 48 31.5t14 57.5h-62v188h182v-151zM224 555q0 -73 -23 -121.5t-84 -74.5q-23 -9 -76 -18v88q35 12 48 31.5t14 57.5h-62v188h183v-151z" />
    <glyph glyph-name="quotedblbase" unicode="&#x201e;" horiz-adv-x="521" 
d="M478 37q0 -73 -23 -121.5t-84 -74.5q-23 -10 -75 -18v88q35 12 48 31.5t14 57.5h-62v188h182v-151zM224 37q0 -73 -23 -121.5t-84 -74.5q-23 -9 -76 -18v88q35 12 48 31.5t14 57.5h-62v188h183v-151z" />
    <glyph glyph-name="dagger" unicode="&#x2020;" horiz-adv-x="625" 
d="M587 335h-178v-488h-194v488h-177v158h177v213h194v-213h178v-158z" />
    <glyph glyph-name="daggerdbl" unicode="&#x2021;" 
d="M597 391h-183v-195h182v-154h-182v-193h-182v193h-183v154h183v195h-183v153h183v162h182v-162h183v-153z" />
    <glyph glyph-name="bullet" unicode="&#x2022;" horiz-adv-x="333" 
d="M295 219h-257v258h257v-258z" />
    <glyph glyph-name="ellipsis" unicode="&#x2026;" horiz-adv-x="1000" 
d="M904 0h-142v140h142v-140zM571 0h-141v140h141v-140zM237 0h-142v140h142v-140z" />
    <glyph glyph-name="perthousand" unicode="&#x2030;" horiz-adv-x="1438" 
d="M1414 225q-1 -98 -51 -167t-152 -68q-99 1 -146 67t-47 162q1 87 38 145t94 77q27 10 70 10q45 0 77 -12q52 -20 84.5 -76t32.5 -138zM977 225q0 -97 -50.5 -166.5t-152.5 -68.5q-100 1 -147 67.5t-46 161.5q1 87 38 144.5t94 77.5q30 10 70 10q48 0 77 -12
q52 -20 84.5 -76t32.5 -138zM699 706l-302 -706h-91l301 706h92zM416 469q0 -98 -50.5 -167t-152.5 -68q-100 1 -147 67.5t-46 161.5q1 87 38 145t94 77q29 9 70 9q48 0 77 -11q52 -20 84.5 -76t32.5 -138zM1276 219q2 134 -57 136q-21 0 -34 -13q-30 -26 -28 -128v-10.5
v-14t0.5 -15t1.5 -17t3 -16.5t5 -16t7.5 -13.5t10 -12t13.5 -7.5t17 -3q25 0 39 19t18 45t4 66zM838 219q1 63 -10.5 99t-45.5 37q-21 0 -34 -13q-28 -25 -28 -128q0 -40 3 -63.5t16 -42.5t38 -19q19 0 32 9.5t18.5 29.5t8 40t2.5 51zM278 462q2 136 -57 137q-19 0 -34 -13
q-28 -26 -28 -128q0 -62 11 -93t47 -32t48.5 33.5t12.5 95.5z" />
    <glyph glyph-name="guilsinglleft" unicode="&#x2039;" horiz-adv-x="229" 
d="M192 100l-157 125v183l157 125v-149l-89 -69l89 -67v-148z" />
    <glyph glyph-name="guilsinglright" unicode="&#x203a;" horiz-adv-x="229" 
d="M192 225l-157 -125v149l90 69l-90 67v148l157 -125v-183z" />
    <glyph glyph-name="Euro" unicode="&#x20ac;" horiz-adv-x="716" 
d="M684 643l-63 -170q-60 67 -142 67q-49 0 -85 -24.5t-49 -70.5h266l-30 -82l-249 1q-3 -20 -3 -40h238l-30 -81h-193q14 -45 55 -67.5t91 -22.5q45 0 88 19.5t71 53.5l1 -208q-79 -40 -182 -40q-181 0 -270 93q-67 70 -86 172h-79l28 81h42l1 40l-67 -1l28 82h50
q26 125 119 194t224 69q71 0 122.5 -14t103.5 -51z" />
    <glyph glyph-name="trademark" unicode="&#x2122;" horiz-adv-x="749" 
d="M697 374h-96l4 230l-58 -230h-80l-55 229l2 -229h-97l1 332h142l47 -213l47 213h142zM282 633h-81v-259h-102v259h-84v73h267v-73z" />
    </font>
</defs>
</svg>
