<?xml version="1.0" standalone="no"?>
<!DOCTYPE svg PUBLIC "-//W3C//DTD SVG 1.1//EN" "http://www.w3.org/Graphics/SVG/1.1/DTD/svg11.dtd" >
<svg xmlns="http://www.w3.org/2000/svg" xmlns:xlink="http://www.w3.org/1999/xlink" version="1.1">
<metadata>
Created by FontForge 20170731 at Thu May 17 20:00:02 2007
 By Aleksey,,,
Copyright  1997, 2001, Berthold LLC. All rights reserved. Akzidenz-Grotesk is a trademark of Berthold Types Limited.
</metadata>
<defs>
<font id="AkzidenzGroteskBQ-Medium" horiz-adv-x="562" >
  <font-face 
    font-family="Akzidenz-Grotesk BQ"
    font-weight="500"
    font-stretch="normal"
    units-per-em="1000"
    panose-1="0 0 0 0 0 0 0 0 0 0"
    ascent="800"
    descent="-200"
    x-height="500"
    cap-height="706"
    bbox="-45 -222 1225 963"
    underline-thickness="92"
    underline-position="-452"
    unicode-range="U+0020-2122"
  />
<missing-glyph horiz-adv-x="500" 
 />
    <glyph glyph-name=".notdef" horiz-adv-x="500" 
 />
    <glyph glyph-name=".null" horiz-adv-x="0" 
 />
    <glyph glyph-name="nonmarkingreturn" horiz-adv-x="333" 
 />
    <glyph glyph-name="space" unicode=" " horiz-adv-x="288" 
 />
    <glyph glyph-name="exclam" unicode="!" horiz-adv-x="250" 
d="M211 436l-38 -260h-56l-37 260v270h131v-270zM211 0h-131v138h131v-138z" />
    <glyph glyph-name="quotedbl" unicode="&#x22;" horiz-adv-x="332" 
d="M297 743l-31 -299h-34l-32 299h97zM131 743l-30 -299h-35l-31 299h96z" />
    <glyph glyph-name="numbersign" unicode="#" horiz-adv-x="667" 
d="M623 408h-131l-14 -94h123v-100h-135l-31 -214h-101l31 214h-99l-30 -214h-102l30 214h-122v100h135l13 94h-126v100h139l27 198h104l-28 -198h98l27 198h101l-27 -198h118v-100zM391 408h-99l-14 -94h100z" />
    <glyph glyph-name="dollar" unicode="$" horiz-adv-x="625" 
d="M586 219q0 -88 -58 -146q-32 -32 -76 -51q-34 -13 -94 -22v-114h-92v114q-52 10 -82.5 19.5t-64.5 32.5q-30 21 -53 44q-10 10 -31 37l101 77q28 -40 71 -68q26 -15 35 -17q9 -4 24 -5v191q-134 14 -183 83q-29 45 -29 97q0 72 43 124q59 70 169 82v108h92v-108
q130 -12 216 -109l-95 -75q-21 27 -46.5 44t-37.5 21t-37 10v-160q96 -13 156 -57q72 -54 72 -152zM266 444v144q-1 0 -10 -2t-14 -4q-57 -21 -57 -71q0 -29 20 -44q20 -16 61 -23zM454 212q-1 64 -96 85v-179q17 2 30 8q66 28 66 86z" />
    <glyph glyph-name="percent" unicode="%" horiz-adv-x="875" 
d="M850 223q0 -64 -9 -99q-4 -18 -12 -35.5t-24.5 -41.5t-47 -39t-70.5 -15q-86 0 -128 67q-34 53 -34 164q0 85 24 135q43 90 142 90q74 0 115 -57q25 -33 35 -77q8 -32 9 -92zM621 646l-314 -683l-69 31l315 684zM351 458q2 -105 -35 -164q-42 -69 -129 -69q-78 0 -122 61
q-21 30 -30 70q-9 36 -9 97q0 104 36 161q44 67 129 67q59 0 97 -34t53 -92q10 -37 10 -97zM760 220q0 82 -17 116q-18 36 -55 36q-38 0 -56 -37q-17 -35 -17 -118q0 -49 7 -81q9 -40 32 -56q17 -10 34 -10q33 0 51 28q21 31 21 122zM261 453q0 82 -17 116q-18 36 -55 36
q-38 0 -56 -37q-17 -35 -17 -118q0 -49 7 -81q9 -40 32 -56q17 -10 34 -10q33 0 51 28q21 31 21 122z" />
    <glyph glyph-name="ampersand" unicode="&#x26;" horiz-adv-x="646" 
d="M614 0q-32 -3 -49 -3q-49 0 -75.5 10t-53.5 30q-78 -52 -169 -52q-96 0 -156 49q-68 57 -68 150q0 36 13 71q12 32 38 60t43 40t59 39q-30 48 -30 104q0 69 41 114q44 50 122 50q36 0 70 -13q41 -18 67 -55t26 -82q0 -44 -31 -90t-102 -71q6 -12 15 -25.5t20 -29
t17 -24.5q29 -43 40 -55q7 10 12.5 19.5t9 19t6 17t4 17t2.5 14t2 13.5t1 11l115 -1q-3 -26 -6 -37q-23 -96 -75 -161q17 -18 31.5 -24.5t38.5 -6.5q4 0 22 2v-100zM387 515q0 24 -15.5 38.5t-39.5 14.5q-23 0 -38.5 -15t-14.5 -38q0 -31 30 -75l18 6q10 3 21 8.5t25 22
t14 38.5zM371 127l-121 177q-16 -8 -35 -22q-51 -40 -51 -90q0 -28 12 -47q29 -56 98 -56q52 0 97 38z" />
    <glyph glyph-name="quotesingle" unicode="'" horiz-adv-x="166" 
d="M131 743l-30 -299h-35l-31 299h96z" />
    <glyph glyph-name="parenleft" unicode="(" horiz-adv-x="326" 
d="M333 -105l-44 -59q-17 12 -24 18q-68 56 -114 115q-116 149 -116 347q0 189 106 339q29 39 63 75q38 38 81 70l46 -51q-49 -50 -76 -87q-97 -137 -97 -335q0 -134 46.5 -249.5t128.5 -182.5z" />
    <glyph glyph-name="parenright" unicode=")" horiz-adv-x="328" 
d="M296 320q0 -189 -107 -339q-53 -75 -144 -145l-46 51q49 50 76 87q98 138 98 336q0 134 -46 248.5t-128 182.5l44 59q6 -5 13.5 -11t9.5 -7q65 -52 114 -115q116 -153 116 -347z" />
    <glyph glyph-name="asterisk" unicode="*" horiz-adv-x="378" 
d="M358 557l-98 -34l60 -79l-68 -53l-64 83l-58 -83l-70 51l56 80l-96 28l25 83l98 -28v103h87v-104l100 34z" />
    <glyph glyph-name="plus" unicode="+" horiz-adv-x="724" 
d="M631 260h-204v-216h-130v216h-204v107h204v213h130v-213h204v-107z" />
    <glyph glyph-name="comma" unicode="," horiz-adv-x="208" 
d="M170 -14q0 -52 -27 -80t-81 -41q-10 -2 -17 -4v58q54 6 54 81h-62v137h133v-147v-4z" />
    <glyph glyph-name="hyphen" unicode="-" horiz-adv-x="372" 
d="M330 247h-289v113h289v-113z" />
    <glyph glyph-name="period" unicode="." horiz-adv-x="208" 
d="M169 0h-132v137h132v-137z" />
    <glyph glyph-name="slash" unicode="/" horiz-adv-x="479" 
d="M467 706l-335 -706h-119l335 706h119z" />
    <glyph glyph-name="zero" unicode="0" 
d="M529 340q-1 -118 -26 -188t-74 -110q-62 -51 -148 -51q-117 0 -184 88q-61 80 -61 257q0 128 30 200t89 111t132 39q82 0 140 -48q102 -83 102 -298zM399 338q2 102 -15 147q-3 17 -15 40q-29 50 -84 50q-46 0 -73 -31q-47 -53 -47 -210q0 -64 7 -113q16 -78 55 -104
q24 -15 56 -15q29 0 50 12q36 20 51 70q15 48 15 154z" />
    <glyph glyph-name="one" unicode="1" 
d="M363 0h-123v386v17v15t-0.5 11.5t-1.5 11t-3.5 8t-5.5 8.5q-12 12 -45 12h-109v77h13q79 0 117 28q41 29 58 101h100v-675z" />
    <glyph glyph-name="two" unicode="2" 
d="M516 0h-459v98q140 100 236 207q73 82 73 165q0 44 -23 72.5t-66 28.5q-35 0 -59 -21q-18 -16 -26.5 -43.5t-9 -43t-0.5 -49.5l-125 12q-1 110 48 175q23 32 69 58.5t114 26.5q93 0 153 -55q65 -59 63 -157q0 -59 -26 -112q-10 -20 -24.5 -41t-25 -34.5t-34.5 -36
t-31 -29t-38 -32.5t-33 -28q-52 -44 -72 -57h296v-104z" />
    <glyph glyph-name="three" unicode="3" 
d="M524 199q0 -96 -70 -154q-64 -54 -172 -54q-115 0 -175 61q-60 60 -60 169h133q-4 -26 1 -47q7 -28 31.5 -51t71.5 -23q30 0 55 13q51 27 51 94q0 35 -18 60q-29 41 -101 39l-32 -1v105q6 0 25 -1t28.5 0t24.5 3.5t25.5 9.5t18.5 19q14 19 14 48q0 38 -24 62t-62 24
q-44 0 -71 -33q-25 -31 -26 -80l-132 28q24 132 130 175q50 21 103 21q23 0 51 -5q16 -3 31 -7.5t41 -17.5t44.5 -30.5t33 -49t14.5 -69.5q0 -84 -60 -123q-22 -14 -52 -22q53 -10 91 -51q37 -45 37 -112z" />
    <glyph glyph-name="four" unicode="4" 
d="M523 155h-87v-155h-123v155h-296v88l296 432h123v-417h87v-103zM320 526l-174 -268h167z" />
    <glyph glyph-name="five" unicode="5" 
d="M519 241q0 -103 -60 -170q-71 -80 -192 -80q-95 0 -155 46q-69 54 -75 152l139 9q2 -44 28 -72t69 -27q33 0 54 13q28 16 42 51.5t14 71.5q0 26 -8 51q-6 16 -15 30.5t-33 30t-56 15.5q-14 0 -30 -3t-38.5 -18.5t-32.5 -41.5l-112 7l47 371h375l-10 -113h-262l-23 -149
q13 14 16 15q47 35 114 35q90 0 147 -63t57 -161z" />
    <glyph glyph-name="six" unicode="6" 
d="M513 225q0 -95 -55 -158q-68 -76 -172 -76q-75 0 -131 40q-107 77 -107 287q0 150 46 242q18 37 47 64q62 62 157 62q86 0 145 -50q49 -42 62 -119l-128 -17q0 18 -6 32q-20 44 -73 44q-67 0 -95 -70q-22 -52 -24 -139q15 19 30 31q48 37 112 37q76 0 130 -50
q62 -60 62 -160zM387 213q0 40 -18 68q-26 41 -78 41q-48 0 -74.5 -31.5t-26.5 -78.5q0 -71 49 -98q20 -11 49 -11q50 0 76 34q23 29 23 76z" />
    <glyph glyph-name="seven" unicode="7" 
d="M512 567q-32 -39 -67 -92q-76 -119 -120 -265q-31 -108 -40 -210h-165q7 52 20 104t26 92t34.5 85.5t35 73t39 67t35 54t33.5 48t26 35.5h-305v118h448v-110z" />
    <glyph glyph-name="eight" unicode="8" 
d="M531 195q0 -57 -28 -101q-26 -42 -82.5 -72.5t-141.5 -30.5q-57 0 -106 16q-19 6 -39 17t-46 32t-42.5 57t-16.5 81q0 52 24 89q29 46 87 71q-26 13 -46 33q-41 47 -41 113q0 49 25 90q25 39 76 67.5t132 28.5q55 0 96 -14q18 -6 37 -16.5t42.5 -30.5t38.5 -54t15 -76
q0 -97 -88 -141q27 -12 51 -35q53 -50 53 -124zM384 485q0 38 -22 62q-14 14 -31 21q-22 8 -48 8q-27 0 -43 -6q-59 -19 -59 -85q0 -38 24 -62q14 -12 30 -19q17 -7 50 -7q26 0 45 7q54 19 54 81zM397 199q0 39 -21 61t-43 29q-26 7 -49 7q-33 0 -54 -8q-60 -25 -60 -90
q0 -42 31 -70q31 -25 84 -25q48 0 80 24.5t32 71.5z" />
    <glyph glyph-name="nine" unicode="9" 
d="M517 365q0 -157 -56 -253q-22 -39 -53 -67q-33 -28 -76 -42q-39 -12 -79 -12q-115 0 -171 85q-21 32 -32 86l137 19q4 -24 10 -37q20 -43 72 -42q25 0 43 11q36 23 52 78.5t15 108.5q-13 -21 -40 -35q-42 -24 -95 -24q-73 0 -125 42q-69 58 -69 170q0 60 20 105
q21 48 72.5 88t136.5 40q71 0 120 -31q30 -20 50 -45q17 -22 26 -40q42 -79 42 -205zM369 459q0 30 -6 49q-12 39 -38 54t-51 15q-22 0 -44 -12q-50 -28 -50 -100q0 -20 4 -40q3 -11 7.5 -21.5t14.5 -24t28 -22t41 -8.5q66 0 88 64q6 20 6 46z" />
    <glyph glyph-name="colon" unicode=":" horiz-adv-x="250" 
d="M210 371h-132v138h132v-138zM210 0h-132v137h132v-137z" />
    <glyph glyph-name="semicolon" unicode=";" horiz-adv-x="250" 
d="M211 371h-133v138h133v-138zM211 -9q0 -60 -30.5 -87.5t-95.5 -43.5v60q55 7 55 70v10h-62v137h133v-146z" />
    <glyph glyph-name="less" unicode="&#x3c;" horiz-adv-x="724" 
d="M578 28l-465 229v123l465 228v-124l-346 -162l346 -164v-130z" />
    <glyph glyph-name="equal" unicode="=" horiz-adv-x="724" 
d="M625 351h-526v107h526v-107zM625 148h-526v107h526v-107z" />
    <glyph glyph-name="greater" unicode="&#x3e;" horiz-adv-x="724" 
d="M608 255l-465 -228v124l346 162l-347 164l1 130l465 -229v-123z" />
    <glyph glyph-name="question" unicode="?" 
d="M535 509q0 -93 -74 -153q-5 -4 -38 -27q-42 -29 -54 -50t-12 -69q0 -19 1 -28h-118v25q0 109 28 148q15 22 49.5 44.5t57 47t22.5 62.5q0 41 -32 68t-73 27q-56 0 -87 -37t-31 -94l-121 14q6 59 19 93q27 70 87.5 104t139.5 34q98 0 167 -56t69 -153zM366 0h-133v137h133
v-137z" />
    <glyph glyph-name="at" unicode="@" horiz-adv-x="896" 
d="M827 421q0 -51 -12 -100q-12 -54 -34 -100q-30 -61 -80 -106.5t-108 -45.5q-78 0 -87 77q-61 -77 -135 -77q-66 0 -100.5 48t-34.5 117q0 63 24 127t75 111.5t116 47.5q73 0 110 -72l12 51h79l-33 -154q-28 -126 -28 -168q0 -37 25 -37q20 0 52 32q40 40 64 112t24 135
q0 107 -64 166.5t-170 59.5t-195 -58.5t-139 -152t-50 -198.5q0 -137 88.5 -215t227.5 -78q91 0 176.5 39t152.5 107l40 -51q-160 -162 -369 -162q-82 0 -161 30q-224 88 -224 329q0 127 59.5 236.5t166 175t234.5 65.5q134 0 216 -78.5t82 -212.5zM532 349q0 38 -19.5 66.5
t-55.5 28.5q-41 0 -72.5 -37t-44.5 -82.5t-13 -85.5q0 -64 41 -85q14 -8 30 -8h4q41 3 72 39t44.5 80t13.5 84z" />
    <glyph glyph-name="A" unicode="A" horiz-adv-x="646" 
d="M636 0h-141l-41 138h-265l-41 -138h-142l239 706h150zM419 254l-97 325l-98 -325h195z" />
    <glyph glyph-name="B" unicode="B" horiz-adv-x="688" 
d="M643 200q0 -115 -93 -168q-9 -5 -19 -9.5t-18 -7.5t-19.5 -5.5t-18 -4t-20 -2.5t-18.5 -1.5t-20.5 -1t-19 -0.5h-20.5h-20h-277v706h253q71 0 106 -3q79 -7 126 -57q45 -48 45 -113q0 -16 -3 -34t-18.5 -47t-42.5 -46q-19 -12 -53 -19q34 -7 54 -19q96 -51 96 -168z
M474 511q0 27 -17 49q-6 7 -12 12.5t-14.5 9.5t-14.5 6.5t-17.5 4.5t-16.5 3t-18 1.5t-16.5 0.5h-17.5h-16h-103v-176h46q70 0 106 2q63 4 89 32q22 22 22 55zM508 212q0 65 -57 94q-17 9 -44 12.5t-46.5 4t-75.5 0.5h-74v-209h148q68 0 93 11q20 9 34 25q22 24 22 62z" />
    <glyph glyph-name="C" unicode="C" horiz-adv-x="688" 
d="M672 197q-24 -57 -53 -95q-94 -120 -252 -120q-77 0 -142 30q-34 16 -64 41t-59.5 65t-47 101.5t-17.5 135.5q0 139 65 232q95 137 270 137q158 0 238 -112q28 -42 49 -106l-131 -34q-3 29 -18 56q-20 37 -56.5 56.5t-79.5 18.5q-44 0 -82 -19q-46 -23 -79 -79.5
t-33 -146.5q0 -102 42 -167q22 -33 51 -52q46 -32 103 -32q78 0 130 64q8 10 28 43q5 12 13 35z" />
    <glyph glyph-name="D" unicode="D" horiz-adv-x="708" 
d="M669 347q0 -74 -19 -137t-65 -116t-116 -75q-61 -19 -173 -19h-225v706h253q61 0 102 -8q104 -21 170 -106q73 -97 73 -245zM529 348q0 133 -68 193q-32 27 -74 38q-30 8 -114 8h-70v-468h35q107 0 145 6q68 11 104 55q42 53 42 168z" />
    <glyph glyph-name="E" unicode="E" horiz-adv-x="625" 
d="M605 0h-527v706h502v-118h-372v-166h341v-114h-341v-189h397v-119z" />
    <glyph glyph-name="F" unicode="F" 
d="M548 588h-336v-176h295v-113h-295v-299h-131v706h467v-118z" />
    <glyph glyph-name="G" unicode="G" horiz-adv-x="750" 
d="M685 0h-113l-1 60q-84 -78 -194 -78q-135 0 -226 89q-105 105 -105 275q0 150 83 255q15 19 35 37t52 39t77 34t95 13q60 0 116 -21q130 -51 181 -187l-126 -50q-49 139 -172 139q-76 0 -127 -51q-70 -72 -70 -204q0 -135 81 -203q48 -40 119 -40q54 0 96.5 26t62.5 74
q10 23 15 63h-176v116h297v-386z" />
    <glyph glyph-name="H" unicode="H" horiz-adv-x="729" 
d="M649 0h-133v321h-303v-321h-133v706h133v-266h303v266h133v-706z" />
    <glyph glyph-name="I" unicode="I" horiz-adv-x="292" 
d="M210 0h-130v706h130v-706z" />
    <glyph glyph-name="J" unicode="J" horiz-adv-x="396" 
d="M332 170q0 -71 -38 -116q-59 -69 -186 -69q-43 0 -82 9v130q45 -10 70 -10q36 0 64 15q7 4 12.5 9t9.5 9.5t7.5 12t5.5 12.5t3.5 14t2 13t1 15t0.5 14v14v13v451h130v-536z" />
    <glyph glyph-name="K" unicode="K" horiz-adv-x="667" 
d="M665 0h-151l-188 332l-115 -132v-200h-131v706h131v-324l283 324h155l-231 -266z" />
    <glyph glyph-name="L" unicode="L" horiz-adv-x="521" 
d="M495 0h-413v706h133v-586h280v-120z" />
    <glyph glyph-name="M" unicode="M" horiz-adv-x="812" 
d="M733 0h-129l13 580l-153 -580h-119l-153 580l13 -580h-129v706h192l138 -524l136 524h191v-706z" />
    <glyph glyph-name="N" unicode="N" horiz-adv-x="708" 
d="M628 0h-116l-309 495l8 -495h-129v706h119l313 -498l-16 498h130v-706z" />
    <glyph glyph-name="O" unicode="O" horiz-adv-x="771" 
d="M725 353q0 -164 -98 -270q-53 -57 -120 -81q-55 -20 -123 -20q-147 0 -242 109q-94 107 -94 261q0 74 21 137q35 107 120.5 171t197.5 64q153 0 250 -112q89 -101 88 -259zM592 339q2 101 -42 171q-57 93 -164 93q-48 0 -90 -21q-46 -25 -79 -80t-33 -145
q0 -156 100 -222q46 -30 104 -30q44 0 81 17q49 23 85 75t38 142z" />
    <glyph glyph-name="P" unicode="P" horiz-adv-x="625" 
d="M607 471q0 -130 -94 -191q-29 -18 -64.5 -27.5t-61.5 -11t-70 -1.5h-103v-240h-132v706h238h26q25 1 25 0q120 -8 183 -82q53 -61 53 -153zM471 475q0 37 -16 66q-14 24 -40 36.5t-45.5 14t-54.5 1.5h-101v-245h95q5 0 14 0.5t14 0.5q86 4 115 52q19 33 19 74z" />
    <glyph glyph-name="Q" unicode="Q" horiz-adv-x="771" 
d="M780 99l-37 -127q-29 8 -31 9q-55 22 -120 78q-89 -77 -223 -77q-152 0 -242 104q-36 40 -63.5 107.5t-27.5 159.5q0 154 84 257q95 114 252 114q126 0 213 -71q62 -50 93.5 -127t31.5 -162q0 -100 -35 -183q-9 -18 -16 -31q5 -12 18 -22q15 -12 42.5 -21.5t46.5 -9.5
q5 0 14 2zM568 354q0 153 -103 216q-49 28 -96 28q-76 0 -129 -61q-63 -76 -63 -188q0 -44 12 -85q20 -69 70 -112.5t120 -43.5q76 0 124 54q65 72 65 192z" />
    <glyph glyph-name="R" unicode="R" horiz-adv-x="646" 
d="M621 0h-151l-139 262h-119v-262h-131v706h289q125 0 190 -86q43 -57 43 -138q0 -43 -13 -79q-12 -32 -42.5 -65.5t-83.5 -49.5zM469 483q0 59 -44 88q-32 21 -106 21h-107v-220h47q48 0 70 0.5t47 4.5t40 12q53 29 53 94z" />
    <glyph glyph-name="S" unicode="S" horiz-adv-x="667" 
d="M632 210q0 -96 -69 -155q-86 -73 -231 -73q-175 0 -275 105q-21 23 -34 46l111 77q71 -106 219 -106q31 0 52 5q14 3 29.5 9t35 27.5t19.5 51.5q0 25 -13 42q-7 9 -17.5 16.5t-27 13t-25.5 8t-30 7t-23 4.5l-84 19q-77 17 -107 33q-101 52 -101 164q0 59 27 104
q28 48 91 82t161 34q180 0 285 -143l-109 -81q-66 105 -183 105q-97 0 -125 -54q-8 -15 -8 -32t9 -32q12 -20 37.5 -30t83.5 -22l73 -16q64 -14 110 -33.5t78 -56.5q41 -45 41 -119z" />
    <glyph glyph-name="T" unicode="T" 
d="M541 587h-195v-587h-132v587h-192v119h519v-119z" />
    <glyph glyph-name="U" unicode="U" horiz-adv-x="729" 
d="M649 299v-16q0 -102 -12 -139q-21 -64 -90 -113t-187 -49q-148 0 -224 84q-31 31 -45 76q-11 36 -11 144v420h133v-434q0 -57 7 -78q26 -84 145 -84q114 0 143 80q9 26 9 89v427h132v-407z" />
    <glyph glyph-name="V" unicode="V" horiz-adv-x="604" 
d="M595 706l-201 -706h-178l-208 706h139l158 -557l154 557h136z" />
    <glyph glyph-name="W" unicode="W" horiz-adv-x="833" 
d="M823 706l-155 -706h-154l-99 491l-102 -491h-154l-147 706h135l96 -538l110 538h123l112 -538l99 538h136z" />
    <glyph glyph-name="X" unicode="X" horiz-adv-x="646" 
d="M639 0h-151l-165 261l-161 -261h-153l237 383l-203 323h152l128 -202l123 202h153l-199 -323z" />
    <glyph glyph-name="Y" unicode="Y" horiz-adv-x="625" 
d="M615 706l-238 -427v-279h-131v279l-236 427h150l153 -292l154 292h148z" />
    <glyph glyph-name="Z" unicode="Z" horiz-adv-x="604" 
d="M575 0h-551v108l386 480h-353v118h518v-112l-371 -475h371v-119z" />
    <glyph glyph-name="bracketleft" unicode="[" horiz-adv-x="285" 
d="M264 -144h-205v923h205v-73h-97v-778h97v-72z" />
    <glyph glyph-name="backslash" unicode="\" horiz-adv-x="479" 
d="M467 0h-119l-335 706h119z" />
    <glyph glyph-name="bracketright" unicode="]" horiz-adv-x="285" 
d="M225 -144h-205v73h97v778h-97v72h205v-923z" />
    <glyph glyph-name="asciicircum" unicode="^" horiz-adv-x="724" 
d="M633 284h-131l-136 308l-138 -308h-136l209 422h126z" />
    <glyph glyph-name="underscore" unicode="_" horiz-adv-x="500" 
d="M510 -222h-520v92h520v-92z" />
    <glyph glyph-name="grave" unicode="`" horiz-adv-x="271" 
d="M236 573h-89l-112 133h149z" />
    <glyph glyph-name="a" unicode="a" horiz-adv-x="542" 
d="M500 0h-142l-3 39q-22 -18 -46 -28q-51 -23 -101 -23q-112 0 -160 77q-23 37 -22 80q0 79 68 125q38 26 126 43q97 20 138 34q0 27 -7 41q-18 34 -79 34q-64 0 -88 -31q-13 -16 -13 -44l-122 7q3 74 54 115q55 46 165 46q106 0 161 -39q25 -18 36 -40q13 -26 13 -89v-266
q0 -29 3.5 -43.5t18.5 -37.5zM358 194v55q-37 -19 -95 -28q-6 -1 -20 -3t-22 -3.5t-19 -5.5t-20 -9q-29 -19 -29 -50q0 -25 20 -42t62 -17q45 0 75.5 18t40.5 39q7 14 7 46z" />
    <glyph glyph-name="b" unicode="b" horiz-adv-x="583" 
d="M547 253q0 -75 -31 -140t-92 -99q-51 -29 -104 -29q-62 0 -115 45q-12 10 -22 22v-52h-119v706h119l1 -248q6 6 16 14q57 43 127 43q83 0 145 -63q75 -77 75 -199zM424 255q4 56 -27 100q-35 51 -98 51q-47 0 -78 -33q-39 -40 -39 -114q0 -97 51 -136q34 -24 71 -24
q59 0 91 50q29 45 29 106z" />
    <glyph glyph-name="c" unicode="c" horiz-adv-x="517" 
d="M497 141q-14 -36 -32 -61q-33 -45 -85 -70t-109 -25q-52 0 -104 23q-46 21 -77.5 56t-44.5 73.5t-17 64t-4 48.5q0 98 54 168q73 97 199 97q49 0 93 -18q84 -35 122 -124l-107 -50q-9 30 -30 51q-34 34 -84 34q-53 0 -86 -39q-37 -43 -37 -116q0 -32 7 -55
q12 -45 42.5 -73t76.5 -28q24 0 45 9t32 18t22.5 28t13.5 23.5t8 19.5z" />
    <glyph glyph-name="d" unicode="d" horiz-adv-x="583" 
d="M516 0h-119v48q-3 -2 -7.5 -7.5t-6.5 -8.5q-50 -47 -125 -47q-49 0 -93 21q-52 24 -90.5 80.5t-38.5 153.5q0 103 43 168t97 90q39 17 87 17q51 0 91 -22q15 -9 25 -16q4 -3 8 -7t7 -8l3 -3v247h119v-706zM396 248q0 64 -22 103q-10 19 -26 31q-27 22 -67 22
q-33 0 -61 -18q-59 -38 -59 -133q0 -64 29 -111.5t90 -47.5q48 0 78 34q40 44 38 120z" />
    <glyph glyph-name="e" unicode="e" 
d="M535 112q-21 -29 -46 -52q-81 -75 -198 -75q-107 0 -179 67q-78 74 -78 201q0 68 22 120q10 23 25.5 44t42 45t68.5 38.5t93 14.5q131 0 197 -96q45 -69 49 -193h-370q6 -45 32 -76q39 -48 109 -48q71 0 114 46q7 6 17 23zM399 314q-3 24 -10 41q-29 64 -102 64
q-27 0 -50 -9q-59 -24 -72 -96h234z" />
    <glyph glyph-name="f" unicode="f" horiz-adv-x="313" 
d="M308 415h-109v-415h-120v415h-75v85h75v58q0 42 3 58q8 46 44.5 68.5t113.5 22.5q30 0 68 -5v-102q-9 3 -38 3q-26 0 -41.5 -6t-21.5 -20t-7 -22t-1 -26v-29h109v-85z" />
    <glyph glyph-name="g" unicode="g" horiz-adv-x="583" 
d="M520 89v-25v-27.5t-0.5 -26t-3 -28t-5.5 -25t-9 -26t-14 -22.5q-56 -76 -209 -76q-145 0 -198 75q-18 27 -31 82l132 -1q5 -16 12 -25q25 -37 90 -37q79 0 104 47q7 12 9.5 29.5t3 29t0.5 49.5q-59 -53 -151 -53q-52 0 -91 18q-50 22 -87.5 75t-37.5 145q0 63 17 107
q25 65 81.5 103t127.5 38q62 0 106 -32q21 -15 35 -36v53h119v-411zM404 266q0 34 -8 56q-4 13 -10.5 25.5t-19.5 27.5t-35.5 24t-50.5 9q-54 0 -89 -38q-34 -37 -34 -100q0 -59 32 -95q16 -16 32 -24q26 -13 60 -13q57 0 89 34q34 34 34 94z" />
    <glyph glyph-name="h" unicode="h" horiz-adv-x="583" 
d="M520 0h-118v275q0 29 -0.5 40.5t-8 31t-23.5 33.5q-23 21 -62 21q-60 0 -99 -48q-16 -19 -22 -42q-4 -15 -4 -43v-268h-120v706h120v-257q18 20 48 37q50 29 110 29q44 0 84 -16.5t64 -49.5q15 -21 22 -46.5t8 -43t1 -50.5v-309z" />
    <glyph glyph-name="i" unicode="i" horiz-adv-x="250" 
d="M184 578h-119v121h119v-121zM184 0h-119v500h119v-500z" />
    <glyph glyph-name="j" unicode="j" horiz-adv-x="250" 
d="M185 579h-118v122h118v-122zM185 -41q0 -57 -28 -83q-41 -39 -128 -39q-10 0 -28 2v109q1 0 7 0.5t11.5 1.5t13.5 3.5t14 6.5q4 3 7.5 6t5.5 5.5t3.5 7.5t2 7.5t1 10t0.5 10.5v13.5v14.5v465h118v-541z" />
    <glyph glyph-name="k" unicode="k" horiz-adv-x="542" 
d="M550 0h-146l-151 224l-70 -69v-155h-119v706h119v-397l195 191h153l-191 -191z" />
    <glyph glyph-name="l" unicode="l" horiz-adv-x="250" 
d="M187 0h-122v706h122v-706z" />
    <glyph glyph-name="m" unicode="m" horiz-adv-x="875" 
d="M813 0h-119v306q0 12 -2 24t-9.5 31t-26 30.5t-46.5 11.5q-58 0 -89 -51q-24 -38 -24 -117v-235h-119v280q0 6 -0.5 17t-0.5 16q0 45 -27 70q-21 19 -54 19q-34 0 -63 -24q-23 -19 -34.5 -51.5t-13.5 -55.5t-2 -61v-210h-120v500h120l1 -56q9 12 16 18q19 18 57 35.5
t84 17.5q44 0 81.5 -19.5t57.5 -56.5q22 27 46 43q50 33 115 33q61 0 105.5 -27.5t59.5 -83.5q7 -27 7 -88v-316z" />
    <glyph glyph-name="n" unicode="n" 
d="M500 0h-118v255q0 58 -5 77q-16 66 -83 66q-36 0 -63 -23q-27 -22 -37 -57t-10 -101v-217h-121v500h121v-59q8 12 22 26q51 48 132 48q49 0 83 -19t50 -42q5 -7 9.5 -15t7.5 -18t5 -17t3.5 -19.5t2 -17.5t1 -19.5t0.5 -18v-19v-16.5v-294z" />
    <glyph glyph-name="o" unicode="o" horiz-adv-x="583" 
d="M549 252q0 -63 -20 -112q-9 -23 -25 -46.5t-43 -49.5t-70.5 -42.5t-95.5 -16.5q-62 0 -113 23q-23 10 -45.5 27.5t-47 46t-39.5 73t-15 97.5q0 55 22 112q10 23 25.5 45.5t42.5 48t70.5 41.5t95.5 16q59 0 110 -23q24 -10 46.5 -27t47 -44.5t39.5 -71.5t15 -97zM424 254
q-2 63 -37.5 108t-97.5 45q-38 0 -68 -19q-61 -40 -61 -133q0 -39 10 -68q6 -17 17.5 -35t41 -37.5t66.5 -19.5q64 0 97.5 47t31.5 112z" />
    <glyph glyph-name="p" unicode="p" horiz-adv-x="583" 
d="M548 246q0 -99 -50 -169q-65 -92 -178 -92q-76 0 -136 56v-204h-120v663h120v-45q57 60 137 60q98 0 160 -73q67 -80 67 -196zM425 252q0 37 -9 64q-13 37 -44 60.5t-70 23.5q-32 0 -62 -18q-56 -38 -58 -129q0 -32 7 -59q12 -43 42 -69t74 -26q35 0 62 18q58 38 58 135z
" />
    <glyph glyph-name="q" unicode="q" 
d="M508 -163h-119l-1 210q-59 -62 -142 -62q-100 0 -159 70q-62 73 -62 190q0 58 16 107q23 71 80 117t130 46q69 0 113 -40q13 -11 25 -28v53h119v-663zM389 249q0 57 -25 96q-16 22 -31 33q-27 20 -65 20t-65 -20q-55 -40 -55 -132q0 -63 30 -107t91 -44q38 0 68 22
q53 39 52 132z" />
    <glyph glyph-name="r" unicode="r" horiz-adv-x="354" 
d="M339 388q-121 0 -150 -92q-9 -28 -9 -82v-214h-116v500h116v-71q14 26 30 41q42 41 119 41h10v-123z" />
    <glyph glyph-name="s" unicode="s" horiz-adv-x="521" 
d="M487 156q0 -36 -17 -68q-22 -42 -73.5 -72.5t-134.5 -30.5q-109 0 -192 51q-26 16 -48 39l90 73q14 -17 23 -25q45 -39 121 -39q59 0 85 30q13 13 13 29q0 11 -8 21q-3 4 -5.5 7t-7 5t-7 3.5t-9 3t-10 2.5t-13 3t-14.5 3q-12 3 -46 9t-52 10q-138 38 -138 142q0 41 23 77
q23 35 70.5 60.5t121.5 25.5q135 0 215 -93l-85 -79q-11 22 -31 40q-41 36 -105 36q-39 0 -61 -15t-22 -37q1 -21 16 -31q17 -13 86 -25q9 -2 25.5 -4.5t30 -5t25.5 -5.5q52 -12 79 -31q55 -40 55 -109z" />
    <glyph glyph-name="t" unicode="t" horiz-adv-x="313" 
d="M304 4q-64 -8 -86 -8q-87 0 -120 40q-12 15 -15 29q-6 19 -6 95v255h-73v85h73v178h120v-178h107v-85h-107v-227q0 -61 12 -74q13 -15 46 -15q27 0 49 6v-101z" />
    <glyph glyph-name="u" unicode="u" horiz-adv-x="583" 
d="M517 0h-120l-1 51q-68 -63 -161 -63q-100 0 -144 66q-5 8 -9.5 15.5t-7.5 17.5t-5 16.5t-3.5 18.5t-2 17t-1 19t-0.5 17.5v19v17.5v288h121v-270q0 -31 1 -45t10.5 -36t28.5 -33q24 -15 58 -15q66 0 97 56q19 36 19 131v212h120v-500z" />
    <glyph glyph-name="v" unicode="v" horiz-adv-x="479" 
d="M468 500l-165 -500h-128l-162 500h124l104 -344l102 344h125z" />
    <glyph glyph-name="w" unicode="w" horiz-adv-x="750" 
d="M735 500l-150 -500h-119l-90 319l-95 -319h-119l-145 500h125l87 -342l93 342h107l92 -342l89 342h125z" />
    <glyph glyph-name="x" unicode="x" horiz-adv-x="500" 
d="M494 0h-138l-104 158l-100 -158h-143l172 268l-152 232h141l82 -126l79 126h143l-151 -232z" />
    <glyph glyph-name="y" unicode="y" horiz-adv-x="479" 
d="M470 500l-127 -436q-1 -2 -8 -28t-10 -34.5t-10.5 -31.5t-13 -35t-14 -29t-17 -28.5t-18.5 -19.5q-37 -30 -102 -30q-38 0 -71 7v104q65 -8 93 15q15 14 21 36l-181 510h129l112 -373l94 373h123z" />
    <glyph glyph-name="z" unicode="z" horiz-adv-x="500" 
d="M459 0h-428v92l270 301h-243v107h401v-93l-264 -301h264v-106z" />
    <glyph glyph-name="braceleft" unicode="{" horiz-adv-x="300" 
d="M288 -148h-52q-45 0 -68 7.5t-40 27.5q-16 19 -22 43q-7 27 -7 84v5l1 155q0 52 -11 72q-16 29 -75 34v75q37 2 56 14q17 11 23.5 30t6.5 62l-1 154v6q0 56 7 83q7 26 22 43q17 20 40.5 27.5t66.5 7.5h52l1 -72h-17q-33 0 -47 -15q-8 -12 -11 -22q-4 -15 -4 -71v-150
q0 -62 -16.5 -89t-65.5 -47q28 -7 46 -24q20 -17 28 -40.5t8 -68.5v-151q0 -56 4 -70q11 -38 61 -38h14v-72z" />
    <glyph glyph-name="bar" unicode="|" horiz-adv-x="247" 
d="M177 -143h-109v922h109v-922z" />
    <glyph glyph-name="braceright" unicode="}" horiz-adv-x="300" 
d="M286 279q-39 -4 -56 -14q-17 -11 -23.5 -30t-6.5 -62l1 -154v-6q0 -52 -7 -83q-6 -25 -23 -43q-17 -20 -40 -27.5t-66 -7.5h-53v72l17 -1q30 -1 46 16q9 11 12 22q4 15 4 71v150q0 61 16.5 88.5t65.5 47.5q-29 8 -47 23q-20 18 -27.5 41.5t-7.5 68.5v151q0 52 -5 70
q-9 38 -60 38h-14v72h52q44 0 67 -7.5t40 -27.5t23 -43q7 -32 7 -84v-5l-1 -155q0 -56 10 -73q15 -27 76 -33v-75z" />
    <glyph glyph-name="asciitilde" unicode="~" horiz-adv-x="724" 
d="M653 310q-38 -47 -73 -70q-45 -29 -92 -29q-42 0 -121 38l-35 17q-63 30 -104 30q-18 0 -33 -6q-26 -10 -69 -61l-10 -12l-44 101q32 43 53 61q45 39 105 39q43 0 127 -38l51 -23q55 -25 79 -25q35 0 66 23q23 16 55 55z" />
    <glyph glyph-name="exclamdown" unicode="&#xa1;" horiz-adv-x="250" 
d="M171 568h-131v138h131v-138zM171 0h-131v271l38 260h56l37 -260v-271z" />
    <glyph glyph-name="cent" unicode="&#xa2;" horiz-adv-x="500" 
d="M494 143q-15 -38 -30 -60q-47 -69 -123 -87q-4 -1 -13.5 -2.5t-15.5 -2.5v-99h-78v99q-56 8 -98.5 35t-63 58t-33 69.5t-15 60.5t-2.5 41q0 99 53 172t160 95v99h78v-99q39 -5 69 -19t51.5 -38t31.5 -39t25 -42l-106 -50q-21 51 -51 71q-7 5 -22 8v-308q28 8 47.5 29.5
t25 36t8.5 27.5zM233 109v305q-24 -12 -32 -19q-56 -45 -56 -135q0 -126 88 -151z" />
    <glyph glyph-name="sterling" unicode="&#xa3;" horiz-adv-x="625" 
d="M594 232q0 -39 -4 -71q-2 -12 -6 -31t-18.5 -53.5t-35.5 -53.5q-36 -31 -89 -31q-30 0 -78 16q-10 4 -21 9t-24 12t-20 10q-3 -2 -14 -8t-14.5 -8t-13 -7t-14 -6.5t-13 -5.5t-14.5 -5.5l-14 -3.5t-16 -2.5t-16 -0.5q-30 0 -55 11q-31 13 -48 41t-17 62q0 32 14 57
t41 38.5t57 13.5q31 0 73 -14q3 10 3 16q0 25 -15 46q-4 4 -13 12h-130v106h80q-42 53 -42 121q0 85 60 135q72 58 169 58q60 0 112 -25q61 -29 85 -79.5t24 -124.5q0 -22 -1 -32h-130q5 23 5 42q0 24 -7 44q-11 28 -36.5 45.5t-55.5 17.5q-22 0 -40 -8q-53 -27 -53 -85
q0 -48 49 -109h123v-106h-78q6 -44 6 -72q0 -31 -6 -60q41 -29 69 -29q19 0 31 13q22 22 22 81v24h129zM210 106q-22 17 -39 17q-13 0 -20 -7.5t-7 -15.5q0 -7 7.5 -14.5t20.5 -6.5q26 0 38 27z" />
    <glyph glyph-name="currency" unicode="&#xa4;" horiz-adv-x="666" 
d="M635 569l-78 -77q48 -76 48 -153q0 -79 -49 -155l78 -78l-71 -70l-78 78q-45 -27 -77.5 -37t-75.5 -10q-81 0 -153 48l-78 -77l-70 70l78 77q-49 71 -49 154q0 82 49 154l-77 76l70 70l77 -76q69 49 155 49q81 0 152 -49l78 77zM497 337q0 71 -47 119.5t-117 48.5
t-117 -47.5t-47 -117.5t47.5 -118t118.5 -48q68 0 115 47.5t47 115.5z" />
    <glyph glyph-name="yen" unicode="&#xa5;" horiz-adv-x="604" 
d="M601 686l-145 -256h84v-99h-142l-34 -61h176v-99h-176v-171h-129v171h-177v99h176l-31 61h-145v99h89l-144 256h149l149 -285l153 285h147z" />
    <glyph glyph-name="brokenbar" unicode="&#xa6;" horiz-adv-x="247" 
d="M178 376h-109v402h109v-402zM178 -144h-109v401h109v-401z" />
    <glyph glyph-name="section" unicode="&#xa7;" horiz-adv-x="646" 
d="M604 330q0 -53 -29 -95t-78 -65q41 -44 41 -92t-32.5 -82t-75.5 -47.5t-90 -13.5q-63 0 -131 21t-118 58l58 82q93 -61 187 -61q26 0 47 9.5t21 32.5q0 19 -37 38.5t-90 41t-106.5 48.5t-90.5 71.5t-37 99.5q0 50 28 85t78 64q-39 34 -39 88q0 72 58.5 109t134.5 37
q131 0 237 -67l-56 -84q-40 18 -57 25t-50.5 16.5t-60.5 9.5q-24 0 -48 -7.5t-24 -25.5q0 -5 2 -10t4 -8.5t7 -7.5t8.5 -6t10 -5.5t9 -4.5t10 -4.5t8.5 -3.5l93 -40q34 -15 48.5 -21.5t45 -22.5t46 -30t34 -34.5t26.5 -45t8 -52.5zM470 308q0 26 -13 43q-12 16 -44.5 35.5
t-59.5 31t-72 29t-52 20.5q-59 -21 -59 -71q0 -22 15.5 -40.5t29 -26t40.5 -19.5q4 -2 56 -25q65 -30 115 -55q44 33 44 78z" />
    <glyph glyph-name="dieresis" unicode="&#xa8;" horiz-adv-x="271" 
d="M293 587h-115v119h115v-119zM91 587h-113v119h113v-119z" />
    <glyph glyph-name="copyright" unicode="&#xa9;" horiz-adv-x="818" 
d="M765 360q0 -155 -102 -259t-255 -104q-148 0 -251.5 104t-103.5 252q0 149 104 252.5t253 103.5q146 0 250.5 -103t104.5 -246zM725 346q0 139 -90.5 232.5t-225.5 93.5q-131 0 -223 -93.5t-92 -226.5t91.5 -225.5t223.5 -92.5q129 0 222.5 92.5t93.5 219.5zM581 203
q-40 -46 -79 -65t-89 -19q-92 0 -149 64.5t-57 167.5q0 100 58.5 166.5t147.5 66.5q53 0 90 -18t78 -65l-63 -65q-29 34 -51.5 46.5t-51.5 12.5q-49 0 -78.5 -39t-29.5 -104t29 -103.5t78 -38.5q58 0 104 56z" />
    <glyph glyph-name="ordfeminine" unicode="&#xaa;" horiz-adv-x="333" 
d="M302 426h-69q-7 21 -7 22q-42 -28 -89 -28q-40 0 -69 24t-29 66q0 38 28 62q19 15 83.5 29t71.5 17v5q0 37 -47 37q-53 0 -53 -41l-70 5q0 25 15 46q30 43 104 44q85 0 111 -44q8 -12 8 -35v-165q0 -23 12 -44zM220 530v30q-20 -6 -46 -12q-35 -7 -41 -10
q-21 -10 -21 -28q0 -29 40 -29h7.5t16 2.5t21 7t16 15t7.5 24.5z" />
    <glyph glyph-name="guillemotleft" unicode="&#xab;" horiz-adv-x="437" 
d="M383 132l-143 112v141l143 114v-114l-86 -71l86 -70v-112zM201 133l-142 111v141l142 112v-112l-88 -72l88 -69v-111z" />
    <glyph glyph-name="logicalnot" unicode="&#xac;" horiz-adv-x="724" 
d="M635 16h-130v242h-436v109h566v-351z" />
    <glyph glyph-name="registered" unicode="&#xae;" horiz-adv-x="827" 
d="M770 360q0 -155 -102 -259t-255 -104q-148 0 -251.5 104t-103.5 252q0 149 104 252.5t252 103.5q146 0 251 -102.5t105 -246.5zM730 347q0 139 -90.5 232t-226.5 93q-131 0 -223 -93.5t-92 -226.5t92 -225.5t223 -92.5q130 0 223.5 92.5t93.5 220.5zM580 134h-102
l-63 169h-58l-1 -169h-93v446h147q75 0 108 -20q28 -17 44 -49.5t16 -71.5q0 -43 -18 -71t-58 -49zM484 439q0 57 -67 57h-61v-115h58q70 0 70 58z" />
    <glyph glyph-name="macron" unicode="&#xaf;" horiz-adv-x="271" 
d="M306 586h-341v90h341v-90z" />
    <glyph glyph-name="degree" unicode="&#xb0;" horiz-adv-x="354" 
d="M349 582q0 -70 -50.5 -121t-121.5 -51t-121.5 51t-50.5 121q0 72 50 122.5t122 50.5t122 -50.5t50 -122.5zM249 582q0 30 -21 50.5t-51 20.5t-51 -20.5t-21 -50.5q0 -29 21.5 -50.5t50.5 -21.5t50.5 21.5t21.5 50.5z" />
    <glyph glyph-name="plusminus" unicode="&#xb1;" horiz-adv-x="724" 
d="M631 365h-204v-203h-130v203h-204v107h204v199h130v-199h204v-107zM631 0h-538v107h538v-107z" />
    <glyph glyph-name="twosuperior" unicode="&#xb2;" horiz-adv-x="375" 
d="M338 233h-302v66q17 12 42 30q98 77 134 135q24 38 24 77q0 33 -17 47.5t-37 14.5q-15 0 -26 -5.5t-17 -12.5t-10 -20.5t-5 -21t-2 -23t-1 -18.5l-87 7q0 2 1.5 15t2.5 23.5t5.5 27.5t10.5 30t17.5 28t26 25t36 16.5t48.5 6.5q63 1 104.5 -34t42.5 -99q1 -46 -26 -91
t-51 -67.5t-87 -73.5q-9 -8 -14 -12h187v-71z" />
    <glyph glyph-name="threesuperior" unicode="&#xb3;" horiz-adv-x="375" 
d="M336 366q0 -67 -45.5 -104t-111.5 -37q-113 0 -148 86q-10 25 -10 69h87q4 -52 28 -70q17 -11 40 -12q30 -1 49.5 17.5t21.5 49.5q1 23 -8.5 37.5t-25.5 20t-25 7t-18 1.5h-25v71h27q66 0 66 49q0 23 -13 36t-23.5 15.5t-21.5 2.5q-32 0 -45 -19.5t-18 -53.5l-85 19
q5 36 24 65q42 65 129 65q84 1 124 -59q18 -28 18 -62q0 -52 -43 -79q-7 -5 -29 -12q17 -6 27.5 -11.5t25 -16.5t21.5 -30t7 -45z" />
    <glyph glyph-name="acute" unicode="&#xb4;" horiz-adv-x="271" 
d="M235 706l-108 -133h-91l50 133h149z" />
    <glyph glyph-name="mu" unicode="&#xb5;" horiz-adv-x="597" 
d="M574 -1q-34 -9 -66 -9q-45 0 -71 22q-12 9 -18 19.5t-15 37.5q-19 -43 -44.5 -61t-67.5 -18q-63 0 -100 58l3 -264h-120v715h123v-231q0 -106 20 -136q25 -38 74 -38q46 0 72 39t26 110v46v210h122v-348q0 -35 7.5 -48.5t26.5 -13.5q8 0 28 8v-98z" />
    <glyph glyph-name="paragraph" unicode="&#xb6;" horiz-adv-x="640" 
d="M537 636h-35v-803h-74v803h-128v-803h-74v478q-27 5 -44 12q-52 20 -81.5 68t-29.5 111q0 93 59 149q27 25 63 39q41 16 111 16h233v-70z" />
    <glyph glyph-name="periodcentered" unicode="&#xb7;" horiz-adv-x="219" 
d="M176 217h-133v146h133v-146z" />
    <glyph glyph-name="cedilla" unicode="&#xb8;" horiz-adv-x="271" 
d="M236 -110q0 -20 -14 -38q-32 -38 -141 -38q-27 0 -41 1l1 31q1 0 3 -0.5t4 -0.5h5q20 -2 47 4l2 1l4 2l5 2.5t5 4t3.5 5.5t1.5 7q-1 24 -66 24q-8 0 -20 -2v15l100 104h45l-45 -58q34 2 68 -12q33 -16 33 -52z" />
    <glyph glyph-name="onesuperior" unicode="&#xb9;" horiz-adv-x="375" 
d="M257 233h-85v257v11.5v10.5t-1.5 7.5t-4 6.5t-7.5 3.5t-13 3.5t-19 1l-63 1v59l21 1l19.5 1.5t23 5t26.5 12.5t20 25t12 41h71v-447z" />
    <glyph glyph-name="ordmasculine" unicode="&#xba;" horiz-adv-x="333" 
d="M309 563q0 -24 -8 -51q-12 -38 -46 -67.5t-90 -29.5q-63 0 -102 43.5t-39 105.5q0 63 38.5 106t102.5 44q66 1 105.5 -42.5t38.5 -108.5zM238 567q0 32 -16 58t-51 27q-28 1 -51 -21t-23 -66q0 -12 4 -32q14 -55 66 -55q28 0 49.5 22.5t21.5 66.5z" />
    <glyph glyph-name="guillemotright" unicode="&#xbb;" horiz-adv-x="437" 
d="M377 242l-142 -111v111l87 73l-87 68v112l142 -112v-141zM195 242l-143 -113v113l86 72l-86 69v113l143 -113v-141z" />
    <glyph glyph-name="onequarter" unicode="&#xbc;" horiz-adv-x="875" 
d="M855 99h-59v-99h-80v101h-194v63l194 278h83v-271h56v-72zM621 646l-314 -683l-69 31l315 684zM257 233h-85v257v11.5v10.5t-1.5 7.5t-4 6.5t-7.5 3.5t-13 3.5t-19 1l-63 1v59l21 1l19.5 1.5t23 5t26.5 12.5t20 25t12 41h71v-447zM721 341l-110 -169h108z" />
    <glyph glyph-name="onehalf" unicode="&#xbd;" horiz-adv-x="875" 
d="M838 0h-302v67q62 42 111.5 90t66.5 77q22 36 22 74q0 33 -17 47.5t-37 14.5q-17 0 -28.5 -5t-17.5 -18t-7.5 -20.5t-4.5 -25.5q0 -2 -1.5 -15.5t-1.5 -15.5l-86 6q6 171 148 173q42 0 72 -13.5t45 -36t22 -43t7 -40.5q1 -61 -35 -110t-144 -135h188v-71zM612 646
l-314 -683l-69 31l315 684zM257 233h-85v257v11.5v10.5t-1.5 7.5t-4 6.5t-7.5 3.5t-13 3.5t-19 1l-63 1v59l21 1l19.5 1.5t23 5t26.5 12.5t20 25t12 41h71v-447z" />
    <glyph glyph-name="threequarters" unicode="&#xbe;" horiz-adv-x="875" 
d="M855 99h-59v-99h-80v101h-194v63l194 278h83v-271h56v-72zM644 646l-313 -683l-69 31l315 684zM336 366q0 -67 -45.5 -104t-111.5 -37q-113 0 -148 86q-10 25 -10 69h87q4 -52 28 -70q17 -11 40 -12q30 -1 49.5 17.5t21.5 49.5q1 23 -8.5 37.5t-25.5 20t-25 7t-18 1.5
h-25v71h27q66 0 66 49q0 23 -13 36t-23.5 15.5t-21.5 2.5q-32 0 -45 -19.5t-18 -53.5l-85 19q5 36 24 65q42 65 129 65q84 1 124 -59q18 -28 18 -62q0 -52 -43 -79q-7 -5 -29 -12q17 -6 27.5 -11.5t25 -16.5t21.5 -30t7 -45zM721 341l-110 -169h108z" />
    <glyph glyph-name="questiondown" unicode="&#xbf;" 
d="M328 569h-133v137h133v-137zM508 219q-4 -65 -26 -108q-23 -49 -76 -86t-142 -37q-46 0 -88 13q-68 21 -108.5 73t-40.5 123q0 95 80 158q7 5 28 19.5t32 23.5q20 16 29.5 37t9.5 61q0 14 -3 29h118q1 -72 -6 -111q-9 -53 -36 -81q-12 -12 -36.5 -27.5t-32.5 -22.5
q-46 -38 -46 -85q0 -18 10 -41q29 -55 98 -55q55 0 85 38q27 35 30 94z" />
    <glyph glyph-name="Agrave" unicode="&#xc0;" horiz-adv-x="646" 
d="M381 774h-89l-107 121h142zM636 0h-141l-41 138h-265l-41 -138h-142l239 706h150zM419 254l-97 325l-98 -325h195z" />
    <glyph glyph-name="Aacute" unicode="&#xc1;" horiz-adv-x="646" 
d="M464 895l-108 -120h-89l54 120h143zM636 0h-141l-41 138h-265l-41 -138h-142l239 706h150zM419 254l-97 325l-98 -325h195z" />
    <glyph glyph-name="Acircumflex" unicode="&#xc2;" horiz-adv-x="646" 
d="M487 773h-121l-42 56l-42 -56h-118l101 122h117zM636 0h-141l-41 138h-265l-41 -138h-142l239 706h150zM419 254l-97 325l-98 -325h195z" />
    <glyph glyph-name="Atilde" unicode="&#xc3;" horiz-adv-x="646" 
d="M507 894q-8 -80 -50 -110q-18 -16 -51 -16q-29 0 -84 21q-45 18 -60 17q-10 0 -16 -3q-16 -8 -20 -34h-78q0 1 1 9t3 18.5t4 17.5q28 80 97 80q41 0 81 -20q43 -17 59 -17q10 0 19 6q3 2 5.5 4.5t4 4.5t3 5t2 4.5t1.5 6.5t2 7zM636 0h-141l-41 138h-265l-41 -138h-142
l239 706h150zM419 254l-97 325l-98 -325h195z" />
    <glyph glyph-name="Adieresis" unicode="&#xc4;" horiz-adv-x="646" 
d="M484 772h-113v123h113v-123zM283 772h-112v123h112v-123zM636 0h-141l-41 138h-265l-41 -138h-142l239 706h150zM419 254l-97 325l-98 -325h195z" />
    <glyph glyph-name="Aring" unicode="&#xc5;" horiz-adv-x="646" 
d="M428 861q0 -42 -29.5 -71.5t-72.5 -29.5q-42 0 -71.5 29.5t-29.5 72.5q0 42 29.5 71.5t72.5 29.5q42 0 71.5 -30t29.5 -72zM636 0h-141l-41 138h-265l-41 -138h-142l239 706h150zM368 862q0 17 -12.5 29t-29.5 12t-29.5 -12.5t-12.5 -29.5q1 -17 13.5 -29.5t29.5 -12.5
q17 1 29 13t12 30zM419 254l-97 325l-98 -325h195z" />
    <glyph glyph-name="AE" unicode="&#xc6;" horiz-adv-x="1042" 
d="M1018 0h-516v165h-248l-94 -165h-154l418 706h579v-118h-368v-168h320v-116h-320v-184h383v-120zM502 284v323l-181 -323h181z" />
    <glyph glyph-name="Ccedilla" unicode="&#xc7;" horiz-adv-x="688" 
d="M672 197l-4 -10q-11 -28 -25.5 -52.5t-28.5 -42.5t-32 -33t-32 -25t-33.5 -18.5t-31.5 -13t-31.5 -8.5t-27 -5t-24.5 -3t-19 -2l-24 -30h8q19 0 38 -4t37 -19t19 -38q0 -23 -14 -40q-30 -39 -140 -39h-6q-28 0 -36 1v31q3 -1 16 -1q64 0 64 25t-66 25q-12 0 -20 -2v15
l75 77q-98 17 -137 41q-72 42 -117 129.5t-43 209.5q0 75 23 141q39 109 125 164t189 54q159 -1 237 -114q26 -37 48 -104l-131 -34q-2 19 -11 39.5t-25.5 42t-47.5 35.5t-70 14q-77 0 -135 -61t-59 -182q-1 -124 56 -188t138 -65q40 0 73 16t53 41t31 45.5t16 39.5z" />
    <glyph glyph-name="Egrave" unicode="&#xc8;" horiz-adv-x="625" 
d="M371 774h-90l-107 121h142zM605 0h-527v706h502v-118h-372v-166h341v-114h-341v-189h397v-119z" />
    <glyph glyph-name="Eacute" unicode="&#xc9;" horiz-adv-x="625" 
d="M454 895l-108 -120h-89l53 120h144zM605 0h-527v706h502v-118h-372v-166h341v-114h-341v-189h397v-119z" />
    <glyph glyph-name="Ecircumflex" unicode="&#xca;" horiz-adv-x="625" 
d="M477 773h-121l-43 56l-42 -56h-117l101 122h117zM605 0h-527v706h502v-118h-372v-166h341v-114h-341v-189h397v-119z" />
    <glyph glyph-name="Edieresis" unicode="&#xcb;" horiz-adv-x="625" 
d="M471 772h-114v123h114v-123zM269 772h-112v123h112v-123zM605 0h-527v706h502v-118h-372v-166h341v-114h-341v-189h397v-119z" />
    <glyph glyph-name="Igrave" unicode="&#xcc;" horiz-adv-x="292" 
d="M204 774h-89l-107 121h142zM210 0h-130v706h130v-706z" />
    <glyph glyph-name="Iacute" unicode="&#xcd;" horiz-adv-x="292" 
d="M287 895l-108 -120h-89l54 120h143zM210 0h-130v706h130v-706z" />
    <glyph glyph-name="Icircumflex" unicode="&#xce;" horiz-adv-x="292" 
d="M310 773h-121l-42 56l-42 -56h-118l101 122h117zM210 0h-130v706h130v-706z" />
    <glyph glyph-name="Idieresis" unicode="&#xcf;" horiz-adv-x="292" 
d="M304 772h-114v123h114v-123zM102 772h-112v123h112v-123zM210 0h-130v706h130v-706z" />
    <glyph glyph-name="Eth" unicode="&#xd0;" horiz-adv-x="708" 
d="M669 346q0 -44 -8.5 -88t-27.5 -91.5t-59 -86t-95 -58.5q-60 -22 -171 -22h-237v326h-68v90h68v290h232q100 0 147 -14q95 -29 157.5 -117t61.5 -229zM529 347q0 187 -131 229q-37 11 -96 11h-99v-171h154v-90h-154v-207h56q108 0 147 11q63 17 93 69t30 148z" />
    <glyph glyph-name="Ntilde" unicode="&#xd1;" horiz-adv-x="708" 
d="M539 894q-8 -79 -51 -110q-18 -16 -51 -16q-29 0 -84 21q-45 18 -60 17q-10 0 -16 -3q-13 -7 -20 -34h-78q0 1 1.5 9t3.5 18.5t4 17.5q28 80 96 80q35 0 82 -20q42 -17 58 -17q10 0 19 6q3 2 5.5 4.5t4 4.5t3 5t2 4.5t1.5 6.5t2 7zM628 0h-116l-309 495l8 -495h-129v706
h119l313 -498l-16 498h130v-706z" />
    <glyph glyph-name="Ograve" unicode="&#xd2;" horiz-adv-x="771" 
d="M443 774h-89l-107 121h142zM725 353q0 -164 -98 -270q-53 -57 -120 -81q-55 -20 -123 -20q-147 0 -242 109q-94 107 -94 261q0 74 21 137q35 107 120.5 171t197.5 64q153 0 250 -112q89 -101 88 -259zM592 339q2 101 -42 171q-57 93 -164 93q-48 0 -90 -21
q-46 -25 -79 -80t-33 -145q0 -156 100 -222q46 -30 104 -30q44 0 81 17q49 23 85 75t38 142z" />
    <glyph glyph-name="Oacute" unicode="&#xd3;" horiz-adv-x="771" 
d="M526 895l-107 -120h-89l53 120h143zM725 353q0 -164 -98 -270q-53 -57 -120 -81q-55 -20 -123 -20q-147 0 -242 109q-94 107 -94 261q0 74 21 137q35 107 120.5 171t197.5 64q153 0 250 -112q89 -101 88 -259zM592 339q2 101 -42 171q-57 93 -164 93q-48 0 -90 -21
q-46 -25 -79 -80t-33 -145q0 -156 100 -222q46 -30 104 -30q44 0 81 17q49 23 85 75t38 142z" />
    <glyph glyph-name="Ocircumflex" unicode="&#xd4;" horiz-adv-x="771" 
d="M550 773h-121l-43 56l-42 -56h-117l100 122h118zM725 353q0 -164 -98 -270q-53 -57 -120 -81q-55 -20 -123 -20q-147 0 -242 109q-94 107 -94 261q0 74 21 137q35 107 120.5 171t197.5 64q153 0 250 -112q89 -101 88 -259zM592 339q2 101 -42 171q-57 93 -164 93
q-48 0 -90 -21q-46 -25 -79 -80t-33 -145q0 -156 100 -222q46 -30 104 -30q44 0 81 17q49 23 85 75t38 142z" />
    <glyph glyph-name="Otilde" unicode="&#xd5;" horiz-adv-x="771" 
d="M570 894q-8 -80 -50 -110q-21 -16 -52 -16q-29 0 -84 21q-44 18 -59 17q-11 0 -17 -3q-13 -8 -20 -34h-77q0 19 8 45q3 10 8 20.5t16 25.5t30 24.5t42 9.5q35 0 82 -20q43 -17 58 -17q10 0 19 6q3 2 5.5 4.5t4 4.5t3 5t2 4.5t1.5 6.5t2 7zM725 353q0 -164 -98 -270
q-53 -57 -120 -81q-55 -20 -123 -20q-147 0 -242 109q-94 107 -94 261q0 74 21 137q35 107 120.5 171t197.5 64q153 0 250 -112q89 -101 88 -259zM592 339q2 101 -42 171q-57 93 -164 93q-48 0 -90 -21q-46 -25 -79 -80t-33 -145q0 -156 100 -222q46 -30 104 -30q44 0 81 17
q49 23 85 75t38 142z" />
    <glyph glyph-name="Odieresis" unicode="&#xd6;" horiz-adv-x="771" 
d="M544 772h-114v123h114v-123zM343 772h-113v123h113v-123zM725 353q0 -164 -98 -270q-53 -57 -120 -81q-55 -20 -123 -20q-147 0 -242 109q-94 107 -94 261q0 74 21 137q35 107 120.5 171t197.5 64q153 0 250 -112q89 -101 88 -259zM592 339q2 101 -42 171q-57 93 -164 93
q-48 0 -90 -21q-46 -25 -79 -80t-33 -145q0 -156 100 -222q46 -30 104 -30q44 0 81 17q49 23 85 75t38 142z" />
    <glyph glyph-name="multiply" unicode="&#xd7;" horiz-adv-x="724" 
d="M604 174l-91 -93l-155 150l-142 -147l-76 74l142 147l-153 149l90 93l154 -149l142 147l76 -74l-142 -147z" />
    <glyph glyph-name="Oslash" unicode="&#xd8;" horiz-adv-x="771" 
d="M740 616l-66 -59q52 -96 52 -205q0 -59 -14 -112q-22 -83 -76 -147.5t-132 -91.5q-52 -19 -120 -19q-64 0 -116 20t-74 38.5t-50 48.5l-64 -56l-57 66l70 62q-7 11 -19 36q-28 65 -28 153q0 84 26.5 152.5t57 103t67.5 60.5q81 58 193 58q133 0 229 -96l62 55zM525 545
q-61 61 -136 60q-49 0 -94 -25q-56 -31 -86.5 -90.5t-30.5 -125.5q0 -42 13 -88q3 -9 9 -21zM594 346q0 67 -23 120l-327 -289q47 -74 139 -74q49 0 90 21q46 23 83.5 78.5t37.5 143.5z" />
    <glyph glyph-name="Ugrave" unicode="&#xd9;" horiz-adv-x="729" 
d="M423 774h-90l-106 121h141zM649 299v-16q0 -102 -12 -139q-21 -64 -90 -113t-187 -49q-148 0 -224 84q-31 31 -45 76q-11 36 -11 144v420h133v-434q0 -57 7 -78q26 -84 145 -84q114 0 143 80q9 26 9 89v427h132v-407z" />
    <glyph glyph-name="Uacute" unicode="&#xda;" horiz-adv-x="729" 
d="M506 895l-108 -120h-89l53 120h144zM649 299v-16q0 -102 -12 -139q-21 -64 -90 -113t-187 -49q-148 0 -224 84q-31 31 -45 76q-11 36 -11 144v420h133v-434q0 -57 7 -78q26 -84 145 -84q114 0 143 80q9 26 9 89v427h132v-407z" />
    <glyph glyph-name="Ucircumflex" unicode="&#xdb;" horiz-adv-x="729" 
d="M529 773h-121l-42 56l-43 -56h-117l101 122h117zM649 299v-16q0 -102 -12 -139q-21 -64 -90 -113t-187 -49q-148 0 -224 84q-31 31 -45 76q-11 36 -11 144v420h133v-434q0 -57 7 -78q26 -84 145 -84q114 0 143 80q9 26 9 89v427h132v-407z" />
    <glyph glyph-name="Udieresis" unicode="&#xdc;" horiz-adv-x="729" 
d="M522 772h-114v123h114v-123zM321 772h-113v123h113v-123zM649 299v-16q0 -102 -12 -139q-21 -64 -90 -113t-187 -49q-148 0 -224 84q-31 31 -45 76q-11 36 -11 144v420h133v-434q0 -57 7 -78q26 -84 145 -84q114 0 143 80q9 26 9 89v427h132v-407z" />
    <glyph glyph-name="Yacute" unicode="&#xdd;" horiz-adv-x="625" 
d="M454 895l-108 -120h-89l53 120h144zM615 706l-238 -427v-279h-131v279l-236 427h150l153 -292l154 292h148z" />
    <glyph glyph-name="Thorn" unicode="&#xde;" horiz-adv-x="625" 
d="M607 375q0 -84 -39 -141q-28 -41 -72.5 -63t-77.5 -26.5t-77 -4.5h-127v-140h-132v706h132v-100h106q50 0 81 -3t78 -23.5t79 -60.5q49 -59 49 -144zM471 377q0 40 -17 65q-20 31 -51 41t-88 10h-101v-245h95q64 0 98 14t52 53q12 26 12 62z" />
    <glyph glyph-name="germandbls" unicode="&#xdf;" 
d="M527 219q0 -100 -52 -163.5t-150 -63.5q-58 0 -95 16v116q2 -1 5.5 -3.5t5.5 -3.5q30 -15 57 -15q41 0 73 35q30 35 30 91q0 67 -40 103q-38 35 -114 35q-12 0 -17 -1v90q80 -7 115 29q20 22 20 53q0 23 -11 39q-22 35 -74 35q-29 0 -52 -13q-7 -4 -12.5 -9t-9.5 -9
t-7.5 -11.5t-5.5 -12t-3.5 -13.5t-2 -13t-1 -14t-0.5 -13v-14.5v-13.5v-475h-121v494q0 70 8 96q18 63 76.5 95.5t128.5 32.5q45 0 81 -11q63 -19 103.5 -62t39.5 -104q0 -64 -47 -103q-19 -17 -43 -25q39 -19 53 -31q62 -55 62 -163z" />
    <glyph glyph-name="agrave" unicode="&#xe0;" horiz-adv-x="542" 
d="M348 573h-90l-110 133h148zM500 0h-142l-3 39q-22 -18 -46 -28q-51 -23 -101 -23q-112 0 -160 77q-23 37 -22 80q0 79 68 125q38 26 126 43q97 20 138 34q0 27 -7 41q-18 34 -79 34q-64 0 -88 -31q-13 -16 -13 -44l-122 7q3 74 54 115q55 46 165 46q106 0 161 -39
q25 -18 36 -40q13 -26 13 -89v-266q0 -29 3.5 -43.5t18.5 -37.5zM358 194v55q-37 -19 -95 -28q-6 -1 -20 -3t-22 -3.5t-19 -5.5t-20 -9q-29 -19 -29 -50q0 -25 20 -42t62 -17q45 0 75.5 18t40.5 39q7 14 7 46z" />
    <glyph glyph-name="aacute" unicode="&#xe1;" horiz-adv-x="542" 
d="M417 706l-108 -133h-90l50 133h148zM500 0h-142l-3 39q-22 -18 -46 -28q-51 -23 -101 -23q-112 0 -160 77q-23 37 -22 80q0 79 68 125q38 26 126 43q97 20 138 34q0 27 -7 41q-18 34 -79 34q-64 0 -88 -31q-13 -16 -13 -44l-122 7q3 74 54 115q55 46 165 46
q106 0 161 -39q25 -18 36 -40q13 -26 13 -89v-266q0 -29 3.5 -43.5t18.5 -37.5zM358 194v55q-37 -19 -95 -28q-6 -1 -20 -3t-22 -3.5t-19 -5.5t-20 -9q-29 -19 -29 -50q0 -25 20 -42t62 -17q45 0 75.5 18t40.5 39q7 14 7 46z" />
    <glyph glyph-name="acircumflex" unicode="&#xe2;" horiz-adv-x="542" 
d="M441 572h-122l-48 67l-49 -67h-121l111 134h118zM500 0h-142l-3 39q-22 -18 -46 -28q-51 -23 -101 -23q-112 0 -160 77q-23 37 -22 80q0 79 68 125q38 26 126 43q97 20 138 34q0 27 -7 41q-18 34 -79 34q-64 0 -88 -31q-13 -16 -13 -44l-122 7q3 74 54 115q55 46 165 46
q106 0 161 -39q25 -18 36 -40q13 -26 13 -89v-266q0 -29 3.5 -43.5t18.5 -37.5zM358 194v55q-37 -19 -95 -28q-6 -1 -20 -3t-22 -3.5t-19 -5.5t-20 -9q-29 -19 -29 -50q0 -25 20 -42t62 -17q45 0 75.5 18t40.5 39q7 14 7 46z" />
    <glyph glyph-name="atilde" unicode="&#xe3;" horiz-adv-x="542" 
d="M455 706q-9 -48 -10 -51q-3 -9 -8 -18.5t-15.5 -23t-28 -22t-39.5 -8.5q-27 0 -84 22q-42 17 -60 17q-8 0 -16 -4q-16 -9 -20 -34h-78q0 19 8 46q4 14 12 29t31.5 33t53.5 18q14 0 81 -20q37 -17 59 -17q23 0 31 17q2 4 3 8t3 8h77zM500 0h-142l-3 39q-22 -18 -46 -28
q-51 -23 -101 -23q-112 0 -160 77q-23 37 -22 80q0 79 68 125q38 26 126 43q97 20 138 34q0 27 -7 41q-18 34 -79 34q-64 0 -88 -31q-13 -16 -13 -44l-122 7q3 74 54 115q55 46 165 46q106 0 161 -39q25 -18 36 -40q13 -26 13 -89v-266q0 -29 3.5 -43.5t18.5 -37.5zM358 194
v55q-37 -19 -95 -28q-6 -1 -20 -3t-22 -3.5t-19 -5.5t-20 -9q-29 -19 -29 -50q0 -25 20 -42t62 -17q45 0 75.5 18t40.5 39q7 14 7 46z" />
    <glyph glyph-name="adieresis" unicode="&#xe4;" horiz-adv-x="542" 
d="M422 587h-114v119h114v-119zM220 587h-112v119h112v-119zM500 0h-142l-3 39q-22 -18 -46 -28q-51 -23 -101 -23q-112 0 -160 77q-23 37 -22 80q0 79 68 125q38 26 126 43q97 20 138 34q0 27 -7 41q-18 34 -79 34q-64 0 -88 -31q-13 -16 -13 -44l-122 7q3 74 54 115
q55 46 165 46q106 0 161 -39q25 -18 36 -40q13 -26 13 -89v-266q0 -29 3.5 -43.5t18.5 -37.5zM358 194v55q-37 -19 -95 -28q-6 -1 -20 -3t-22 -3.5t-19 -5.5t-20 -9q-29 -19 -29 -50q0 -25 20 -42t62 -17q45 0 75.5 18t40.5 39q7 14 7 46z" />
    <glyph glyph-name="aring" unicode="&#xe5;" horiz-adv-x="542" 
d="M366 662q0 -42 -30 -72t-71 -30q-42 0 -72 29.5t-30 72.5q0 42 30 71.5t72 29.5q26 0 50 -13q51 -30 51 -88zM500 0h-142l-3 39q-22 -18 -46 -28q-51 -23 -101 -23q-112 0 -160 77q-23 37 -22 80q0 79 68 125q38 26 126 43q97 20 138 34q0 27 -7 41q-18 34 -79 34
q-64 0 -88 -31q-13 -16 -13 -44l-122 7q3 74 54 115q55 46 165 46q106 0 161 -39q25 -18 36 -40q13 -26 13 -89v-266q0 -29 3.5 -43.5t18.5 -37.5zM306 661q0 18 -12.5 30t-29.5 12q-11 0 -21 -5q-21 -12 -21 -37q0 -17 12.5 -29.5t29.5 -12.5q18 0 30 12.5t12 29.5z
M358 194v55q-37 -19 -95 -28q-6 -1 -20 -3t-22 -3.5t-19 -5.5t-20 -9q-29 -19 -29 -50q0 -25 20 -42t62 -17q45 0 75.5 18t40.5 39q7 14 7 46z" />
    <glyph glyph-name="ae" unicode="&#xe6;" horiz-adv-x="875" 
d="M846 227h-365q5 -56 32 -89q34 -46 102 -46q51 0 88 32q21 18 33 36l95 -59q-18 -22 -32.5 -36t-44 -35.5t-69.5 -33t-88 -11.5q-73 0 -136 38q-22 13 -50 36q-13 -12 -33 -25q-67 -49 -162 -49q-121 0 -165 74q-22 37 -22 78q0 58 41 99q46 46 182 74q74 14 112 31
q-3 47 -27 67q-25 20 -67 20q-41 0 -68 -17q-13 -9 -21 -22q-11 -17 -11 -42h-116q6 65 42 106q52 62 164 62q85 0 131 -29q16 -10 43 -36q21 19 35.5 29.5t50 23t77.5 12.5q88 0 148 -45q95 -71 101 -243zM704 313q-10 47 -38.5 76t-74.5 29q-48 0 -79 -33q-27 -30 -30 -72
h222zM364 240q-24 -10 -43 -15t-50.5 -11t-43.5 -9q-71 -16 -71 -66q0 -26 20.5 -46t64.5 -20q67 0 101 51q19 28 22 116z" />
    <glyph glyph-name="ccedilla" unicode="&#xe7;" horiz-adv-x="517" 
d="M497 141q-15 -43 -41 -72q-24 -29 -53.5 -46.5t-50 -23.5t-56.5 -12l-26 -33h7q19 0 38 -4t37 -19t19 -38t-17 -44q-32 -35 -137 -35h-6q-28 0 -36 1v31q3 -1 16 -1q64 0 64 25t-65 25q-13 0 -21 -2v15l77 79q-67 13 -96 29q-67 37 -96.5 102.5t-29.5 131.5q0 109 70 187
t182 78q85 0 138.5 -43t77.5 -99l-107 -50q-9 27 -25 46t-34 26.5t-30 10t-22 2.5q-65 1 -95.5 -47t-30.5 -108q0 -27 7 -53t21 -50t39.5 -38.5t59.5 -14.5q28 0 49.5 9t36 29t19.5 29t15 31z" />
    <glyph glyph-name="egrave" unicode="&#xe8;" 
d="M337 573h-89l-110 133h148zM535 112q-21 -29 -46 -52q-81 -75 -198 -75q-107 0 -179 67q-78 74 -78 201q0 68 22 120q10 23 25.5 44t42 45t68.5 38.5t93 14.5q131 0 197 -96q45 -69 49 -193h-370q6 -45 32 -76q39 -48 109 -48q71 0 114 46q7 6 17 23zM399 314
q-3 24 -10 41q-29 64 -102 64q-27 0 -50 -9q-59 -24 -72 -96h234z" />
    <glyph glyph-name="eacute" unicode="&#xe9;" 
d="M428 706l-108 -133h-91l50 133h149zM535 112q-21 -29 -46 -52q-81 -75 -198 -75q-107 0 -179 67q-78 74 -78 201q0 68 22 120q10 23 25.5 44t42 45t68.5 38.5t93 14.5q131 0 197 -96q45 -69 49 -193h-370q6 -45 32 -76q39 -48 109 -48q71 0 114 46q7 6 17 23zM399 314
q-3 24 -10 41q-29 64 -102 64q-27 0 -50 -9q-59 -24 -72 -96h234z" />
    <glyph glyph-name="ecircumflex" unicode="&#xea;" 
d="M452 572h-123l-47 67l-50 -67h-121l111 134h118zM535 112q-21 -29 -46 -52q-81 -75 -198 -75q-107 0 -179 67q-78 74 -78 201q0 68 22 120q10 23 25.5 44t42 45t68.5 38.5t93 14.5q131 0 197 -96q45 -69 49 -193h-370q6 -45 32 -76q39 -48 109 -48q71 0 114 46q7 6 17 23
zM399 314q-3 24 -10 41q-29 64 -102 64q-27 0 -50 -9q-59 -24 -72 -96h234z" />
    <glyph glyph-name="edieresis" unicode="&#xeb;" 
d="M439 587h-114v119h114v-119zM238 587h-113v119h113v-119zM535 112q-21 -29 -46 -52q-81 -75 -198 -75q-107 0 -179 67q-78 74 -78 201q0 68 22 120q10 23 25.5 44t42 45t68.5 38.5t93 14.5q131 0 197 -96q45 -69 49 -193h-370q6 -45 32 -76q39 -48 109 -48q71 0 114 46
q7 6 17 23zM399 314q-3 24 -10 41q-29 64 -102 64q-27 0 -50 -9q-59 -24 -72 -96h234z" />
    <glyph glyph-name="igrave" unicode="&#xec;" horiz-adv-x="250" 
d="M181 573h-89l-111 133h148zM184 0h-119v500h119v-500z" />
    <glyph glyph-name="iacute" unicode="&#xed;" horiz-adv-x="250" 
d="M271 706l-108 -133h-90l50 133h148zM184 0h-119v500h119v-500z" />
    <glyph glyph-name="icircumflex" unicode="&#xee;" horiz-adv-x="250" 
d="M295 572h-122l-47 67l-50 -67h-121l111 134h118zM184 0h-119v500h119v-500z" />
    <glyph glyph-name="idieresis" unicode="&#xef;" horiz-adv-x="250" 
d="M283 587h-114v119h114v-119zM81 587h-112v119h112v-119zM184 0h-119v500h119v-500z" />
    <glyph glyph-name="eth" unicode="&#xf0;" horiz-adv-x="583" 
d="M550 282q0 -137 -69 -218q-70 -80 -188 -79q-113 0 -183 72q-38 38 -56 88q-18 48 -19 104q-1 69 24 124q24 53 78.5 98t137.5 45q59 0 102 -38q-12 50 -50 100l-163 -44l-19 53l143 39l-24 24t-24 23l112 48q10 -9 19 -19t20 -22.5t18 -20.5l92 25l20 -53l-76 -21
q33 -53 50 -89q55 -113 55 -239zM424 254q-2 38 -15 71q-34 78 -116 82q-65 1 -99.5 -45t-33.5 -109t35.5 -110t98.5 -48q66 -1 99 47.5t31 111.5z" />
    <glyph glyph-name="ntilde" unicode="&#xf1;" 
d="M466 706q-1 -5 -4.5 -23t-6.5 -28q-27 -72 -91 -72q-27 0 -84 22q-42 17 -60 17q-8 0 -16 -4q-14 -7 -20 -34h-78q0 1 1 9.5t3 18.5t5 18q3 10 8 20t16 25.5t30 25t42 9.5q30 0 81 -20q37 -17 59 -17q24 0 32 17q1 1 5 16h78zM500 0h-118v255q0 58 -5 77q-16 66 -83 66
q-36 0 -63 -23q-27 -22 -37 -57t-10 -101v-217h-121v500h121v-59q8 12 22 26q51 48 132 48q49 0 83 -19t50 -42q5 -7 9.5 -15t7.5 -18t5 -17t3.5 -19.5t2 -17.5t1 -19.5t0.5 -18v-19v-16.5v-294z" />
    <glyph glyph-name="ograve" unicode="&#xf2;" horiz-adv-x="583" 
d="M348 573h-90l-110 133h148zM549 252q0 -63 -20 -112q-9 -23 -25 -46.5t-43 -49.5t-70.5 -42.5t-95.5 -16.5q-62 0 -113 23q-23 10 -45.5 27.5t-47 46t-39.5 73t-15 97.5q0 55 22 112q10 23 25.5 45.5t42.5 48t70.5 41.5t95.5 16q59 0 110 -23q24 -10 46.5 -27t47 -44.5
t39.5 -71.5t15 -97zM424 254q-2 63 -37.5 108t-97.5 45q-38 0 -68 -19q-61 -40 -61 -133q0 -39 10 -68q6 -17 17.5 -35t41 -37.5t66.5 -19.5q64 0 97.5 47t31.5 112z" />
    <glyph glyph-name="oacute" unicode="&#xf3;" horiz-adv-x="583" 
d="M438 706l-108 -133h-90l50 133h148zM549 252q0 -63 -20 -112q-9 -23 -25 -46.5t-43 -49.5t-70.5 -42.5t-95.5 -16.5q-62 0 -113 23q-23 10 -45.5 27.5t-47 46t-39.5 73t-15 97.5q0 55 22 112q10 23 25.5 45.5t42.5 48t70.5 41.5t95.5 16q59 0 110 -23q24 -10 46.5 -27
t47 -44.5t39.5 -71.5t15 -97zM424 254q-2 63 -37.5 108t-97.5 45q-38 0 -68 -19q-61 -40 -61 -133q0 -39 10 -68q6 -17 17.5 -35t41 -37.5t66.5 -19.5q64 0 97.5 47t31.5 112z" />
    <glyph glyph-name="ocircumflex" unicode="&#xf4;" horiz-adv-x="583" 
d="M462 572h-122l-48 67l-49 -67h-121l111 134h118zM549 252q0 -63 -20 -112q-9 -23 -25 -46.5t-43 -49.5t-70.5 -42.5t-95.5 -16.5q-62 0 -113 23q-23 10 -45.5 27.5t-47 46t-39.5 73t-15 97.5q0 55 22 112q10 23 25.5 45.5t42.5 48t70.5 41.5t95.5 16q59 0 110 -23
q24 -10 46.5 -27t47 -44.5t39.5 -71.5t15 -97zM424 254q-2 63 -37.5 108t-97.5 45q-38 0 -68 -19q-61 -40 -61 -133q0 -39 10 -68q6 -17 17.5 -35t41 -37.5t66.5 -19.5q64 0 97.5 47t31.5 112z" />
    <glyph glyph-name="otilde" unicode="&#xf5;" horiz-adv-x="583" 
d="M476 706q-8 -42 -11 -51t-8 -18.5t-15 -23t-27.5 -22t-39.5 -8.5q-29 0 -84 22q-43 17 -60 17q-8 0 -16 -4q-16 -9 -20 -34h-78q0 19 8 46q4 14 12 29t31.5 33t53.5 18q14 0 81 -20q37 -17 59 -17t31 17q2 4 3 8t3 8h77zM549 252q0 -63 -20 -112q-9 -23 -25 -46.5
t-43 -49.5t-70.5 -42.5t-95.5 -16.5q-62 0 -113 23q-23 10 -45.5 27.5t-47 46t-39.5 73t-15 97.5q0 55 22 112q10 23 25.5 45.5t42.5 48t70.5 41.5t95.5 16q59 0 110 -23q24 -10 46.5 -27t47 -44.5t39.5 -71.5t15 -97zM424 254q-2 63 -37.5 108t-97.5 45q-38 0 -68 -19
q-61 -40 -61 -133q0 -39 10 -68q6 -17 17.5 -35t41 -37.5t66.5 -19.5q64 0 97.5 47t31.5 112z" />
    <glyph glyph-name="odieresis" unicode="&#xf6;" horiz-adv-x="583" 
d="M451 587h-114v119h114v-119zM250 587h-113v119h113v-119zM549 252q0 -63 -20 -112q-9 -23 -25 -46.5t-43 -49.5t-70.5 -42.5t-95.5 -16.5q-62 0 -113 23q-23 10 -45.5 27.5t-47 46t-39.5 73t-15 97.5q0 55 22 112q10 23 25.5 45.5t42.5 48t70.5 41.5t95.5 16
q59 0 110 -23q24 -10 46.5 -27t47 -44.5t39.5 -71.5t15 -97zM424 254q-2 63 -37.5 108t-97.5 45q-38 0 -68 -19q-61 -40 -61 -133q0 -39 10 -68q6 -17 17.5 -35t41 -37.5t66.5 -19.5q64 0 97.5 47t31.5 112z" />
    <glyph glyph-name="divide" unicode="&#xf7;" horiz-adv-x="724" 
d="M423 429h-122v135h122v-135zM645 257h-566v112h566v-112zM422 62h-121v134h121v-134z" />
    <glyph glyph-name="oslash" unicode="&#xf8;" horiz-adv-x="583" 
d="M565 432l-56 -45q38 -68 38 -139q0 -105 -64 -180q-70 -83 -201 -83q-57 0 -96.5 17.5t-79.5 59.5l-53 -42l-44 59l56 45q-35 60 -35 129q0 51 17 98q9 25 25 49.5t44 52t73.5 45t101.5 17.5q101 0 177 -68l51 41zM380 376q-8 10 -16 16q-33 27 -77 25q-59 0 -100 -45
q-39 -44 -39 -116q0 -27 8 -60zM429 244q0 37 -12 69l-225 -180q40 -49 100 -49q57 0 97 43q40 42 40 117z" />
    <glyph glyph-name="ugrave" unicode="&#xf9;" horiz-adv-x="583" 
d="M348 573h-90l-110 133h148zM517 0h-120l-1 51q-68 -63 -161 -63q-100 0 -144 66q-5 8 -9.5 15.5t-7.5 17.5t-5 16.5t-3.5 18.5t-2 17t-1 19t-0.5 17.5v19v17.5v288h121v-270q0 -31 1 -45t10.5 -36t28.5 -33q24 -15 58 -15q66 0 97 56q19 36 19 131v212h120v-500z" />
    <glyph glyph-name="uacute" unicode="&#xfa;" horiz-adv-x="583" 
d="M438 706l-108 -133h-90l50 133h148zM517 0h-120l-1 51q-68 -63 -161 -63q-100 0 -144 66q-5 8 -9.5 15.5t-7.5 17.5t-5 16.5t-3.5 18.5t-2 17t-1 19t-0.5 17.5v19v17.5v288h121v-270q0 -31 1 -45t10.5 -36t28.5 -33q24 -15 58 -15q66 0 97 56q19 36 19 131v212h120v-500z
" />
    <glyph glyph-name="ucircumflex" unicode="&#xfb;" horiz-adv-x="583" 
d="M462 572h-122l-48 67l-49 -67h-121l111 134h118zM517 0h-120l-1 51q-68 -63 -161 -63q-100 0 -144 66q-5 8 -9.5 15.5t-7.5 17.5t-5 16.5t-3.5 18.5t-2 17t-1 19t-0.5 17.5v19v17.5v288h121v-270q0 -31 1 -45t10.5 -36t28.5 -33q24 -15 58 -15q66 0 97 56q19 36 19 131
v212h120v-500z" />
    <glyph glyph-name="udieresis" unicode="&#xfc;" horiz-adv-x="583" 
d="M448 587h-114v119h114v-119zM246 587h-112v119h112v-119zM517 0h-120l-1 51q-68 -63 -161 -63q-100 0 -144 66q-5 8 -9.5 15.5t-7.5 17.5t-5 16.5t-3.5 18.5t-2 17t-1 19t-0.5 17.5v19v17.5v288h121v-270q0 -31 1 -45t10.5 -36t28.5 -33q24 -15 58 -15q66 0 97 56
q19 36 19 131v212h120v-500z" />
    <glyph glyph-name="yacute" unicode="&#xfd;" horiz-adv-x="479" 
d="M386 706l-108 -133h-90l50 133h148zM470 500l-127 -436q-1 -2 -8 -28t-10 -34.5t-10.5 -31.5t-13 -35t-14 -29t-17 -28.5t-18.5 -19.5q-37 -30 -102 -30q-38 0 -71 7v104q65 -8 93 15q15 14 21 36l-181 510h129l112 -373l94 373h123z" />
    <glyph glyph-name="thorn" unicode="&#xfe;" horiz-adv-x="583" 
d="M548 246q0 -103 -60 -182t-167 -79q-75 0 -137 56v-204h-120v869h120v-251q62 62 141 60q73 -1 125.5 -44t75 -102t22.5 -123zM425 249q1 74 -35.5 111.5t-84.5 39.5q-47 1 -84.5 -35.5t-38.5 -111.5q-1 -37 13 -76q30 -78 109 -78q49 0 84.5 37t36.5 113z" />
    <glyph glyph-name="ydieresis" unicode="&#xff;" horiz-adv-x="479" 
d="M398 587h-114v119h114v-119zM196 587h-112v119h112v-119zM470 500l-127 -436q-1 -2 -8 -28t-10 -34.5t-10.5 -31.5t-13 -35t-14 -29t-17 -28.5t-18.5 -19.5q-37 -30 -102 -30q-38 0 -71 7v104q65 -8 93 15q15 14 21 36l-181 510h129l112 -373l94 373h123z" />
    <glyph glyph-name="OE" unicode="&#x152;" horiz-adv-x="1104" 
d="M1077 0h-526l-1 25q-78 -43 -171 -43q-116 0 -202 69q-130 104 -130 288q0 36 7 78q29 182 174 263q77 44 163 44q82 0 160 -48v30h504v-120h-373v-169h325v-114h-325v-184h395v-119zM551 188v267v19.5v16t-0.5 11.5t-2 11.5t-4.5 10.5q-20 37 -61.5 56t-87.5 19
q-52 0 -95 -25q-112 -63 -112 -233q0 -94 42 -155q63 -88 171 -87q72 0 119 40q25 21 31 49z" />
    <glyph glyph-name="oe" unicode="&#x153;" horiz-adv-x="917" 
d="M885 221h-359q5 -32 11 -47q15 -38 47 -60t73 -22q73 0 120 68l97 -59q-20 -29 -52 -55q-41 -33 -80.5 -47t-92.5 -14q-88 0 -145 47q-23 20 -40 43q-19 -26 -43 -45q-59 -45 -142 -45q-102 0 -169 62q-76 72 -76 198q0 130 82 206q67 64 167 64q103 0 177 -74
q82 74 176 74q50 0 97 -18q101 -43 136 -159q12 -41 16 -117zM746 306q-6 26 -13 42q-31 63 -98 63q-65 0 -95 -58q-9 -16 -14 -47h220zM411 246q0 37 -12 69q-15 41 -45.5 64.5t-72.5 23.5q-61 0 -93.5 -45.5t-32.5 -108.5q0 -27 5 -48q3 -14 9.5 -29t19.5 -34.5
t37.5 -31.5t56.5 -12q63 0 98 49q30 40 30 103z" />
    <glyph glyph-name="Scaron" unicode="&#x160;" horiz-adv-x="667" 
d="M494 895l-100 -124h-118l-104 124h120l42 -57l43 57h117zM632 213q1 -44 -13.5 -80.5t-35.5 -59t-49 -40t-48.5 -25.5t-41.5 -13q-55 -13 -113 -13q-159 0 -258 90q-35 31 -50 61l111 77q20 -27 22 -29q69 -77 195 -77q65 0 101.5 24.5t36.5 67.5q0 33 -25 54
q-8 8 -25 15t-28.5 10t-34.5 8l-23 5l-84 19q-1 0 -18 3.5t-29 6.5t-33 11t-36.5 17t-34 24t-30 33.5t-19.5 44.5t-8 57q0 56 24 98q32 57 97.5 89.5t158.5 32.5q160 0 260 -113q5 -6 13 -16t11 -14l-109 -81q-22 31 -27 37q-60 68 -153 68q-60 1 -98 -23.5t-38 -62.5
q0 -16 7.5 -28.5t16 -20t29.5 -15t33.5 -10.5t43.5 -10l73 -16q1 0 16 -3.5t33 -8.5t32 -10q145 -52 148 -184z" />
    <glyph glyph-name="scaron" unicode="&#x161;" horiz-adv-x="521" 
d="M431 706l-112 -134h-114l-113 134h121l49 -64l49 64h120zM487 154q-1 -68 -61.5 -119t-167.5 -50q-148 2 -236 90l89 73q53 -64 144 -64q42 -1 71.5 17t27.5 44q-1 19 -23 32q-7 4 -39.5 11.5t-68 14t-39.5 7.5q-140 35 -140 143q1 64 56.5 112.5t153.5 49.5
q136 2 220 -93l-85 -79q-38 76 -136 76q-36 0 -59 -13.5t-24 -36.5q-1 -25 20.5 -36t66.5 -20q5 -1 38 -6.5t52.5 -9.5t46 -13.5t41.5 -20.5q52 -40 52 -109z" />
    <glyph glyph-name="Ydieresis" unicode="&#x178;" horiz-adv-x="625" 
d="M471 772h-114v123h114v-123zM269 772h-112v123h112v-123zM615 706l-238 -427v-279h-131v279l-236 427h150l153 -292l154 292h148z" />
    <glyph glyph-name="florin" unicode="&#x192;" horiz-adv-x="437" 
d="M418 680l-12 -101q-28 2 -39 2q-24 0 -38.5 -4.5t-21.5 -18.5t-9 -24t-5 -35l-3 -25h104l-10 -85h-104l-45 -390q-8 -75 -21.5 -110t-51.5 -54q-27 -15 -69 -15q-52 0 -78 11l12 106q20 -5 35 -5q16 0 21 4q14 9 19 28.5t10 58.5l43 366h-77l10 85h77l3 20q1 9 4.5 31.5
t4.5 30t4.5 24t6 23.5t7.5 18t11 18t14 14q38 33 116 33q34 0 74 -5z" />
    <glyph glyph-name="circumflex" unicode="&#x2c6;" horiz-adv-x="271" 
d="M306 572h-123l-47 67l-50 -67h-121l111 134h118z" />
    <glyph glyph-name="tilde" unicode="&#x2dc;" horiz-adv-x="271" 
d="M316 706q-2 -6 -5 -24t-6 -27q-27 -72 -91 -72q-29 0 -84 22q-44 17 -60 17q-10 0 -16 -4q-16 -7 -20 -34h-78q0 19 8 46q30 80 96 80q14 0 81 -20q37 -17 59 -17q23 0 31 17q2 4 3 8t3 8h79z" />
    <glyph glyph-name="endash" unicode="&#x2013;" horiz-adv-x="610" 
d="M569 247h-528v113h528v-113z" />
    <glyph glyph-name="emdash" unicode="&#x2014;" horiz-adv-x="893" 
d="M852 247h-811v113h811v-113z" />
    <glyph glyph-name="quoteleft" unicode="&#x2018;" horiz-adv-x="208" 
d="M169 433h-133v150q0 30 4 42q11 36 46 58t75 26v-59q-54 -6 -54 -80h62v-137z" />
    <glyph glyph-name="quoteright" unicode="&#x2019;" horiz-adv-x="208" 
d="M170 557q0 -55 -34 -87.5t-90 -40.5v56q29 13 41 26t12 42q0 11 -1 16h-59v137h131v-149z" />
    <glyph glyph-name="quotesinglbase" unicode="&#x201a;" horiz-adv-x="208" 
d="M170 -14q0 -52 -27 -80t-81 -41q-10 -2 -17 -4v58q54 6 54 81h-62v137h133v-147v-4z" />
    <glyph glyph-name="quotedblleft" unicode="&#x201c;" horiz-adv-x="375" 
d="M338 436h-130v152q0 33 9 54.5t33 40.5q33 25 81 28v-53q-37 -14 -46 -28.5t-9 -55.5h62v-138zM167 436h-130v145q0 60 29.5 91t91.5 43v-56q-36 -15 -43.5 -29t-7.5 -56h60v-138z" />
    <glyph glyph-name="quotedblright" unicode="&#x201d;" horiz-adv-x="375" 
d="M338 563q0 -62 -29.5 -93.5t-92.5 -43.5v56q25 8 36.5 19.5t13.5 24.5t2 41h-60v139h130v-143zM167 551q0 -60 -42 -92q-38 -29 -81 -28v53q55 14 55 69q0 3 -0.5 7t-0.5 7h-61v139h130v-155z" />
    <glyph glyph-name="quotedblbase" unicode="&#x201e;" horiz-adv-x="375" 
d="M338 -5q0 -61 -29.5 -93.5t-92.5 -43.5v56q28 9 40 23t12 42v21h-60v139h130v-144zM167 -7q0 -40 -6 -55q-13 -33 -46.5 -54t-70.5 -21v53q55 14 55 70q0 2 -0.5 7t-0.5 7h-61v139h130v-146z" />
    <glyph glyph-name="dagger" unicode="&#x2020;" horiz-adv-x="542" 
d="M503 366h-168v-410h-126v410h-169v112h169v228h126v-228h168v-112z" />
    <glyph glyph-name="daggerdbl" unicode="&#x2021;" horiz-adv-x="500" 
d="M472 427h-162v-197h159v-102h-161v-175h-118v176h-161v101h163v198h-163v102h163v176h119v-176h161v-103z" />
    <glyph glyph-name="bullet" unicode="&#x2022;" horiz-adv-x="333" 
d="M286 233h-239v238h239v-238z" />
    <glyph glyph-name="ellipsis" unicode="&#x2026;" horiz-adv-x="1000" 
d="M890 0h-113v111h113v-111zM556 0h-112v111h112v-111zM222 0h-112v111h112v-111z" />
    <glyph glyph-name="perthousand" unicode="&#x2030;" horiz-adv-x="1250" 
d="M1225 219q0 -30 -2 -48q-8 -93 -51.5 -134.5t-104.5 -43.5q-55 -2 -95 27q-73 51 -73 192q0 119 43.5 178t122.5 59q75 0 117.5 -54.5t42.5 -165.5v-10zM850 223q0 -81 -17 -126q-39 -103 -144 -104q-41 0 -72 14.5t-47 37t-27.5 50t-13.5 52t-4 42.5t0 23v1q0 67 7 97
q5 20 13 39t25 43.5t47 40t70 16.5q61 0 99 -34q28 -25 43 -63.5t17.5 -64.5t3.5 -64zM621 646l-314 -683l-69 31l315 684zM351 458q0 -81 -15 -123q-37 -109 -147 -110q-34 0 -61.5 11t-43.5 27t-28 37.5t-16.5 36.5t-7.5 31q-6 28 -6 84q0 154 81 206q33 22 80 23
q77 1 120 -54.5t44 -168.5zM1136 218q0 72 -15 113t-56 42q-74 2 -74 -149q0 -34 1 -51q6 -105 74 -102q71 3 70 141v6zM760 220q0 47 -4 72q0 3 -1 10t-5.5 19.5t-11 23.5t-20 19t-30.5 8q-31 0 -52 -29q-21 -30 -21 -127q0 -146 72 -146q74 7 73 150zM261 457q0 49 -5 75
q-14 75 -69 73q-71 -1 -71 -154q0 -150 74 -148q72 1 71 148v6z" />
    <glyph glyph-name="guilsinglleft" unicode="&#x2039;" horiz-adv-x="250" 
d="M198 132l-142 112v141l142 114v-114l-86 -71l86 -70v-112z" />
    <glyph glyph-name="guilsinglright" unicode="&#x203a;" horiz-adv-x="250" 
d="M192 242l-142 -113v113l86 72l-86 69v113l142 -113v-141z" />
    <glyph glyph-name="Euro" unicode="&#x20ac;" horiz-adv-x="698" 
d="M665 621l-46 -133q-36 47 -76.5 68.5t-97.5 21.5q-71 0 -120 -37t-68 -105h345l-27 -72h-328q-1 -6 -1 -19q0 -14 1 -21h316l-27 -72h-280q42 -151 193 -151q55 0 106.5 23.5t88.5 64.5v-149q-89 -61 -210 -61q-132 0 -214 71t-109 202h-78l27 72h43l2 40h-72l27 72h53
q29 123 114 191t211 68q70 0 123 -16.5t104 -57.5z" />
    <glyph glyph-name="trademark" unicode="&#x2122;" horiz-adv-x="687" 
d="M628 374h-66l1 263l-68 -263h-58l-70 267l4 -267h-68l1 332h106l57 -233l55 233h105zM262 648h-88v-274h-72v274h-94v58h254v-58z" />
    </font>
</defs>
</svg>
