<?xml version="1.0" standalone="no"?>
<!DOCTYPE svg PUBLIC "-//W3C//DTD SVG 1.1//EN" "http://www.w3.org/Graphics/SVG/1.1/DTD/svg11.dtd" >
<svg xmlns="http://www.w3.org/2000/svg" xmlns:xlink="http://www.w3.org/1999/xlink" version="1.1">
<metadata>
Created by FontForge 20170731 at Thu May 17 20:00:02 2007
 By Aleksey,,,
Copyright  1997, 2001, Berthold LLC. All rights reserved. Akzidenz-Grotesk is a trademark of Berthold Types Limited.
</metadata>
<defs>
<font id="AkzidenzGroteskBQ-MedItalic" horiz-adv-x="562" >
  <font-face 
    font-family="Akzidenz-Grotesk BQ"
    font-weight="500"
    font-style="italic"
    font-stretch="normal"
    units-per-em="1000"
    panose-1="0 0 0 0 0 0 0 0 0 0"
    ascent="800"
    descent="-200"
    x-height="497"
    cap-height="706"
    bbox="-97 -225.062 1236 923"
    underline-thickness="92"
    underline-position="-452"
    slope="-13"
    unicode-range="U+0020-2122"
  />
<missing-glyph horiz-adv-x="500" 
 />
    <glyph glyph-name=".notdef" horiz-adv-x="500" 
 />
    <glyph glyph-name=".null" horiz-adv-x="0" 
 />
    <glyph glyph-name="nonmarkingreturn" horiz-adv-x="333" 
 />
    <glyph glyph-name="space" unicode=" " horiz-adv-x="288" 
 />
    <glyph glyph-name="exclam" unicode="!" horiz-adv-x="292" 
d="M348 706l-69 -297l-85 -212h-62l18 207l70 302h128zM215 135l-31 -135h-132l31 135h132z" />
    <glyph glyph-name="quotedbl" unicode="&#x22;" horiz-adv-x="332" 
d="M430 744l-99 -300h-35l38 300h96zM265 744l-100 -300h-34l38 300h96z" />
    <glyph glyph-name="numbersign" unicode="#" horiz-adv-x="667" 
d="M688 508l-18 -100h-131l-30 -94h123l-18 -100h-135l-69 -214h-100l68 214h-99l-67 -214h-102l67 214h-122l18 100h135l29 94h-126l18 100h139l62 198h104l-63 -198h98l62 198h101l-62 -198h118zM438 408h-99l-30 -94h100z" />
    <glyph glyph-name="dollar" unicode="$" horiz-adv-x="583" 
d="M618 535l-114 -40q-6 21 -15 36q-28 42 -79 52l-41 -183q30 -12 56 -24q23 -11 35 -18t39.5 -28.5t42 -53.5t14.5 -73q0 -27 -7 -55q-23 -79 -106 -125q-64 -36 -141 -36q-5 0 -15 0.5t-14 0.5l-21 -92h-65l23 99q-61 10 -115 56q-59 49 -72 129l117 35q15 -90 95 -112
l47 204q-25 9 -47 19q-123 57 -123 166q0 70 52 125q71 75 193 75h14l19 81h64l-20 -87q45 -9 75 -25q83 -43 109 -126zM346 587q-41 -1 -68 -20q-13 -8 -24 -23q-15 -19 -15 -41q0 -17 9 -34q7 -12 18.5 -21.5t17.5 -12.5t25 -11zM426 195q0 11 -6 29q-8 19 -25 32t-54 29
l-43 -189q29 0 46 4q9 2 20 7.5t26.5 16t25.5 29t10 42.5z" />
    <glyph glyph-name="percent" unicode="%" horiz-adv-x="875" 
d="M862 283q0 -42 -13 -98q-30 -135 -109 -177q-32 -17 -72 -17q-90 1 -126 71q-19 34 -19 91q0 69 22.5 140.5t65.5 113.5q44 43 109 43q26 0 49 -7.5t45 -24.5t35 -52t13 -83zM728 658l-465 -670l-50 35l465 669zM416 522q0 -46 -12 -98q-30 -137 -109 -178
q-30 -16 -72 -16q-96 0 -131 81q-14 35 -14 80q0 69 22.5 141t65.5 113q44 43 109 43q45 0 77 -20q64 -39 64 -146zM776 296q0 53 -29 71q-13 8 -29 8q-43 0 -70 -54q-16 -33 -27.5 -84t-11.5 -89q0 -81 58 -81q36 0 61 39q23 34 36 97q12 54 12 93zM331 535q0 52 -29 71
q-13 8 -29 8q-43 -1 -68 -51q-17 -32 -29 -83.5t-12 -90.5q0 -83 58 -83q13 0 24 4q21 10 38 35q21 33 35 97q12 55 12 93z" />
    <glyph glyph-name="ampersand" unicode="&#x26;" horiz-adv-x="667" 
d="M653 307q-20 -87 -80 -163q-14 -17 -26 -28q21 -17 54 -17q11 0 39 3l-25 -104q-21 -3 -43 -3q-77 0 -119 49q-97 -59 -204 -59q-49 0 -88 12q-61 19 -97 64.5t-36 108.5q0 49 28 93q12 19 28 34.5t38.5 29.5t37 21.5t44 21.5t39.5 19q-22 62 -22 109q0 69 43 112
q46 49 122 49q71 0 112 -43q37 -37 37 -92q0 -30 -13.5 -57.5t-39 -49t-47 -35.5t-52.5 -31q7 -12 18.5 -33t15.5 -29t12.5 -22.5t12.5 -21.5t10.5 -17t12.5 -17.5t13 -16.5q36 42 57 113h118zM431 529q0 13 -9 27.5t-32 14.5q-22 0 -40.5 -16t-18.5 -53q0 -22 15 -62
q20 9 46 27q39 30 39 62zM386 125q-41 55 -105 175q-61 -29 -89 -49q-42 -29 -42 -76q0 -21 11 -41q27 -48 96 -48q54 0 102 24q11 4 27 15z" />
    <glyph glyph-name="quotesingle" unicode="'" horiz-adv-x="166" 
d="M265 744l-100 -300h-34l38 300h96z" />
    <glyph glyph-name="parenleft" unicode="(" horiz-adv-x="326" 
d="M471 747q-67 -48 -109.5 -88t-76.5 -88q-112 -157 -112 -359q0 -138 53 -244q19 -38 48 -75l-57 -54q-39 44 -66 84q-90 136 -90 300q0 194 113 353q68 94 160 164q45 34 96 64z" />
    <glyph glyph-name="parenright" unicode=")" horiz-adv-x="326" 
d="M320 417q0 -195 -113 -353q-65 -92 -160 -164q-37 -29 -95 -64l-41 57q125 91 185 175q113 158 113 359q0 134 -53 245q-17 33 -48 75l56 54q40 -46 66 -85q90 -136 90 -299z" />
    <glyph glyph-name="asterisk" unicode="*" horiz-adv-x="378" 
d="M434 520l-102 -10l39 -91l-78 -36l-43 95l-76 -67l-56 67l73 64l-86 50l43 75l89 -50l24 100l84 -21l-24 -100l105 10z" />
    <glyph glyph-name="plus" unicode="+" horiz-adv-x="724" 
d="M669 367l-24 -106h-205l-49 -217h-130l49 217h-201l24 106h202l49 213h130l-50 -213h205z" />
    <glyph glyph-name="comma" unicode="," horiz-adv-x="250" 
d="M177 135l-32 -135q-18 -67 -23 -77q-35 -65 -110 -65q-16 0 -24 1l15 63q14 0 24 5.5t16 10.5t11.5 19t7 20t5.5 23h-54l31 135h133z" />
    <glyph glyph-name="hyphen" unicode="-" horiz-adv-x="372" 
d="M370 361l-26 -113h-289l26 113h289z" />
    <glyph glyph-name="period" unicode="." horiz-adv-x="250" 
d="M177 135l-32 -135h-132l31 135h133z" />
    <glyph glyph-name="slash" unicode="/" horiz-adv-x="417" 
d="M526 706l-439 -706h-128l441 706h126z" />
    <glyph glyph-name="zero" unicode="0" 
d="M573 437q0 -70 -18 -151q-49 -216 -175 -277q-42 -22 -103 -22q-35 0 -63 7q-96 24 -135 107q-25 52 -25 133q1 114 40.5 232.5t115.5 178.5q62 48 147 48q32 0 68 -9q148 -42 148 -247zM449 456q0 89 -50 118q-24 12 -45 12q-45 0 -80 -39q-42 -46 -68.5 -146.5
t-26.5 -174.5q0 -69 26.5 -99.5t68.5 -30.5q61 0 101 64q33 52 55 152q19 101 19 144z" />
    <glyph glyph-name="one" unicode="1" 
d="M473 680l-157 -680h-123l88 381q11 49 11 64q0 21 -12.5 25.5t-45.5 4.5h-7h-84l19 81q100 -2 161 61q28 29 40 63h110z" />
    <glyph glyph-name="two" unicode="2" 
d="M555 503q0 -61 -33 -117q-43 -73 -209 -203q-43 -35 -99 -74h282l-25 -109h-459l24 101q158 112 268 212q118 109 118 182q0 37 -24.5 61.5t-61.5 24.5q-54 0 -92 -49q-26 -34 -36 -98l-122 19q3 39 23 87q21 49 54.5 82.5t70.5 47t63.5 18.5t51.5 5q86 0 142 -47
q64 -53 64 -143z" />
    <glyph glyph-name="three" unicode="3" 
d="M555 522q0 -25 -7 -46q-27 -83 -118 -115q-21 -6 -39 -8q1 0 8.5 -2t15 -3.5t17.5 -5.5t18 -8q23 -13 41 -43.5t18 -76.5q0 -106 -84 -172q-70 -55 -175 -55q-166 0 -218 130q-19 45 -21 90l129 12q-3 -29 10 -59q10 -23 36 -44t69 -21q24 0 49 9q44 16 61 48.5t17 60.5
q0 44 -25 69q-32 29 -99 29q-7 0 -21 -2l24 104q79 -6 116 13q52 25 52 80q0 22 -11 41q-24 40 -82 40q-16 0 -29 -3q-46 -12 -69 -48q-14 -20 -19 -45l-121 27q18 51 38 79q34 48 90 72t119 24q126 0 182 -81q28 -40 28 -90z" />
    <glyph glyph-name="four" unicode="4" 
d="M561 680l-96 -416h89l-24 -103h-89l-37 -161h-122l37 161h-285l28 117l351 402h148zM414 545l-241 -281h170z" />
    <glyph glyph-name="five" unicode="5" 
d="M578 680l-25 -110h-269l-44 -139q57 33 116 33q85 0 134.5 -59t49.5 -145q0 -53 -20 -104q-33 -82 -100.5 -125.5t-157.5 -43.5q-138 0 -195 100q-21 36 -26 86l130 10q3 -22 16 -42q27 -42 85 -42q31 0 57 13q34 16 54.5 48.5t24.5 54t4 39.5q0 46 -29.5 78.5
t-74.5 31.5q-56 0 -94 -46q-10 -12 -19 -30h-109l119 392h373z" />
    <glyph glyph-name="six" unicode="6" 
d="M600 535l-135 -22q-6 25 -14 38q-21 34 -67 34q-32 0 -61 -18q-65 -43 -101 -168q3 2 8.5 6t8.5 6q50 34 120 34q39 0 70 -12q58 -22 89.5 -75t31.5 -118q0 -92 -63 -166q-74 -87 -196 -87q-49 0 -88 16q-133 53 -133 246q0 136 64 263q93 181 259 181q112 0 173 -84
q25 -34 34 -74zM424 233q0 34 -13 57q-27 53 -93 53q-53 -1 -87.5 -39t-33.5 -91q0 -62 41 -97q26 -23 65 -23q44 0 74.5 29.5t41.5 74.5q5 23 5 36z" />
    <glyph glyph-name="seven" unicode="7" 
d="M603 680l-28 -118q-39 -35 -81 -85q-90 -108 -154 -240t-86 -237h-154q17 70 56.5 155.5t64.5 127t44 70.5q30 46 84 115q51 65 91 102h-341l26 110h478z" />
    <glyph glyph-name="eight" unicode="8" 
d="M580 515q0 -78 -61 -129q-31 -27 -73 -38q19 -10 28 -17q23 -17 42.5 -51t18.5 -81q0 -95 -75 -157q-65 -55 -179 -55q-103 0 -170 51q-73 56 -73 152q0 108 89 163q25 16 63 25q-10 5 -24 19q-46 44 -46 109q0 29 12 59.5t37 60t72 48.5t109 19q52 0 95 -13
q53 -15 85 -47.5t41 -60.5t9 -57zM452 485q5 21 -2 44q-9 30 -37.5 45.5t-61.5 15.5q-23 0 -41 -7q-35 -12 -49 -37.5t-14 -47.5q0 -16 6 -33q20 -56 93 -56q28 0 44 7q52 20 62 69zM403 181q9 38 -11 71t-58 46q-21 7 -50 7q-25 0 -46 -8q-31 -11 -50.5 -37.5t-20.5 -59.5
q0 -25 13 -48q32 -53 106 -53q53 0 81.5 25.5t35.5 56.5z" />
    <glyph glyph-name="nine" unicode="9" 
d="M557 432q0 -47 -8 -91q-25 -152 -106 -251q-84 -103 -209 -103q-44 0 -83 14q-47 18 -80 57t-43 87l134 22q6 -25 14 -38q21 -34 67 -34q32 0 61 18q64 40 101 168q-3 -2 -8.5 -6t-8.5 -6q-50 -34 -120 -34q-45 0 -80 16q-54 24 -82.5 75.5t-28.5 113.5q0 90 62 163
q74 90 197 90q43 0 82 -13q139 -52 139 -248zM429 467q0 50 -28 85t-77 35q-24 0 -45 -9q-53 -24 -71 -95q-5 -23 -5 -36q0 -30 13 -56q26 -55 93 -55q24 0 46 10q35 15 54.5 48.5t19.5 72.5z" />
    <glyph glyph-name="colon" unicode=":" horiz-adv-x="292" 
d="M304 509l-31 -135h-132l31 135h132zM218 135l-31 -135h-133l32 135h132z" />
    <glyph glyph-name="semicolon" unicode=";" horiz-adv-x="292" 
d="M304 509l-31 -135h-132l31 135h132zM218 135l-31 -135q-16 -68 -30 -89q-16 -25 -45 -40q-25 -13 -56 -13q-8 0 -26 2l14 62q22 0 36 13.5t18.5 26t10.5 38.5h-55l32 135h132z" />
    <glyph glyph-name="less" unicode="&#x3c;" horiz-adv-x="724" 
d="M680 604l-32 -133l-383 -159l309 -166l-29 -122l-411 236l30 123z" />
    <glyph glyph-name="equal" unicode="=" horiz-adv-x="724" 
d="M682 457l-24 -106h-526l25 106h525zM635 254l-24 -105h-526l25 105h525z" />
    <glyph glyph-name="greater" unicode="&#x3e;" horiz-adv-x="724" 
d="M653 361l-30 -123l-516 -221l32 133l383 159l-309 166l29 122z" />
    <glyph glyph-name="question" unicode="?" horiz-adv-x="542" 
d="M612 532q0 -56 -37 -103q-17 -21 -68 -59l-48 -36q-8 -6 -20.5 -15.5t-18.5 -14t-13.5 -10.5t-12 -11t-8.5 -11q-13 -18 -28 -75h-111l12 53q11 45 17 59q10 22 26.5 39t55.5 48l45 35q2 1 11.5 8.5t14.5 11.5q23 19 34 35.5t11 40.5q0 23 -12 40q-27 40 -89 40
q-53 -1 -84.5 -28.5t-42.5 -56.5q-7 -18 -11 -53l-120 28q6 26 14 49.5t28.5 56t47 56t72.5 40t103 16.5q62 0 109 -18t72.5 -46.5t38 -58.5t12.5 -60zM355 135l-31 -135h-132l31 135h132z" />
    <glyph glyph-name="at" unicode="@" horiz-adv-x="883" 
d="M841 433q0 -141 -76.5 -253t-172.5 -112q-37 0 -62 23q-16 16 -21 53l-2 -2l-2 -2q-59 -72 -133 -72q-59 0 -94 42.5t-35 114.5q0 116 68.5 205t157.5 89q71 0 106 -72l14 51h79l-38 -155q-34 -140 -34 -171q0 -33 23 -33q38 0 86 74q65 101 65 220q0 97 -61.5 154
t-165.5 57q-157 0 -278 -127t-121 -293q0 -128 83.5 -205t222.5 -77q123 0 242 74q33 20 56 38q21 18 37 34l38 -51q-61 -54 -99.5 -79.5t-90.5 -46.5q-90 -36 -182 -36q-168 0 -271.5 94.5t-103.5 247.5q0 134 64 247.5t174.5 180t240.5 66.5q131 0 208.5 -75t77.5 -203z
M543 348v5q0 41 -19.5 65t-53.5 24q-52 0 -94 -65t-42 -145q0 -40 19 -63.5t51 -23.5q45 0 87 53q21 28 36.5 71t15.5 79z" />
    <glyph glyph-name="A" unicode="A" horiz-adv-x="646" 
d="M602 0h-133l-14 147h-258l-78 -147h-145l405 706h147zM446 258l-23 314l-165 -314h188z" />
    <glyph glyph-name="B" unicode="B" horiz-adv-x="667" 
d="M665 549q0 -22 -6 -45.5t-21 -52.5t-47 -51.5t-78 -31.5q25 -3 49 -16q37 -20 57 -58t20 -82q0 -35 -14 -72q-35 -89 -130 -121q-58 -19 -186 -19h-286l163 706h225q45 0 62.5 -1t53.5 -6t60 -19t44 -37q34 -40 34 -94zM533 525q0 31 -18 49q-14 15 -39 19t-76 4h-105
l-40 -172h101q90 0 121 15q56 28 56 85zM505 220q0 34 -19 59q-15 20 -42 30t-41.5 10.5t-51.5 0.5h-120l-47 -204h129q94 0 129 14q35 15 49 41.5t14 48.5z" />
    <glyph glyph-name="C" unicode="C" horiz-adv-x="698" 
d="M718 483l-129 -22q0 46 -14 79q-9 18 -23 31q-37 37 -104 37q-71 0 -124 -41q-51 -41 -81 -118.5t-30 -149.5q0 -82 34 -131q14 -21 36 -36q41 -28 92 -28q75 0 129 49q39 37 65 98l116 -48q-37 -104 -120 -161t-196 -57q-85 0 -154 35q-139 71 -139 262q0 23 3 51
t11 72.5t29 93t51 88.5q102 134 278 134q103 0 163 -40t85 -96q18 -41 22 -102z" />
    <glyph glyph-name="D" unicode="D" horiz-adv-x="729" 
d="M726 411q0 -63 -15 -121q-25 -92 -85.5 -164.5t-146.5 -102.5q-10 -4 -21 -7t-19 -5t-20 -4t-17.5 -3t-19 -2t-17.5 -1.5t-20 -0.5h-18h-20.5h-20.5h-263l163 706h135q108 0 158 -4t91 -19q156 -59 156 -272zM591 409q0 26 -3 45q-16 86 -80 115q-30 13 -68 17t-114 4
h-33l-110 -474h28q106 0 142 3q127 10 189 110q49 78 49 180z" />
    <glyph glyph-name="E" unicode="E" horiz-adv-x="625" 
d="M666 706l-26 -115h-350l-39 -167h333l-26 -113h-333l-45 -197h402l-26 -114h-533l163 706h480z" />
    <glyph glyph-name="F" unicode="F" horiz-adv-x="576" 
d="M666 706l-27 -116h-347l-44 -188h325l-26 -112h-325l-67 -290h-132l163 706h480z" />
    <glyph glyph-name="G" unicode="G" horiz-adv-x="750" 
d="M754 512l-131 -29q-9 44 -24 68q-37 58 -124 58q-97 0 -167 -80q-42 -47 -67.5 -115t-25.5 -131q0 -40 12 -76q14 -41 52.5 -75.5t108.5 -34.5q41 0 74 12q91 31 117 150h-188l26 113h311l-86 -372h-117l16 48q-77 -63 -186 -63q-63 0 -110 19q-56 21 -93.5 59t-52 82
t-19.5 73t-5 56q0 44 8 84q32 168 146 270q105 93 246 93q52 0 102 -14q27 -8 49 -19t48.5 -32t47 -57.5t32.5 -86.5z" />
    <glyph glyph-name="H" unicode="H" horiz-adv-x="708" 
d="M759 706l-163 -706h-133l73 316h-307l-73 -316h-133l163 706h133l-64 -277h307l64 277h133z" />
    <glyph glyph-name="I" unicode="I" horiz-adv-x="271" 
d="M320 706l-163 -706h-133l163 706h133z" />
    <glyph glyph-name="J" unicode="J" horiz-adv-x="396" 
d="M446 706l-109 -473q-1 -5 -11 -45q-22 -91 -55 -133q-26 -34 -67.5 -50t-117.5 -16q-56 0 -110 11l28 119q36 -11 81 -11q65 0 90 40q16 25 41 135l98 423h132z" />
    <glyph glyph-name="K" unicode="K" horiz-adv-x="646" 
d="M744 706l-307 -282l190 -424h-148l-141 338l-134 -120l-50 -218h-131l163 706h131l-75 -324l330 324h172z" />
    <glyph glyph-name="L" unicode="L" horiz-adv-x="521" 
d="M487 117l-27 -117h-437l163 706h133l-136 -589h304z" />
    <glyph glyph-name="M" unicode="M" horiz-adv-x="854" 
d="M904 706l-163 -706h-128l140 585l-316 -585h-114l-43 585l-128 -585h-129l163 706h193l35 -534l296 534h194z" />
    <glyph glyph-name="N" unicode="N" horiz-adv-x="708" 
d="M759 706l-163 -706h-117l-217 518l-110 -518h-129l163 706h120l215 -521l111 521h127z" />
    <glyph glyph-name="O" unicode="O" horiz-adv-x="750" 
d="M748 417q0 -53 -13 -112q-17 -70 -52 -135q-104 -185 -317 -185q-79 0 -139 28q-52 24 -87 68.5t-50 96t-15 109.5q0 53 12 108q30 148 127 237q99 89 242 89q84 0 143 -30q35 -18 65.5 -47.5t57 -90t26.5 -136.5zM616 424q0 92 -51 141q-42 41 -113 41q-111 0 -173 -90
q-31 -45 -50 -108t-19 -117q0 -114 72 -161q38 -26 95 -26q61 0 109 30q84 53 118 196q12 60 12 94z" />
    <glyph glyph-name="P" unicode="P" horiz-adv-x="604" 
d="M655 510q0 -26 -5 -54.5t-28 -74t-62 -76.5q-32 -26 -72 -38.5t-68 -14.5t-82 -2h-124l-58 -250h-133l163 706h193q115 0 153 -12q44 -14 78 -51q46 -51 45 -133zM520 502q0 51 -41 76q-17 10 -38.5 12.5t-70.5 2.5h-77l-53 -230h76q49 0 74 2q62 3 97 45q33 40 33 92z
" />
    <glyph glyph-name="Q" unicode="Q" horiz-adv-x="771" 
d="M811 70l-69 -114q-53 34 -88 67q-31 29 -47 49q-41 -32 -48 -36q-85 -51 -195 -51q-103 0 -175 48q-60 40 -88.5 109t-28.5 148q0 36 5.5 78t33 113t73.5 124q104 116 273 116q114 0 184 -55q42 -33 75.5 -93.5t33.5 -149.5q0 -45 -11.5 -103t-28.5 -99q-9 -22 -27 -51
q55 -58 128 -100zM617 427q0 75 -38 125q-45 56 -126 56q-106 0 -168 -80q-35 -45 -56.5 -111.5t-21.5 -126.5q0 -74 33 -122q13 -19 38 -38q38 -27 95 -27q63 0 114 33q87 55 119 198q11 44 11 93z" />
    <glyph glyph-name="R" unicode="R" horiz-adv-x="646" 
d="M674 519q0 -122 -92 -189q-40 -28 -87 -36l93 -294h-138l-83 278h-148l-64 -278h-132l163 706h211q116 0 157 -13q58 -18 89 -64.5t31 -109.5zM537 506q0 49 -38 74q-26 17 -107 17h-99l-50 -215h122q38 0 57 1.5t47 13t45 35.5q23 32 23 74z" />
    <glyph glyph-name="S" unicode="S" horiz-adv-x="625" 
d="M644 571l-114 -58q-5 15 -12 26q-41 66 -137 66q-56 0 -87.5 -24t-31.5 -55q0 -16 7 -31q9 -18 27 -28.5t61 -25.5q37 -14 65 -23q178 -62 178 -196q0 -95 -75 -160q-84 -74 -212 -74q-111 0 -186 53q-74 53 -95 146l125 47q2 -9 7 -27q18 -51 62 -76t101 -25q32 0 56 8
q41 13 58 40t17 53q0 21 -9.5 37t-31 28t-32.5 16.5t-39 14.5q-101 34 -136 56q-50 31 -72 75q-17 35 -17 74q0 74 55 131q77 79 212 79q106 0 179 -51q30 -21 48 -45q14 -17 29 -51z" />
    <glyph glyph-name="T" unicode="T" horiz-adv-x="542" 
d="M646 706l-27 -115h-183l-136 -591h-134l136 591h-202l27 115h519z" />
    <glyph glyph-name="U" unicode="U" horiz-adv-x="688" 
d="M741 706l-101 -438q-29 -119 -56 -161q-53 -81 -161 -110q-44 -12 -100 -12q-143 0 -210 79q-45 50 -44 121q0 41 19 122l93 399h132l-91 -398q-19 -86 -19 -105q0 -44 27 -68q35 -33 103 -33q47 0 85 19q23 11 38.5 27t25.5 39.5t14.5 38.5t11.5 47l100 433h133z" />
    <glyph glyph-name="V" unicode="V" horiz-adv-x="583" 
d="M702 706l-374 -706h-161l-48 706h131l24 -568l285 568h143z" />
    <glyph glyph-name="W" unicode="W" horiz-adv-x="833" 
d="M951 706l-321 -706h-153l15 494l-212 -494h-154v706h129l-18 -550l235 550h131l-19 -550l234 550h133z" />
    <glyph glyph-name="X" unicode="X" horiz-adv-x="646" 
d="M727 706l-292 -329l163 -377h-148l-105 270l-228 -270h-159l337 382l-135 324h143l82 -216l179 216h163z" />
    <glyph glyph-name="Y" unicode="Y" horiz-adv-x="604" 
d="M726 706l-327 -425l-65 -281h-134l65 281l-147 425h137l96 -312l222 312h153z" />
    <glyph glyph-name="Z" unicode="Z" horiz-adv-x="583" 
d="M676 706l-25 -106l-483 -485h397l-26 -115h-567l27 117l475 476h-359l26 113h535z" />
    <glyph glyph-name="bracketleft" unicode="[" horiz-adv-x="285" 
d="M409 779l-17 -73h-97l-179 -778h97l-17 -72h-205l213 923h205z" />
    <glyph glyph-name="backslash" unicode="\" horiz-adv-x="437" 
d="M386 0h-115l-149 706h115z" />
    <glyph glyph-name="bracketright" unicode="]" horiz-adv-x="285" 
d="M350 779l-213 -923h-205l17 73h97l179 778h-97l17 72h205z" />
    <glyph glyph-name="asciicircum" unicode="^" horiz-adv-x="724" 
d="M648 284h-127l-69 306l-204 -306h-141l300 422h126z" />
    <glyph glyph-name="underscore" unicode="_" horiz-adv-x="500" 
d="M444 -130l-21 -92h-520l22 92h519z" />
    <glyph glyph-name="grave" unicode="`" horiz-adv-x="271" 
d="M229 570h-99l-88 136h149z" />
    <glyph glyph-name="a" unicode="a" 
d="M530 371q0 -32 -19 -114l-22 -97q-19 -83 -19 -112q0 -24 6 -48h-129q-2 30 0 50q-68 -60 -152 -60q-89 0 -128 44t-38 98q0 90 70 136q47 30 146 38l94 8q41 4 67 13q7 30 7 41q0 53 -92 53q-68 0 -88 -40q-5 -9 -9 -31h-127q2 43 37 85q59 71 195 71q52 0 88 -9
q113 -25 113 -126zM385 237l-116 -14q-5 -1 -14.5 -2t-14.5 -1q-20 -3 -31 -5t-25 -10.5t-22 -22.5q-9 -15 -9 -33q0 -14 7 -27q18 -37 69 -37q42 0 89 28q23 14 26 16q11 10 21 21z" />
    <glyph glyph-name="b" unicode="b" horiz-adv-x="583" 
d="M563 304q0 -46 -12 -93q-22 -89 -68 -139t-96 -70q-40 -15 -91 -15q-47 0 -80 15t-64 50l-12 -52h-121l163 706h121l-56 -242q3 3 13 11q48 36 114 36q89 0 139 -58.5t50 -148.5zM442 294q0 32 -8 53q-26 60 -93 60q-74 0 -112 -69q-39 -66 -39 -141q0 -32 13 -56
q27 -49 89 -49q38 0 66 18q26 17 45.5 49.5t25.5 52.5t8 34q5 28 5 48z" />
    <glyph glyph-name="c" unicode="c" horiz-adv-x="534" 
d="M519 359l-113 -38q-4 56 -36 77q-21 14 -52 14q-70 0 -110 -63.5t-40 -137.5q0 -71 40 -102q25 -19 60 -19q22 0 50 11q45 21 73 86l108 -45q-22 -54 -63 -91q-69 -64 -174 -64q-108 0 -166 65q-51 56 -51 149q0 107 57 193q19 28 47 54q72 63 168 63q63 0 116 -28
t76 -83q7 -18 10 -41z" />
    <glyph glyph-name="d" unicode="d" horiz-adv-x="583" 
d="M636 706l-163 -706h-120l12 52q-57 -65 -140 -65q-85 0 -134 58q-46 57 -46 145q0 30 5 57q25 153 124 221q63 43 135 43q81 0 126 -52q10 -11 18 -27l63 274h120zM414 305q0 30 -7 50q-20 55 -87 55q-30 0 -54.5 -13t-40 -32.5t-23 -33t-11.5 -24.5q-23 -55 -23 -107
q0 -46 23 -75q25 -32 71 -32q9 0 20.5 2.5t18.5 4.5l7 2q33 12 60.5 47t39.5 96q6 27 6 60z" />
    <glyph glyph-name="e" unicode="e" horiz-adv-x="542" 
d="M527 305q0 -37 -8 -72h-347q-3 -21 -3 -35q0 -21 5 -37q5 -17 14 -31.5t32.5 -29t57.5 -14.5q28 0 51 9t40 27t22.5 25.5t15.5 23.5l101 -62q-39 -60 -101.5 -91t-136.5 -31q-102 0 -163 58.5t-61 159.5q0 21 3 47.5t18 72t39 79.5q76 107 212 107q59 0 102 -20
q41 -19 74 -65t33 -121zM406 321q2 27 -5 46q-6 21 -26 38.5t-56 17.5q-63 0 -103 -56q-13 -19 -23 -46h213z" />
    <glyph glyph-name="f" unicode="f" horiz-adv-x="313" 
d="M426 703l-23 -100q-67 4 -89 -9q-13 -8 -19.5 -23t-15.5 -49l-6 -25h106l-19 -86h-106l-95 -411h-122l96 411h-80l20 86h79l5 21q9 39 21 79q15 50 40 72q42 40 128 40q43 0 80 -6z" />
    <glyph glyph-name="g" unicode="g" horiz-adv-x="583" 
d="M587 497l-87 -380q-10 -42 -16 -63q-23 -87 -49.5 -131t-69.5 -70q-61 -38 -155 -38q-92 0 -145 33q-26 16 -41 36q-28 37 -28 94q0 2 0.5 6.5t0.5 6.5h124q-1 -13 1 -25q6 -31 31.5 -45t58.5 -14q62 0 99 39q27 28 53 116q-8 -8 -18 -15q-47 -32 -113 -32q-44 0 -84 21
q-39 21 -68 66.5t-29 119.5q0 105 65 190q43 57 97.5 78t98.5 21q69 0 118 -38q11 -9 23 -23l11 47h122zM421 303q0 50 -22 78q-25 32 -72 32q-39 0 -70 -20q-37 -24 -59 -72.5t-22 -95.5q0 -70 48 -99q19 -11 48 -11q56 0 93 38.5t50 96.5q6 29 6 53z" />
    <glyph glyph-name="h" unicode="h" 
d="M530 374q0 -34 -19 -119l-59 -255h-122l55 238q17 72 17 100q0 65 -65 65q-58 0 -96 -47q-24 -31 -45 -119l-55 -237h-122l163 706h122l-59 -256q13 12 20 16q58 40 123 40q74 0 114 -47q28 -30 28 -85z" />
    <glyph glyph-name="i" unicode="i" horiz-adv-x="250" 
d="M303 706l-28 -121h-120l27 121h121zM255 497l-115 -497h-121l116 497h120z" />
    <glyph glyph-name="j" unicode="j" horiz-adv-x="250" 
d="M303 706l-28 -121h-120l28 121h120zM255 497l-115 -498q-17 -72 -28 -96q-26 -60 -87 -76q-25 -7 -48 -7q-36 0 -74 11l25 106q30 -5 39 -5q25 0 36.5 20t22.5 71l109 474h120z" />
    <glyph glyph-name="k" unicode="k" horiz-adv-x="542" 
d="M586 497l-216 -174l143 -323h-134l-103 248l-97 -78l-40 -170h-120l163 706h120l-91 -394l222 185h153z" />
    <glyph glyph-name="l" unicode="l" horiz-adv-x="250" 
d="M303 706l-163 -706h-121l163 706h121z" />
    <glyph glyph-name="m" unicode="m" horiz-adv-x="854" 
d="M824 377q0 -36 -19 -116l-60 -261h-121l58 250q16 67 16 90q0 25 -13.5 40.5t-26 18.5t-25.5 3q-58 0 -97 -55q-23 -32 -47 -134l-50 -213h-120l57 244q16 69 16 92q0 37 -19.5 51.5t-41.5 14.5q-33 0 -61 -20q-24 -15 -40 -41.5t-21.5 -45t-14.5 -56.5l-55 -239h-120
l116 497h119l-12 -53q6 8 19 19q52 43 119 43q65 0 101 -34q16 -15 28 -42q13 14 31 28q64 48 141 48q60 0 101.5 -35t41.5 -94z" />
    <glyph glyph-name="n" unicode="n" 
d="M530 368q0 -38 -15 -102l-61 -266h-122l57 247q14 58 14 87q0 21 -7 37q-14 32 -58 32q-35 0 -69 -24q-31 -23 -46.5 -57.5t-33.5 -111.5l-49 -210h-121l116 497h113l-13 -54q16 13 17 14q61 49 138 49q20 0 40 -4.5t45 -17.5t40 -43t15 -73z" />
    <glyph glyph-name="o" unicode="o" 
d="M544 303q0 -43 -10 -80q-23 -103 -87 -163q-77 -73 -191 -73q-87 0 -141 45q-35 30 -53.5 75.5t-18.5 93.5q0 68 29.5 136.5t80.5 111.5q30 25 84 46q48 16 95 16q44 0 86 -15q41 -15 69 -41.5t39 -57.5t14.5 -52t3.5 -42zM424 300q0 28 -7 48q-22 63 -94 63
q-65 0 -104 -48q-24 -29 -39.5 -73.5t-15.5 -84.5q0 -50 26.5 -82.5t75.5 -32.5q33 0 61 15q70 38 91 138q6 33 6 57z" />
    <glyph glyph-name="p" unicode="p" horiz-adv-x="583" 
d="M564 302q0 -30 -5 -64.5t-30.5 -92t-68.5 -96.5q-67 -62 -159 -62q-80 0 -123 42q-10 9 -24 31l-55 -240h-120l157 677h118l-13 -54q10 14 19 22q48 46 122 46q36 0 74 -16q37 -15 61 -43t33 -60.5t11.5 -51.5t2.5 -38zM442 299q0 30 -8 50q-22 62 -94 62q-91 0 -128 -98
q-22 -55 -22 -106q0 -59 33 -90q28 -25 72 -25q46 0 85 36.5t55 114.5q7 31 7 56z" />
    <glyph glyph-name="q" unicode="q" 
d="M587 497l-156 -677h-119l50 218q-59 -51 -138 -51q-81 0 -129 51q-50 52 -50 146q0 22 3 41q2 22 7.5 45t19 62t41.5 76t67 62q63 41 135 41q78 0 120 -47q6 -6 17 -24l13 57h119zM421 302q0 28 -8 47q-19 57 -87 57q-38 0 -66 -18q-45 -27 -69 -81t-24 -110q0 -25 5 -42
q19 -61 88 -61q63 0 102 47.5t54 115.5q5 30 5 45z" />
    <glyph glyph-name="r" unicode="r" horiz-adv-x="354" 
d="M412 503l-29 -124q-80 8 -129 -32q-28 -23 -41 -53t-23 -76l-50 -218h-121l116 497h120l-26 -85q73 92 164 92q3 0 9.5 -0.5t9.5 -0.5z" />
    <glyph glyph-name="s" unicode="s" horiz-adv-x="500" 
d="M502 401l-94 -56q-9 23 -25.5 39t-35.5 22.5t-31.5 9t-24.5 2.5q-30 0 -56.5 -12.5t-26.5 -39.5q0 -22 21.5 -34.5t69.5 -26.5q9 -2 14 -4q82 -25 116 -61q34 -35 34 -88q0 -49 -30 -89q-57 -76 -188 -76q-176 0 -236 129l103 63q6 -22 17 -37q37 -56 122 -56q34 0 54 10
q37 17 37 48q0 12 -7 24q-12 19 -64 35q-78 25 -101 36q-85 39 -85 114q0 59 44 101q57 57 159 57q42 0 84 -11q88 -24 130 -99z" />
    <glyph glyph-name="t" unicode="t" horiz-adv-x="313" 
d="M369 497l-20 -86h-92l-50 -215q-10 -41 -10 -58q0 -15 6 -23q11 -18 51 -18q10 0 32 2l-23 -99q-36 -6 -67 -6q-124 0 -124 100q0 29 17 107l49 210h-74l20 86h73l40 174h120l-40 -174h92z" />
    <glyph glyph-name="u" unicode="u" 
d="M567 497l-115 -497h-111l12 53q-65 -62 -147 -62q-65 0 -107.5 33.5t-42.5 96.5q0 35 19 119l60 257h120l-56 -243q-17 -71 -17 -98q0 -10 3 -19q4 -16 20.5 -29.5t45.5 -13.5q58 0 95 52q28 38 53 145l48 206h120z" />
    <glyph glyph-name="v" unicode="v" horiz-adv-x="458" 
d="M516 497l-273 -497h-141l-39 497h119l10 -389l200 389h124z" />
    <glyph glyph-name="w" unicode="w" horiz-adv-x="708" 
d="M770 497l-256 -497h-131v338l-163 -338h-127l-19 497h118l-5 -365l169 365h117v-365l170 365h127z" />
    <glyph glyph-name="x" unicode="x" horiz-adv-x="521" 
d="M552 497l-210 -241l125 -256h-133l-72 179l-140 -179h-149l234 265l-112 232h130l62 -156l119 156h146z" />
    <glyph glyph-name="y" unicode="y" horiz-adv-x="458" 
d="M516 497l-283 -513q-24 -45 -33 -58q-32 -54 -66 -80t-90 -26q-32 0 -90 9l25 107q20 -5 50 -5q21 0 28 3q29 10 46 50l-46 513h122l13 -387l197 387h127z" />
    <glyph glyph-name="z" unicode="z" horiz-adv-x="479" 
d="M517 497l-20 -86l-315 -309h272l-24 -102h-439l18 80l320 319h-246l22 98h412z" />
    <glyph glyph-name="braceleft" unicode="{" horiz-adv-x="300" 
d="M419 783l-16 -72l-17 1q-32 1 -51 -16q-8 -8 -16 -22q-8 -18 -20 -71l-36 -153q-16 -68 -40 -97t-73 -39q57 -20 57 -80q0 -26 -8 -63l-32 -138q-11 -46 -11 -65q0 -43 52 -43h13l-16 -72h-52q-52 0 -80 26.5t-28 75.5q0 23 13 79l33 141q8 38 8 51q0 26 -15.5 38.5
t-53.5 16.5l17 75q38 1 59 11q19 9 30 29t21 66l35 154q15 63 27 90q10 23 32 44q22 20 45 26.5t71 6.5h52z" />
    <glyph glyph-name="bar" unicode="|" horiz-adv-x="247" 
d="M312 778l-212 -923h-109l213 923h108z" />
    <glyph glyph-name="braceright" unicode="}" horiz-adv-x="300" 
d="M321 354l-18 -74q-38 -1 -59 -11q-19 -9 -30 -29t-21 -66l-35 -155q-14 -60 -27 -90q-10 -23 -31 -44q-22 -20 -45 -26.5t-72 -6.5h-52l16 72h17q35 0 51 15q10 10 16 22q8 19 20 71l36 154q16 67 40 96t73 39q-57 20 -57 81q0 25 8 62l32 138q12 52 12 65q0 44 -52 44
h-14l16 71h52q52 0 80 -26.5t28 -75.5q0 -28 -12 -78l-34 -142q-7 -31 -7 -50q0 -27 15.5 -39t53.5 -17z" />
    <glyph glyph-name="asciitilde" unicode="~" horiz-adv-x="724" 
d="M685 310q-46 -47 -81 -69q-50 -30 -94 -30q-40 0 -118 39l-34 17q-59 30 -100 30q-18 0 -33 -6q-31 -11 -77 -61l-11 -12l-44 102q34 41 61 62q49 38 108 38q21 0 41 -5q30 -9 71 -29l60 -29q52 -25 76 -25q35 0 68 23q27 17 63 56z" />
    <glyph glyph-name="exclamdown" unicode="&#xa1;" horiz-adv-x="292" 
d="M310 706l-31 -135h-133l31 135h133zM230 509l-18 -206l-70 -303h-128l69 297l84 212h63z" />
    <glyph glyph-name="cent" unicode="&#xa2;" horiz-adv-x="521" 
d="M525 363l-113 -37l-1 6q-11 71 -58 79l-73 -318q18 0 29 4q11 3 20.5 9t17 11.5t14.5 13.5t11 14t8.5 14.5t6.5 12.5l5 10l3 7l109 -46q-69 -155 -240 -155h-8l-24 -102h-62l25 110q-1 1 -10 3.5t-17.5 6t-20.5 9.5t-22 13q-80 57 -80 172q-1 55 15.5 111t60.5 110.5
t108 77.5q18 7 34.5 10t34.5 5l17 1l20 85h62l-21 -89q59 -12 101 -51.5t48 -96.5zM292 412q-17 -2 -29 -9q-39 -20 -66.5 -72.5t-28.5 -118.5q-2 -82 52 -109z" />
    <glyph glyph-name="sterling" unicode="&#xa3;" horiz-adv-x="625" 
d="M638 489q0 -10 -4 -42h-113q11 78 -21 118q-25 31 -77 31q-27 0 -48 -9q-65 -29 -65 -99q0 -14 4 -34q3 -13 13 -35.5t13 -31.5h132l-20 -87l-96 -1q10 -27 10 -61q0 -55 -27 -104q4 -3 18 -12t20.5 -12.5t18.5 -7.5t23 -4q28 0 47 32q6 10 11.5 27t12 38.5t8.5 27.5h120
q-1 -4 -15 -55q-28 -84 -61 -124q-45 -54 -112 -54q-12 0 -24 1.5t-23 4.5t-20.5 6.5t-19 8.5t-16 9t-14.5 9.5t-11.5 8.5t-10 8t-7.5 6q-69 -64 -138 -64q-27 0 -53 10q-32 14 -50.5 42t-18.5 62q0 24 10 51q30 75 114 75q40 0 77 -19q9 -5 21 -14q10 23 10 45q0 17 -15 60
h-136l20 87l90 1l-12 20q-20 40 -20 91q0 45 21 86q19 37 52 61t70 32.5t56.5 11t38.5 2.5q92 0 149 -43q68 -53 68 -160zM207 115q-2 1 -5.5 4t-4.5 3q-29 18 -50 18l-13 -3q-19 -8 -19 -30q0 -13 10.5 -20.5t23.5 -7.5q8 0 17 3q26 11 41 33z" />
    <glyph glyph-name="currency" unicode="&#xa4;" horiz-adv-x="689" 
d="M716 552l-85 -72q29 -55 29 -108q0 -107 -68 -193l68 -81l-88 -75l-68 81q-70 -37 -144 -37q-46 0 -79 11t-74 40l-87 -73l-68 82l86 73q-31 59 -31 115q0 108 68 185l-67 80l87 75l67 -79q67 37 144 37q83 0 155 -51l86 73zM540 357q0 64 -39.5 103.5t-103.5 39.5
q-72 0 -120.5 -50.5t-48.5 -126.5q0 -62 39.5 -103t99.5 -41q73 0 123 51.5t50 126.5z" />
    <glyph glyph-name="yen" unicode="&#xa5;" horiz-adv-x="583" 
d="M669 680l-196 -256h96l-20 -83h-140l-52 -67h177l-19 -83h-179l-44 -191h-128l44 191h-190l19 83h188l-24 67h-148l19 83h101l-88 256h131l92 -301l215 301h146z" />
    <glyph glyph-name="brokenbar" unicode="&#xa6;" horiz-adv-x="247" 
d="M316 779l-93 -402h-109l93 402h109zM196 259l-93 -402h-109l93 402h109z" />
    <glyph glyph-name="section" unicode="&#xa7;" horiz-adv-x="604" 
d="M596 321q0 -56 -37 -102t-92 -57q46 -41 46 -95q0 -42 -21 -76q-31 -53 -91.5 -78t-130.5 -25q-66 0 -128.5 23.5t-106.5 67.5l75 93q28 -38 73.5 -58.5t95.5 -20.5q109 0 109 59q0 20 -24 35.5t-60.5 26t-78.5 26.5t-78.5 35t-60.5 53.5t-24 79.5q0 62 34 105t94 53
q-36 29 -36 82q0 50 33 91q65 82 199 82q124 0 207 -69l-70 -83q-20 25 -62.5 39.5t-79.5 14.5q-36 0 -70 -13.5t-34 -43.5q0 -10 4.5 -18t15.5 -14t16.5 -8.5t22.5 -7.5l16 -6l78 -27q35 -12 51.5 -18.5t43 -21t39 -29.5t22.5 -39.5t10 -55.5zM481 285q0 17 -6.5 29.5
t-22.5 22.5t-24.5 13.5t-30.5 11.5q-5 2 -8 3q-115 38 -134 51q-25 -8 -39.5 -15t-27 -23.5t-12.5 -40.5q0 -14 7 -26.5t14.5 -19.5t25 -15t23 -10t25.5 -9l75 -26q42 -14 51 -21q34 3 59 23t25 52z" />
    <glyph glyph-name="dieresis" unicode="&#xa8;" horiz-adv-x="271" 
d="M329 693l-28 -124h-126l28 124h126zM97 693l-28 -124h-127l29 124h126z" />
    <glyph glyph-name="copyright" unicode="&#xa9;" horiz-adv-x="840" 
d="M812 361q0 -155 -102 -259t-254 -104q-149 0 -252 103.5t-103 252.5q0 148 103.5 252t252.5 104q146 0 250.5 -102.5t104.5 -246.5zM772 348q0 139 -90.5 232t-225.5 93q-131 0 -223 -93.5t-92 -226.5q0 -134 91.5 -226.5t223.5 -92.5q129 0 222.5 93t93.5 221zM650 492
l-72 -58q-24 38 -47.5 53.5t-58.5 15.5q-52 0 -87 -49t-35 -120q0 -52 27 -83t71 -31q28 0 48.5 10.5t48.5 38.5l54 -70q-42 -40 -76.5 -55.5t-82.5 -15.5q-83 0 -138 57.5t-55 144.5q0 112 66.5 187t164.5 75q57 0 97.5 -23.5t74.5 -76.5z" />
    <glyph glyph-name="ordfeminine" unicode="&#xaa;" horiz-adv-x="375" 
d="M428 622q0 -23 -12 -74l-15 -61q-12 -53 -12 -71q0 -12 5 -34h-89q-1 6 -1 17v11q-16 -12 -25.5 -18t-28 -11.5t-41.5 -5.5q-58 1 -83 29.5t-25 65.5q0 30 16 56q15 24 39.5 37t41 16t44.5 5l60 5q20 2 41 7l1 4q1 4 2 9.5t1 9.5q1 18 -13.5 25.5t-41.5 7.5
q-32 0 -44.5 -12t-15.5 -34h-88q4 36 26 61q38 44 123 45q135 0 135 -90zM328 533l-70 -8q-1 0 -12.5 -1.5t-16.5 -2t-15 -4t-14.5 -7.5t-8.5 -12t-4 -18q0 -15 11.5 -26.5t34.5 -11.5q35 0 74 30q2 1 4 3.5t4 4.5l2 2z" />
    <glyph glyph-name="guillemotleft" unicode="&#xab;" horiz-adv-x="437" 
d="M467 480l-32 -140l-96 -50l71 -57l-28 -121l-134 127l26 117zM261 480l-32 -140l-96 -50l71 -57l-28 -121l-134 127l26 117z" />
    <glyph glyph-name="logicalnot" unicode="&#xac;" horiz-adv-x="724" 
d="M666 367l-81 -351h-130l56 243h-436l25 108h566z" />
    <glyph glyph-name="registered" unicode="&#xae;" horiz-adv-x="840" 
d="M812 361q0 -155 -102 -259t-254 -104q-149 0 -252 103.5t-103 252.5q0 148 103.5 252t252.5 104q146 0 250.5 -102.5t104.5 -246.5zM772 348q0 139 -90.5 232t-225.5 93q-131 0 -223 -93.5t-92 -226.5q0 -134 91.5 -226.5t223.5 -92.5q129 0 222.5 93t93.5 221zM646 461
q0 -106 -103 -142l47 -180h-99l-36 167h-58l-36 -167h-92l94 442h103q87 0 122 -17q58 -27 58 -103zM552 450q0 22 -12 33t-25 13t-36 2h-42l-24 -114h45q50 0 72 15.5t22 50.5z" />
    <glyph glyph-name="macron" unicode="&#xaf;" horiz-adv-x="271" 
d="M301 653l-19 -83h-312l19 83h312z" />
    <glyph glyph-name="degree" unicode="&#xb0;" horiz-adv-x="354" 
d="M396 582q0 -70 -51 -121t-121 -51t-121 51t-51 121q0 72 50 122.5t122 50.5t122 -50.5t50 -122.5zM296 582q0 30 -21 50.5t-51 20.5t-51 -20.5t-21 -50.5q0 -29 21.5 -50.5t50.5 -21.5t50.5 21.5t21.5 50.5z" />
    <glyph glyph-name="plusminus" unicode="&#xb1;" horiz-adv-x="724" 
d="M695 471l-24 -105h-204l-46 -204h-130l46 204h-201l24 105h201l47 200h129l-46 -200h204zM613 106l-25 -106h-536l25 106h536z" />
    <glyph glyph-name="twosuperior" unicode="&#xb2;" horiz-adv-x="375" 
d="M405 565q0 -58 -47.5 -111t-164.5 -140h175l-18 -76h-300l16 70q5 3 34.5 24.5t72 55.5t69.5 59q33 33 43 46q29 37 29 65q0 22 -14.5 37.5t-37.5 15.5q-29 0 -52 -24.5t-28 -70.5l-84 13q5 40 20.5 70t33.5 46.5t41.5 26.5t41 13t34.5 3q56 0 96 -32.5t40 -90.5z" />
    <glyph glyph-name="threesuperior" unicode="&#xb3;" horiz-adv-x="375" 
d="M405 576q0 -61 -59 -96q-10 -5 -34 -13q23 -7 33 -15q31 -25 31 -73q0 -52 -41.5 -100t-125.5 -49q-47 0 -79 14t-48 39t-22.5 45.5t-9.5 47.5l89 9q0 -1 -0.5 -4t-0.5 -4q0 -31 20 -51.5t52 -20.5q31 0 54.5 20t23.5 53q0 59 -75 59q-14 0 -19 -1l17 73l11 -1
q11 -1 17 -1q29 0 54 13.5t25 44.5q0 19 -13 34t-42 16q-12 1 -24.5 -2.5t-28.5 -19t-21 -41.5l-84 19l3 9q3 8 7.5 19t9.5 19q45 70 143 70q67 0 102 -34.5t35 -77.5z" />
    <glyph glyph-name="acute" unicode="&#xb4;" horiz-adv-x="271" 
d="M254 706l-130 -136h-107l72 136h165z" />
    <glyph glyph-name="mu" unicode="&#xb5;" horiz-adv-x="595" 
d="M584 497l-83 -366q-3 -10 -3 -23q0 -25 25 -25q11 0 30 7l-20 -91q-39 -9 -67 -9q-39 0 -64 22q-10 8 -14 19t-6 38q-29 -44 -58 -61.5t-72 -17.5q-65 0 -83 56l-58 -262h-119l160 713h118l-56 -244q-17 -71 -17 -100q0 -35 19.5 -55t53.5 -20q59 0 97 64q10 15 20 40
q11 29 25 91l52 224h120z" />
    <glyph glyph-name="paragraph" unicode="&#xb6;" horiz-adv-x="639" 
d="M656 706l-16 -70h-35l-185 -803h-74l186 803h-129l-185 -803h-74l110 478q-113 47 -113 176q0 112 90 175q35 24 77.5 34t114.5 10h233z" />
    <glyph glyph-name="periodcentered" unicode="&#xb7;" horiz-adv-x="200" 
d="M191 352l-27 -124h-102l28 124h101z" />
    <glyph glyph-name="cedilla" unicode="&#xb8;" horiz-adv-x="271" 
d="M249 41l-87 -115q22 0 27 -1q25 -5 42 -21.5t17 -40.5q0 -37 -44 -64q-41 -24 -91 -24q-45 0 -91 14l9 40q35 -11 56 -11q28 0 44 13q12 12 12 19q0 23 -47 23q-16 0 -34 -3l6 28l141 143h40z" />
    <glyph glyph-name="onesuperior" unicode="&#xb9;" horiz-adv-x="375" 
d="M353 680l-102 -442h-85l57 248q7 28 7 40q0 11 -7 14t-24 3h-65l13 57q72 0 110 45q17 21 19 35h77z" />
    <glyph glyph-name="ordmasculine" unicode="&#xba;" horiz-adv-x="375" 
d="M435 579q0 -27 -6 -52q-10 -38 -20 -58q-20 -39 -60 -67.5t-99 -28.5q-35 0 -61.5 11t-41.5 26.5t-24 36.5t-12 37t-3 30q0 12 3 30t13.5 51t38 63t68.5 45q36 13 66 12q62 -1 100 -37.5t38 -98.5zM353 578q0 30 -16 48.5t-47 18.5q-29 0 -51 -17q-22 -18 -34.5 -51.5
t-12.5 -59.5q0 -30 15.5 -51t46.5 -21q30 0 56.5 22.5t37.5 73.5q5 20 5 37z" />
    <glyph glyph-name="guillemotright" unicode="&#xbb;" horiz-adv-x="437" 
d="M437 352l-26 -116l-193 -124l32 140l96 50l-71 57l28 121zM232 352l-27 -116l-194 -124l33 140l96 50l-71 57l28 121z" />
    <glyph glyph-name="onequarter" unicode="&#xbc;" horiz-adv-x="875" 
d="M854 442l-61 -267h57l-17 -72h-57l-24 -103h-84l24 103h-183l19 79l226 260h100zM728 658l-465 -670l-50 35l465 669zM353 680l-102 -442h-85l57 248q7 28 7 40q0 11 -7 14t-24 3h-65l13 57q72 0 110 45q17 21 19 35h77zM751 341l-143 -166h100z" />
    <glyph glyph-name="onehalf" unicode="&#xbd;" horiz-adv-x="875" 
d="M850 326q0 -45 -27 -86q-38 -56 -185 -164h175l-18 -76h-300l16 69q172 123 219 185q28 36 28 66q0 22 -14 37t-37 15q-29 0 -52 -24t-28 -71l-84 13q6 50 26.5 84t48.5 49.5t50.5 21t45.5 5.5q55 0 95.5 -32.5t40.5 -91.5zM694 658l-464 -670l-50 35l464 669zM353 680
l-102 -442h-85l57 248q7 28 7 40q0 11 -7 14t-24 3h-65l13 57q72 0 110 45q17 21 19 35h77z" />
    <glyph glyph-name="threequarters" unicode="&#xbe;" horiz-adv-x="875" 
d="M854 442l-61 -267h57l-17 -72h-57l-24 -103h-84l24 103h-183l19 79l226 260h100zM757 658l-464 -670l-50 35l464 669zM405 576q0 -61 -59 -96q-10 -5 -34 -13q23 -7 33 -15q31 -25 31 -73q0 -52 -41.5 -100t-125.5 -49q-47 0 -79 14t-48 39t-22.5 45.5t-9.5 47.5l89 9
q0 -1 -0.5 -4t-0.5 -4q0 -31 20 -51.5t52 -20.5q31 0 54.5 20t23.5 53q0 59 -75 59q-14 0 -19 -1l17 73l11 -1q11 -1 17 -1q29 0 54 13.5t25 44.5q0 19 -13 34t-42 16q-12 1 -24.5 -2.5t-28.5 -19t-21 -41.5l-84 19l3 9q3 8 7.5 19t9.5 19q45 70 143 70q67 0 102 -34.5
t35 -77.5zM751 341l-143 -166h100z" />
    <glyph glyph-name="questiondown" unicode="&#xbf;" horiz-adv-x="542" 
d="M420 706l-31 -135h-133l32 135h132zM497 210q-16 -70 -47 -114q-72 -105 -219 -105q-131 0 -193 79q-39 48 -39 105q0 51 30 91q17 26 76 70l48 36q22 17 37 29q25 19 35 32q15 20 29 76h111l-12 -52q-7 -32 -16 -56q-9 -23 -26 -40.5t-57 -49.5l-46 -36q-15 -11 -25 -20
q-46 -35 -46 -75q0 -21 14 -41q28 -39 87 -39q29 0 53 9t38.5 24t23 27.5t13.5 25.5q6 18 10 51z" />
    <glyph glyph-name="Agrave" unicode="&#xc0;" horiz-adv-x="646" 
d="M521 752h-100l-82 119h149zM602 0h-133l-14 147h-258l-78 -147h-145l405 706h147zM446 258l-23 314l-165 -314h188z" />
    <glyph glyph-name="Aacute" unicode="&#xc1;" horiz-adv-x="646" 
d="M616 871l-127 -122h-101l66 122h162zM602 0h-133l-14 147h-258l-78 -147h-145l405 706h147zM446 258l-23 314l-165 -314h188z" />
    <glyph glyph-name="Acircumflex" unicode="&#xc2;" horiz-adv-x="646" 
d="M617 752h-113l-31 65l-59 -65h-128l127 122h132zM602 0h-133l-14 147h-258l-78 -147h-145l405 706h147zM446 258l-23 314l-165 -314h188z" />
    <glyph glyph-name="Atilde" unicode="&#xc3;" horiz-adv-x="646" 
d="M661 874q-8 -28 -19 -48q-41 -78 -115 -78h-11t-10.5 1.5t-8.5 2t-11 3t-11 3.5t-14.5 5.5t-17.5 6.5q-33 11 -46 11q-31 0 -43 -33h-75q10 33 16 45q36 81 114 81q25 0 73 -18q43 -16 58 -16q31 0 47 34h74zM602 0h-133l-14 147h-258l-78 -147h-145l405 706h147z
M446 258l-23 314l-165 -314h188z" />
    <glyph glyph-name="Adieresis" unicode="&#xc4;" horiz-adv-x="646" 
d="M665 874l-28 -123h-127l29 123h126zM433 874l-29 -123h-126l29 123h126zM602 0h-133l-14 147h-258l-78 -147h-145l405 706h147zM446 258l-23 314l-165 -314h188z" />
    <glyph glyph-name="Aring" unicode="&#xc5;" horiz-adv-x="646" 
d="M566 813q0 -13 -13 -32q-26 -42 -76 -42q-38 0 -65 28t-27 66t26.5 64t65.5 26q41 0 66 -28q32 -35 23 -82zM602 0h-133l-14 147h-258l-78 -147h-145l405 706h147zM519 824q5 20 -8 36t-34 16q-13 0 -25 -7q-20 -13 -20 -38q1 -19 14.5 -32t30.5 -12q16 0 27.5 10.5
t14.5 26.5zM446 258l-23 314l-165 -314h188z" />
    <glyph glyph-name="AE" unicode="&#xc6;" horiz-adv-x="979" 
d="M1041 706l-26 -116h-316l-39 -168h302l-27 -117h-302l-44 -189h369l-27 -116h-495l37 163h-213l-118 -163h-163l531 706h531zM578 618l-234 -339h156z" />
    <glyph glyph-name="Ccedilla" unicode="&#xc7;" horiz-adv-x="698" 
d="M718 483l-129 -22q0 54 -17 84q-33 62 -123 63q-78 0 -132 -47q-39 -34 -71.5 -106.5t-32.5 -155.5q0 -102 47.5 -148t114.5 -46q44 0 78.5 14.5t58 41.5t34 45t23.5 45l116 -47q-21 -57 -55.5 -99.5t-68.5 -64.5t-72.5 -35.5t-61.5 -16.5t-41 -3l-45 -59h10q28 0 52 -16
t24 -46q0 -35 -38.5 -61.5t-95.5 -27.5q-32 -1 -91 14l9 40q22 -11 54 -11q23 0 39.5 8t17.5 22q2 25 -45 25q-6 0 -14.5 -0.5t-14.5 -1.5l-7 -1l7 28l87 89q-56 7 -80 16q-181 62 -179 283q1 82 24 158t67.5 139.5t119.5 101.5t169 36q93 -1 154 -39.5t88 -100.5
q15 -34 20 -98z" />
    <glyph glyph-name="Egrave" unicode="&#xc8;" horiz-adv-x="625" 
d="M511 752h-100l-82 119h149zM666 706l-26 -115h-350l-39 -167h333l-26 -113h-333l-45 -197h402l-26 -114h-533l163 706h480z" />
    <glyph glyph-name="Eacute" unicode="&#xc9;" horiz-adv-x="625" 
d="M605 871l-126 -122h-101l65 122h162zM666 706l-26 -115h-350l-39 -167h333l-26 -113h-333l-45 -197h402l-26 -114h-533l163 706h480z" />
    <glyph glyph-name="Ecircumflex" unicode="&#xca;" horiz-adv-x="625" 
d="M606 752h-112l-31 65l-60 -65h-128l128 122h132zM666 706l-26 -115h-350l-39 -167h333l-26 -113h-333l-45 -197h402l-26 -114h-533l163 706h480z" />
    <glyph glyph-name="Edieresis" unicode="&#xcb;" horiz-adv-x="625" 
d="M648 874l-28 -123h-127l29 123h126zM416 874l-29 -123h-126l29 123h126zM666 706l-26 -115h-350l-39 -167h333l-26 -113h-333l-45 -197h402l-26 -114h-533l163 706h480z" />
    <glyph glyph-name="Igrave" unicode="&#xcc;" horiz-adv-x="271" 
d="M334 752h-101l-81 119h149zM320 706l-163 -706h-133l163 706h133z" />
    <glyph glyph-name="Iacute" unicode="&#xcd;" horiz-adv-x="271" 
d="M428 871l-126 -122h-101l65 122h162zM320 706l-163 -706h-133l163 706h133z" />
    <glyph glyph-name="Icircumflex" unicode="&#xce;" horiz-adv-x="271" 
d="M429 752h-112l-31 65l-60 -65h-128l128 122h132zM320 706l-163 -706h-133l163 706h133z" />
    <glyph glyph-name="Idieresis" unicode="&#xcf;" horiz-adv-x="271" 
d="M471 874l-29 -123h-126l29 123h126zM239 874l-29 -123h-126l28 123h127zM320 706l-163 -706h-133l163 706h133z" />
    <glyph glyph-name="Eth" unicode="&#xd0;" horiz-adv-x="729" 
d="M726 410q0 -56 -13 -111q-21 -86 -77 -160.5t-143 -110.5q-68 -28 -194 -28h-276l78 338h-101l21 93h101l64 275h135h40h42t38 -1t41 -3t35.5 -5.5t37.5 -8.5t32 -12.5t33.5 -17.5t27 -23.5t26.5 -29.5q52 -73 52 -195zM591 411q0 37 -8.5 66.5t-20 48t-34 31.5t-39 19.5
t-48 9.5t-47.5 3.5t-51 0.5h-17h-33l-37 -159h158l-21 -93h-158l-52 -222h27q71 0 112 2q80 3 128 26q77 38 113 127q28 68 28 140z" />
    <glyph glyph-name="Ntilde" unicode="&#xd1;" horiz-adv-x="708" 
d="M692 874q-9 -31 -18 -48q-41 -78 -116 -78h-11t-10.5 1.5t-8.5 2t-11 3t-11 3.5t-14.5 5.5t-17.5 6.5q-31 11 -46 11q-5 0 -10 -1t-8.5 -2.5t-7 -4.5t-5.5 -5t-4.5 -6t-3.5 -5.5l-3 -4.5l-1 -4h-74q8 31 15 45q37 81 114 81q25 0 73 -18q43 -16 58 -16q31 0 47 34h74z
M759 706l-163 -706h-117l-217 518l-110 -518h-129l163 706h120l215 -521l111 521h127z" />
    <glyph glyph-name="Ograve" unicode="&#xd2;" horiz-adv-x="750" 
d="M573 752h-100l-82 119h149zM748 417q0 -53 -13 -112q-17 -70 -52 -135q-104 -185 -317 -185q-79 0 -139 28q-52 24 -87 68.5t-50 96t-15 109.5q0 53 12 108q30 148 127 237q99 89 242 89q84 0 143 -30q35 -18 65.5 -47.5t57 -90t26.5 -136.5zM616 424q0 92 -51 141
q-42 41 -113 41q-111 0 -173 -90q-31 -45 -50 -108t-19 -117q0 -114 72 -161q38 -26 95 -26q61 0 109 30q84 53 118 196q12 60 12 94z" />
    <glyph glyph-name="Oacute" unicode="&#xd3;" horiz-adv-x="750" 
d="M668 871l-127 -122h-101l66 122h162zM748 417q0 -53 -13 -112q-17 -70 -52 -135q-104 -185 -317 -185q-79 0 -139 28q-52 24 -87 68.5t-50 96t-15 109.5q0 53 12 108q30 148 127 237q99 89 242 89q84 0 143 -30q35 -18 65.5 -47.5t57 -90t26.5 -136.5zM616 424
q0 92 -51 141q-42 41 -113 41q-111 0 -173 -90q-31 -45 -50 -108t-19 -117q0 -114 72 -161q38 -26 95 -26q61 0 109 30q84 53 118 196q12 60 12 94z" />
    <glyph glyph-name="Ocircumflex" unicode="&#xd4;" horiz-adv-x="750" 
d="M648 752h-112l-32 65l-59 -65h-128l127 122h133zM748 417q0 -53 -13 -112q-17 -70 -52 -135q-104 -185 -317 -185q-79 0 -139 28q-52 24 -87 68.5t-50 96t-15 109.5q0 53 12 108q30 148 127 237q99 89 242 89q84 0 143 -30q35 -18 65.5 -47.5t57 -90t26.5 -136.5z
M616 424q0 92 -51 141q-42 41 -113 41q-111 0 -173 -90q-31 -45 -50 -108t-19 -117q0 -114 72 -161q38 -26 95 -26q61 0 109 30q84 53 118 196q12 60 12 94z" />
    <glyph glyph-name="Otilde" unicode="&#xd5;" horiz-adv-x="750" 
d="M697 874q-7 -27 -18 -48q-41 -78 -116 -78q-5 0 -10 0.5t-8.5 0.5t-8.5 1.5t-7.5 2t-10 3l-10.5 3.5t-13.5 5t-15.5 6q-31 11 -46 11q-27 0 -43 -33h-74q6 22 15 45q37 81 114 81q25 0 73 -18q43 -16 58 -16q32 0 47 34h74zM748 417q0 -53 -13 -112q-17 -70 -52 -135
q-104 -185 -317 -185q-79 0 -139 28q-52 24 -87 68.5t-50 96t-15 109.5q0 53 12 108q30 148 127 237q99 89 242 89q84 0 143 -30q35 -18 65.5 -47.5t57 -90t26.5 -136.5zM616 424q0 92 -51 141q-42 41 -113 41q-111 0 -173 -90q-31 -45 -50 -108t-19 -117q0 -114 72 -161
q38 -26 95 -26q61 0 109 30q84 53 118 196q12 60 12 94z" />
    <glyph glyph-name="Odieresis" unicode="&#xd6;" horiz-adv-x="750" 
d="M698 874l-29 -123h-126l28 123h127zM465 874l-28 -123h-126l28 123h126zM748 417q0 -53 -13 -112q-17 -70 -52 -135q-104 -185 -317 -185q-79 0 -139 28q-52 24 -87 68.5t-50 96t-15 109.5q0 53 12 108q30 148 127 237q99 89 242 89q84 0 143 -30q35 -18 65.5 -47.5
t57 -90t26.5 -136.5zM616 424q0 92 -51 141q-42 41 -113 41q-111 0 -173 -90q-31 -45 -50 -108t-19 -117q0 -114 72 -161q38 -26 95 -26q61 0 109 30q84 53 118 196q12 60 12 94z" />
    <glyph glyph-name="multiply" unicode="&#xd7;" horiz-adv-x="724" 
d="M643 466l-184 -151l130 -161l-100 -81l-129 162l-183 -149l-66 81l183 149l-129 160l99 80l129 -160l185 150z" />
    <glyph glyph-name="Oslash" unicode="&#xd8;" horiz-adv-x="750" 
d="M760 665l-65 -65q51 -73 51 -184q0 -71 -24 -149q-9 -29 -22 -58.5t-42.5 -72.5t-66 -74t-96.5 -54t-131 -23q-124 0 -200 72l-63 -64l-41 41l67 68q-4 5 -10 15q-42 72 -42 175q0 143 76 263q105 166 300 166q105 0 175 -48q11 -7 33 -28l60 61zM574 560l-13 13
q-47 39 -111 39q-101 0 -169 -82q-31 -38 -49.5 -90t-22 -82.5t-3.5 -55.5q0 -54 17 -101zM617 423q0 46 -12 84l-350 -359q6 -9 16 -16q37 -31 107 -31q60 0 107.5 30.5t75 79.5t42 103.5t14.5 108.5z" />
    <glyph glyph-name="Ugrave" unicode="&#xd9;" horiz-adv-x="688" 
d="M521 752h-100l-82 119h149zM741 706l-101 -438q-29 -119 -56 -161q-53 -81 -161 -110q-44 -12 -100 -12q-143 0 -210 79q-45 50 -44 121q0 41 19 122l93 399h132l-91 -398q-19 -86 -19 -105q0 -44 27 -68q35 -33 103 -33q47 0 85 19q23 11 38.5 27t25.5 39.5t14.5 38.5
t11.5 47l100 433h133z" />
    <glyph glyph-name="Uacute" unicode="&#xda;" horiz-adv-x="688" 
d="M637 871l-127 -122h-101l65 122h163zM741 706l-101 -438q-29 -119 -56 -161q-53 -81 -161 -110q-44 -12 -100 -12q-143 0 -210 79q-45 50 -44 121q0 41 19 122l93 399h132l-91 -398q-19 -86 -19 -105q0 -44 27 -68q35 -33 103 -33q47 0 85 19q23 11 38.5 27t25.5 39.5
t14.5 38.5t11.5 47l100 433h133z" />
    <glyph glyph-name="Ucircumflex" unicode="&#xdb;" horiz-adv-x="688" 
d="M638 752h-113l-31 65l-59 -65h-128l127 122h132zM741 706l-101 -438q-29 -119 -56 -161q-53 -81 -161 -110q-44 -12 -100 -12q-143 0 -210 79q-45 50 -44 121q0 41 19 122l93 399h132l-91 -398q-19 -86 -19 -105q0 -44 27 -68q35 -33 103 -33q47 0 85 19q23 11 38.5 27
t25.5 39.5t14.5 38.5t11.5 47l100 433h133z" />
    <glyph glyph-name="Udieresis" unicode="&#xdc;" horiz-adv-x="688" 
d="M675 874l-28 -123h-126l28 123h126zM443 874l-28 -123h-127l29 123h126zM741 706l-101 -438q-29 -119 -56 -161q-53 -81 -161 -110q-44 -12 -100 -12q-143 0 -210 79q-45 50 -44 121q0 41 19 122l93 399h132l-91 -398q-19 -86 -19 -105q0 -44 27 -68q35 -33 103 -33
q47 0 85 19q23 11 38.5 27t25.5 39.5t14.5 38.5t11.5 47l100 433h133z" />
    <glyph glyph-name="Yacute" unicode="&#xdd;" horiz-adv-x="604" 
d="M595 871l-127 -122h-101l66 122h162zM726 706l-327 -425l-65 -281h-134l65 281l-147 425h137l96 -312l222 312h153z" />
    <glyph glyph-name="Thorn" unicode="&#xde;" horiz-adv-x="604" 
d="M632 410q0 -62 -29.5 -124t-90.5 -99q-37 -22 -78 -29.5t-119 -7.5h-125l-34 -150h-133l163 706h133l-23 -100h59q99 0 144 -9.5t83 -48.5q50 -52 50 -138zM496 396q0 34 -21 58q-20 23 -45 28t-84 5h-78l-53 -230h76q45 0 60.5 0.5t41 4.5t40.5 14.5t30 28.5
q33 39 33 91z" />
    <glyph glyph-name="germandbls" unicode="&#xdf;" 
d="M567 554q0 -27 -7 -53q-21 -72 -93 -93q-26 -7 -68 -7q66 -8 101 -46q36 -38 36 -108q0 -22 -4 -50.5t-24.5 -75.5t-54.5 -78q-28 -25 -65 -40q-40 -15 -92 -15t-106 18l23 101q56 -16 80 -16q64 0 97 55q14 22 18 48q8 32 8 54q0 53 -32 81q-26 23 -86 23q-16 0 -29 -2
l22 91q20 -4 44 -4q60 0 90 33q25 28 25 72q0 37 -19 58q-6 6 -21 13q-19 9 -42 9q-53 0 -81 -38q-9 -11 -16 -29.5t-10 -30.5t-13 -53l-108 -471h-121l114 492q10 43 15.5 64t21.5 52.5t38 52.5q57 54 155 54q130 0 182 -81q22 -36 22 -80z" />
    <glyph glyph-name="agrave" unicode="&#xe0;" 
d="M430 570h-99l-88 136h150zM530 371q0 -32 -19 -114l-22 -97q-19 -83 -19 -112q0 -24 6 -48h-129q-2 30 0 50q-68 -60 -152 -60q-89 0 -128 44t-38 98q0 90 70 136q47 30 146 38l94 8q41 4 67 13q7 30 7 41q0 53 -92 53q-68 0 -88 -40q-5 -9 -9 -31h-127q2 43 37 85
q59 71 195 71q52 0 88 -9q113 -25 113 -126zM385 237l-116 -14q-5 -1 -14.5 -2t-14.5 -1q-20 -3 -31 -5t-25 -10.5t-22 -22.5q-9 -15 -9 -33q0 -14 7 -27q18 -37 69 -37q42 0 89 28q23 14 26 16q11 10 21 21z" />
    <glyph glyph-name="aacute" unicode="&#xe1;" 
d="M539 706l-130 -136h-107l72 136h165zM530 371q0 -32 -19 -114l-22 -97q-19 -83 -19 -112q0 -24 6 -48h-129q-2 30 0 50q-68 -60 -152 -60q-89 0 -128 44t-38 98q0 90 70 136q47 30 146 38l94 8q41 4 67 13q7 30 7 41q0 53 -92 53q-68 0 -88 -40q-5 -9 -9 -31h-127
q2 43 37 85q59 71 195 71q52 0 88 -9q113 -25 113 -126zM385 237l-116 -14q-5 -1 -14.5 -2t-14.5 -1q-20 -3 -31 -5t-25 -10.5t-22 -22.5q-9 -15 -9 -33q0 -14 7 -27q18 -37 69 -37q42 0 89 28q23 14 26 16q11 10 21 21z" />
    <glyph glyph-name="acircumflex" unicode="&#xe2;" 
d="M529 571h-103l-38 77l-66 -77h-127l138 135h124zM530 371q0 -32 -19 -114l-22 -97q-19 -83 -19 -112q0 -24 6 -48h-129q-2 30 0 50q-68 -60 -152 -60q-89 0 -128 44t-38 98q0 90 70 136q47 30 146 38l94 8q41 4 67 13q7 30 7 41q0 53 -92 53q-68 0 -88 -40q-5 -9 -9 -31
h-127q2 43 37 85q59 71 195 71q52 0 88 -9q113 -25 113 -126zM385 237l-116 -14q-5 -1 -14.5 -2t-14.5 -1q-20 -3 -31 -5t-25 -10.5t-22 -22.5q-9 -15 -9 -33q0 -14 7 -27q18 -37 69 -37q42 0 89 28q23 14 26 16q11 10 21 21z" />
    <glyph glyph-name="atilde" unicode="&#xe3;" 
d="M571 706q-6 -23 -18 -48q-41 -78 -116 -78q-23 0 -85 22q-30 11 -45 11q-27 0 -43 -33h-74q12 49 35 78q37 48 95 48q19 0 73 -18q40 -15 58 -15q31 1 47 33h73zM530 371q0 -32 -19 -114l-22 -97q-19 -83 -19 -112q0 -24 6 -48h-129q-2 30 0 50q-68 -60 -152 -60
q-89 0 -128 44t-38 98q0 90 70 136q47 30 146 38l94 8q41 4 67 13q7 30 7 41q0 53 -92 53q-68 0 -88 -40q-5 -9 -9 -31h-127q2 43 37 85q59 71 195 71q52 0 88 -9q113 -25 113 -126zM385 237l-116 -14q-5 -1 -14.5 -2t-14.5 -1q-20 -3 -31 -5t-25 -10.5t-22 -22.5
q-9 -15 -9 -33q0 -14 7 -27q18 -37 69 -37q42 0 89 28q23 14 26 16q11 10 21 21z" />
    <glyph glyph-name="adieresis" unicode="&#xe4;" 
d="M577 691l-29 -124h-126l29 124h126zM345 691l-29 -124h-126l28 124h127zM530 371q0 -32 -19 -114l-22 -97q-19 -83 -19 -112q0 -24 6 -48h-129q-2 30 0 50q-68 -60 -152 -60q-89 0 -128 44t-38 98q0 90 70 136q47 30 146 38l94 8q41 4 67 13q7 30 7 41q0 53 -92 53
q-68 0 -88 -40q-5 -9 -9 -31h-127q2 43 37 85q59 71 195 71q52 0 88 -9q113 -25 113 -126zM385 237l-116 -14q-5 -1 -14.5 -2t-14.5 -1q-20 -3 -31 -5t-25 -10.5t-22 -22.5q-9 -15 -9 -33q0 -14 7 -27q18 -37 69 -37q42 0 89 28q23 14 26 16q11 10 21 21z" />
    <glyph glyph-name="aring" unicode="&#xe5;" 
d="M469 605q-7 -32 -31.5 -52.5t-57.5 -20.5q-39 0 -65.5 27.5t-26.5 66.5q0 19 7 35q8 19 29 36.5t56 17.5q44 0 71 -33.5t18 -76.5zM530 371q0 -32 -19 -114l-22 -97q-19 -83 -19 -112q0 -24 6 -48h-129q-2 30 0 50q-68 -60 -152 -60q-89 0 -128 44t-38 98q0 90 70 136
q47 30 146 38l94 8q41 4 67 13q7 30 7 41q0 53 -92 53q-68 0 -88 -40q-5 -9 -9 -31h-127q2 43 37 85q59 71 195 71q52 0 88 -9q113 -25 113 -126zM422 616q4 21 -9 36.5t-34 15.5q-19 0 -31.5 -13t-12.5 -32q0 -11 5 -19q7 -13 19.5 -19t20.5 -5q16 0 27.5 10t14.5 26z
M385 237l-116 -14q-5 -1 -14.5 -2t-14.5 -1q-20 -3 -31 -5t-25 -10.5t-22 -22.5q-9 -15 -9 -33q0 -14 7 -27q18 -37 69 -37q42 0 89 28q23 14 26 16q11 10 21 21z" />
    <glyph glyph-name="ae" unicode="&#xe6;" horiz-adv-x="854" 
d="M840 300q0 -30 -6 -66h-343q-4 -21 -4 -39q0 -28 8 -49q12 -29 39 -45t59 -16q79 0 134 85l97 -59q-30 -38 -44 -50q-76 -74 -191 -74q-120 0 -181 87q-28 -30 -60 -48q-67 -40 -149 -40q-104 0 -150 69q-24 37 -24 78q0 85 75 132q23 14 55 23t48 11t60 7l132 14
q2 16 2 25l1 5q0 5 -0.5 9t-1 10.5t-2.5 12t-4.5 11.5t-8 11.5t-12.5 9.5q-20 12 -59 12q-53 0 -81 -28q-14 -14 -18 -40h-127q5 23 8 30q26 68 97 100q27 11 60 17t63 6q83 0 131 -36q14 -10 28 -28q2 1 5 4q21 17 36.5 27t50 21.5t73.5 11.5q25 0 48.5 -4t53 -17.5t51 -35
t36.5 -61.5t15 -93zM725 319q0 1 -0.5 6.5l-1 11t-2 13.5t-4 15t-7 15t-9.5 14q-11 13 -33 22q-18 6 -37 6q-56 0 -91 -41q-19 -23 -30 -62h215zM381 235l-92 -11q-77 -10 -95 -18q-46 -20 -46 -61q0 -17 9 -30q21 -33 71 -33q35 0 73 20q39 21 55 51t25 82z" />
    <glyph glyph-name="ccedilla" unicode="&#xe7;" horiz-adv-x="534" 
d="M519 359l-113 -38q-9 90 -85 91q-40 0 -71 -20.5t-48 -52.5t-25.5 -65t-8.5 -63q0 -70 39 -101q25 -21 63 -20q28 0 50 10t37 30t20 29t14 28l108 -45q-53 -128 -196 -153q-4 -1 -5 -1l-47 -62h9q37 0 57 -19.5t20 -42.5q0 -35 -38 -61.5t-96 -27.5q-20 0 -36.5 2
t-36.5 7l-19 5l9 40q33 -11 55 -11q23 0 39 8.5t17 21.5q3 25 -44 25q-12 0 -36 -3l6 28l88 89q-52 4 -90.5 22.5t-59 42t-32.5 54t-15 52t-3 44.5q0 44 14 96q29 102 99.5 158.5t163.5 54.5q11 0 26.5 -1.5t45 -10t53 -23.5t45 -45.5t27.5 -71.5z" />
    <glyph glyph-name="egrave" unicode="&#xe8;" horiz-adv-x="542" 
d="M419 570h-99l-87 136h149zM527 305q0 -37 -8 -72h-347q-3 -21 -3 -35q0 -21 5 -37q5 -17 14 -31.5t32.5 -29t57.5 -14.5q28 0 51 9t40 27t22.5 25.5t15.5 23.5l101 -62q-39 -60 -101.5 -91t-136.5 -31q-102 0 -163 58.5t-61 159.5q0 21 3 47.5t18 72t39 79.5
q76 107 212 107q59 0 102 -20q41 -19 74 -65t33 -121zM406 321q2 27 -5 46q-6 21 -26 38.5t-56 17.5q-63 0 -103 -56q-13 -19 -23 -46h213z" />
    <glyph glyph-name="eacute" unicode="&#xe9;" horiz-adv-x="542" 
d="M529 706l-131 -136h-106l72 136h165zM527 305q0 -37 -8 -72h-347q-3 -21 -3 -35q0 -21 5 -37q5 -17 14 -31.5t32.5 -29t57.5 -14.5q28 0 51 9t40 27t22.5 25.5t15.5 23.5l101 -62q-39 -60 -101.5 -91t-136.5 -31q-102 0 -163 58.5t-61 159.5q0 21 3 47.5t18 72t39 79.5
q76 107 212 107q59 0 102 -20q41 -19 74 -65t33 -121zM406 321q2 27 -5 46q-6 21 -26 38.5t-56 17.5q-63 0 -103 -56q-13 -19 -23 -46h213z" />
    <glyph glyph-name="ecircumflex" unicode="&#xea;" horiz-adv-x="542" 
d="M518 571h-103l-37 77l-66 -77h-127l138 135h124zM527 305q0 -37 -8 -72h-347q-3 -21 -3 -35q0 -21 5 -37q5 -17 14 -31.5t32.5 -29t57.5 -14.5q28 0 51 9t40 27t22.5 25.5t15.5 23.5l101 -62q-39 -60 -101.5 -91t-136.5 -31q-102 0 -163 58.5t-61 159.5q0 21 3 47.5
t18 72t39 79.5q76 107 212 107q59 0 102 -20q41 -19 74 -65t33 -121zM406 321q2 27 -5 46q-6 21 -26 38.5t-56 17.5q-63 0 -103 -56q-13 -19 -23 -46h213z" />
    <glyph glyph-name="edieresis" unicode="&#xeb;" horiz-adv-x="542" 
d="M565 693l-28 -124h-127l29 124h126zM333 693l-29 -124h-126l29 124h126zM527 305q0 -37 -8 -72h-347q-3 -21 -3 -35q0 -21 5 -37q5 -17 14 -31.5t32.5 -29t57.5 -14.5q28 0 51 9t40 27t22.5 25.5t15.5 23.5l101 -62q-39 -60 -101.5 -91t-136.5 -31q-102 0 -163 58.5
t-61 159.5q0 21 3 47.5t18 72t39 79.5q76 107 212 107q59 0 102 -20q41 -19 74 -65t33 -121zM406 321q2 27 -5 46q-6 21 -26 38.5t-56 17.5q-63 0 -103 -56q-13 -19 -23 -46h213z" />
    <glyph glyph-name="igrave" unicode="&#xec;" horiz-adv-x="250" 
d="M274 570h-100l-87 136h149zM255 497l-115 -497h-121l116 497h120z" />
    <glyph glyph-name="iacute" unicode="&#xed;" horiz-adv-x="250" 
d="M383 706l-131 -136h-106l72 136h165zM255 497l-115 -497h-121l116 497h120z" />
    <glyph glyph-name="icircumflex" unicode="&#xee;" horiz-adv-x="250" 
d="M373 571h-103l-38 77l-66 -77h-127l138 135h124zM255 497l-115 -497h-121l116 497h120z" />
    <glyph glyph-name="idieresis" unicode="&#xef;" horiz-adv-x="250" 
d="M419 693l-28 -124h-126l28 124h126zM187 693l-28 -124h-127l29 124h126zM255 497l-115 -497h-121l116 497h120z" />
    <glyph glyph-name="eth" unicode="&#xf0;" 
d="M570 608l-75 -15q52 -114 52 -249q0 -192 -107 -289q-72 -66 -181 -68q-53 -1 -94 16t-63.5 41t-36.5 56t-18 55.5t-4 44.5q0 51 16 103.5t56.5 105t99.5 79.5q51 23 103 23q72 0 110 -49q-18 79 -35 111l-155 -30l-18 56l141 29q-9 11 -23 30t-22 30l104 33
q12 -16 47 -72l84 17zM424 301q-1 61 -32 85.5t-70 24.5q-47 0 -81 -26q-38 -30 -57.5 -83.5t-19.5 -95.5q0 -49 25 -82t76 -34q49 0 91.5 36t61.5 117q6 28 6 58z" />
    <glyph glyph-name="ntilde" unicode="&#xf1;" 
d="M571 706q-6 -23 -18 -48q-41 -78 -116 -78q-23 0 -85 22q-30 11 -45 11q-27 0 -43 -33h-74q12 49 35 78q37 48 95 48q19 0 73 -18q40 -15 58 -15q31 1 47 33h73zM530 368q0 -38 -15 -102l-61 -266h-122l57 247q14 58 14 87q0 21 -7 37q-14 32 -58 32q-35 0 -69 -24
q-31 -23 -46.5 -57.5t-33.5 -111.5l-49 -210h-121l116 497h113l-13 -54q16 13 17 14q61 49 138 49q20 0 40 -4.5t45 -17.5t40 -43t15 -73z" />
    <glyph glyph-name="ograve" unicode="&#xf2;" 
d="M430 570h-99l-88 136h150zM544 303q0 -43 -10 -80q-23 -103 -87 -163q-77 -73 -191 -73q-87 0 -141 45q-35 30 -53.5 75.5t-18.5 93.5q0 68 29.5 136.5t80.5 111.5q30 25 84 46q48 16 95 16q44 0 86 -15q41 -15 69 -41.5t39 -57.5t14.5 -52t3.5 -42zM424 300q0 28 -7 48
q-22 63 -94 63q-65 0 -104 -48q-24 -29 -39.5 -73.5t-15.5 -84.5q0 -50 26.5 -82.5t75.5 -32.5q33 0 61 15q70 38 91 138q6 33 6 57z" />
    <glyph glyph-name="oacute" unicode="&#xf3;" 
d="M539 706l-130 -136h-107l72 136h165zM544 303q0 -43 -10 -80q-23 -103 -87 -163q-77 -73 -191 -73q-87 0 -141 45q-35 30 -53.5 75.5t-18.5 93.5q0 68 29.5 136.5t80.5 111.5q30 25 84 46q48 16 95 16q44 0 86 -15q41 -15 69 -41.5t39 -57.5t14.5 -52t3.5 -42zM424 300
q0 28 -7 48q-22 63 -94 63q-65 0 -104 -48q-24 -29 -39.5 -73.5t-15.5 -84.5q0 -50 26.5 -82.5t75.5 -32.5q33 0 61 15q70 38 91 138q6 33 6 57z" />
    <glyph glyph-name="ocircumflex" unicode="&#xf4;" 
d="M529 571h-103l-38 77l-66 -77h-127l138 135h124zM544 303q0 -43 -10 -80q-23 -103 -87 -163q-77 -73 -191 -73q-87 0 -141 45q-35 30 -53.5 75.5t-18.5 93.5q0 68 29.5 136.5t80.5 111.5q30 25 84 46q48 16 95 16q44 0 86 -15q41 -15 69 -41.5t39 -57.5t14.5 -52t3.5 -42
zM424 300q0 28 -7 48q-22 63 -94 63q-65 0 -104 -48q-24 -29 -39.5 -73.5t-15.5 -84.5q0 -50 26.5 -82.5t75.5 -32.5q33 0 61 15q70 38 91 138q6 33 6 57z" />
    <glyph glyph-name="otilde" unicode="&#xf5;" 
d="M571 706q-6 -23 -18 -48q-41 -78 -116 -78q-23 0 -85 22q-30 11 -45 11q-27 0 -43 -33h-74q12 49 35 78q37 48 95 48q19 0 73 -18q40 -15 58 -15q31 1 47 33h73zM544 303q0 -43 -10 -80q-23 -103 -87 -163q-77 -73 -191 -73q-87 0 -141 45q-35 30 -53.5 75.5t-18.5 93.5
q0 68 29.5 136.5t80.5 111.5q30 25 84 46q48 16 95 16q44 0 86 -15q41 -15 69 -41.5t39 -57.5t14.5 -52t3.5 -42zM424 300q0 28 -7 48q-22 63 -94 63q-65 0 -104 -48q-24 -29 -39.5 -73.5t-15.5 -84.5q0 -50 26.5 -82.5t75.5 -32.5q33 0 61 15q70 38 91 138q6 33 6 57z" />
    <glyph glyph-name="odieresis" unicode="&#xf6;" 
d="M567 691l-28 -124h-126l28 124h126zM335 691l-28 -124h-127l29 124h126zM544 303q0 -43 -10 -80q-23 -103 -87 -163q-77 -73 -191 -73q-87 0 -141 45q-35 30 -53.5 75.5t-18.5 93.5q0 68 29.5 136.5t80.5 111.5q30 25 84 46q48 16 95 16q44 0 86 -15q41 -15 69 -41.5
t39 -57.5t14.5 -52t3.5 -42zM424 300q0 28 -7 48q-22 63 -94 63q-65 0 -104 -48q-24 -29 -39.5 -73.5t-15.5 -84.5q0 -50 26.5 -82.5t75.5 -32.5q33 0 61 15q70 38 91 138q6 33 6 57z" />
    <glyph glyph-name="divide" unicode="&#xf7;" horiz-adv-x="724" 
d="M512 557l-29 -129h-130l30 129h129zM685 368l-26 -111h-565l26 111h565zM429 195l-29 -128h-130l30 128h129z" />
    <glyph glyph-name="oslash" unicode="&#xf8;" 
d="M568 450l-52 -46q25 -42 25 -114q0 -46 -10 -85q-19 -72 -66 -127t-114 -78q-39 -13 -88 -13q-75 0 -129 35q-16 11 -25 20l-53 -46l-35 40l56 49q-4 5 -10 15q-23 44 -23 109q0 119 76 210q78 92 207 92q100 0 159 -62l48 42zM404 376q-10 11 -15 15q-27 22 -68 22
q-43 0 -81.5 -26.5t-59.5 -65.5q-24 -44 -24 -107q0 -27 8 -52zM430 293q0 17 -4 31l-236 -210q2 -4 8 -10q23 -21 63 -21q60 0 104.5 42.5t58.5 103.5q6 27 6 64z" />
    <glyph glyph-name="ugrave" unicode="&#xf9;" 
d="M430 570h-99l-88 136h150zM567 497l-115 -497h-111l12 53q-65 -62 -147 -62q-65 0 -107.5 33.5t-42.5 96.5q0 35 19 119l60 257h120l-56 -243q-17 -71 -17 -98q0 -10 3 -19q4 -16 20.5 -29.5t45.5 -13.5q58 0 95 52q28 38 53 145l48 206h120z" />
    <glyph glyph-name="uacute" unicode="&#xfa;" 
d="M539 706l-130 -136h-107l72 136h165zM567 497l-115 -497h-111l12 53q-65 -62 -147 -62q-65 0 -107.5 33.5t-42.5 96.5q0 35 19 119l60 257h120l-56 -243q-17 -71 -17 -98q0 -10 3 -19q4 -16 20.5 -29.5t45.5 -13.5q58 0 95 52q28 38 53 145l48 206h120z" />
    <glyph glyph-name="ucircumflex" unicode="&#xfb;" 
d="M529 571h-103l-38 77l-66 -77h-127l138 135h124zM567 497l-115 -497h-111l12 53q-65 -62 -147 -62q-65 0 -107.5 33.5t-42.5 96.5q0 35 19 119l60 257h120l-56 -243q-17 -71 -17 -98q0 -10 3 -19q4 -16 20.5 -29.5t45.5 -13.5q58 0 95 52q28 38 53 145l48 206h120z" />
    <glyph glyph-name="udieresis" unicode="&#xfc;" 
d="M567 691l-29 -124h-126l28 124h127zM334 691l-28 -124h-126l28 124h126zM567 497l-115 -497h-111l12 53q-65 -62 -147 -62q-65 0 -107.5 33.5t-42.5 96.5q0 35 19 119l60 257h120l-56 -243q-17 -71 -17 -98q0 -10 3 -19q4 -16 20.5 -29.5t45.5 -13.5q58 0 95 52
q28 38 53 145l48 206h120z" />
    <glyph glyph-name="yacute" unicode="&#xfd;" horiz-adv-x="458" 
d="M487 706l-130 -136h-107l72 136h165zM516 497l-283 -513q-48 -87 -71 -113q-46 -51 -120 -51q-18 0 -36.5 2t-33 4.5t-18.5 2.5l25 107q17 -5 50 -5q51 0 74 53l-46 513h122l13 -387l197 387h127z" />
    <glyph glyph-name="thorn" unicode="&#xfe;" horiz-adv-x="583" 
d="M564 302q0 -53 -16 -106.5t-47 -101t-83 -77.5t-116 -30q-106 -1 -148 73l-55 -240h-120l205 886h118l-61 -263q50 68 140 68q31 0 61 -10.5t58.5 -33t46 -65t17.5 -100.5zM442 299q0 50 -26 81t-76 31q-107 0 -140 -138q-1 -3 -1 -4q-9 -40 -9 -64q1 -35 12 -59
t28.5 -35t34 -15t34.5 -4q46 2 83.5 39t52.5 112q7 31 7 56z" />
    <glyph glyph-name="ydieresis" unicode="&#xff;" horiz-adv-x="458" 
d="M524 693l-29 -124h-126l28 124h127zM291 693l-28 -124h-127l29 124h126zM516 497l-283 -513q-24 -45 -33 -58q-32 -54 -66 -80t-90 -26q-32 0 -90 9l25 107q20 -5 50 -5q21 0 28 3q29 10 46 50l-46 513h122l13 -387l197 387h127z" />
    <glyph glyph-name="OE" unicode="&#x152;" horiz-adv-x="1062" 
d="M1125 706l-27 -115h-314l-39 -173h295l-26 -114h-296l-43 -187h366l-27 -117h-490l9 42q-87 -54 -186 -54q-67 0 -119 22q-63 27 -107.5 89t-44.5 173q0 66 18 133q19 72 52.5 128.5t73 90.5t74 53.5t69.5 29.5q48 14 105 14q44 0 68 -5q59 -10 127 -61l12 51h450z
M628 446q0 118 -86 155q-33 14 -73 14q-42 0 -79 -16t-62.5 -40.5t-38.5 -41.5t-22 -33q-24 -41 -39 -98t-15 -105q0 -77 35 -123q43 -58 130 -58q92 0 154 72q58 67 85 181q11 48 11 93z" />
    <glyph glyph-name="oe" unicode="&#x153;" horiz-adv-x="896" 
d="M882 290q0 -27 -4 -56h-349q-4 -21 -4 -40q0 -37 13 -59q14 -24 42 -37.5t57 -13.5q75 1 131 86l95 -51q-22 -35 -57 -67q-75 -65 -180 -65q-84 0 -136 44q-28 24 -43 55q-74 -100 -191 -99q-48 0 -91 17q-120 48 -120 198q0 24 3 47q3 20 9 41.5t19.5 56t40.5 67.5
t63 55q69 42 141 42q86 0 142 -60q14 -15 25 -34q23 28 34 39q63 55 154 55q52 0 95 -18q111 -47 111 -203zM765 317q0 65 -38 88q-21 13 -54 13q-28 0 -55 -12q-50 -22 -72 -89h219zM419 297q0 42 -17.5 68.5t-38.5 35.5q-18 9 -44 9q-37 0 -71 -21q-36 -23 -57.5 -66.5
t-25.5 -70t-4 -46.5q0 -51 25.5 -84t75.5 -33q34 0 63 15q69 36 89 147q5 25 5 46z" />
    <glyph glyph-name="Scaron" unicode="&#x160;" horiz-adv-x="625" 
d="M638 874l-127 -122h-132l-71 122h112l31 -65l59 65h128zM644 571l-114 -58q-9 27 -27.5 46.5t-35.5 28t-40 13t-29 4.5h-15q-54 0 -87.5 -22t-33.5 -57q0 -23 14 -40.5t22 -21.5t25 -11q26 -11 70 -25.5t68 -24.5q139 -60 139 -180q0 -62 -34 -113q-43 -65 -113 -93.5
t-141 -28.5q-17 0 -35 1t-60.5 12t-75 29.5t-64.5 59.5t-45 97l125 47q8 -52 48.5 -89.5t117.5 -38.5q65 -1 100 29t35 71q0 26 -15 46q-14 18 -39.5 30t-71.5 26.5t-77 27.5q-134 57 -134 172q0 62 38 111q33 44 92 72t139 27q156 -1 230 -103q6 -9 24 -44z" />
    <glyph glyph-name="scaron" unicode="&#x161;" horiz-adv-x="500" 
d="M536 706l-138 -135h-124l-72 135h103l38 -76l66 76h127zM502 401l-94 -56q-9 30 -40 51.5t-76 21.5q-38 0 -61 -14t-23 -38q0 -12 7.5 -21.5t23 -17t30 -12.5t38 -12t37.5 -12q16 -6 25.5 -10t29.5 -16.5t32 -25.5t22 -36t10 -50q0 -69 -54.5 -117t-157.5 -49
q-140 -1 -211 80q-22 26 -31 49l103 63q8 -38 44 -65t92 -28q42 0 68 15.5t26 42.5q0 21 -20 37q-8 7 -103 39q-29 10 -48.5 19t-41 24.5t-33 37.5t-11.5 51q-1 62 53 110.5t153 48.5q77 0 131 -31t80 -79z" />
    <glyph glyph-name="Ydieresis" unicode="&#x178;" horiz-adv-x="604" 
d="M638 874l-29 -123h-126l28 123h127zM405 874l-28 -123h-126l28 123h126zM726 706l-327 -425l-65 -281h-134l65 281l-147 425h137l96 -312l222 312h153z" />
    <glyph glyph-name="florin" unicode="&#x192;" horiz-adv-x="313" 
d="M424 686l-23 -101l-41 2q-23 1 -38 -4t-23.5 -18.5t-12.5 -25t-10 -35.5l-6 -24h106l-20 -86h-105l-89 -377q-17 -74 -33.5 -108t-53.5 -54q-34 -17 -75 -17q-40 0 -75 10l25 107q16 -6 36 -6q26 0 38 21t23 70l82 354h-79l20 86h79l5 20q25 97 40 124q12 21 29 34
q41 34 120 34q33 0 73 -5z" />
    <glyph glyph-name="circumflex" unicode="&#x2c6;" horiz-adv-x="271" 
d="M303 571h-103l-38 77l-66 -77h-128l138 135h124z" />
    <glyph glyph-name="tilde" unicode="&#x2dc;" horiz-adv-x="271" 
d="M326 706q-6 -23 -18 -48q-41 -78 -116 -78q-23 0 -85 22q-32 11 -45 11q-5 0 -10 -1t-8.5 -2.5t-7 -4.5t-5.5 -5t-4.5 -6t-3.5 -5.5l-3 -4.5l-1 -4h-74q7 41 35 78q38 48 94 48q25 0 73 -18q40 -15 58 -15q33 1 47 33h74z" />
    <glyph glyph-name="endash" unicode="&#x2013;" horiz-adv-x="610" 
d="M609 360l-26 -113h-528l26 113h528z" />
    <glyph glyph-name="emdash" unicode="&#x2014;" horiz-adv-x="893" 
d="M892 361l-26 -113h-811l26 113h811z" />
    <glyph glyph-name="quoteleft" unicode="&#x2018;" horiz-adv-x="250" 
d="M302 705l-14 -63q-26 -5 -29 -7q-6 -4 -11 -9.5t-8 -9.5t-6 -13t-4 -12.5t-3.5 -14t-2.5 -12.5h54l-31 -135h-133l31 135q15 61 24 79q35 63 107 63q17 0 26 -1z" />
    <glyph glyph-name="quoteright" unicode="&#x2019;" horiz-adv-x="250" 
d="M308 706l-31 -135q-13 -60 -25 -80q-37 -62 -108 -62q-16 0 -24 1l15 63q16 0 27.5 6t18.5 20.5t10 23t8 28.5h-54l31 135h132z" />
    <glyph glyph-name="quotesinglbase" unicode="&#x201a;" horiz-adv-x="250" 
d="M177 135l-32 -135q-18 -67 -23 -77q-35 -65 -110 -65q-16 0 -24 1l15 63q14 0 24 5.5t16 10.5t11.5 19t7 20t5.5 23h-54l31 135h133z" />
    <glyph glyph-name="quotedblleft" unicode="&#x201c;" horiz-adv-x="437" 
d="M486 705l-14 -63q-26 -5 -29 -7q-9 -5 -15.5 -14.5t-9 -16.5t-6 -21t-5.5 -19h55l-32 -135h-132l31 135q15 61 24 79q35 63 106 63q18 0 27 -1zM300 705l-15 -63q-52 -4 -64 -78h54l-31 -135h-133l31 135q13 58 24 79q35 63 107 63q18 0 27 -1z" />
    <glyph glyph-name="quotedblright" unicode="&#x201d;" horiz-adv-x="437" 
d="M495 706l-31 -135q-13 -60 -25 -80q-35 -62 -108 -62q-16 0 -24 1l14 63q14 0 24 5.5t16 10.5t11.5 19t7 20t5.5 23h-54l31 135h133zM308 706l-31 -135q-13 -58 -24 -79q-35 -63 -106 -63q-18 0 -27 1l15 63q53 0 64 78h-54l31 135h132z" />
    <glyph glyph-name="quotedblbase" unicode="&#x201e;" horiz-adv-x="437" 
d="M364 135l-32 -135q-15 -63 -24 -79q-35 -63 -109 -63q-16 0 -24 1l15 63q14 0 24 5.5t16 10.5t11.5 19t7 20t5.5 23h-54l31 135h133zM177 135l-31 -135q-13 -60 -25 -80q-35 -62 -108 -62q-16 0 -24 1l14 63q14 0 24 5.5t16 10.5t11.5 19t7 20t5.5 23h-54l31 135h133z
" />
    <glyph glyph-name="dagger" unicode="&#x2020;" horiz-adv-x="458" 
d="M509 480l-25 -112h-156l-95 -412h-121l95 412h-158l26 112h158l52 226h121l-53 -226h156z" />
    <glyph glyph-name="daggerdbl" unicode="&#x2021;" horiz-adv-x="479" 
d="M534 535l-25 -104h-155l-46 -196h156l-24 -105h-156l-40 -173h-122l40 173h-156l24 105h156l45 196h-156l24 104h156l40 171h122l-39 -171h156z" />
    <glyph glyph-name="bullet" unicode="&#x2022;" horiz-adv-x="333" 
d="M352 466l-51 -225h-228l52 225h227z" />
    <glyph glyph-name="ellipsis" unicode="&#x2026;" horiz-adv-x="1000" 
d="M873 111l-26 -111h-112l26 111h112zM540 111l-26 -111h-112l25 111h113zM206 111l-26 -111h-112l25 111h113z" />
    <glyph glyph-name="perthousand" unicode="&#x2030;" horiz-adv-x="1250" 
d="M1236 283q0 -49 -12 -97q-14 -61 -36 -101q-53 -94 -143 -94q-25 0 -49 7t-47 23.5t-37 50t-14 80.5q0 65 22.5 141.5t72.5 119.5q42 37 103 37q60 -1 100 -39.5t40 -127.5zM862 283q0 -38 -13 -97q-14 -61 -36 -101q-53 -94 -143 -94q-25 0 -49 7t-47 23.5t-37 50
t-14 80.5q0 65 22.5 141.5t72.5 119.5q42 37 103 37q60 -1 100.5 -39.5t40.5 -127.5zM728 658l-465 -670l-50 35l465 669zM416 522q0 -50 -12 -98q-13 -58 -36 -101q-52 -93 -143 -93q-26 0 -49.5 7t-46.5 23.5t-37 50t-14 80.5q0 65 22.5 141.5t72.5 119.5q42 36 103 36
q59 -1 99.5 -39t40.5 -127zM1151 296q0 79 -58 79q-31 0 -54 -29.5t-34 -71.5t-16 -74.5t-5 -50.5q0 -35 12 -59t46 -23q37 1 59 35.5t37 100.5q11 52 12 70q1 8 1 23zM776 296q0 79 -58 79q-31 0 -54 -29.5t-34 -71.5t-16 -74.5t-5 -50.5q0 -35 12 -59t46 -23q37 1 59.5 36
t37.5 100q10 46 11 70q1 8 1 23zM331 534q0 40 -16 60t-42 20q-31 0 -54 -30t-34 -72t-16 -74.5t-5 -50.5q0 -34 12.5 -58t45.5 -23q38 1 60 35.5t37 100.5q8 39 11 70q0 4 0.5 11t0.5 11z" />
    <glyph glyph-name="guilsinglleft" unicode="&#x2039;" horiz-adv-x="229" 
d="M260 480l-32 -140l-96 -50l71 -57l-28 -121l-135 127l27 117z" />
    <glyph glyph-name="guilsinglright" unicode="&#x203a;" horiz-adv-x="229" 
d="M230 352l-27 -116l-193 -124l32 140l96 50l-71 57l28 121z" />
    <glyph glyph-name="Euro" unicode="&#x20ac;" horiz-adv-x="725" 
d="M748 590l-63 -106q-39 52 -83 76t-105 24q-143 0 -205 -145h369l-42 -73h-351q-3 -14 -5 -38h333l-41 -73h-294q20 -162 196 -162q115 0 205 82l-35 -147q-86 -43 -194 -43q-142 0 -224 66t-86 204h-98l44 73h57q0 6 1 12t2.5 13.5l2.5 12.5h-84l43 73h59q50 129 135 191
t221 62q80 0 135.5 -22.5t106.5 -79.5z" />
    <glyph glyph-name="trademark" unicode="&#x2122;" horiz-adv-x="687" 
d="M737 706l-76 -332h-66l62 263l-131 -263h-58l-6 267l-58 -267h-67l77 332h104l3 -233l111 233h105zM372 706l-13 -58h-88l-63 -274h-72l63 274h-95l14 58h254z" />
    </font>
</defs>
</svg>
