<?xml version="1.0" standalone="no"?>
<!DOCTYPE svg PUBLIC "-//W3C//DTD SVG 1.1//EN" "http://www.w3.org/Graphics/SVG/1.1/DTD/svg11.dtd" >
<svg xmlns="http://www.w3.org/2000/svg" xmlns:xlink="http://www.w3.org/1999/xlink" version="1.1">
<metadata>
Created by FontForge 20170731 at Thu May 17 20:00:01 2007
 By Aleksey,,,
Copyright  2001, Berthold LLC. All rights reserved. Akzidenz-Grotesk is a trademark of Berthold Types Limited.
</metadata>
<defs>
<font id="AkzidenzGroteskBQ-MedExtIt" horiz-adv-x="750" >
  <font-face 
    font-family="Akzidenz-Grotesk BQ Extended"
    font-weight="500"
    font-style="italic"
    font-stretch="normal"
    units-per-em="1000"
    panose-1="0 0 0 0 0 0 0 0 0 0"
    ascent="800"
    descent="-200"
    x-height="501"
    cap-height="706"
    bbox="-145 -249 1586 932"
    underline-thickness="104"
    underline-position="-488"
    slope="-13"
    unicode-range="U+0020-2122"
  />
<missing-glyph horiz-adv-x="500" 
 />
    <glyph glyph-name=".notdef" horiz-adv-x="500" 
 />
    <glyph glyph-name=".null" horiz-adv-x="0" 
 />
    <glyph glyph-name="nonmarkingreturn" horiz-adv-x="333" 
 />
    <glyph glyph-name="space" unicode=" " horiz-adv-x="375" 
 />
    <glyph glyph-name="exclam" unicode="!" horiz-adv-x="333" 
d="M360 706l-64 -280q-3 -10 -10 -29.5t-11 -29.5l-56 -159h-113l22 172q5 46 8 59l61 267h163zM226 125l-29 -125h-163l29 125h163z" />
    <glyph glyph-name="quotedbl" unicode="&#x22;" horiz-adv-x="328" 
d="M407 740l-109 -288h-24l26 288h107zM218 740l-109 -288h-25l27 288h107z" />
    <glyph glyph-name="numbersign" unicode="#" horiz-adv-x="691" 
d="M699 508l-23 -100h-139l-31 -94h137l-23 -100h-144l-68 -214h-101l68 214h-130l-68 -214h-102l68 214h-142l23 100h149l30 94h-146l23 100h154l61 198h104l-62 -198h129l62 198h101l-62 -198h132zM436 408h-131l-31 -94h132z" />
    <glyph glyph-name="dollar" unicode="$" horiz-adv-x="812" 
d="M800 543l-168 -37q-19 39 -44.5 57t-83.5 31l-40 -171l83 -20q28 -7 58 -18q53 -20 83 -48q48 -45 48 -114q0 -116 -92.5 -180t-259.5 -64h-22l-29 -125h-82l30 130q-79 12 -131 33q-42 18 -81 51q-27 23 -44 46.5t-36 65.5l-5 11l166 39q36 -95 161 -116l44 185
q-12 3 -29 7t-22 6q-60 15 -102 34q-108 50 -108 153q0 41 19.5 82.5t51.5 70.5q84 74 266 74q11 0 22 -1l23 104h82l-25 -109q73 -10 132 -36q42 -19 75 -50q22 -21 33.5 -38.5t26.5 -52.5zM424 602h-10q-70 0 -109.5 -23.5t-39.5 -65.5q0 -31 28 -43q21 -10 93 -29z
M566 203q0 31 -22 45q-23 16 -111 36l-41 -176q57 0 93 11q81 24 81 84z" />
    <glyph glyph-name="percent" unicode="%" horiz-adv-x="1125" 
d="M1094 258q0 -121 -71.5 -195t-181.5 -74q-98 0 -153 49t-55 136q0 121 71 195.5t185 74.5q150 0 193 -107q12 -31 12 -79zM857 625l-525 -652l-62 45l523 652zM493 466q-5 -122 -74 -195.5t-178 -73.5q-98 0 -153 49t-55 136q0 121 70.5 196t184.5 75q94 0 151.5 -47.5
t53.5 -139.5zM973 267q0 42 -21.5 65.5t-60.5 23.5q-35 0 -57.5 -11t-41.5 -40q-37 -56 -37 -130q0 -94 88 -94q53 0 91.5 55t38.5 131zM372 475q0 42 -21 66t-60 24q-34 0 -57 -11.5t-42 -40.5q-37 -56 -37 -130q0 -94 88 -94q53 0 91 54.5t38 131.5z" />
    <glyph glyph-name="ampersand" unicode="&#x26;" horiz-adv-x="792" 
d="M736 250q-29 -50 -58 -82q-25 -27 -63 -53l91 -115h-200l-26 37q-5 -2 -12 -6l-7 -4q-78 -39 -206 -39q-113 0 -175 39q-80 50 -80 137q0 54 27 94q19 29 51 50t61 31.5t96 26.5q-30 36 -40 61q-11 28 -11 58q0 79 60.5 124t166.5 45q100 0 159.5 -40t59.5 -107
q0 -39 -19 -72q-17 -27 -39 -45q-26 -21 -51 -33t-75 -27l91 -117q3 3 9.5 10t10.5 12q11 11 22 27zM482 497q0 21 -19 33.5t-51 12.5t-50 -14t-18 -40q0 -18 13 -41q5 -8 24 -34q56 20 76 37q25 21 25 46zM409 131l-111 147l-30 -9q-57 -17 -82 -36q-28 -23 -28 -56
q0 -36 31 -57.5t82 -21.5q25 0 55 6q36 8 83 27z" />
    <glyph glyph-name="quotesingle" unicode="'" horiz-adv-x="138" 
d="M218 740l-109 -288h-25l27 288h107z" />
    <glyph glyph-name="parenleft" unicode="(" horiz-adv-x="375" 
d="M456 712q-58 -53 -87.5 -85.5t-59.5 -78.5q-117 -178 -117 -386q0 -54 9 -107q8 -48 21 -80.5t44 -85.5l-51 -44q-62 58 -89 93.5t-49 88.5q-34 82 -34 184q0 131 61 252q35 71 87 130q45 51 88.5 84t130.5 82z" />
    <glyph glyph-name="parenright" unicode=")" horiz-adv-x="375" 
d="M320 390q0 -130 -61 -252q-36 -70 -87 -129q-45 -51 -88.5 -84t-130.5 -82l-46 47q58 53 87.5 85.5t59.5 78.5q117 178 117 386q0 53 -9 106q-8 49 -21 81.5t-44 85.5l51 44q61 -57 88 -93t50 -89q34 -82 34 -185z" />
    <glyph glyph-name="asterisk" unicode="*" horiz-adv-x="378" 
d="M402 521l-103 -11l39 -90l-78 -36l-43 95l-76 -67l-56 66l73 65l-86 50l43 75l89 -50l24 99l84 -20l-24 -101l105 10z" />
    <glyph glyph-name="plus" unicode="+" horiz-adv-x="772" 
d="M689 366l-30 -132h-216l-48 -208h-162l48 208h-217l31 132h217l47 206h162l-47 -206h215z" />
    <glyph glyph-name="comma" unicode="," horiz-adv-x="292" 
d="M183 143l-33 -140q-19 -85 -60 -120q-23 -20 -53.5 -27.5t-87.5 -7.5l11 48q54 8 72 23q19 17 35 81h-83l33 143h166z" />
    <glyph glyph-name="hyphen" unicode="-" horiz-adv-x="393" 
d="M366 370l-30 -130h-327l30 130h327z" />
    <glyph glyph-name="period" unicode="." horiz-adv-x="292" 
d="M183 143l-33 -143h-164l33 143h164z" />
    <glyph glyph-name="slash" unicode="/" horiz-adv-x="500" 
d="M541 706l-438 -706h-144l440 706h142z" />
    <glyph glyph-name="zero" unicode="0" 
d="M708 399q0 -129 -68 -246q-46 -79 -126.5 -121t-184.5 -42q-173 0 -250 102q-50 64 -50 165q0 185 104 296t276 111q141 0 220 -70t79 -195zM532 396q0 142 -137 142q-83 0 -132 -67q-29 -38 -46 -93.5t-17 -112.5q0 -74 35.5 -111.5t96.5 -37.5q96 0 143 81
q25 43 41 98.5t16 100.5z" />
    <glyph glyph-name="one" unicode="1" 
d="M555 652l-151 -652h-166l112 484q-46 -25 -96 -37q-46 -11 -99 -13l28 122q52 7 89 19t62 26q35 19 71 51h150z" />
    <glyph glyph-name="two" unicode="2" 
d="M698 480q0 -93 -62 -147q-20 -19 -57 -40q-41 -23 -80.5 -37t-142.5 -42q-72 -19 -110 -39q-34 -18 -61 -47h433l-29 -128h-625q10 40 21 73q30 91 93 148q33 30 81 54q62 30 181 67q133 41 163 79q16 20 16 47q0 36 -30 55.5t-86 19.5q-66 0 -100 -23t-52 -81h-167
q32 119 109.5 172.5t218.5 53.5q139 0 212.5 -48t73.5 -137z" />
    <glyph glyph-name="three" unicode="3" 
d="M720 494q0 -66 -45 -108q-18 -18 -49 -31q-38 -16 -98 -22q146 -21 146 -131q0 -101 -91 -159t-248 -58t-242.5 55t-85.5 155q0 16 1 26l176 5q-1 -6 -1 -17q0 -97 146 -97q79 0 126.5 27.5t47.5 73.5q0 71 -128 68l-112 -2l22 108l91 1q78 1 104 10q28 9 43.5 28
t15.5 43q0 36 -36 55.5t-103 19.5q-48 0 -84 -13q-16 -6 -30 -18q-18 -16 -33 -47l-171 12q18 43 32 64t39 44q86 79 258 79q151 0 230 -44t79 -127z" />
    <glyph glyph-name="four" unicode="4" 
d="M682 250l-27 -116h-108l-31 -134h-163l31 134h-380l27 116l462 400h173l-92 -400h108zM466 490l-263 -240h208z" />
    <glyph glyph-name="five" unicode="5" 
d="M716 650l-27 -119l-397 1l-42 -124q66 47 168 47q118 0 184 -53t66 -147q0 -59 -26.5 -112t-73.5 -88q-90 -68 -248 -68q-144 0 -227 55q-41 27 -61 63t-27 97l172 5q6 -40 31 -61q44 -38 122 -38q73 0 120.5 38t47.5 96q0 52 -38 81.5t-104 29.5q-89 0 -139 -60l-153 11
l106 346h546z" />
    <glyph glyph-name="six" unicode="6" 
d="M739 468l-173 -12q-14 35 -33 53q-41 36 -118 36q-92 0 -146 -66q-15 -19 -27 -42q-10 -19 -23 -62q70 57 181 57q129 0 206 -53.5t77 -142.5q0 -110 -89.5 -179.5t-233.5 -69.5q-154 -1 -241 69.5t-87 193.5q0 133 64 238q52 86 138 131t197 45q170 0 256 -94
q34 -36 52 -102zM511 221q0 47 -42 74.5t-115 27.5t-116 -29.5t-43 -78.5q0 -47 42 -74t115 -27q74 0 116.5 29t42.5 78z" />
    <glyph glyph-name="seven" unicode="7" 
d="M723 648l-25 -106q-10 -5 -23 -12t-14 -7q-101 -55 -184 -144q-113 -123 -168 -262q-19 -51 -35 -117h-177q8 24 20 56q44 119 113 222q65 95 153 170q50 43 110 79h-399l26 121h603z" />
    <glyph glyph-name="eight" unicode="8" 
d="M703 494q0 -65 -45.5 -106.5t-133.5 -56.5q147 -24 147 -138q0 -69 -51 -120q-32 -34 -78 -51q-91 -35 -210 -35q-145 0 -230.5 50t-85.5 135q0 41 20.5 77t56.5 58q48 29 130 38q-42 11 -64 24q-61 34 -61 105q0 89 83 141.5t222 52.5q70 0 135 -14q165 -38 165 -160z
M531 472q0 77 -129 77q-66 0 -103.5 -23.5t-37.5 -65.5q0 -75 135 -75q63 0 99 23t36 64zM497 203q0 86 -142 86q-75 0 -117 -26t-42 -72q0 -40 38.5 -63t105.5 -23q73 0 115 26t42 72z" />
    <glyph glyph-name="nine" unicode="9" 
d="M705 403q0 -127 -61 -241q-96 -176 -336 -176q-132 0 -208.5 49t-104.5 151l173 13q16 -38 32 -56q38 -38 121 -38q93 0 147 66q15 18 27 42q12 25 23 61q-69 -55 -180 -55q-130 0 -207 53t-77 142q0 110 89.5 179t233.5 69q152 0 240 -69t88 -190zM542 435
q0 47 -42 73.5t-117 26.5q-73 0 -115.5 -29t-42.5 -78q0 -47 41.5 -73.5t115.5 -26.5t117 29t43 78z" />
    <glyph glyph-name="colon" unicode=":" horiz-adv-x="333" 
d="M289 430l-33 -143h-164l33 143h164zM224 143l-33 -143h-164l33 143h164z" />
    <glyph glyph-name="semicolon" unicode=";" horiz-adv-x="333" 
d="M289 430l-33 -143h-164l33 143h164zM226 143l-33 -140q-19 -82 -61 -120q-24 -20 -54 -27.5t-86 -7.5l11 48q54 8 72 23t35 81h-83l33 143h166z" />
    <glyph glyph-name="less" unicode="&#x3c;" horiz-adv-x="772" 
d="M705 600l-36 -157l-389 -136l326 -141l-36 -151l-491 224l35 147z" />
    <glyph glyph-name="equal" unicode="=" horiz-adv-x="772" 
d="M711 488l-31 -132h-584l31 132h584zM654 245l-30 -133h-584l31 133h583z" />
    <glyph glyph-name="greater" unicode="&#x3e;" horiz-adv-x="772" 
d="M676 375l-36 -147l-591 -214l37 158l389 135l-326 142l35 150z" />
    <glyph glyph-name="question" unicode="?" horiz-adv-x="688" 
d="M703 550q0 -52 -22 -93q-17 -32 -47.5 -57.5t-90.5 -56.5l-44 -23q-52 -27 -67 -47q-14 -18 -25 -65h-165l5 25q10 48 19.5 71t29.5 43q9 10 31 26q25 16 74 40q61 31 82 44q49 31 49 77q0 35 -32 54.5t-90 19.5q-66 0 -102 -29q-34 -26 -54 -95l-159 8l8 24
q29 91 84 138q80 70 237 70q135 0 207 -44.5t72 -129.5zM387 125l-28 -125h-165l28 125h165z" />
    <glyph glyph-name="at" unicode="@" horiz-adv-x="904" 
d="M845 426q0 -89 -37.5 -172t-99 -134t-126.5 -51q-83 0 -89 77q-27 -28 -44 -42q-44 -35 -101 -35q-64 0 -102 42.5t-38 113.5q0 116 72.5 205.5t166.5 89.5q47 0 83 -30q17 -16 32 -42l14 51h85l-41 -154q-1 -2 -3.5 -14t-5.5 -22q-27 -102 -27 -132q0 -37 27 -37
q14 0 33 13q52 35 88.5 113.5t36.5 155.5q0 103 -69 163t-186 60q-164 0 -287.5 -125t-123.5 -291q0 -131 88 -208.5t237 -77.5q94 0 183 35q51 19 85.5 41t89.5 70l41 -51q-65 -55 -105 -79.5t-98 -46.5q-96 -36 -194 -36q-181 0 -290.5 96.5t-109.5 255.5q0 98 39 187.5
t105 154.5t156.5 103.5t188.5 38.5q149 0 237.5 -77.5t88.5 -208.5zM528 350q0 43 -21 68.5t-57 25.5q-56 0 -100.5 -65t-44.5 -146q0 -40 20 -63t55 -23q40 0 72 30t54 80.5t22 92.5z" />
    <glyph glyph-name="A" unicode="A" horiz-adv-x="875" 
d="M799 0h-186l-29 133h-362l-91 -133h-205l504 706h191zM555 258l-59 279l-188 -279h247z" />
    <glyph glyph-name="B" unicode="B" horiz-adv-x="854" 
d="M823 560q0 -54 -30 -98q-37 -58 -126 -79q40 -13 59 -27q55 -41 55 -116q0 -61 -29 -115.5t-77 -83.5q-29 -18 -63 -27q-53 -14 -152 -14h-460l163 706h440q85 0 133 -16q40 -13 63.5 -48t23.5 -82zM643 520q0 28 -13 44q-17 20 -77 20h-243l-36 -155h248q28 0 36 1
q30 2 53 18q32 26 32 72zM608 234q0 23 -9 38q-7 14 -22 22q-21 11 -76 11h-256l-41 -181h265q71 0 101 23q38 28 38 87z" />
    <glyph glyph-name="C" unicode="C" horiz-adv-x="896" 
d="M930 469l-198 -6q-51 132 -217 132q-124 0 -202.5 -75.5t-78.5 -195.5q0 -98 64 -156t173 -58q145 0 219 110l185 -15q-37 -69 -76 -106q-39 -36 -88 -61q-58 -31 -112.5 -43t-137.5 -12q-165 0 -265 60q-73 43 -111.5 112t-38.5 154q0 128 73 234q128 183 396 183
q150 0 260 -59q65 -34 108 -91q28 -39 47 -107z" />
    <glyph glyph-name="D" unicode="D" horiz-adv-x="895" 
d="M863 432q0 -108 -41 -202t-111 -148q-83 -64 -199 -75q-74 -7 -175 -7h-337l163 706h346q153 0 228 -39q126 -65 126 -235zM683 413q0 74 -35 117q-25 29 -65.5 40t-127.5 11h-145l-105 -456h142q92 0 133 7q71 12 119 60q36 37 60 99.5t24 121.5z" />
    <glyph glyph-name="E" unicode="E" horiz-adv-x="791" 
d="M821 706l-30 -127h-480l-37 -159h465l-29 -126h-465l-39 -168h501l-29 -126h-678l163 706h658z" />
    <glyph glyph-name="F" unicode="F" horiz-adv-x="729" 
d="M816 706l-30 -127h-476l-42 -180h449l-29 -126h-449l-63 -273h-176l163 706h653z" />
    <glyph glyph-name="G" unicode="G" horiz-adv-x="958" 
d="M943 523l-203 -28q-29 56 -81.5 80.5t-140.5 24.5q-106 0 -181 -60q-48 -38 -77.5 -101.5t-29.5 -128.5q0 -97 61.5 -150t172.5 -53q104 0 179 47q24 15 43 34q24 23 46 63h-230l29 127h379l-88 -378h-135l19 82q-43 -42 -92 -65q-84 -39 -196 -39q-179 0 -278.5 82.5
t-99.5 230.5q0 83 33.5 164t92.5 139q139 137 380 137q147 0 249 -51q54 -26 93 -70q29 -33 55 -87z" />
    <glyph glyph-name="H" unicode="H" horiz-adv-x="938" 
d="M943 706l-163 -706h-177l70 303h-426l-70 -303h-177l163 706h177l-63 -272h426l63 272h177z" />
    <glyph glyph-name="I" unicode="I" horiz-adv-x="333" 
d="M340 706l-163 -706h-177l163 706h177z" />
    <glyph glyph-name="J" unicode="J" horiz-adv-x="479" 
d="M484 706l-111 -483q-30 -131 -94.5 -185t-190.5 -54q-32 0 -70 5q-27 5 -65 13l34 146q58 -11 99 -11q53 0 78.5 25t41.5 92l103 452h175z" />
    <glyph glyph-name="K" unicode="K" horiz-adv-x="832" 
d="M893 706l-402 -306l302 -400h-224l-217 300l-128 -92l-48 -208h-176l163 706h176l-70 -303l382 303h242z" />
    <glyph glyph-name="L" unicode="L" horiz-adv-x="667" 
d="M599 130l-30 -130h-569l163 706h177l-133 -576h392z" />
    <glyph glyph-name="M" unicode="M" horiz-adv-x="1103" 
d="M1108 706l-163 -706h-168l130 543l-359 -543h-155l-102 544l-123 -544h-168l163 706h253l93 -523l343 523h256z" />
    <glyph glyph-name="N" unicode="N" horiz-adv-x="937" 
d="M941 706l-163 -706h-174l-321 503l-115 -503h-168l163 706h177l316 -505l117 505h168z" />
    <glyph glyph-name="O" unicode="O" horiz-adv-x="958" 
d="M925 403q0 -68 -21 -137t-57 -119q-123 -172 -385 -172q-194 0 -303 90t-109 251q0 187 125.5 301t330.5 114q87 0 159.5 -17t132.5 -54t93.5 -102.5t33.5 -154.5zM742 389q0 103 -60 158.5t-173 55.5t-184 -61q-44 -37 -68.5 -96t-24.5 -127q0 -102 62.5 -158.5
t175.5 -56.5q125 0 198.5 77.5t73.5 207.5z" />
    <glyph glyph-name="P" unicode="P" horiz-adv-x="791" 
d="M819 522q0 -60 -24.5 -112.5t-67.5 -84.5q-48 -36 -120 -49q-62 -10 -126 -10h-246l-61 -266h-174l163 706h383q79 0 104 -2t57 -12q52 -15 82 -60.5t30 -109.5zM638 502q0 34 -17 54q-11 14 -26 20q-23 8 -80 8h-206l-45 -194h217q87 0 120 26q37 29 37 86z" />
    <glyph glyph-name="Q" unicode="Q" horiz-adv-x="958" 
d="M943 23l-95 -123l-155 121q-108 -46 -231 -46q-194 0 -303 90t-109 251q0 188 125.5 301.5t334.5 113.5q200 0 307.5 -85.5t107.5 -243.5q0 -162 -111 -293zM742 389q0 103 -60 158.5t-173 55.5t-184 -61q-44 -37 -68.5 -96t-24.5 -127q0 -102 62.5 -158.5t175.5 -56.5
q125 0 198.5 77.5t73.5 207.5z" />
    <glyph glyph-name="R" unicode="R" horiz-adv-x="854" 
d="M860 531q0 -52 -21 -99.5t-58 -78.5q-51 -43 -153 -58l147 -295h-209l-123 284h-201l-66 -284h-176l163 706h432q53 0 71 -1q74 -3 117 -26q36 -19 56.5 -58t20.5 -90zM680 509q0 38 -24 56q-23 17 -93 17h-253l-40 -173h284q126 0 126 100z" />
    <glyph glyph-name="S" unicode="S" horiz-adv-x="812" 
d="M807 539l-175 -33q-24 50 -66 69q-64 27 -144 27q-73 0 -112.5 -21.5t-39.5 -62.5q0 -32 27 -46q11 -4 24 -9q53 -17 144 -38q20 -4 38.5 -8.5t30.5 -7t14 -3.5q64 -16 106 -41q83 -49 83 -139q0 -88 -59 -153q-85 -94 -303 -94q-60 0 -117 9q-117 17 -190 81
q-53 47 -86 128l168 33q22 -59 82.5 -90.5t152.5 -31.5q82 0 129.5 25t47.5 69q0 18 -6 28q-9 15 -28 23.5t-69 19.5l-68 15q-25 6 -88 21q-57 13 -102 35q-56 28 -81.5 63t-25.5 86q0 97 71 159q86 74 266 74q137 0 234 -42q54 -23 86.5 -56.5t55.5 -88.5z" />
    <glyph glyph-name="T" unicode="T" horiz-adv-x="729" 
d="M795 706l-29 -129h-261l-133 -577h-178l133 577h-262l30 129h700z" />
    <glyph glyph-name="U" unicode="U" horiz-adv-x="917" 
d="M924 706l-95 -410q-21 -90 -44 -141t-60 -88q-44 -43 -96 -60q-90 -32 -214 -32q-154 0 -252 53q-103 54 -103 184q0 48 18 128l85 366h176l-87 -371q-13 -58 -13 -91q0 -126 199 -126q101 0 152 45q19 16 31 39q18 34 39 125l88 379h176z" />
    <glyph glyph-name="V" unicode="V" horiz-adv-x="812" 
d="M886 706l-480 -706h-172l-156 706h187l92 -520l331 520h198z" />
    <glyph glyph-name="W" unicode="W" horiz-adv-x="1062" 
d="M1139 706l-348 -706h-173l-50 516l-288 -516h-176l-23 706h167l-10 -500l278 500h184l46 -493l220 493h173z" />
    <glyph glyph-name="X" unicode="X" horiz-adv-x="875" 
d="M907 706l-359 -339l243 -367h-216l-156 261l-267 -261h-233l409 374l-212 332h214l125 -230l228 230h224z" />
    <glyph glyph-name="Y" unicode="Y" horiz-adv-x="854" 
d="M931 706l-439 -441l-61 -265h-176l61 265l-234 441h209l140 -296l277 296h223z" />
    <glyph glyph-name="Z" unicode="Z" horiz-adv-x="812" 
d="M844 706l-29 -125l-569 -452h474l-30 -129h-725l29 129l568 452h-433l29 125h686z" />
    <glyph glyph-name="bracketleft" unicode="[" horiz-adv-x="375" 
d="M445 753l-20 -89h-110l-168 -728h110l-20 -87h-246l208 904h246z" />
    <glyph glyph-name="backslash" unicode="\" horiz-adv-x="495" 
d="M405 0h-127l-192 706h129z" />
    <glyph glyph-name="bracketright" unicode="]" horiz-adv-x="375" 
d="M367 752l-209 -903h-246l21 89h110l168 728h-110l20 86h246z" />
    <glyph glyph-name="asciicircum" unicode="^" horiz-adv-x="772" 
d="M664 286l-162 1l-61 253l-172 -254h-183l317 420h149z" />
    <glyph glyph-name="underscore" unicode="_" horiz-adv-x="500" 
d="M374 -228h-519l24 105h519z" />
    <glyph glyph-name="grave" unicode="`" horiz-adv-x="313" 
d="M258 571h-100l-103 125h170z" />
    <glyph glyph-name="a" unicode="a" horiz-adv-x="743" 
d="M674 368q0 -31 -14 -89l-47 -203q-7 -28 -7 -41q0 -16 12 -35h-179q-1 9 -1 18q0 15 4 35q-31 -25 -55 -37q-64 -32 -170 -32q-107 0 -163 38t-56 110q0 88 73 136q70 47 253 47h179l3 13q2 7 2 22q0 30 -30.5 43.5t-99.5 13.5q-70 0 -105 -15q-20 -9 -34 -32l-166 2
q50 158 321 158q144 0 212 -36.5t68 -115.5zM484 232h-43q-74 0 -149 -5q-36 -3 -63 -11q-58 -18 -58 -65q0 -56 95 -56q78 0 139 35t75 87z" />
    <glyph glyph-name="b" unicode="b" 
d="M692 303q0 -139 -91 -229.5t-230 -90.5q-64 0 -110 17t-89 56l-12 -56h-164l163 706h164l-58 -247q33 33 76 48q49 17 102 17q114 0 181.5 -60t67.5 -161zM520 280q0 60 -37 94t-97 34q-77 0 -124.5 -48t-47.5 -126q0 -60 37.5 -95.5t99.5 -35.5q71 0 120 51t49 126z" />
    <glyph glyph-name="c" unicode="c" horiz-adv-x="699" 
d="M679 349l-176 -13q-18 26 -33 37q-39 26 -100 26q-86 0 -136.5 -44t-50.5 -118q0 -62 40 -97.5t110 -35.5q61 0 107 25q25 14 49 44l164 -29q-24 -37 -41.5 -55t-48.5 -40q-98 -69 -237 -69q-143 0 -227 66.5t-84 180.5q0 133 98 215.5t256 82.5q247 0 310 -176z" />
    <glyph glyph-name="d" unicode="d" 
d="M753 706l-162 -706h-164l10 42q-71 -64 -179 -64q-115 0 -182 59.5t-67 162.5q0 141 92.5 230t238.5 89q125 0 189 -74l60 261h164zM484 270q0 60 -37.5 96t-99.5 36q-71 0 -120 -51t-49 -126q0 -61 37.5 -95t98.5 -34q75 0 122.5 48.5t47.5 125.5z" />
    <glyph glyph-name="e" unicode="e" horiz-adv-x="748" 
d="M684 223h-503q9 -125 165 -125q111 0 159 70l167 -17q-95 -172 -344 -172q-147 0 -232 66t-85 181q0 135 97 216t259 81t243 -78q44 -41 61 -102q12 -46 13 -120zM516 313q-24 97 -151 97q-61 0 -105 -25.5t-63 -71.5h319z" />
    <glyph glyph-name="f" unicode="f" horiz-adv-x="375" 
d="M458 704l-25 -107q-23 8 -46 8q-32 0 -51 -14q-14 -11 -22 -29t-18 -61h115l-22 -98h-115l-94 -403h-165l94 403h-80l22 98h80l11 48q21 90 69 130t136 40q51 0 111 -15z" />
    <glyph glyph-name="g" unicode="g" horiz-adv-x="749" 
d="M713 501l-102 -437q-18 -76 -42.5 -123t-62.5 -78q-85 -68 -243 -68q-140 0 -217 46.5t-86 137.5h178q18 -69 129 -69q91 0 133.5 39t59.5 139q-33 -30 -66 -44q-59 -26 -133 -26q-115 0 -180 54.5t-65 152.5q0 130 89.5 211.5t231.5 81.5q95 0 156 -37q24 -14 49 -39
l14 59h157zM499 283q0 54 -38 86t-101 32q-75 0 -122.5 -41t-47.5 -107q0 -52 33.5 -84.5t90.5 -32.5h20q73 0 119 41t46 106z" />
    <glyph glyph-name="h" unicode="h" horiz-adv-x="766" 
d="M688 346q0 -35 -16 -105l-55 -241h-165l57 250q6 25 6 51q0 97 -124 97q-59 0 -103 -27q-53 -33 -73 -120l-57 -251h-163l163 706h164l-63 -274q46 46 94.5 65.5t118.5 19.5q104 0 160 -44.5t56 -126.5z" />
    <glyph glyph-name="i" unicode="i" horiz-adv-x="313" 
d="M317 682l-26 -112h-164l26 112h164zM276 501l-116 -501h-164l116 501h164z" />
    <glyph glyph-name="j" unicode="j" horiz-adv-x="313" 
d="M318 682l-25 -111h-165l26 111h164zM277 501l-117 -504q-8 -33 -11 -43q-22 -70 -53 -100q-50 -48 -154 -48q-8 0 -26.5 1t-36.5 1l27 117h6q40 0 56.5 12t24.5 48l119 516h165z" />
    <glyph glyph-name="k" unicode="k" horiz-adv-x="708" 
d="M707 501l-270 -196l195 -305h-198l-131 215l-112 -80l-32 -135h-163l162 706h164l-91 -395l250 190h226z" />
    <glyph glyph-name="l" unicode="l" horiz-adv-x="313" 
d="M323 706l-163 -706h-164l163 706h164z" />
    <glyph glyph-name="m" unicode="m" horiz-adv-x="1139" 
d="M1061 346q0 -35 -16 -105l-55 -241h-165l58 250q6 26 6 50q0 45 -25 69.5t-71 24.5q-52 0 -89 -23q-29 -18 -45.5 -46.5t-29.5 -83.5l-55 -241h-165l57 250q6 25 6 50q0 45 -24.5 69.5t-70.5 24.5q-67 0 -106 -34.5t-56 -108.5l-57 -251h-163l116 501h163l-17 -72
q28 32 54 49q59 39 140 39q131 0 180 -99q81 99 226 99q96 0 150 -45.5t54 -125.5z" />
    <glyph glyph-name="n" unicode="n" horiz-adv-x="766" 
d="M688 346q0 -35 -16 -105l-55 -241h-165l57 250q6 25 6 51q0 97 -124 97q-59 0 -103 -27q-53 -33 -73 -120l-57 -251h-163l116 501h163l-17 -72q32 34 63 53q61 35 152 35q103 0 159.5 -44.5t56.5 -126.5z" />
    <glyph glyph-name="o" unicode="o" horiz-adv-x="762" 
d="M706 282q0 -137 -101 -219t-269 -82q-151 0 -236 65.5t-85 181.5q0 135 99 216t264 81q155 0 241.5 -64t86.5 -179zM537 268q0 63 -44.5 100t-119.5 37q-85 0 -137 -45.5t-52 -119.5q0 -64 44.5 -101.5t121.5 -37.5q83 0 135 46.5t52 120.5z" />
    <glyph glyph-name="p" unicode="p" 
d="M693 301q0 -141 -92.5 -230t-238.5 -89q-124 0 -190 74l-57 -248h-164l160 693h164l-10 -42q70 62 178 62q116 0 183 -59t67 -161zM524 277q0 53 -30 87.5t-82 40.5q-8 1 -23 1q-75 0 -122.5 -48.5t-47.5 -125.5q0 -60 37 -96t99 -36q71 0 120 51t49 126z" />
    <glyph glyph-name="q" unicode="q" 
d="M707 501l-161 -693h-164l56 234q-36 -34 -77 -48q-48 -17 -101 -17q-114 0 -182 60t-68 161q0 139 91 229.5t230 90.5q64 0 110.5 -17t88.5 -56l13 56h164zM488 268q0 60 -37.5 96t-99.5 36q-71 0 -120 -51.5t-49 -126.5q0 -53 30.5 -87.5t82.5 -39.5q7 -1 21 -1
q77 0 124.5 48t47.5 126z" />
    <glyph glyph-name="r" unicode="r" horiz-adv-x="458" 
d="M494 518l-34 -149q-18 2 -40 2q-88 0 -137 -30q-19 -13 -33 -31q-25 -33 -38 -92l-51 -218h-166l116 501h166l-20 -87q35 55 90 79.5t141 24.5h6z" />
    <glyph glyph-name="s" unicode="s" horiz-adv-x="708" 
d="M666 351l-173 -2q-10 35 -44 52q-40 20 -101 20q-103 0 -103 -47q0 -14 12 -23q15 -9 52 -17q8 -1 15.5 -2.5t14.5 -3t10 -2.5l69 -11q127 -21 167 -51q43 -33 43 -88q0 -88 -79.5 -140t-214.5 -52q-39 0 -109 9q-109 16 -162 61q-28 23 -40.5 49.5t-20.5 75.5l180 4
q4 -25 11.5 -38t25.5 -24q40 -26 130 -26q102 0 102 51q0 19 -20.5 29.5t-71.5 18.5l-50 8q-16 2 -52 9q-57 10 -91 22q-96 36 -96 119t74 130.5t204 47.5q151 0 234 -49q34 -20 61 -58q16 -25 23 -72z" />
    <glyph glyph-name="t" unicode="t" horiz-adv-x="375" 
d="M410 501l-22 -98h-120l-50 -214q-4 -16 -4 -33q0 -37 48 -37q21 0 55 4l-28 -119l-20 -3q-16 -1 -47 -3q-40 -2 -50 -2q-133 0 -133 104q0 17 3 32q6 27 13 56l49 215h-75l22 98h76l32 140h164l-32 -140h119z" />
    <glyph glyph-name="u" unicode="u" horiz-adv-x="766" 
d="M731 501l-115 -501h-163l17 73q-33 -35 -64 -54q-60 -35 -152 -35q-103 0 -159 44.5t-56 126.5q0 40 15 105l55 241h165l-57 -250q-6 -24 -6 -50q0 -98 125 -98q57 0 103 27q52 32 72 120l57 251h163z" />
    <glyph glyph-name="v" unicode="v" horiz-adv-x="646" 
d="M676 501l-344 -501h-186l-111 501h178l54 -359l225 359h184z" />
    <glyph glyph-name="w" unicode="w" horiz-adv-x="1042" 
d="M1070 501l-335 -501h-174l-45 357l-209 -357h-175l-99 501h173l45 -347l204 347h179l45 -347l206 347h185z" />
    <glyph glyph-name="x" unicode="x" 
d="M752 501l-291 -234l208 -267h-212l-115 178l-195 -178h-229l333 274l-183 227h217l90 -144l151 144h226z" />
    <glyph glyph-name="y" unicode="y" horiz-adv-x="625" 
d="M655 501l-361 -534q-61 -90 -92 -117q-19 -16 -49 -28q-38 -15 -110 -15q-58 0 -128 5l28 118q70 -5 93 -5q24 0 40 5q12 4 22 13q11 9 44 57l-110 501h171l52 -381l222 381h178z" />
    <glyph glyph-name="z" unicode="z" horiz-adv-x="665" 
d="M646 501l-20 -86l-377 -301h318l-27 -114h-579l19 82l391 310h-299l26 109h548z" />
    <glyph glyph-name="braceleft" unicode="{" horiz-adv-x="358" 
d="M447 757l-16 -71q-61 -9 -75 -15q-20 -9 -31 -32.5t-27 -91.5l-20 -87q-18 -81 -43 -111q-11 -14 -25 -24q-22 -15 -62 -24q36 -14 50.5 -35t14.5 -58q0 -34 -9 -68l-21 -85q-15 -63 -15 -88q0 -22 14 -33q14 -12 69 -17l-16 -72h-51q-157 0 -157 109q0 23 11 71l26 108
q10 40 10 71q0 47 -50 62l15 68q30 6 46 17q12 7 18 15q21 26 38 102l25 110q5 22 15 52q20 66 54 92q21 17 46 23q50 12 119 12h47z" />
    <glyph glyph-name="bar" unicode="|" horiz-adv-x="252" 
d="M288 752l-209 -903h-137l209 903h137z" />
    <glyph glyph-name="braceright" unicode="}" horiz-adv-x="359" 
d="M309 336l-16 -68q-26 -6 -46 -17q-12 -7 -18 -15q-21 -26 -38 -102l-25 -110q-5 -22 -15 -52q-11 -37 -22.5 -57t-30.5 -35q-23 -17 -47 -23q-44 -12 -119 -12h-46l16 71q55 7 74 15q20 10 31 33.5t27 90.5l20 87q18 79 43 111q9 12 25 24q22 15 62 24q-36 14 -50.5 35
t-14.5 58q0 34 9 68l21 85q15 62 15 88q0 23 -14 33q-14 12 -69 17l16 72h52q156 0 156 -109q0 -24 -11 -71l-25 -108q-11 -44 -11 -72q0 -46 51 -61z" />
    <glyph glyph-name="asciitilde" unicode="~" horiz-adv-x="772" 
d="M707 288q-31 -28 -51 -41.5t-55 -29.5q-58 -27 -109 -27q-44 0 -122 32l-39 16q-62 25 -99 25q-22 0 -41 -6q-38 -11 -90 -55l-14 -12l-49 119q51 43 85 63q59 35 126 35q46 0 120 -30l52 -21q57 -23 85 -23q39 0 78 21q28 14 75 51z" />
    <glyph glyph-name="exclamdown" unicode="&#xa1;" horiz-adv-x="333" 
d="M353 706l-29 -125h-163l29 125h163zM281 498l-22 -172q-5 -46 -8 -59l-61 -267h-163l64 280q3 10 10 29.5t11 29.5l56 159h113z" />
    <glyph glyph-name="cent" unicode="&#xa2;" horiz-adv-x="701" 
d="M676 349l-176 -13q-18 27 -36.5 39.5t-49.5 17.5l-67 -289q50 4 90 25q27 15 49 44l164 -29q-24 -37 -41.5 -55t-48.5 -40q-48 -34 -97 -49t-130 -20l-15 -1l-29 -126h-81l31 134q-111 22 -168.5 83t-57.5 157q0 132 96.5 215t250.5 83h4l25 108h80l-26 -114
q46 -6 71 -14t59 -29q75 -44 103 -127zM334 397q-154 -24 -154 -160q0 -94 88 -125z" />
    <glyph glyph-name="sterling" unicode="&#xa3;" horiz-adv-x="792" 
d="M759 533q0 -20 -2 -39l-176 -10q7 27 7 47q0 85 -115 85q-59 0 -92.5 -29.5t-33.5 -82.5q0 -33 22 -97l7 -20h163l-14 -62h-124q13 -49 13 -76q0 -54 -35 -110q52 -22 88 -22q39 0 61 26t32 85h167q-30 -126 -83 -183t-141 -57q-38 0 -66 8q-38 10 -94 44q-3 1 -13.5 7.5
t-18.5 11.5q-75 -69 -183 -69q-60 0 -97 17q-26 12 -42.5 38.5t-16.5 57.5q0 59 42 95t111 36q59 0 135 -42q0 6 0.5 13.5t0.5 9.5q0 13 -3 27q-5 28 -33 83h-168l14 62h123q-25 61 -25 108q0 101 73 163q76 65 239 65q142 0 210 -46.5t68 -143.5zM224 110q-60 42 -103 42
q-22 0 -35 -11.5t-13 -30.5q0 -17 14.5 -27t40.5 -10q6 0 28 4q32 8 68 33z" />
    <glyph glyph-name="currency" unicode="&#xa4;" horiz-adv-x="751" 
d="M733 547l-91 -73q30 -68 30 -118q0 -90 -60 -170l75 -85l-107 -87l-76 85q-79 -34 -142 -34q-84 0 -157 49l-93 -76l-89 97l93 75q-30 57 -30 117q0 97 60 170l-77 84l108 87l76 -83q62 34 140 34q86 0 159 -48l94 75zM527 337v14q0 61 -39 101t-99 40q-67 0 -113 -46
t-46 -113q0 -60 41 -100t102 -40t107.5 42t46.5 102z" />
    <glyph glyph-name="yen" unicode="&#xa5;" horiz-adv-x="854" 
d="M927 666l-265 -256h96l-24 -103h-179l-56 -54h223l-24 -104h-227l-35 -149h-176l35 149h-224l24 104h220l-30 54h-178l24 103h95l-148 256h212l146 -276l271 276h220z" />
    <glyph glyph-name="brokenbar" unicode="&#xa6;" horiz-adv-x="252" 
d="M288 752l-86 -369h-137l86 369h137zM164 218l-85 -369h-137l85 369h137z" />
    <glyph glyph-name="section" unicode="&#xa7;" 
d="M731 544l-139 -18q-8 25 -18.5 38t-33.5 25q-58 29 -142 29q-110 0 -110 -50q0 -20 22 -33.5t92 -35.5q57 -18 74 -24q81 -25 130 -49q83 -42 83 -125q0 -103 -114 -161q43 -39 43 -98q0 -90 -87 -146t-226 -56q-128 0 -215 48q-34 20 -63 48q-25 25 -36 48.5t-21 68.5
l155 19q11 -58 57 -86q55 -35 142 -35q61 0 96.5 18t35.5 49q0 25 -23 40.5t-91 35.5q-128 39 -169 54t-74 36q-28 17 -42 34q-26 35 -26 84q0 114 144 154q-15 13 -17 16q-27 32 -27 82q0 59 50 106q69 61 221 61q147 0 240 -49q74 -40 89 -128zM550 270q0 14 -7 27
q-9 13 -17 18q-21 15 -156 55q-51 14 -85 28q-8 3 -18 7.5t-16 6.5q-65 -31 -65 -82q0 -18 13 -33q14 -15 54 -31t134 -44q8 -2 22 -6.5t22 -6.5q31 -10 69 -26q50 41 50 87z" />
    <glyph glyph-name="dieresis" unicode="&#xa8;" horiz-adv-x="313" 
d="M347 693l-28 -123h-149l28 123h149zM141 693l-28 -123h-147l28 123h147z" />
    <glyph glyph-name="copyright" unicode="&#xa9;" horiz-adv-x="833" 
d="M773 357q0 -152 -103 -256t-254 -104q-148 0 -251.5 103.5t-103.5 252.5t103.5 252.5t251.5 103.5t252.5 -103t104.5 -249zM733 352q0 135 -91.5 227.5t-224.5 92.5q-131 0 -223.5 -93.5t-92.5 -226.5t92 -225.5t223 -92.5q132 0 224.5 92.5t92.5 225.5zM654 420l-104 -3
q-27 77 -114 77q-66 0 -107 -43.5t-41 -111.5q0 -56 33.5 -89.5t91.5 -33.5q77 0 116 64l102 -9q-67 -135 -226 -135q-97 0 -157.5 55t-60.5 144q0 101 71.5 168.5t178.5 67.5q76 0 135 -35q64 -40 82 -116z" />
    <glyph glyph-name="ordfeminine" unicode="&#xaa;" horiz-adv-x="479" 
d="M500 600q0 -21 -4 -40l-32 -137q-4 -20 -4 -23q0 -15 10 -34h-123q-1 6 -1 13q0 10 1 23q-55 -48 -141 -48q-73 0 -111 26t-38 75q0 56 45 89q28 20 75 27.5t140 7.5h70q1 6 1 15q0 20 -21.5 28.5t-72.5 8.5q-37 0 -52 -6t-25 -24h-114q4 12 8 23q15 30 40 49
q49 39 168 39q93 0 137 -27t44 -85zM372 515q-18 0 -55 -1q-87 -3 -113 -13q-27 -10 -27 -35q0 -32 63 -32q48 0 84.5 21t45.5 53q1 4 2 7z" />
    <glyph glyph-name="guillemotleft" unicode="&#xab;" horiz-adv-x="562" 
d="M542 477l-26 -111l-151 -120l97 -115l-21 -94l-186 166l24 105zM296 477l-26 -111l-151 -120l97 -115l-21 -94l-186 166l24 105z" />
    <glyph glyph-name="logicalnot" unicode="&#xac;" horiz-adv-x="772" 
d="M689 366l-80 -347h-161l49 215h-461l31 132h622z" />
    <glyph glyph-name="registered" unicode="&#xae;" horiz-adv-x="833" 
d="M773 354q0 -150 -103.5 -253.5t-254.5 -103.5q-148 0 -251 103.5t-103 252.5t103.5 252.5t252.5 103.5t252.5 -103t103.5 -252zM733 352q0 135 -91.5 227.5t-224.5 92.5q-131 0 -223 -93.5t-92 -226.5t92 -225.5t223 -92.5q132 0 224 92.5t92 225.5zM639 448
q0 -56 -31 -92q-31 -35 -107 -49l92 -160h-104l-87 159h-62l-35 -159h-94l94 416h163q94 0 129 -24q42 -29 42 -91zM542 440q0 24 -15 36q-16 13 -66 13h-79l-25 -108h82q63 0 82 14q21 16 21 45z" />
    <glyph glyph-name="macron" unicode="&#xaf;" horiz-adv-x="313" 
d="M344 665l-21 -93h-354l21 93h354z" />
    <glyph glyph-name="degree" unicode="&#xb0;" horiz-adv-x="355" 
d="M405 585q0 -72 -50.5 -122.5t-121.5 -50.5t-121.5 50.5t-50.5 121.5t50.5 121.5t121.5 50.5q71 1 121.5 -49.5t50.5 -121.5zM310 583q0 31 -22.5 53.5t-54.5 22.5t-54.5 -22t-22.5 -53q0 -32 23 -54.5t54 -22.5t54 22.5t23 53.5z" />
    <glyph glyph-name="plusminus" unicode="&#xb1;" horiz-adv-x="772" 
d="M723 521l-30 -133h-216l-46 -198h-162l46 198h-217l31 133h217l44 191h162l-44 -191h215zM634 132l-30 -132h-595l31 132h594z" />
    <glyph glyph-name="twosuperior" unicode="&#xb2;" horiz-adv-x="478" 
d="M487 531q0 -47 -24 -81q-21 -30 -62 -52t-121 -45q-53 -15 -74.5 -25t-53.5 -32h284l-16 -90h-418q5 27 10 47q19 67 69 106t159 72q65 20 93.5 40.5t28.5 48.5q0 47 -74 47q-50 0 -72 -18q-20 -15 -31 -51h-117q20 87 71.5 123t155.5 36q91 0 141.5 -33t50.5 -93z" />
    <glyph glyph-name="threesuperior" unicode="&#xb3;" horiz-adv-x="478" 
d="M496 540q0 -90 -104 -112q76 -20 76 -85q0 -68 -64 -108t-173 -40q-110 0 -164 40.5t-56 125.5l126 4q2 -40 16 -54q23 -24 83 -24q107 0 107 60q0 16 -8 26q-9 11 -28.5 15t-66.5 4h-59l16 78h42q63 0 91 8q35 11 35 45q0 44 -87 44q-40 0 -62 -9.5t-35 -34.5l-123 8
q22 53 52 78q59 48 178 48q101 0 154.5 -30t53.5 -87z" />
    <glyph glyph-name="acute" unicode="&#xb4;" horiz-adv-x="313" 
d="M285 696l-154 -124h-103l78 124h179z" />
    <glyph glyph-name="mu" unicode="&#xb5;" horiz-adv-x="771" 
d="M742 501l-100 -425q-7 -29 -7 -41q0 -14 12 -35h-183l15 72q-64 -83 -182 -83q-39 0 -74 12q-27 12 -50 34l-53 -227h-164l162 693h165l-57 -244q-9 -36 -9 -61q0 -44 30.5 -70t83.5 -26q80 0 133 47q13 12 25 27q17 24 32 84l57 243h164z" />
    <glyph glyph-name="paragraph" unicode="&#xb6;" horiz-adv-x="640" 
d="M643 706l-18 -80h-34l-183 -792h-86l183 792h-118l-183 -792h-87l112 485q-60 21 -88 59.5t-28 99.5q0 57 26 107.5t71 79.5q62 41 172 41h261z" />
    <glyph glyph-name="periodcentered" unicode="&#xb7;" horiz-adv-x="292" 
d="M230 352l-33 -143h-164l33 143h164z" />
    <glyph glyph-name="cedilla" unicode="&#xb8;" horiz-adv-x="313" 
d="M282 -144q0 -47 -41.5 -76t-107.5 -29q-33 0 -102 15l13 49q33 -5 51 -5q68 0 68 41q0 29 -45 29q-22 0 -51 -7l-6 28l114 106h57l-79 -83q9 1 20 1q52 0 80.5 -18t28.5 -51z" />
    <glyph glyph-name="onesuperior" unicode="&#xb9;" horiz-adv-x="478" 
d="M392 648l-102 -442h-118l75 323q-41 -17 -58 -22q-24 -6 -74 -11l20 85q47 5 87 23q34 16 64 44h106z" />
    <glyph glyph-name="ordmasculine" unicode="&#xba;" horiz-adv-x="499" 
d="M523 556q0 -14 -3 -29q-13 -83 -81 -132t-169 -49q-93 0 -152 44t-59 113q0 92 71.5 151.5t181.5 59.5q94 0 152.5 -44t58.5 -114zM403 544q0 38 -27 60t-73 22q-53 0 -88 -30.5t-35 -77.5q0 -39 27 -61.5t74 -22.5q48 0 81 25.5t39 67.5q2 10 2 17z" />
    <glyph glyph-name="guillemotright" unicode="&#xbb;" horiz-adv-x="562" 
d="M511 313l-24 -105l-263 -169l26 111l152 119l-98 115l22 95zM265 313l-24 -105l-263 -169l26 111l152 119l-98 115l22 95z" />
    <glyph glyph-name="onequarter" unicode="&#xbc;" horiz-adv-x="1125" 
d="M1041 174l-19 -84h-71l-21 -90h-118l21 89h-268l18 81l328 271h121l-62 -267h71zM851 627l-525 -652l-62 45l524 652zM397 648l-102 -442h-118l75 323q-41 -17 -58 -22q-24 -6 -74 -11l20 85q47 5 87 23q34 16 64 44h106zM887 322l-166 -149h132z" />
    <glyph glyph-name="onehalf" unicode="&#xbd;" horiz-adv-x="1125" 
d="M1070 324q0 -46 -23 -80q-21 -30 -61.5 -51.5t-121.5 -45.5q-53 -15 -74.5 -25t-53.5 -32h284l-16 -90h-418q5 27 10 47q19 67 69 106t159 72q65 20 93.5 40.5t28.5 48.5q0 47 -74 47q-47 0 -73 -18q-19 -15 -30 -51h-117q20 87 71.5 122.5t155.5 35.5q92 0 141.5 -32.5
t49.5 -93.5zM798 627l-525 -652l-62 45l524 652zM376 648l-103 -442h-118l75 323q-41 -17 -58 -22q-24 -6 -74 -11l20 85q47 5 87 23q34 16 65 44h106z" />
    <glyph glyph-name="threequarters" unicode="&#xbe;" horiz-adv-x="1125" 
d="M1080 174l-20 -84h-71l-20 -90h-118l20 89h-268l19 81l328 271h120l-61 -267h71zM890 627l-525 -652l-62 45l524 652zM493 540q0 -90 -103 -112q75 -20 75 -85q0 -68 -64 -108t-173 -40q-110 0 -164 40.5t-56 125.5l126 4q2 -39 16 -54q24 -24 84 -24q106 0 106 60
q0 16 -8 26q-9 11 -28 15t-67 4h-58l15 78h42q63 0 91 8q35 11 35 45q0 44 -87 44q-40 0 -61.5 -9.5t-34.5 -34.5l-123 8q22 53 51 78q59 48 179 48q101 0 154 -30t53 -87zM926 322l-166 -149h132z" />
    <glyph glyph-name="questiondown" unicode="&#xbf;" horiz-adv-x="688" 
d="M502 706l-29 -125h-165l29 125h165zM601 214q-1 -4 -2.5 -8.5l-3 -9t-2.5 -6.5q-29 -91 -84 -138q-82 -70 -237 -70q-136 0 -207.5 44.5t-71.5 128.5q0 54 21 94q16 31 47 57t91 57l45 23q52 27 67 46q14 20 25 66h165l-5 -25q-10 -48 -19.5 -71t-29.5 -43
q-13 -15 -31 -26q-18 -12 -74 -40q-61 -31 -82 -44q-49 -31 -49 -77q0 -35 32 -54.5t89 -19.5q67 0 103 29q33 26 54 95z" />
    <glyph glyph-name="Agrave" unicode="&#xc0;" horiz-adv-x="875" 
d="M590 760h-100l-112 125h170zM799 0h-186l-29 133h-362l-91 -133h-205l504 706h191zM555 258l-59 279l-188 -279h247z" />
    <glyph glyph-name="Aacute" unicode="&#xc1;" horiz-adv-x="875" 
d="M708 885l-162 -124h-101l85 124h178zM799 0h-186l-29 133h-362l-91 -133h-205l504 706h191zM555 258l-59 279l-188 -279h247z" />
    <glyph glyph-name="Acircumflex" unicode="&#xc2;" horiz-adv-x="875" 
d="M715 761h-106l-64 78l-103 -78h-122l125 124h204zM799 0h-186l-29 133h-362l-91 -133h-205l504 706h191zM555 258l-59 279l-188 -279h247z" />
    <glyph glyph-name="Atilde" unicode="&#xc3;" horiz-adv-x="875" 
d="M725 884q-21 -64 -51 -92t-79 -28q-39 0 -98 21q-52 19 -68 19q-31 0 -49 -35h-58q17 60 47.5 88.5t77.5 28.5q29 0 84 -20q54 -19 81 -19q41 0 55 37h58zM799 0h-186l-29 133h-362l-91 -133h-205l504 706h191zM555 258l-59 279l-188 -279h247z" />
    <glyph glyph-name="Adieresis" unicode="&#xc4;" horiz-adv-x="875" 
d="M791 880l-29 -126h-164l29 126h164zM487 880l-29 -126h-164l29 126h164zM799 0h-186l-29 133h-362l-91 -133h-205l504 706h191zM555 258l-59 279l-188 -279h247z" />
    <glyph glyph-name="Aring" unicode="&#xc5;" horiz-adv-x="875" 
d="M667 829q0 -46 -35 -74.5t-93 -28.5t-95.5 29.5t-37.5 74.5q0 44 37 73t94 29q56 0 93 -29.5t37 -73.5zM799 0h-186l-29 133h-362l-91 -133h-205l504 706h191zM590 828q0 22 -15 36t-40 14q-23 0 -37.5 -14t-14.5 -36q0 -21 15 -35t38 -14t38.5 14t15.5 35zM555 258
l-59 279l-188 -279h247z" />
    <glyph glyph-name="AE" unicode="&#xc6;" horiz-adv-x="1104" 
d="M1132 706l-28 -124h-347l-38 -164h331l-28 -124h-332l-39 -170h369l-29 -124h-539l39 170h-226l-130 -170h-203l548 706h652zM590 616l-239 -322h165z" />
    <glyph glyph-name="Ccedilla" unicode="&#xc7;" horiz-adv-x="896" 
d="M930 469l-198 -6q-51 132 -217 132q-124 0 -202.5 -75.5t-78.5 -195.5q0 -98 64 -156t173 -58q145 0 219 110l185 -15q-12 -21 -13 -23q-51 -91 -151 -144q-58 -31 -109.5 -42.5t-137.5 -12.5l-55 -59q9 1 20 1q108 0 108 -69q0 -47 -41 -76t-107 -29q-33 0 -101 15
l12 49q33 -5 51 -5q67 0 67 41q0 29 -45 29q-21 0 -51 -7l-5 28l90 83q-81 8 -120 19t-91 40q-70 38 -110 110t-40 157q0 127 73 233q128 183 396 183q150 0 260 -59q65 -34 108 -91q28 -39 47 -107z" />
    <glyph glyph-name="Egrave" unicode="&#xc8;" horiz-adv-x="791" 
d="M558 760h-100l-112 125h170zM821 706l-30 -127h-480l-37 -159h465l-29 -126h-465l-39 -168h501l-29 -126h-678l163 706h658z" />
    <glyph glyph-name="Eacute" unicode="&#xc9;" horiz-adv-x="791" 
d="M681 885l-162 -124h-101l85 124h178zM821 706l-30 -127h-480l-37 -159h465l-29 -126h-465l-39 -168h501l-29 -126h-678l163 706h658z" />
    <glyph glyph-name="Ecircumflex" unicode="&#xca;" horiz-adv-x="791" 
d="M685 761h-106l-64 78l-103 -78h-122l125 124h204zM821 706l-30 -127h-480l-37 -159h465l-29 -126h-465l-39 -168h501l-29 -126h-678l163 706h658z" />
    <glyph glyph-name="Edieresis" unicode="&#xcb;" horiz-adv-x="791" 
d="M760 880l-29 -126h-164l29 126h164zM456 880l-29 -126h-164l29 126h164zM821 706l-30 -127h-480l-37 -159h465l-29 -126h-465l-39 -168h501l-29 -126h-678l163 706h658z" />
    <glyph glyph-name="Igrave" unicode="&#xcc;" horiz-adv-x="313" 
d="M313 760h-100l-112 125h170zM323 706l-163 -706h-164l163 706h164z" />
    <glyph glyph-name="Iacute" unicode="&#xcd;" horiz-adv-x="313" 
d="M441 885l-162 -124h-101l86 124h177zM323 706l-163 -706h-164l163 706h164z" />
    <glyph glyph-name="Icircumflex" unicode="&#xce;" horiz-adv-x="313" 
d="M437 761h-106l-64 78l-103 -78h-122l125 124h204zM323 706l-163 -706h-164l163 706h164z" />
    <glyph glyph-name="Idieresis" unicode="&#xcf;" horiz-adv-x="313" 
d="M511 880l-29 -126h-164l29 126h164zM207 880l-29 -126h-164l29 126h164zM323 706l-163 -706h-164l163 706h164z" />
    <glyph glyph-name="Eth" unicode="&#xd0;" horiz-adv-x="895" 
d="M863 432q0 -108 -41 -202t-111 -148q-83 -64 -199 -75q-74 -7 -175 -7h-337l71 306h-78l26 115h78l66 285h346q153 0 228 -39q126 -65 126 -235zM683 413q0 74 -35 117q-25 29 -65.5 40t-127.5 11h-145l-37 -160h186l-27 -115h-186l-41 -181h142q92 0 133 7q71 12 119 60
q36 37 60 99.5t24 121.5z" />
    <glyph glyph-name="Ntilde" unicode="&#xd1;" horiz-adv-x="937" 
d="M768 884q-21 -64 -51 -92t-79 -28q-39 0 -98 21q-52 19 -68 19q-32 0 -49 -35h-58q17 60 47.5 88.5t77.5 28.5q29 0 84 -20q54 -19 81 -19q41 0 55 37h58zM941 706l-163 -706h-174l-321 503l-115 -503h-168l163 706h177l316 -505l117 505h168z" />
    <glyph glyph-name="Ograve" unicode="&#xd2;" horiz-adv-x="958" 
d="M597 760h-100l-112 125h170zM925 403q0 -68 -21 -137t-57 -119q-123 -172 -385 -172q-194 0 -303 90t-109 251q0 187 125.5 301t330.5 114q87 0 159.5 -17t132.5 -54t93.5 -102.5t33.5 -154.5zM742 389q0 103 -60 158.5t-173 55.5t-184 -61q-44 -37 -68.5 -96t-24.5 -127
q0 -102 62.5 -158.5t175.5 -56.5q125 0 198.5 77.5t73.5 207.5z" />
    <glyph glyph-name="Oacute" unicode="&#xd3;" horiz-adv-x="958" 
d="M696 885l-162 -124h-101l85 124h178zM925 403q0 -68 -21 -137t-57 -119q-123 -172 -385 -172q-194 0 -303 90t-109 251q0 187 125.5 301t330.5 114q87 0 159.5 -17t132.5 -54t93.5 -102.5t33.5 -154.5zM742 389q0 103 -60 158.5t-173 55.5t-184 -61q-44 -37 -68.5 -96
t-24.5 -127q0 -102 62.5 -158.5t175.5 -56.5q125 0 198.5 77.5t73.5 207.5z" />
    <glyph glyph-name="Ocircumflex" unicode="&#xd4;" horiz-adv-x="958" 
d="M716 761h-106l-64 78l-103 -78h-122l125 124h204zM925 403q0 -68 -21 -137t-57 -119q-123 -172 -385 -172q-194 0 -303 90t-109 251q0 187 125.5 301t330.5 114q87 0 159.5 -17t132.5 -54t93.5 -102.5t33.5 -154.5zM742 389q0 103 -60 158.5t-173 55.5t-184 -61
q-44 -37 -68.5 -96t-24.5 -127q0 -102 62.5 -158.5t175.5 -56.5q125 0 198.5 77.5t73.5 207.5z" />
    <glyph glyph-name="Otilde" unicode="&#xd5;" horiz-adv-x="958" 
d="M707 884q-21 -64 -51 -92t-79 -28q-39 0 -98 21q-52 19 -68 19q-31 0 -49 -35h-58q17 60 47.5 88.5t77.5 28.5q29 0 84 -20q54 -19 81 -19q41 0 55 37h58zM925 403q0 -68 -21 -137t-57 -119q-123 -172 -385 -172q-194 0 -303 90t-109 251q0 187 125.5 301t330.5 114
q87 0 159.5 -17t132.5 -54t93.5 -102.5t33.5 -154.5zM742 389q0 103 -60 158.5t-173 55.5t-184 -61q-44 -37 -68.5 -96t-24.5 -127q0 -102 62.5 -158.5t175.5 -56.5q125 0 198.5 77.5t73.5 207.5z" />
    <glyph glyph-name="Odieresis" unicode="&#xd6;" horiz-adv-x="958" 
d="M785 880l-29 -126h-164l29 126h164zM481 880l-29 -126h-164l29 126h164zM925 403q0 -68 -21 -137t-57 -119q-123 -172 -385 -172q-194 0 -303 90t-109 251q0 187 125.5 301t330.5 114q87 0 159.5 -17t132.5 -54t93.5 -102.5t33.5 -154.5zM742 389q0 103 -60 158.5
t-173 55.5t-184 -61q-44 -37 -68.5 -96t-24.5 -127q0 -102 62.5 -158.5t175.5 -56.5q125 0 198.5 77.5t73.5 207.5z" />
    <glyph glyph-name="multiply" unicode="&#xd7;" horiz-adv-x="772" 
d="M666 445l-176 -133l143 -141l-126 -96l-143 141l-177 -134l-96 94l178 134l-144 142l126 95l144 -141l176 133z" />
    <glyph glyph-name="Oslash" unicode="&#xd8;" horiz-adv-x="958" 
d="M962 655l-91 -66q54 -78 54 -187q0 -145 -78 -255q-121 -172 -385 -172q-185 0 -305 91l-102 -73l-43 55l97 71q-59 85 -59 196q0 189 125 302.5t334 113.5q69 0 134 -12q105 -20 177 -77l99 71zM687 544q-62 59 -182 59q-124 0 -198.5 -77.5t-74.5 -207.5q0 -48 18 -95z
M742 394q0 44 -16 89l-436 -319q66 -60 181 -60q125 0 198 78t73 212z" />
    <glyph glyph-name="Ugrave" unicode="&#xd9;" horiz-adv-x="917" 
d="M616 760h-100l-111 125h170zM924 706l-95 -410q-21 -90 -44 -141t-60 -88q-44 -43 -96 -60q-90 -32 -214 -32q-154 0 -252 53q-103 54 -103 184q0 48 18 128l85 366h176l-87 -371q-13 -58 -13 -91q0 -126 199 -126q101 0 152 45q19 16 31 39q18 34 39 125l88 379h176z
" />
    <glyph glyph-name="Uacute" unicode="&#xda;" horiz-adv-x="917" 
d="M724 885l-163 -124h-100l85 124h178zM924 706l-95 -410q-21 -90 -44 -141t-60 -88q-44 -43 -96 -60q-90 -32 -214 -32q-154 0 -252 53q-103 54 -103 184q0 48 18 128l85 366h176l-87 -371q-13 -58 -13 -91q0 -126 199 -126q101 0 152 45q19 16 31 39q18 34 39 125l88 379
h176z" />
    <glyph glyph-name="Ucircumflex" unicode="&#xdb;" horiz-adv-x="917" 
d="M735 761h-106l-64 78l-103 -78h-122l125 124h204zM924 706l-95 -410q-21 -90 -44 -141t-60 -88q-44 -43 -96 -60q-90 -32 -214 -32q-154 0 -252 53q-103 54 -103 184q0 48 18 128l85 366h176l-87 -371q-13 -58 -13 -91q0 -126 199 -126q101 0 152 45q19 16 31 39
q18 34 39 125l88 379h176z" />
    <glyph glyph-name="Udieresis" unicode="&#xdc;" horiz-adv-x="917" 
d="M810 880l-30 -126h-164l30 126h164zM506 880l-30 -126h-163l29 126h164zM924 706l-95 -410q-21 -90 -44 -141t-60 -88q-44 -43 -96 -60q-90 -32 -214 -32q-154 0 -252 53q-103 54 -103 184q0 48 18 128l85 366h176l-87 -371q-13 -58 -13 -91q0 -126 199 -126
q101 0 152 45q19 16 31 39q18 34 39 125l88 379h176z" />
    <glyph glyph-name="Yacute" unicode="&#xdd;" horiz-adv-x="854" 
d="M692 885l-162 -124h-101l85 124h178zM931 706l-439 -441l-61 -265h-176l61 265l-234 441h209l140 -296l277 296h223z" />
    <glyph glyph-name="Thorn" unicode="&#xde;" horiz-adv-x="791" 
d="M792 403q0 -60 -24.5 -112.5t-67.5 -84.5q-49 -36 -120 -49q-62 -10 -125 -10h-246l-35 -147h-174l163 706h175l-27 -119h164q100 0 134.5 -3t70.5 -12q52 -14 82 -59t30 -110zM611 383q0 35 -16 54q-14 17 -38.5 22.5t-86.5 5.5h-188l-45 -194h217q87 0 120 26
q37 29 37 86z" />
    <glyph glyph-name="germandbls" unicode="&#xdf;" 
d="M698 565q0 -67 -38 -105.5t-118 -53.5q77 -13 111.5 -48t34.5 -102q0 -74 -38 -140q-76 -130 -263 -130q-45 0 -124 14l-28 5l23 99q63 -16 102 -16q71 0 116 46.5t45 121.5q0 93 -123 93q-15 0 -61 -2l-17 -1l23 101q16 -1 33 -1q57 0 87 10q28 10 45.5 35.5t17.5 56.5
q0 76 -109 76q-63 0 -94 -25q-15 -13 -23 -28q-15 -30 -26 -80l-113 -491h-165l115 497q16 69 37 106.5t60 65.5q77 55 219 55q271 0 271 -159z" />
    <glyph glyph-name="agrave" unicode="&#xe0;" horiz-adv-x="743" 
d="M455 571h-100l-103 125h170zM674 368q0 -31 -14 -89l-47 -203q-7 -28 -7 -41q0 -16 12 -35h-179q-1 9 -1 18q0 15 4 35q-31 -25 -55 -37q-64 -32 -170 -32q-107 0 -163 38t-56 110q0 88 73 136q70 47 253 47h179l3 13q2 7 2 22q0 30 -30.5 43.5t-99.5 13.5
q-70 0 -105 -15q-20 -9 -34 -32l-166 2q50 158 321 158q144 0 212 -36.5t68 -115.5zM484 232h-43q-74 0 -149 -5q-36 -3 -63 -11q-58 -18 -58 -65q0 -56 95 -56q78 0 139 35t75 87z" />
    <glyph glyph-name="aacute" unicode="&#xe1;" horiz-adv-x="743" 
d="M570 696l-154 -124h-102l78 124h178zM674 368q0 -31 -14 -89l-47 -203q-7 -28 -7 -41q0 -16 12 -35h-179q-1 9 -1 18q0 15 4 35q-31 -25 -55 -37q-64 -32 -170 -32q-107 0 -163 38t-56 110q0 88 73 136q70 47 253 47h179l3 13q2 7 2 22q0 30 -30.5 43.5t-99.5 13.5
q-70 0 -105 -15q-20 -9 -34 -32l-166 2q50 158 321 158q144 0 212 -36.5t68 -115.5zM484 232h-43q-74 0 -149 -5q-36 -3 -63 -11q-58 -18 -58 -65q0 -56 95 -56q78 0 139 35t75 87z" />
    <glyph glyph-name="acircumflex" unicode="&#xe2;" horiz-adv-x="743" 
d="M599 571h-106l-64 78l-103 -78h-122l125 124h204zM674 368q0 -31 -14 -89l-47 -203q-7 -28 -7 -41q0 -16 12 -35h-179q-1 9 -1 18q0 15 4 35q-31 -25 -55 -37q-64 -32 -170 -32q-107 0 -163 38t-56 110q0 88 73 136q70 47 253 47h179l3 13q2 7 2 22q0 30 -30.5 43.5
t-99.5 13.5q-70 0 -105 -15q-20 -9 -34 -32l-166 2q50 158 321 158q144 0 212 -36.5t68 -115.5zM484 232h-43q-74 0 -149 -5q-36 -3 -63 -11q-58 -18 -58 -65q0 -56 95 -56q78 0 139 35t75 87z" />
    <glyph glyph-name="atilde" unicode="&#xe3;" horiz-adv-x="743" 
d="M609 695q-21 -64 -51 -92t-79 -28q-39 0 -98 21q-52 19 -68 19q-31 0 -49 -35h-58q17 60 47.5 88.5t77.5 28.5q29 0 84 -20q54 -19 81 -19q41 0 55 37h58zM674 368q0 -31 -14 -89l-47 -203q-7 -28 -7 -41q0 -16 12 -35h-179q-1 9 -1 18q0 15 4 35q-31 -25 -55 -37
q-64 -32 -170 -32q-107 0 -163 38t-56 110q0 88 73 136q70 47 253 47h179l3 13q2 7 2 22q0 30 -30.5 43.5t-99.5 13.5q-70 0 -105 -15q-20 -9 -34 -32l-166 2q50 158 321 158q144 0 212 -36.5t68 -115.5zM484 232h-43q-74 0 -149 -5q-36 -3 -63 -11q-58 -18 -58 -65
q0 -56 95 -56q78 0 139 35t75 87z" />
    <glyph glyph-name="adieresis" unicode="&#xe4;" horiz-adv-x="743" 
d="M598 693l-28 -123h-149l28 123h149zM392 693l-28 -123h-147l28 123h147zM674 368q0 -31 -14 -89l-47 -203q-7 -28 -7 -41q0 -16 12 -35h-179q-1 9 -1 18q0 15 4 35q-31 -25 -55 -37q-64 -32 -170 -32q-107 0 -163 38t-56 110q0 88 73 136q70 47 253 47h179l3 13q2 7 2 22
q0 30 -30.5 43.5t-99.5 13.5q-70 0 -105 -15q-20 -9 -34 -32l-166 2q50 158 321 158q144 0 212 -36.5t68 -115.5zM484 232h-43q-74 0 -149 -5q-36 -3 -63 -11q-58 -18 -58 -65q0 -56 95 -56q78 0 139 35t75 87z" />
    <glyph glyph-name="aring" unicode="&#xe5;" horiz-adv-x="743" 
d="M544 655q0 -46 -35.5 -74.5t-93.5 -28.5t-95.5 29t-37.5 74t37 74t95 29q56 0 93 -29.5t37 -73.5zM674 368q0 -31 -14 -89l-47 -203q-7 -28 -7 -41q0 -16 12 -35h-179q-1 9 -1 18q0 15 4 35q-31 -25 -55 -37q-64 -32 -170 -32q-107 0 -163 38t-56 110q0 88 73 136
q70 47 253 47h179l3 13q2 7 2 22q0 30 -30.5 43.5t-99.5 13.5q-70 0 -105 -15q-20 -9 -34 -32l-166 2q50 158 321 158q144 0 212 -36.5t68 -115.5zM466 654q0 22 -15 36t-39 14q-23 0 -38 -14.5t-15 -36.5q0 -21 15 -34.5t38 -13.5t38.5 13.5t15.5 35.5zM484 232h-43
q-74 0 -149 -5q-36 -3 -63 -11q-58 -18 -58 -65q0 -56 95 -56q78 0 139 35t75 87z" />
    <glyph glyph-name="ae" unicode="&#xe6;" horiz-adv-x="1217" 
d="M1153 224h-502q2 -61 44 -93t119 -32q112 0 160 70l167 -17q-20 -36 -34 -53.5t-39 -37.5q-98 -81 -270 -81q-193 0 -283 105q-55 -53 -123 -77t-163 -24q-231 0 -231 147q0 41 19.5 77.5t53.5 58.5q19 13 48 23q43 14 96.5 19t168.5 5h119l3 13q2 12 2 24
q0 29 -30.5 42.5t-99.5 13.5q-70 0 -105 -15q-20 -9 -34 -32l-166 2q18 59 64 95q57 45 165 57q58 7 100 7q72 0 120.5 -12t100.5 -43q54 32 100.5 45t112.5 13q160 0 243 -78q43 -40 60 -98q13 -47 14 -124zM985 314q-24 97 -151 97q-61 0 -105 -25.5t-63 -71.5h319z
M484 231h-94q-38 0 -98 -5q-36 -2 -63 -11q-58 -17 -58 -64q0 -56 94 -56q78 0 139.5 35t75.5 86z" />
    <glyph glyph-name="ccedilla" unicode="&#xe7;" horiz-adv-x="699" 
d="M679 349l-176 -13q-18 26 -33 37q-39 26 -100 26q-86 0 -136.5 -44t-50.5 -118q0 -62 40 -97.5t110 -35.5q61 0 107 25q25 14 49 44l164 -29q-24 -37 -41.5 -55t-48.5 -40q-83 -58 -204 -69l-52 -56q9 1 20 1q52 0 80 -18t28 -51q0 -47 -41.5 -76t-107.5 -29
q-34 0 -101 15l12 49q33 -5 52 -5q67 0 67 41q0 29 -46 29q-21 0 -50 -7l-5 28l86 79q-138 10 -212 74t-74 173q0 133 98 215.5t256 82.5q247 0 310 -176z" />
    <glyph glyph-name="egrave" unicode="&#xe8;" horiz-adv-x="748" 
d="M445 571h-100l-103 125h170zM684 223h-503q9 -125 165 -125q111 0 159 70l167 -17q-95 -172 -344 -172q-147 0 -232 66t-85 181q0 135 97 216t259 81t243 -78q44 -41 61 -102q12 -46 13 -120zM516 313q-24 97 -151 97q-61 0 -105 -25.5t-63 -71.5h319z" />
    <glyph glyph-name="eacute" unicode="&#xe9;" horiz-adv-x="748" 
d="M558 696l-154 -124h-102l78 124h178zM684 223h-503q9 -125 165 -125q111 0 159 70l167 -17q-95 -172 -344 -172q-147 0 -232 66t-85 181q0 135 97 216t259 81t243 -78q44 -41 61 -102q12 -46 13 -120zM516 313q-24 97 -151 97q-61 0 -105 -25.5t-63 -71.5h319z" />
    <glyph glyph-name="ecircumflex" unicode="&#xea;" horiz-adv-x="748" 
d="M570 571h-107l-64 78l-103 -78h-121l124 124h204zM684 223h-503q9 -125 165 -125q111 0 159 70l167 -17q-95 -172 -344 -172q-147 0 -232 66t-85 181q0 135 97 216t259 81t243 -78q44 -41 61 -102q12 -46 13 -120zM516 313q-24 97 -151 97q-61 0 -105 -25.5t-63 -71.5
h319z" />
    <glyph glyph-name="edieresis" unicode="&#xeb;" horiz-adv-x="748" 
d="M579 693l-28 -123h-149l28 123h149zM373 693l-28 -123h-147l28 123h147zM684 223h-503q9 -125 165 -125q111 0 159 70l167 -17q-95 -172 -344 -172q-147 0 -232 66t-85 181q0 135 97 216t259 81t243 -78q44 -41 61 -102q12 -46 13 -120zM516 313q-24 97 -151 97
q-61 0 -105 -25.5t-63 -71.5h319z" />
    <glyph glyph-name="igrave" unicode="&#xec;" horiz-adv-x="313" 
d="M265 571h-100l-103 125h170zM276 501l-116 -501h-164l116 501h164z" />
    <glyph glyph-name="iacute" unicode="&#xed;" horiz-adv-x="313" 
d="M388 696l-154 -124h-102l78 124h178zM276 501l-116 -501h-164l116 501h164z" />
    <glyph glyph-name="icircumflex" unicode="&#xee;" horiz-adv-x="313" 
d="M390 571h-106l-64 78l-103 -78h-122l125 124h204zM276 501l-116 -501h-164l116 501h164z" />
    <glyph glyph-name="idieresis" unicode="&#xef;" horiz-adv-x="313" 
d="M407 693l-28 -123h-149l28 123h149zM201 693l-28 -123h-147l28 123h147zM276 501l-116 -501h-164l116 501h164z" />
    <glyph glyph-name="eth" unicode="&#xf0;" horiz-adv-x="762" 
d="M706 293q0 -145 -98.5 -228.5t-271.5 -83.5q-151 0 -236 65.5t-85 182.5q0 112 72 192q37 40 82 61q75 35 171 35q38 0 81 -8q46 -8 78 -31q-24 42 -36 60q-18 29 -37 53l-194 -16l-20 58l165 14q-6 8 -14 16t-9 10l-27 27l172 13q4 -4 24 -25q5 -5 23 -28l114 11l22 -59
l-91 -8q24 -28 43 -62q72 -127 72 -249zM537 267q0 62 -45 99t-120 37q-85 0 -136.5 -44.5t-51.5 -118.5q0 -64 44.5 -101.5t121.5 -37.5q83 0 135 46t52 120z" />
    <glyph glyph-name="ntilde" unicode="&#xf1;" horiz-adv-x="766" 
d="M629 695q-21 -64 -51 -92t-79 -28q-39 0 -98 21q-52 19 -68 19q-31 0 -49 -35h-58q17 60 47.5 88.5t77.5 28.5q29 0 84 -20q54 -19 81 -19q41 0 55 37h58zM688 346q0 -35 -16 -105l-55 -241h-165l57 250q6 25 6 51q0 97 -124 97q-59 0 -103 -27q-53 -33 -73 -120
l-57 -251h-163l116 501h163l-17 -72q32 34 63 53q61 35 152 35q103 0 159.5 -44.5t56.5 -126.5z" />
    <glyph glyph-name="ograve" unicode="&#xf2;" horiz-adv-x="762" 
d="M447 572h-100l-103 125h170zM706 282q0 -137 -101 -219t-269 -82q-151 0 -236 65.5t-85 181.5q0 135 99 216t264 81q155 0 241.5 -64t86.5 -179zM537 268q0 63 -44.5 100t-119.5 37q-85 0 -137 -45.5t-52 -119.5q0 -64 44.5 -101.5t121.5 -37.5q83 0 135 46.5t52 120.5z
" />
    <glyph glyph-name="oacute" unicode="&#xf3;" horiz-adv-x="762" 
d="M564 696l-154 -124h-102l78 124h178zM706 282q0 -137 -101 -219t-269 -82q-151 0 -236 65.5t-85 181.5q0 135 99 216t264 81q155 0 241.5 -64t86.5 -179zM537 268q0 63 -44.5 100t-119.5 37q-85 0 -137 -45.5t-52 -119.5q0 -64 44.5 -101.5t121.5 -37.5q83 0 135 46.5
t52 120.5z" />
    <glyph glyph-name="ocircumflex" unicode="&#xf4;" horiz-adv-x="762" 
d="M577 571h-106l-64 78l-103 -78h-122l125 124h204zM706 282q0 -137 -101 -219t-269 -82q-151 0 -236 65.5t-85 181.5q0 135 99 216t264 81q155 0 241.5 -64t86.5 -179zM537 268q0 63 -44.5 100t-119.5 37q-85 0 -137 -45.5t-52 -119.5q0 -64 44.5 -101.5t121.5 -37.5
q83 0 135 46.5t52 120.5z" />
    <glyph glyph-name="otilde" unicode="&#xf5;" horiz-adv-x="762" 
d="M592 695q-21 -64 -51 -92t-79 -28q-39 0 -98 21q-52 19 -68 19q-32 0 -49 -35h-58q17 60 47.5 88.5t77.5 28.5q29 0 84 -20q54 -19 81 -19q41 0 55 37h58zM706 282q0 -137 -101 -219t-269 -82q-151 0 -236 65.5t-85 181.5q0 135 99 216t264 81q155 0 241.5 -64t86.5 -179
zM537 268q0 63 -44.5 100t-119.5 37q-85 0 -137 -45.5t-52 -119.5q0 -64 44.5 -101.5t121.5 -37.5q83 0 135 46.5t52 120.5z" />
    <glyph glyph-name="odieresis" unicode="&#xf6;" horiz-adv-x="762" 
d="M590 693l-28 -123h-149l28 123h149zM384 693l-28 -123h-147l28 123h147zM706 282q0 -137 -101 -219t-269 -82q-151 0 -236 65.5t-85 181.5q0 135 99 216t264 81q155 0 241.5 -64t86.5 -179zM537 268q0 63 -44.5 100t-119.5 37q-85 0 -137 -45.5t-52 -119.5
q0 -64 44.5 -101.5t121.5 -37.5q83 0 135 46.5t52 120.5z" />
    <glyph glyph-name="divide" unicode="&#xf7;" horiz-adv-x="772" 
d="M518 573l-35 -153h-159l35 153h159zM698 367l-31 -132h-611l31 132h611zM428 181l-35 -154h-159l35 154h159z" />
    <glyph glyph-name="oslash" unicode="&#xf8;" horiz-adv-x="762" 
d="M708 461l-51 -34q49 -68 49 -146q0 -135 -101 -217.5t-266 -82.5q-133 0 -236 65l-66 -47l-33 48l58 39q-26 35 -36.5 66t-10.5 74q0 137 99 218t266 81q92 0 162 -24q37 -13 70 -35l63 43zM481 375q-40 30 -110 30q-82 0 -134 -45t-52 -116q0 -32 13 -64zM537 269
q0 36 -16 64l-288 -197q43 -35 118 -35q83 0 134.5 46.5t51.5 121.5z" />
    <glyph glyph-name="ugrave" unicode="&#xf9;" horiz-adv-x="766" 
d="M488 571h-100l-103 125h170zM731 501l-115 -501h-163l17 73q-33 -35 -64 -54q-60 -35 -152 -35q-103 0 -159 44.5t-56 126.5q0 40 15 105l55 241h165l-57 -250q-6 -24 -6 -50q0 -98 125 -98q57 0 103 27q52 32 72 120l57 251h163z" />
    <glyph glyph-name="uacute" unicode="&#xfa;" horiz-adv-x="766" 
d="M610 696l-154 -124h-102l78 124h178zM731 501l-115 -501h-163l17 73q-33 -35 -64 -54q-60 -35 -152 -35q-103 0 -159 44.5t-56 126.5q0 40 15 105l55 241h165l-57 -250q-6 -24 -6 -50q0 -98 125 -98q57 0 103 27q52 32 72 120l57 251h163z" />
    <glyph glyph-name="ucircumflex" unicode="&#xfb;" horiz-adv-x="766" 
d="M618 571h-106l-64 78l-103 -78h-122l125 124h204zM731 501l-115 -501h-163l17 73q-33 -35 -64 -54q-60 -35 -152 -35q-103 0 -159 44.5t-56 126.5q0 40 15 105l55 241h165l-57 -250q-6 -24 -6 -50q0 -98 125 -98q57 0 103 27q52 32 72 120l57 251h163z" />
    <glyph glyph-name="udieresis" unicode="&#xfc;" horiz-adv-x="766" 
d="M632 693l-28 -123h-149l28 123h149zM426 693l-28 -123h-147l28 123h147zM731 501l-115 -501h-163l17 73q-33 -35 -64 -54q-60 -35 -152 -35q-103 0 -159 44.5t-56 126.5q0 40 15 105l55 241h165l-57 -250q-6 -24 -6 -50q0 -98 125 -98q57 0 103 27q52 32 72 120l57 251
h163z" />
    <glyph glyph-name="yacute" unicode="&#xfd;" horiz-adv-x="625" 
d="M530 696l-154 -124h-102l78 124h178zM655 501l-361 -534q-61 -90 -92 -117q-19 -16 -49 -28q-38 -15 -110 -15q-58 0 -128 5l28 118q70 -5 93 -5q24 0 40 5q12 4 22 13q11 9 44 57l-110 501h171l52 -381l222 381h178z" />
    <glyph glyph-name="thorn" unicode="&#xfe;" 
d="M693 301q0 -141 -92.5 -230t-238.5 -89q-124 0 -190 74l-57 -248h-164l207 898h164l-57 -247q70 62 178 62q116 0 183 -59t67 -161zM524 277q0 53 -30 87.5t-82 40.5q-8 1 -23 1q-75 0 -122.5 -48.5t-47.5 -125.5q0 -60 37 -96t99 -36q71 0 120 51t49 126z" />
    <glyph glyph-name="ydieresis" unicode="&#xff;" horiz-adv-x="625" 
d="M550 693l-28 -123h-149l28 123h149zM344 693l-28 -123h-147l28 123h147zM655 501l-361 -534q-61 -90 -92 -117q-19 -16 -49 -28q-38 -15 -110 -15q-58 0 -128 5l28 118q70 -5 93 -5q24 0 40 5q12 4 22 13q11 9 44 57l-110 501h171l52 -381l222 381h178z" />
    <glyph glyph-name="OE" unicode="&#x152;" horiz-adv-x="1125" 
d="M1152 706l-28 -122h-354l-37 -161h335l-28 -123h-335l-41 -175h368l-29 -125h-544l4 20q-68 -32 -154 -32q-129 0 -199 73.5t-70 208.5q0 158 80 284q51 80 135 123t189 43q62 0 113 -14q30 -8 59 -23l6 23h530zM590 570q-37 23 -70 30q-28 6 -58 6q-105 0 -164 -74
q-38 -49 -61 -118t-23 -136q0 -86 41.5 -130.5t121.5 -44.5q22 0 45 5q35 9 68 28z" />
    <glyph glyph-name="oe" unicode="&#x153;" horiz-adv-x="1262" 
d="M1198 224h-502q2 -61 44 -93.5t119 -32.5q112 0 160 70l167 -17q-19 -35 -33 -52.5t-38 -37.5q-37 -30 -93 -51q-82 -30 -181 -30q-85 0 -142 18t-109 61q-7 -5 -15.5 -11t-10.5 -7q-91 -60 -224 -60q-152 0 -238.5 65t-86.5 180q0 112 76 193q98 106 298 106
q155 0 246 -81q95 79 247 79q161 0 242 -77q43 -40 60 -98q14 -48 14 -124zM1030 314q-24 97 -151 97q-61 0 -105 -25.5t-63 -71.5h319zM537 269q0 62 -44 99.5t-117 37.5q-84 0 -138 -47t-54 -120q0 -64 44.5 -101t121.5 -37q83 0 135 46.5t52 121.5z" />
    <glyph glyph-name="Scaron" unicode="&#x160;" horiz-adv-x="812" 
d="M672 885l-124 -124h-204l-67 124h107l65 -78l102 78h121zM807 539l-175 -33q-24 50 -66 69q-64 27 -144 27q-73 0 -112.5 -21.5t-39.5 -62.5q0 -32 27 -46q11 -4 24 -9q53 -17 144 -38q20 -4 38.5 -8.5t30.5 -7t14 -3.5q64 -16 106 -41q83 -49 83 -139q0 -88 -59 -153
q-85 -94 -303 -94q-60 0 -117 9q-117 17 -190 81q-53 47 -86 128l168 33q22 -59 82.5 -90.5t152.5 -31.5q82 0 129.5 25t47.5 69q0 18 -6 28q-9 15 -28 23.5t-69 19.5l-68 15q-25 6 -88 21q-57 13 -102 35q-56 28 -81.5 63t-25.5 86q0 97 71 159q86 74 266 74q137 0 234 -42
q54 -23 86.5 -56.5t55.5 -88.5z" />
    <glyph glyph-name="scaron" unicode="&#x161;" horiz-adv-x="708" 
d="M593 695l-125 -124h-204l-66 124h106l64 -78l103 78h122zM666 351l-173 -2q-10 35 -44 52q-40 20 -101 20q-103 0 -103 -47q0 -14 12 -23q15 -9 52 -17q8 -1 15.5 -2.5t14.5 -3t10 -2.5l69 -11q127 -21 167 -51q43 -33 43 -88q0 -88 -79.5 -140t-214.5 -52q-39 0 -109 9
q-109 16 -162 61q-28 23 -40.5 49.5t-20.5 75.5l180 4q4 -25 11.5 -38t25.5 -24q40 -26 130 -26q102 0 102 51q0 19 -20.5 29.5t-71.5 18.5l-50 8q-16 2 -52 9q-57 10 -91 22q-96 36 -96 119t74 130.5t204 47.5q151 0 234 -49q34 -20 61 -58q16 -25 23 -72z" />
    <glyph glyph-name="Ydieresis" unicode="&#x178;" horiz-adv-x="854" 
d="M767 880l-29 -126h-164l29 126h164zM463 880l-29 -126h-164l29 126h164zM931 706l-439 -441l-61 -265h-176l61 265l-234 441h209l140 -296l277 296h223z" />
    <glyph glyph-name="florin" unicode="&#x192;" horiz-adv-x="375" 
d="M443 652l-26 -107q-25 8 -51 8q-31 0 -49 -14q-8 -8 -14 -17q-10 -19 -22 -68h114l-23 -98h-114l-88 -397q-19 -83 -67.5 -122t-135.5 -39q-41 0 -112 15l25 107q23 -7 45 -7q33 0 54 15q21 16 36 83l78 345h-81l23 98h81q23 96 46 134q45 80 165 80q52 0 116 -16z" />
    <glyph glyph-name="circumflex" unicode="&#x2c6;" horiz-adv-x="313" 
d="M354 571h-106l-64 78l-103 -78h-122l125 124h204z" />
    <glyph glyph-name="tilde" unicode="&#x2dc;" horiz-adv-x="313" 
d="M358 695q-21 -64 -51 -92t-79 -28q-39 0 -98 21q-52 19 -68 19q-32 0 -49 -35h-58q17 60 47.5 88.5t77.5 28.5q29 0 84 -20q54 -19 81 -19q41 0 55 37h58z" />
    <glyph glyph-name="endash" unicode="&#x2013;" horiz-adv-x="640" 
d="M614 370l-30 -130h-575l30 130h575z" />
    <glyph glyph-name="emdash" unicode="&#x2014;" horiz-adv-x="950" 
d="M924 370l-30 -130h-885l30 130h885z" />
    <glyph glyph-name="quoteleft" unicode="&#x2018;" horiz-adv-x="295" 
d="M316 708l-11 -48q-54 -8 -72 -23q-19 -17 -35 -81h83l-33 -143h-166l32 140q19 84 61 120q23 20 53.5 27.5t87.5 7.5z" />
    <glyph glyph-name="quoteright" unicode="&#x2019;" horiz-adv-x="295" 
d="M307 706l-32 -140q-19 -84 -61 -120q-23 -20 -53 -27.5t-88 -7.5l12 48q54 8 72 23t35 81h-83l33 143h165z" />
    <glyph glyph-name="quotesinglbase" unicode="&#x201a;" horiz-adv-x="295" 
d="M183 143l-33 -140q-19 -84 -61 -120q-22 -20 -52.5 -27.5t-87.5 -7.5l11 48q54 8 72 23t35 81h-83l33 143h166z" />
    <glyph glyph-name="quotedblleft" unicode="&#x201c;" horiz-adv-x="542" 
d="M563 708l-11 -48q-54 -8 -72 -23q-19 -15 -35 -81h83l-33 -143h-166l32 140q19 84 61 120q23 20 53.5 27.5t87.5 7.5zM316 708l-11 -48q-54 -8 -72 -23q-19 -17 -35 -81h83l-33 -143h-166l32 140q19 84 61 120q23 20 53.5 27.5t87.5 7.5z" />
    <glyph glyph-name="quotedblright" unicode="&#x201d;" horiz-adv-x="542" 
d="M554 706l-32 -140q-19 -84 -61 -120q-23 -20 -53 -27.5t-88 -7.5l11 48q55 8 73 23q11 10 17.5 25.5t16.5 55.5h-83l33 143h166zM307 706l-32 -140q-19 -84 -61 -120q-23 -20 -53 -27.5t-88 -7.5l12 48q54 8 72 23t35 81h-83l33 143h165z" />
    <glyph glyph-name="quotedblbase" unicode="&#x201e;" horiz-adv-x="542" 
d="M429 143l-32 -140q-19 -84 -61 -120q-23 -20 -53 -27.5t-88 -7.5l11 48q55 8 73 23q11 10 17.5 25.5t16.5 55.5h-83l33 143h166zM183 143l-33 -140q-19 -84 -61 -120q-22 -20 -52.5 -27.5t-87.5 -7.5l11 48q54 8 72 23t35 81h-83l33 143h166z" />
    <glyph glyph-name="dagger" unicode="&#x2020;" horiz-adv-x="625" 
d="M642 506l-30 -130h-207l-116 -501h-165l116 501h-206l30 130h206l46 200h165l-46 -200h207z" />
    <glyph glyph-name="daggerdbl" unicode="&#x2021;" horiz-adv-x="625" 
d="M649 544l-29 -125h-204l-55 -237h204l-29 -127h-204l-42 -179h-164l41 180h-206l29 126h206l55 237h-206l29 126h206l37 161h165l-37 -162h204z" />
    <glyph glyph-name="bullet" unicode="&#x2022;" horiz-adv-x="333" 
d="M329 472l-56 -235h-257l56 235h257z" />
    <glyph glyph-name="ellipsis" unicode="&#x2026;" horiz-adv-x="1000" 
d="M838 120l-27 -120h-115l27 120h115zM504 120l-27 -120h-115l27 120h115zM170 120l-27 -120h-115l27 120h115z" />
    <glyph glyph-name="perthousand" unicode="&#x2030;" horiz-adv-x="1617" 
d="M1586 258q0 -121 -71.5 -195t-181.5 -74q-98 0 -153 49t-55 136q0 121 71 195.5t185 74.5q150 0 193 -107q12 -31 12 -79zM1094 258q0 -121 -71.5 -195t-181.5 -74q-98 0 -153 49t-55 136q0 121 71 195.5t185 74.5q150 0 193 -107q12 -31 12 -79zM857 625l-525 -652
l-62 45l523 652zM493 466q-5 -122 -74 -195.5t-178 -73.5q-98 0 -153 49t-55 136q0 121 70.5 196t184.5 75q94 0 151.5 -47.5t53.5 -139.5zM1465 267q0 42 -21.5 65.5t-60.5 23.5q-35 0 -57.5 -11t-41.5 -40q-37 -56 -37 -130q0 -94 88 -94q53 0 91.5 55t38.5 131zM973 267
q0 42 -21.5 65.5t-60.5 23.5q-35 0 -57.5 -11t-41.5 -40q-37 -56 -37 -130q0 -94 88 -94q53 0 91.5 55t38.5 131zM372 475q0 42 -21 66t-60 24q-34 0 -57 -11.5t-42 -40.5q-37 -56 -37 -130q0 -94 88 -94q53 0 91 54.5t38 131.5z" />
    <glyph glyph-name="guilsinglleft" unicode="&#x2039;" horiz-adv-x="316" 
d="M296 477l-26 -111l-151 -120l97 -115l-21 -94l-186 166l24 105z" />
    <glyph glyph-name="guilsinglright" unicode="&#x203a;" horiz-adv-x="316" 
d="M265 313l-24 -105l-263 -169l26 111l152 119l-98 115l22 95z" />
    <glyph glyph-name="Euro" unicode="&#x20ac;" horiz-adv-x="934" 
d="M943 625l-93 -137q-24 28 -40 41.5t-43 27.5q-76 41 -179 41q-185 0 -248 -147h487l-52 -77h-460q-4 -21 -5 -49h432l-52 -77h-380q13 -49 38 -75q63 -66 194 -66q84 0 153 24q37 13 65.5 29t76.5 50l-44 -180q-19 -9 -26 -11q-110 -44 -246 -44q-175 0 -275 69.5
t-120 203.5h-104l55 77h47q3 26 9 49h-89l54 77h53q21 60 39.5 91t57.5 70q118 119 336 119q62 0 126 -9q56 -9 100 -23q41 -13 66.5 -27.5t66.5 -46.5z" />
    <glyph glyph-name="trademark" unicode="&#x2122;" horiz-adv-x="703" 
d="M739 706l-76 -332h-77l61 245l-127 -245h-76l-11 248l-52 -248h-77l77 332h108l11 -242l129 242h110zM352 706l-15 -66h-98l-61 -266h-82l62 266h-99l15 66h278z" />
    </font>
</defs>
</svg>
