<?xml version="1.0" standalone="no"?>
<!DOCTYPE svg PUBLIC "-//W3C//DTD SVG 1.1//EN" "http://www.w3.org/Graphics/SVG/1.1/DTD/svg11.dtd" >
<svg xmlns="http://www.w3.org/2000/svg" xmlns:xlink="http://www.w3.org/1999/xlink" version="1.1">
<metadata>
Created by FontForge 20170731 at Thu May 17 20:00:01 2007
 By Aleksey,,,
Copyright  1997, 2001, Berthold LLC. All rights reserved. Akzidenz-Grotesk is a trademark of Berthold Types Limited.
</metadata>
<defs>
<font id="AkzidenzGroteskBQ-MedExt" horiz-adv-x="750" >
  <font-face 
    font-family="Akzidenz-Grotesk BQ Extended"
    font-weight="500"
    font-stretch="normal"
    units-per-em="1000"
    panose-1="0 0 0 0 0 0 0 0 0 0"
    ascent="800"
    descent="-200"
    x-height="506"
    cap-height="706"
    bbox="-92 -248 1596 928.036"
    underline-thickness="104"
    underline-position="-488"
    unicode-range="U+0020-2122"
  />
<missing-glyph horiz-adv-x="500" 
 />
    <glyph glyph-name=".notdef" horiz-adv-x="500" 
 />
    <glyph glyph-name=".null" horiz-adv-x="0" 
 />
    <glyph glyph-name="nonmarkingreturn" horiz-adv-x="333" 
 />
    <glyph glyph-name="space" unicode=" " horiz-adv-x="375" 
 />
    <glyph glyph-name="exclam" unicode="!" horiz-adv-x="333" 
d="M270 436l-26 -228h-113l-24 228v270h163v-270zM270 0h-163v125h163v-125z" />
    <glyph glyph-name="quotedbl" unicode="&#x22;" horiz-adv-x="353" 
d="M337 742l-44 -289h-41l-46 289h131zM147 742l-44 -289h-40l-47 289h131z" />
    <glyph glyph-name="numbersign" unicode="#" horiz-adv-x="719" 
d="M693 407h-157l-8 -96h153v-100h-163l-19 -211h-103l21 211h-135l-21 -211h-100l19 211h-154v100h163l9 96h-159v101h167l18 198h103l-18 -198h134l17 198h102l-18 -198h149v-101zM433 407h-133l-9 -96h134z" />
    <glyph glyph-name="dollar" unicode="$" horiz-adv-x="812" 
d="M771 210q0 -108 -101 -174q-31 -19 -70.5 -31.5t-69.5 -17t-77 -8.5v-125h-82v125q-88 4 -147 22q-45 14 -81.5 37t-61.5 52.5t-36 46t-25 41.5l163 41q0 -1 3.5 -7.5t8.5 -14.5t10 -14q47 -58 166 -73v184q-45 7 -66 10.5t-63.5 15t-67 25t-50.5 38.5t-38 57
q-12 31 -12 70q0 99 83 157q70 50 214 61v101h82v-102q154 -8 255 -87q31 -26 61 -62l-162 -62q-8 10 -12 14q-44 52 -142 66v-166q73 -12 104 -18t65.5 -17t59.5 -26q89 -52 89 -159zM371 444v156q-52 -4 -74 -13q-54 -21 -52 -67q0 -25 18 -41q24 -21 108 -35zM596 202
q0 33 -29 51q-23 13 -114 28v-172q143 15 143 93z" />
    <glyph glyph-name="percent" unicode="%" horiz-adv-x="1125" 
d="M1096 219q0 -97 -47 -155q-29 -36 -77.5 -55t-99.5 -19q-47 0 -93 16.5t-75 47.5q-12 13 -22 30q-34 55 -34 134q0 59 15 100q19 52 65 91.5t132 39.5q143 0 201 -88q35 -54 35 -142zM801 626l-410 -652l-70 45l409 652zM474 426q0 -97 -47 -155q-29 -36 -77.5 -55
t-99.5 -19q-47 0 -93 16.5t-75 47.5q-12 13 -22 30q-34 55 -34 134q0 59 15 100q19 52 65 91.5t132 39.5q143 0 201 -88q35 -54 35 -142zM972 230q0 59 -20 89q-11 15 -20 22q-24 17 -68 17q-77 0 -92 -92q-4 -19 -4 -47q0 -67 28 -103q10 -14 33 -25q23 -10 43 -10
q55 0 80 46q10 21 15 49q5 30 5 54zM350 437q0 59 -20 89q-11 15 -20 22q-24 17 -68 17q-77 0 -92 -92q-4 -19 -4 -47q0 -67 28 -103q10 -14 33 -25q23 -10 43 -10q55 0 80 46q10 20 15 49q5 30 5 54z" />
    <glyph glyph-name="ampersand" unicode="&#x26;" horiz-adv-x="792" 
d="M779 0h-200l-33 37q-70 -28 -114 -38t-110 -10q-118 0 -192 47q-83 53 -83 150q0 74 57 121q22 19 50.5 30.5t87.5 28.5q-25 26 -36.5 40t-23.5 39.5t-12 52.5q0 34 20 67q23 38 74 63t130 25q124 0 183 -60q37 -37 37 -93q0 -62 -44 -104q-32 -29 -109 -66l111 -117
q17 20 34 49l159 -12q-24 -57 -54 -93q-17 -21 -43 -42zM469 491q0 21 -18.5 37t-54.5 16q-33 0 -49.5 -14t-16.5 -33q0 -29 51 -83q62 24 78 48q10 15 10 29zM459 131l-137 147q-51 -17 -73 -28q-48 -23 -48 -66q0 -20 11 -37q32 -49 113 -49q59 0 134 33z" />
    <glyph glyph-name="quotesingle" unicode="'" horiz-adv-x="164" 
d="M147 742l-44 -289h-40l-47 289h131z" />
    <glyph glyph-name="parenleft" unicode="(" horiz-adv-x="375" 
d="M351 -110l-45 -50q-119 83 -187 201t-68 257q0 142 66.5 253.5t188.5 206.5l45 -45q-155 -196 -155 -426q0 -242 155 -397z" />
    <glyph glyph-name="parenright" unicode=")" horiz-adv-x="375" 
d="M322 301q0 -263 -255 -461l-45 46q155 194 155 425q0 244 -155 398l45 49q119 -82 187 -200t68 -257z" />
    <glyph glyph-name="asterisk" unicode="*" horiz-adv-x="378" 
d="M358 557l-98 -34l60 -79l-68 -53l-64 83l-58 -83l-70 51l56 80l-96 28l25 83l98 -28v103h87v-104l100 34z" />
    <glyph glyph-name="plus" unicode="+" horiz-adv-x="772" 
d="M683 235h-216v-208h-159v208h-219v130h219v207h159v-207h216v-130z" />
    <glyph glyph-name="comma" unicode="," horiz-adv-x="292" 
d="M229 3q0 -88 -38.5 -121.5t-127.5 -33.5v48q51 5 67 27.5t16 76.5h-83v143h166v-140z" />
    <glyph glyph-name="hyphen" unicode="-" horiz-adv-x="393" 
d="M360 240h-327v130h327v-130z" />
    <glyph glyph-name="period" unicode="." horiz-adv-x="292" 
d="M228 0h-164v143h164v-143z" />
    <glyph glyph-name="slash" unicode="/" horiz-adv-x="500" 
d="M479 706l-314 -706h-144l316 706h142z" />
    <glyph glyph-name="zero" unicode="0" 
d="M694 329q0 -133 -59 -218q-28 -38 -68 -66q-82 -57 -203 -57q-101 0 -179 43q-153 84 -153 297q0 164 94 254q21 21 56 41q75 43 172 43q30 1 63 -2t91.5 -25t98.5 -62q87 -88 87 -248zM517 340q0 132 -72 177q-37 24 -88 22q-34 0 -64 -14q-64 -29 -83 -116
q-8 -40 -8 -84q0 -88 37.5 -149t120.5 -61q88 0 127 72q15 28 22 65q8 37 8 88z" />
    <glyph glyph-name="one" unicode="1" 
d="M472 0h-166v488q-18 -10 -28 -14q-53 -27 -156 -40v118q116 17 180 78q3 4 9.5 11.5t10.5 10.5h150v-652z" />
    <glyph glyph-name="two" unicode="2" 
d="M684 463q0 -27 -8 -54q-18 -66 -78 -107q-9 -6 -17.5 -11t-20 -10.5t-20 -9.5t-24 -10.5t-24 -10t-29.5 -11t-30 -10.5t-36 -12.5t-38 -13.5q-70 -24 -95 -44q-13 -11 -26 -31h431v-128h-617q0 79 20 132q35 92 131 147q35 20 183 76q45 17 55 21q65 28 65 84
q0 25 -12 42q-27 40 -125 40q-70 0 -104 -35q-14 -14 -20 -31q-7 -16 -7 -37h-167q4 36 8 53q20 92 95 134q72 39 199 39q58 0 101 -7q151 -21 195 -121q15 -33 15 -74z" />
    <glyph glyph-name="three" unicode="3" 
d="M704 196q0 -80 -71 -137q-92 -74 -266 -74q-99 0 -171 27.5t-106 65.5q-38 42 -56 132l174 9q0 -16 9 -40q26 -68 149 -68q91 0 134 33q30 23 30 60q0 40 -33 59q-24 14 -85.5 16.5t-135.5 -1.5v109h1h1h1h1h1h1h1h1h1h1h1h1h1h1h1h1h2q132 -2 167 10l10 4q41 18 41 65
q0 78 -135 78q-93 0 -126 -35q-15 -16 -23 -47l-173 7q4 20 7 30q13 46 45 81q77 85 268 85q167 0 245 -51q69 -45 69 -125q0 -92 -84 -130q-25 -12 -77 -21q54 -5 81 -14q44 -15 69.5 -48.5t25.5 -79.5z" />
    <glyph glyph-name="four" unicode="4" 
d="M695 134h-108v-134h-163v134h-380v116l370 400h173v-400h108v-116zM431 509q-40 -51 -48 -59l-181 -200h222l1 178q0 27 6 81z" />
    <glyph glyph-name="five" unicode="5" 
d="M692 240q0 -69 -35 -126q-80 -127 -289 -127q-91 0 -155 22q-96 32 -142 108q-12 20 -27 64l169 17q7 -22 16 -34q21 -27 60.5 -40.5t78.5 -13.5q81 0 119 38.5t38 87.5q0 54 -44 88q-43 32 -115 32q-77 0 -113 -40q-8 -8 -19 -29h-153l32 362h557l-9 -117h-403l-15 -131
q18 15 27 21q60 40 161 40q92 0 150.5 -34t84.5 -80q26 -47 26 -108z" />
    <glyph glyph-name="six" unicode="6" 
d="M701 222q-2 -94 -70 -158q-83 -79 -244 -79q-135 0 -220 56q-122 82 -122 272q0 209 150 302q92 55 202 55q36 0 64 -4q143 -17 209 -114q15 -23 28 -60l-170 -16q-10 17 -26 32q-42 41 -117 41q-58 0 -101.5 -28.5t-62.5 -82.5q-8 -23 -14 -80q27 24 33 28q73 52 184 52
q172 0 244 -106q33 -50 33 -110zM533 217q0 13 -5 30q-23 75 -165 75q-25 -1 -55 -9q-87 -29 -87 -95q0 -31 19 -56q37 -51 138 -51q90 0 129 41q26 29 26 65z" />
    <glyph glyph-name="seven" unicode="7" 
d="M675 542q-82 -40 -142 -108q-103 -113 -144 -262q-17 -64 -23 -172h-177q11 83 24 137q48 187 177 319q27 29 83 71h-399v121h601v-106z" />
    <glyph glyph-name="eight" unicode="8" 
d="M700 182q0 -92 -92 -146q-89 -51 -236 -51q-155 0 -239.5 55.5t-83.5 143.5q0 78 64 122q39 25 110 33q-35 5 -57 15q-42 17 -66.5 53t-25.5 81q0 51 31 92q70 91 264 91q81 0 138 -14q15 -4 27.5 -7.5t41.5 -17.5t48 -31.5t35 -48t16 -67.5q0 -47 -25 -79
q-36 -51 -123 -67q20 -2 29 -4q82 -12 121 -73q23 -39 23 -80zM507 467q0 40 -34.5 62.5t-102.5 21.5q-62 0 -96 -21q-34 -22 -34 -61q0 -21 11 -38q27 -44 130 -44q82 0 112 38q14 19 14 42zM525 198q0 22 -13 42q-33 49 -139 48q-72 0 -108 -21q-42 -25 -40 -69
q0 -26 15 -47q36 -46 128 -46q80 0 118 24q39 26 39 69z" />
    <glyph glyph-name="nine" unicode="9" 
d="M692 351q0 -44 -5 -79q-19 -133 -98 -204q-93 -81 -261 -81q-130 0 -210 61q-32 25 -50 53q-17 26 -27 68l164 13q4 -10 15 -24q40 -46 127 -46q99 0 147 63q29 38 40 128q-19 -18 -35 -29q-77 -51 -198 -51q-77 0 -131 22q-19 8 -37.5 20t-40 33.5t-35 56.5t-13.5 78
q0 47 17 88q23 54 74 89.5t114 50.5q53 12 117 12q113 0 187 -40q32 -17 58 -43q32 -32 53 -84q28 -71 28 -155zM523 446q0 42 -26 68q-42 42 -146 38q-101 -4 -132 -58q-13 -23 -13 -49q0 -21 8 -40q24 -62 136 -62q91 0 135 31q38 26 38 72z" />
    <glyph glyph-name="colon" unicode=":" horiz-adv-x="333" 
d="M270 287h-164v143h164v-143zM270 0h-164v142h164v-142z" />
    <glyph glyph-name="semicolon" unicode=";" horiz-adv-x="333" 
d="M270 289h-164v141h164v-141zM270 1q0 -60 -18.5 -95.5t-71.5 -50.5q-21 -6 -76 -8v49q51 5 67.5 28t16.5 76h-84v143h166v-142z" />
    <glyph glyph-name="less" unicode="&#x3c;" horiz-adv-x="772" 
d="M646 17l-542 218v145l542 220v-148l-362 -139l362 -142v-154z" />
    <glyph glyph-name="equal" unicode="=" horiz-adv-x="772" 
d="M678 356h-584v130h584v-130zM678 115h-584v130h584v-130z" />
    <glyph glyph-name="greater" unicode="&#x3e;" horiz-adv-x="772" 
d="M668 236l-541 -220l-1 148l362 139l-361 142v154l541 -218v-145z" />
    <glyph glyph-name="question" unicode="?" horiz-adv-x="688" 
d="M659 522q0 -29 -8 -53q-12 -37 -45.5 -69t-100.5 -70q-39 -23 -46 -30q-20 -21 -20 -64v-28h-165v52q0 52 17 74q13 17 71 56q72 46 90 62q38 31 38 70q0 26 -14 44q-31 42 -123 42q-40 0 -65 -9q-61 -24 -65 -115l-161 8q4 32 11 62q19 79 78 119q75 50 213 50
q132 0 206 -47q21 -13 41 -34q48 -50 48 -120zM439 0h-165v125h165v-125z" />
    <glyph glyph-name="at" unicode="@" horiz-adv-x="904" 
d="M859 39q-61 -54 -100 -78.5t-96 -47.5q-95 -36 -193 -36q-188 0 -303.5 103.5t-115.5 271.5q0 193 135.5 327t329.5 134q155 0 248 -83.5t93 -223.5q0 -131 -75 -233.5t-170 -102.5q-84 0 -93 77q-38 -43 -69 -60t-72 -17q-67 0 -108 46t-41 122q0 114 66.5 198.5
t157.5 84.5q51 0 85 -30q16 -12 34 -42l12 51h84l-32 -154q-5 -20 -8 -36q-19 -86 -19 -125q0 -44 28 -44q15 0 32 13q48 34 80 106.5t32 148.5q0 108 -72.5 172.5t-194.5 64.5q-158 0 -273.5 -117.5t-115.5 -279.5q0 -139 92.5 -222t246.5 -83q94 0 182 35q49 19 82.5 41
t86.5 70zM543 344v6q0 43 -23 69t-59 26q-55 0 -95 -60.5t-40 -142.5q0 -43 21.5 -68.5t58.5 -25.5q52 0 94.5 60.5t42.5 135.5z" />
    <glyph glyph-name="A" unicode="A" horiz-adv-x="875" 
d="M874 0h-198l-60 133h-362l-60 -133h-193l341 706h191zM559 258l-123 276l-125 -276h248z" />
    <glyph glyph-name="B" unicode="B" horiz-adv-x="854" 
d="M809 205q0 -74 -31 -119q-20 -30 -45.5 -49t-59 -26.5t-54.5 -9t-57 -1.5h-485v706h458q40 0 66 -2t67 -15.5t65 -40.5q40 -44 40 -111q2 -116 -117 -154q152 -35 153 -178zM603 507q0 77 -84 77h-267v-155h253h6h10t11.5 0.5t13.5 2t13.5 4t13.5 6.5t12 10t9.5 13.5
t6 18t2.5 23.5zM633 220q0 86 -94 86h-287v-182h272q14 0 22.5 0.5t27 5.5t29.5 14t20.5 28.5t9.5 47.5z" />
    <glyph glyph-name="C" unicode="C" horiz-adv-x="896" 
d="M890 240q-11 -38 -25 -67q-25 -49 -73 -92q-119 -105 -325 -105q-179 0 -290 83q-134 99 -134 295q0 122 57 207q19 28 45 53q25 24 50 40q110 74 282 74q171 0 285 -77q68 -45 106 -113q10 -20 14 -30l-193 -24q-31 48 -71 75q-60 39 -141 39q-61 0 -110 -21
q-68 -28 -104.5 -88.5t-36.5 -136.5q0 -82 44 -144q15 -22 44 -45q70 -57 168 -57q122 0 186 76q15 16 36 56z" />
    <glyph glyph-name="D" unicode="D" horiz-adv-x="896" 
d="M849 356q0 -167 -104 -264q-56 -53 -132 -75q-58 -17 -172 -17h-364v706h387q75 0 130.5 -11.5t108.5 -44.5q36 -23 57 -45q89 -92 89 -249zM673 361q0 125 -65 180q-19 16 -48 27q-38 13 -103 13h-204v-456h196q71 0 109 14q115 41 115 222z" />
    <glyph glyph-name="E" unicode="E" horiz-adv-x="792" 
d="M755 0h-678v706h658v-127h-481v-159h465v-126h-465v-168h501v-126z" />
    <glyph glyph-name="F" unicode="F" horiz-adv-x="729" 
d="M731 579h-477v-180h449v-126h-449v-273h-176v706h653v-127z" />
    <glyph glyph-name="G" unicode="G" horiz-adv-x="958" 
d="M896 0h-135v81q-11 -12 -25 -22q-74 -59 -189 -75q-33 -5 -78 -5q-179 0 -286 79q-103 75 -130 206q-10 50 -10 92q0 84 30 147.5t65 100.5q28 30 67 55q113 71 289 71q234 0 355 -133q23 -27 47 -68l-195 -27q-20 25 -39 42q-65 55 -175 55q-70 0 -130.5 -26.5
t-94.5 -80.5q-37 -58 -37 -138q0 -52 18 -98q16 -40 44 -69.5t55.5 -44t61 -23t52.5 -10t37 -1.5q63 0 123.5 21.5t98.5 64.5q18 20 33 57h-231v127h379v-378z" />
    <glyph glyph-name="H" unicode="H" horiz-adv-x="938" 
d="M857 0h-177v303h-426v-303h-177v706h177v-272h426v272h177v-706z" />
    <glyph glyph-name="I" unicode="I" horiz-adv-x="333" 
d="M255 0h-177v706h177v-706z" />
    <glyph glyph-name="J" unicode="J" horiz-adv-x="479" 
d="M401 223q0 -24 -1 -36q-5 -91 -54 -140q-61 -63 -184 -63q-50 0 -130 18l1 146l7 -1q8 -1 19 -3t24 -4t27 -3t24 -1q70 0 86 50q6 17 6 44v476h175v-483z" />
    <glyph glyph-name="K" unicode="K" horiz-adv-x="833" 
d="M873 0h-237l-276 304l-107 -92v-212h-176v706h176v-309l344 309h228l-344 -298z" />
    <glyph glyph-name="L" unicode="L" horiz-adv-x="667" 
d="M647 0h-569v706h177v-576h392v-130z" />
    <glyph glyph-name="M" unicode="M" horiz-adv-x="1104" 
d="M1022 0h-168l4 543l-227 -543h-161l-229 543l4 -543h-168v706h256l219 -518l217 518h253v-706z" />
    <glyph glyph-name="N" unicode="N" horiz-adv-x="938" 
d="M855 0h-174l-436 495v-495h-168v706h177l433 -493v493h168v-706z" />
    <glyph glyph-name="O" unicode="O" horiz-adv-x="958" 
d="M910 360q0 -51 -8 -90q-27 -142 -144 -221q-110 -72 -279 -72q-143 0 -234.5 46.5t-137.5 113.5q-63 89 -63 216q0 187 131 288q104 80 275 87q161 5 273 -50q36 -20 56 -34q34 -26 56 -53q75 -88 75 -231zM730 352q0 103 -63 172q-73 80 -198 77q-57 -4 -102 -23
q-46 -20 -77 -52.5t-43.5 -68t-16.5 -60.5t-4 -49q0 -58 19 -102q9 -23 27 -48q27 -33 36 -40q63 -54 169 -54q55 0 102 17q49 17 82 49.5t46.5 69.5t18 63t4.5 49z" />
    <glyph glyph-name="P" unicode="P" horiz-adv-x="792" 
d="M779 485q0 -58 -20 -101q-9 -23 -27 -43q-22 -25 -46 -40q-58 -35 -189 -35h-246v-266h-174v706h436q36 0 54 -1q132 -9 181 -94q31 -50 31 -126zM603 485q0 76 -60 94q-15 5 -44 5h-248v-194h217q62 0 86 10q49 20 49 85z" />
    <glyph glyph-name="Q" unicode="Q" horiz-adv-x="958" 
d="M958 45l-80 -133l-177 107q-18 -8 -43 -16q-87 -26 -181 -26q-142 0 -233 46.5t-137 113.5q-63 89 -63 216q0 141 75 233q39 49 94.5 81t113.5 44t89 15t62 3q130 0 230 -44q30 -13 70 -41q32 -24 51 -46q31 -34 56 -95t25 -143q0 -121 -53 -207q-8 -15 -29 -41zM730 352
q0 103 -63 172q-73 80 -198 77q-57 -4 -102 -23q-46 -20 -77 -52.5t-43.5 -68t-16.5 -60.5t-4 -49q0 -58 19 -102q9 -23 27 -48q27 -33 36 -40q63 -54 169 -54q55 0 102 17q49 17 82 49.5t46.5 69.5t18 63t4.5 49z" />
    <glyph glyph-name="R" unicode="R" horiz-adv-x="854" 
d="M853 0h-209l-188 284h-202v-284h-176v706h486q75 0 117 -13q67 -20 104 -73.5t37 -124.5q0 -51 -19 -93q-22 -50 -62.5 -73t-102.5 -34zM643 493q0 31 -14 53q-23 36 -97 36h-278v-173h283q33 0 44 3q62 15 62 81z" />
    <glyph glyph-name="S" unicode="S" horiz-adv-x="812" 
d="M774 559l-167 -42q-10 17 -16 23q-53 62 -188 62q-32 0 -59 -4q-99 -16 -99 -78q0 -43 56 -61q22 -7 66 -15t94.5 -16.5t66.5 -11.5q65 -12 96 -22q24 -8 41 -16.5t44 -29t42 -55t15 -80.5q0 -158 -167 -211q-45 -14 -117 -21q-38 -3 -75 -3q-148 0 -246 53
q-20 10 -49 32q-47 37 -74 84q-7 10 -17 30l161 41q29 -60 94.5 -85t142.5 -25q97 0 144 32q34 23 34 61q0 30 -23 47q-22 17 -132 34q-85 13 -116.5 18.5t-72.5 15.5t-68 23q-111 52 -111 168q0 102 86 160q89 61 244 61q140 0 234 -45q50 -22 88 -60q25 -25 48 -64z" />
    <glyph glyph-name="T" unicode="T" horiz-adv-x="729" 
d="M713 577h-261v-577h-178v577h-262v129h701v-129z" />
    <glyph glyph-name="U" unicode="U" horiz-adv-x="917" 
d="M836 295q0 -41 -1.5 -64.5t-9.5 -55t-25 -58.5q-20 -30 -42 -50q-53 -47 -134.5 -69t-164.5 -22q-72 0 -138 14q-173 38 -226 162q-20 47 -20 144v410h176v-416q0 -46 11.5 -77.5t44.5 -55.5q53 -38 153 -38q83 0 132 28q37 20 56 56q12 24 12 62v441h176v-411z" />
    <glyph glyph-name="V" unicode="V" horiz-adv-x="812" 
d="M808 706l-317 -706h-172l-319 706h195l211 -521l212 521h190z" />
    <glyph glyph-name="W" unicode="W" horiz-adv-x="1062" 
d="M1058 706l-185 -706h-173l-171 514l-168 -514h-176l-186 706h172l106 -482l162 482h184l159 -482l107 482h169z" />
    <glyph glyph-name="X" unicode="X" horiz-adv-x="875" 
d="M873 0h-224l-212 264l-212 -264h-225l323 370l-282 336h221l175 -229l178 229h217l-281 -336z" />
    <glyph glyph-name="Y" unicode="Y" horiz-adv-x="854" 
d="M850 706l-337 -441v-265h-176v265l-336 441h217l208 -295l209 295h215z" />
    <glyph glyph-name="Z" unicode="Z" horiz-adv-x="812" 
d="M765 0h-726v129l487 452h-452v125h691v-125l-488 -452h488v-129z" />
    <glyph glyph-name="bracketleft" unicode="[" horiz-adv-x="375" 
d="M363 -151h-246v904h246v-89h-110v-728h110v-87z" />
    <glyph glyph-name="backslash" unicode="\" horiz-adv-x="500" 
d="M479 0h-142l-316 706h144z" />
    <glyph glyph-name="bracketright" unicode="]" horiz-adv-x="375" 
d="M258 -151h-246v89h110v728h-110v86h246v-903z" />
    <glyph glyph-name="asciicircum" unicode="^" horiz-adv-x="772" 
d="M671 286l-167 1l-119 249l-121 -250h-162l213 420h147z" />
    <glyph glyph-name="underscore" unicode="_" horiz-adv-x="500" 
d="M510 -228h-520v104h520v-104z" />
    <glyph glyph-name="grave" unicode="`" horiz-adv-x="375" 
d="M300 571h-100l-125 125h170z" />
    <glyph glyph-name="a" unicode="a" 
d="M699 0h-180q-8 27 -10 54q-2 -1 -13.5 -8t-15.5 -9.5t-16.5 -9t-19 -9t-20 -8.5t-23 -8.5t-24.5 -6t-28.5 -5.5t-30.5 -3t-35 -1q-142 0 -201 64q-41 44 -41 105q0 95 75 133q63 30 237 30h157q0 39 -8 53q-23 39 -135 39q-75 0 -106 -17q-16 -8 -23 -19q-2 -5 -4 -11
l-167 2q10 55 42 89q67 70 263 70q128 0 199 -28q56 -26 78 -58q27 -40 27 -139v-237q0 -9 1 -16.5t2 -12t4 -10.5t4 -7.5t6 -8t6 -7.5zM509 234h-115q-34 0 -76 -5q-77 -7 -95 -38q-9 -13 -9 -31q0 -16 9 -29q24 -35 102 -35q29 0 52 5q9 2 22.5 6.5t33.5 13.5t39 25.5
t29 37.5q9 17 8 50z" />
    <glyph glyph-name="b" unicode="b" 
d="M711 262q0 -59 -20 -110q-32 -81 -100.5 -125.5t-158.5 -44.5q-81 0 -151 40q-15 8 -43 28v-50h-164v706h164v-259q23 20 42 32q71 45 169 45q75 0 133 -30q27 -15 48 -34q26 -26 38 -44q43 -62 43 -154zM540 255q0 62 -29 101q-44 57 -128 52q-64 -3 -104 -42
q-43 -41 -43 -113q0 -46 15 -75q19 -36 59 -56.5t83 -20.5q35 0 65 14q82 36 82 140z" />
    <glyph glyph-name="c" unicode="c" horiz-adv-x="703" 
d="M689 156q-15 -30 -34 -53q-51 -61 -129 -92.5t-162 -31.5q-91 0 -167 34q-20 10 -51 30q-108 78 -108 210q0 74 33 130q41 72 125.5 108t175.5 36q20 0 43.5 -2.5t63 -10.5t79.5 -28.5t71 -50.5q29 -28 50 -71l-172 -18l-5 6q-6 7 -11 12q-44 39 -119 39q-31 0 -64 -11
q-47 -16 -75 -52.5t-28 -85.5q0 -30 13 -60q40 -90 153 -90q74 0 121 39q18 14 29 37z" />
    <glyph glyph-name="d" unicode="d" 
d="M676 0h-162v61q-25 -23 -37 -32q-65 -47 -164 -47q-121 0 -199 75q-75 72 -75 192q0 62 23 117q32 74 100 115t151 41q88 0 164 -43q8 -5 15.5 -10.5t13.5 -10t8 -5.5v253h162v-706zM517 255q0 48 -19 81q-21 35 -63.5 52.5t-86.5 15.5q-40 -2 -67 -18q-72 -40 -72 -132
q0 -30 11 -67q35 -94 141 -93q87 0 130 61q26 40 26 100z" />
    <glyph glyph-name="e" unicode="e" 
d="M714 152q-10 -17 -23 -35q-44 -58 -109 -91q-89 -46 -208 -46q-94 0 -163.5 26.5t-105.5 69.5t-52 88.5t-16 93.5q0 126 95 198q91 70 244 70q104 0 190 -42.5t122 -130.5q19 -49 20 -128h-502q4 -21 12 -39q16 -35 57 -61t108 -26q83 0 133 40q17 14 27 30zM526 316
q-7 28 -14 39q-19 29 -59 42t-80 13q-94 0 -137 -50q-12 -14 -25 -44h315z" />
    <glyph glyph-name="f" unicode="f" horiz-adv-x="375" 
d="M375 408h-115v-408h-165v408h-80v98h80v44q0 4 0.5 11t0.5 11q0 55 29 94q41 53 144 53q44 0 106 -15v-107q-24 8 -44 8q-36 0 -55 -19q-7 -7 -12 -20q-4 -14 -4 -34v-26h115v-98z" />
    <glyph glyph-name="g" unicode="g" 
d="M676 79q0 -78 -8 -111q-34 -143 -232 -167q-47 -5 -85 -5q-42 0 -75 4q-119 14 -179 80q-32 36 -53 100h178q7 -21 23 -36q33 -32 119 -32q109 0 141 62q15 30 14 76l-1 54q-22 -21 -36 -31q-71 -51 -176 -51q-98 0 -168 45q-37 25 -68.5 74t-31.5 124q0 90 46 154
q75 103 230 103q93 0 161 -42q16 -11 44 -34v60h157v-427zM518 274q0 65 -48 99t-114 33q-63 -1 -105 -36t-42 -97q0 -68 51 -107q38 -29 98 -29q40 0 77.5 14.5t58.5 43.5q24 36 24 79z" />
    <glyph glyph-name="h" unicode="h" horiz-adv-x="771" 
d="M697 0h-166v275q0 43 -9 64q-14 35 -51.5 50.5t-79.5 15.5q-15 0 -33.5 -1.5t-55 -17t-52.5 -42.5q-11 -20 -11 -53v-291h-165v706h165v-264q16 16 33 28q70 49 180 49q54 0 100 -13q97 -24 130 -100q15 -33 15 -99v-307z" />
    <glyph glyph-name="i" unicode="i" horiz-adv-x="313" 
d="M238 570h-164v112h164v-112zM238 0h-164v506h164v-506z" />
    <glyph glyph-name="j" unicode="j" horiz-adv-x="313" 
d="M238 571h-165v111h165v-111zM238 4q0 -50 -5 -78t-15.5 -48.5t-27 -33t-32.5 -20.5t-41.5 -11t-43 -4t-47.5 -1h-26v117q42 3 56 13q17 13 17 47v521h165v-502z" />
    <glyph glyph-name="k" unicode="k" horiz-adv-x="708" 
d="M710 0h-210l-169 215l-94 -80v-135h-164v706h164v-403l233 203h214l-235 -197z" />
    <glyph glyph-name="l" unicode="l" horiz-adv-x="313" 
d="M237 0h-164v706h164v-706z" />
    <glyph glyph-name="m" unicode="m" horiz-adv-x="1146" 
d="M1069 0h-164l-1 307q0 44 -14 67q-16 25 -50 33q-24 6 -46 6q-44 0 -79 -16q-39 -19 -49.5 -49t-10.5 -83v-265h-167v290q0 32 -4 50q-18 69 -104 69q-110 0 -135 -71q-8 -21 -8 -63v-275h-164v506h156v-78q1 2 6.5 9.5t13 16t15.5 15.5q64 55 178 55q102 0 159 -48
q8 -7 15 -14.5t10.5 -12.5t8 -12t5.5 -9l3 4q3 3 7 8t8 9q74 74 205 74q115 0 169 -58q17 -20 26 -42q11 -29 11 -89v-334z" />
    <glyph glyph-name="n" unicode="n" horiz-adv-x="771" 
d="M695 0h-165v258q0 81 -37 114q-34 32 -104 32q-118 0 -146 -77q-7 -20 -7 -55v-272h-163v506h163v-72q19 20 36 33q71 54 187 54q124 0 188 -69q21 -23 32 -53q16 -42 16 -119v-280z" />
    <glyph glyph-name="o" unicode="o" horiz-adv-x="771" 
d="M731 261q0 -83 -42 -147q-23 -35 -59 -62q-96 -73 -245 -73q-104 0 -183 34q-34 14 -60 34q-29 22 -53 51q-51 65 -51 156q0 75 38 135q37 57 115.5 99t199.5 41q91 0 171 -30.5t126 -97.5q43 -63 43 -140zM561 258q0 45 -22 80q-49 77 -163 71q-78 -4 -122 -45
q-46 -43 -46 -113q0 -47 27 -84.5t72 -54.5q33 -11 79 -11q40 0 76 12q31 11 53 31t31 43t12 39.5t3 31.5z" />
    <glyph glyph-name="p" unicode="p" 
d="M711 250q0 -114 -68 -184q-75 -80 -205 -80q-29 0 -56 4q-84 13 -144 70v-252h-166v698h166v-58q18 18 37 29q64 41 157 41q56 0 110 -18q83 -30 126 -95t43 -155zM543 253q0 21 -6 48q-19 64 -73 88q-35 15 -78 14q-49 0 -85 -24q-63 -42 -63 -128q0 -31 9 -56
q16 -47 56 -71t91 -24q40 0 70 14q79 37 79 139z" />
    <glyph glyph-name="q" unicode="q" horiz-adv-x="729" 
d="M675 -192h-163v254q-22 -18 -35 -27q-68 -48 -172 -48q-61 0 -111 20q-25 10 -48.5 26.5t-49.5 45t-42 74.5t-16 102q0 112 66 182q78 84 212 84q94 0 163 -44q16 -11 33 -25v54h163v-698zM517 260q0 54 -22 91q-21 33 -59 48.5t-81 14.5q-59 -7 -88 -25
q-61 -39 -61 -135q0 -41 12 -67q17 -40 56.5 -61.5t86.5 -21.5q51 0 86 21t50 45q20 35 20 90z" />
    <glyph glyph-name="r" unicode="r" horiz-adv-x="458" 
d="M452 374q-30 2 -44 2q-90 0 -133 -37q-18 -15 -24 -31q-12 -24 -12 -64v-244h-166v506h166v-86q13 20 21 29q57 68 192 74v-149z" />
    <glyph glyph-name="s" unicode="s" horiz-adv-x="708" 
d="M667 163q0 -84 -77 -132.5t-224 -48.5q-146 0 -223 44q-52 29 -79 79q-12 24 -20 54l177 13q9 -30 31 -48q39 -30 121 -30q61 0 93 14q30 12 30 38q0 17 -15 27t-31 13.5t-52 8.5q-26 3 -78.5 8t-78.5 9q-68 9 -108 34q-60 38 -60 110q0 43 21 76q60 99 274 99
q126 0 202 -42q32 -18 53 -40q28 -30 42 -79l-171 -11q-6 17 -24 32q-37 30 -113 30q-50 0 -82.5 -13t-31.5 -37q0 -16 15 -26q21 -13 119 -24q20 -2 58 -5.5t58 -5.5q77 -9 112 -31q62 -39 62 -116z" />
    <glyph glyph-name="t" unicode="t" horiz-adv-x="375" 
d="M366 4q-80 -8 -120 -8q-19 0 -28 1q-96 6 -121 74q-9 23 -9 66v272h-82v97h82v135h164v-135h113v-97h-113v-229q0 -30 9 -43q14 -18 56 -18q1 0 49 3v-118z" />
    <glyph glyph-name="u" unicode="u" horiz-adv-x="771" 
d="M698 0h-164v72q-24 -24 -42 -36q-71 -48 -190 -48q-104 0 -167 50q-33 27 -46 56q-16 35 -16 103v309h165v-266q0 -60 20 -88q27 -37 81 -45q19 -3 43 -3q47 0 84 14q43 18 55.5 49t12.5 86v253h164v-506z" />
    <glyph glyph-name="v" unicode="v" horiz-adv-x="646" 
d="M643 506l-229 -506h-186l-227 506h183l137 -363l142 363h180z" />
    <glyph glyph-name="w" unicode="w" horiz-adv-x="1042" 
d="M1036 506l-219 -506h-174l-128 354l-126 -354h-175l-215 506h178l125 -333l124 333h179l125 -333l126 333h180z" />
    <glyph glyph-name="x" unicode="x" 
d="M750 0h-220l-153 183l-157 -183h-222l268 273l-233 233h223l121 -149l120 149h220l-233 -233z" />
    <glyph glyph-name="y" unicode="y" horiz-adv-x="625" 
d="M626 506l-238 -539q-23 -50 -41 -78q-32 -51 -72 -66.5t-108 -15.5q-54 0 -122 5l1 119q67 -5 83 -5q43 0 63 16q13 10 36 59l-226 505h176l140 -365l134 365h174z" />
    <glyph glyph-name="z" unicode="z" horiz-adv-x="667" 
d="M623 0h-581v83l340 312h-320v111h561v-87l-327 -304h327v-115z" />
    <glyph glyph-name="braceleft" unicode="{" horiz-adv-x="358" 
d="M351 -161h-51q-104 0 -147 46q-24 24 -33 59q-7 27 -7 75l1 114q1 67 -14 94.5t-57 38.5v66q42 11 57 39t14 94l-1 115q0 71 21 108q40 71 166 71h51v-71q-55 -5 -73 -17q-16 -11 -21 -31t-5 -73v-109q0 -66 -15 -99q-21 -43 -78 -60q36 -10 53 -26q15 -14 25 -33
q15 -32 15 -100v-108q0 -60 6 -78q4 -15 20 -26q20 -13 73 -17v-72z" />
    <glyph glyph-name="bar" unicode="|" horiz-adv-x="252" 
d="M193 -151h-134v903h134v-903z" />
    <glyph glyph-name="braceright" unicode="}" horiz-adv-x="358" 
d="M315 267q-41 -11 -55.5 -38.5t-14.5 -94.5v-115q0 -73 -20 -108q-39 -71 -167 -71h-51v71q53 4 73 17q16 10 21 30t5 74v109q0 67 16 99q11 23 28 36.5t49 23.5q-34 10 -53 26q-15 14 -24 33q-16 32 -16 100v108q0 60 -6 78q-5 17 -20 26q-20 13 -73 17v71h51
q104 0 148 -45q22 -22 33 -59q6 -23 6 -75v-114q0 -67 14.5 -94.5t55.5 -38.5v-66z" />
    <glyph glyph-name="asciitilde" unicode="~" horiz-adv-x="790" 
d="M732 289q-28 -28 -47 -42t-51 -29q-55 -27 -107 -27q-42 0 -126 32l-42 16q-65 25 -104 25q-33 0 -59 -13t-65 -48l-11 -10l-63 114q54 53 100.5 76t99.5 23q47 0 135 -33l48 -18q61 -23 88 -23q37 0 77 21q27 15 67 49z" />
    <glyph glyph-name="exclamdown" unicode="&#xa1;" horiz-adv-x="333" 
d="M225 582h-163v124h163v-124zM225 0h-163v280l25 220h113l25 -220v-280z" />
    <glyph glyph-name="cent" unicode="&#xa2;" horiz-adv-x="708" 
d="M686 147q-10 -17 -27 -39q-14 -19 -31 -34.5t-35 -27t-35 -21t-35.5 -16t-32.5 -11t-30 -7.5t-25 -4.5t-20 -2.5l-11 -1v-130h-81v130q-56 7 -86 16q-96 29 -149 99t-51 159q1 62 25.5 112t66 81.5t91 49.5t104.5 22v111h80v-110q41 -3 73.5 -9.5t70 -21.5t70 -44.5
t57.5 -71.5l-166 -34q-32 46 -105 59v-293q50 10 75.5 26t42.5 47zM323 111v287q-121 -37 -118 -148q1 -79 67 -119q9 -5 21 -10t20.5 -7.5t9.5 -2.5z" />
    <glyph glyph-name="sterling" unicode="&#xa3;" horiz-adv-x="792" 
d="M756 228q-8 -111 -40 -160q-4 -7 -10.5 -14.5t-11 -12t-10 -9.5t-6.5 -6q-47 -37 -106 -37q-37 0 -76.5 15t-116.5 55q-18 -16 -28 -23q-69 -45 -156 -45q-101 0 -143 63q-20 31 -20 64q0 28 13 53q29 59 114 59q59 0 138 -38q-5 35 -17 60t-48 73h-168v62l115 1
q-54 72 -54 148q0 68 48 115q26 25 67 42q71 30 190 30q15 0 43 -2q147 -6 210 -97q31 -46 43 -130l-174 -10q4 57 -20 92q-29 41 -100 41q-65 0 -97 -25t-32 -64q0 -22 8 -43q7 -20 56 -98h165v-62h-124q0 -1 5.5 -11t8 -15t7.5 -17.5t7.5 -22.5t4.5 -23.5t2 -27.5
q0 -30 -13 -69q60 -22 90 -22q32 0 48 16q22 21 22 67q0 18 -1 28h167zM280 110q-47 23 -65 30q-31 12 -50 12q-15 -1 -26 -9.5t-11 -23.5q0 -12 7 -22q17 -24 60 -24q48 0 85 37z" />
    <glyph glyph-name="currency" unicode="&#xa4;" horiz-adv-x="730" 
d="M698 114l-98 -92l-84 81q-81 -41 -153 -41q-75 0 -146 41l-85 -80l-99 92l86 80q-44 66 -44 144q0 80 44 144l-85 79l98 93l85 -79q66 41 152 41q75 0 147 -40l85 79l97 -94l-83 -78q25 -43 34 -74t9 -70q0 -74 -43 -144zM515 338q0 65 -42.5 108.5t-105.5 43.5t-106 -43
t-43 -107t43 -107t107 -43q62 0 104.5 43t42.5 105z" />
    <glyph glyph-name="yen" unicode="&#xa5;" horiz-adv-x="854" 
d="M850 666l-206 -256h96v-103h-179l-44 -54h223v-104h-227v-149h-176v149h-224v104h220l-42 54h-178v103h95l-207 256h217l210 -276l207 276h215z" />
    <glyph glyph-name="brokenbar" unicode="&#xa6;" horiz-adv-x="252" 
d="M193 382h-134v370h134v-370zM193 -151h-134v370h134v-370z" />
    <glyph glyph-name="section" unicode="&#xa7;" 
d="M705 305q0 -79 -85 -148q33 -26 49.5 -53t16.5 -65q0 -46 -21.5 -82.5t-54 -58.5t-76.5 -36t-85 -19.5t-82 -5.5q-109 0 -201 48.5t-125 142.5l149 30q9 -25 25 -45q25 -32 72.5 -47.5t95.5 -15.5q22 0 43 2.5t47 9t41.5 22.5t15.5 38q0 44 -76 64q-2 1 -23 6
q-40 10 -122 28q-117 26 -159 44q-104 46 -104 132q0 102 112 148q-32 25 -48 51t-16 64q0 48 32 88q61 78 243 78q55 0 97.5 -5t90 -20t81.5 -47t51 -81l-134 -28q-33 78 -184 78q-126 0 -126 -52q0 -16 19 -32q10 -8 48.5 -20t62.5 -17q19 -4 70.5 -15t87.5 -21t68 -23
q104 -43 104 -137zM570 273q0 28 -24 49q-7 6 -26 13t-46 13.5t-49.5 11.5t-50 11t-33.5 7q-60 14 -99 28q-48 -33 -48 -74q0 -26 21 -45q15 -14 64 -28.5t117.5 -29t77.5 -16.5l63 -18q33 40 33 78z" />
    <glyph glyph-name="dieresis" unicode="&#xa8;" horiz-adv-x="375" 
d="M364 572h-148v123h148v-123zM158 572h-147v123h147v-123z" />
    <glyph glyph-name="copyright" unicode="&#xa9;" horiz-adv-x="827" 
d="M770 354q0 -151 -103 -254t-254 -103q-148 0 -251.5 104t-103.5 252q0 149 103.5 252.5t252.5 103.5t252.5 -103t103.5 -252zM724 352q0 133 -90 224.5t-220 91.5q-128 0 -219 -92.5t-91 -223.5t90 -222.5t220 -91.5q129 0 219.5 91.5t90.5 222.5zM639 280
q-22 -63 -80 -99t-135 -36q-99 0 -162.5 58.5t-63.5 149.5q0 94 65 152t171 58q84 0 137 -36q24 -16 38 -34.5t28 -52.5l-102 -11q-29 57 -101 57q-60 0 -97.5 -37t-37.5 -96q0 -57 36 -93.5t92 -36.5q81 0 113 67z" />
    <glyph glyph-name="ordfeminine" unicode="&#xaa;" horiz-adv-x="479" 
d="M459 367h-123q-4 10 -8 36q-15 -12 -33 -21q-49 -26 -115 -26h-19t-37 6t-48.5 16.5t-36.5 35t-17 58.5q0 69 69 93q10 3 21.5 5.5t27 4t28 2.5t35.5 1.5t36 1t43 0.5h45q0 22 -7 30q-16 23 -80 23q-23 0 -34.5 -1t-29.5 -8t-25 -22h-113q4 30 18 51.5t45 36.5
q46 23 144 23q148 0 184 -69q11 -21 11 -60v-160q0 -29 19 -57zM327 519q-97 -3 -117 -4q-69 -7 -69 -42q0 -39 67 -39q40 0 71.5 16.5t42.5 38.5q3 7 5 30z" />
    <glyph glyph-name="guillemotleft" unicode="&#xab;" horiz-adv-x="562" 
d="M512 36l-224 166v104l224 169v-102l-124 -120l124 -114v-103zM266 35l-224 166v105l224 169v-102l-124 -120l124 -115v-103z" />
    <glyph glyph-name="logicalnot" unicode="&#xac;" horiz-adv-x="772" 
d="M679 18h-159v217h-464v130h623v-347z" />
    <glyph glyph-name="registered" unicode="&#xae;" horiz-adv-x="827" 
d="M770 354q0 -151 -103 -254t-254 -103q-148 0 -251.5 104t-103.5 252q0 149 103.5 252.5t252.5 103.5t252.5 -103t103.5 -252zM730 352q0 135 -91.5 227.5t-225.5 92.5q-131 0 -223 -93.5t-92 -226.5t92 -225.5t223 -92.5q132 0 224.5 92.5t92.5 225.5zM612 147h-107
l-95 159h-71v-159h-94v416h177q98 0 138 -24q50 -31 50 -100q0 -49 -26.5 -82t-75.5 -45zM514 435q0 30 -21 43q-18 11 -79 11h-75v-108h79q37 0 56 4q40 8 40 50z" />
    <glyph glyph-name="macron" unicode="&#xaf;" horiz-adv-x="375" 
d="M364 572h-353v93h353v-93z" />
    <glyph glyph-name="degree" unicode="&#xb0;" horiz-adv-x="354" 
d="M349 582q0 -70 -50.5 -121t-121.5 -51t-121.5 51t-50.5 121q0 72 50 122.5t122 50.5t122 -50.5t50 -122.5zM249 582q0 30 -21 50.5t-51 20.5t-51 -20.5t-21 -50.5q0 -29 21.5 -50.5t50.5 -21.5t50.5 21.5t21.5 50.5z" />
    <glyph glyph-name="plusminus" unicode="&#xb1;" horiz-adv-x="772" 
d="M683 388h-217v-200h-159v200h-218v130h218l1 193h158v-193h217v-130zM683 0h-594v130h594v-130z" />
    <glyph glyph-name="twosuperior" unicode="&#xb2;" horiz-adv-x="500" 
d="M455 517q0 -61 -48 -102q-15 -12 -39.5 -24.5t-41.5 -19t-48 -16.5t-36 -12q-36 -12 -52 -20.5t-30 -26.5h284v-90h-418q0 56 10 88q9 28 28.5 51.5t35.5 37t49 28.5t44.5 19t47.5 16q46 15 54 20q35 20 35 50q0 51 -84 51q-48 0 -66.5 -17t-22.5 -52h-117q0 3 1.5 15.5
t6.5 34t12 34.5q42 72 177 74q141 2 190 -58q28 -34 28 -81z" />
    <glyph glyph-name="threesuperior" unicode="&#xb3;" horiz-adv-x="500" 
d="M466 340q0 -63 -59.5 -103t-157.5 -42q-156 -3 -212 80q-18 27 -26 78l123 6q6 -38 26.5 -55t73.5 -17q108 0 108 56q0 24 -22 39q-15 10 -99 10h-48v79h71q17 0 25.5 0.5t26 4.5t26 14.5t8.5 27.5q0 50 -81 50q-70 0 -92 -27q-5 -6 -11 -27l-122 5q11 48 26 68
q52 71 192 71q215 0 215 -125q0 -31 -17.5 -54t-33.5 -31t-32 -12q55 -15 75 -41q17 -23 17 -55z" />
    <glyph glyph-name="acute" unicode="&#xb4;" horiz-adv-x="375" 
d="M300 696l-122 -124h-103l53 124h172z" />
    <glyph glyph-name="mu" unicode="&#xb5;" horiz-adv-x="771" 
d="M720 0h-177q-9 26 -9 60v12q-68 -83 -165 -83q-38 0 -74 12q-25 9 -58 34v-227h-164v698h165v-277q0 -32 7 -52q26 -73 134 -73q87 0 126 41q28 31 28 113v248h164v-436q0 -28 4 -40.5t19 -29.5z" />
    <glyph glyph-name="paragraph" unicode="&#xb6;" horiz-adv-x="629" 
d="M541 624h-35v-790h-86v790h-128v-791h-88l1 475q-45 13 -71 31q-35 23 -55 65t-20 94q0 98 62 155q31 29 71 41t104 12h245v-82z" />
    <glyph glyph-name="periodcentered" unicode="&#xb7;" horiz-adv-x="292" 
d="M228 209h-164v143h164v-143z" />
    <glyph glyph-name="cedilla" unicode="&#xb8;" horiz-adv-x="375" 
d="M302 -155q0 -41 -35 -67t-104 -26q-25 0 -91 10l2 50q21 -3 44 -3q33 0 49 10q17 10 16 28q0 13 -7 20q-12 13 -41 13q-26 0 -53 -9l-10 27l85 107l51 -4l-51 -75q69 7 108 -17q39 -23 37 -64z" />
    <glyph glyph-name="onesuperior" unicode="&#xb9;" horiz-adv-x="500" 
d="M343 206h-118v323q-37 -18 -59.5 -23.5t-64.5 -9.5v85q5 0 20.5 3t43 12.5t44.5 23.5q18 15 28 28h106v-442z" />
    <glyph glyph-name="ordmasculine" unicode="&#xba;" horiz-adv-x="500" 
d="M479 534q0 -65 -36.5 -109.5t-86 -62t-105.5 -17.5h-17t-35 4.5t-49 12t-49.5 25t-46.5 41.5q-33 43 -33 98q0 94 68 141t163 47q37 0 74.5 -9.5t73 -29.5t57.5 -56.5t22 -84.5zM363 530q0 37 -25 67t-84 32q-23 0 -47 -6q-69 -20 -69 -94q0 -48 33.5 -73t80.5 -25t79 25
t32 74z" />
    <glyph glyph-name="guillemotright" unicode="&#xbb;" horiz-adv-x="562" 
d="M518 205l-225 -169v102l124 119l-124 115v104l225 -167v-104zM273 205l-225 -170v103l123 119l-123 114v104l225 -167v-103z" />
    <glyph glyph-name="onequarter" unicode="&#xbc;" horiz-adv-x="1125" 
d="M1093 90h-71v-90h-118v89h-268v81l265 271h121v-267h71v-84zM801 626l-410 -652l-70 45l409 652zM343 206h-118v323q-37 -18 -59.5 -23.5t-64.5 -9.5v85q5 0 20.5 3t43 12.5t44.5 23.5q18 15 28 28h106v-442zM905 173v158l-143 -158h143z" />
    <glyph glyph-name="onehalf" unicode="&#xbd;" horiz-adv-x="1125" 
d="M1080 311q0 -61 -48 -102q-15 -12 -39.5 -24.5t-41.5 -19t-48 -16.5t-36 -12q-36 -12 -52.5 -21t-29.5 -26h284v-90h-418q0 56 10 88q12 35 33.5 60.5t57 44t54 26t60.5 21.5q44 14 54 20q35 20 35 50q0 51 -84 51q-48 0 -66.5 -17t-22.5 -52h-117q0 3 1.5 15.5t6.5 34
t12 34.5q42 72 177 74q141 2 190 -58q28 -34 28 -81zM801 626l-410 -652l-70 45l409 652zM343 206h-118v323q-37 -18 -59.5 -23.5t-64.5 -9.5v85q5 0 20.5 3t43 12.5t44.5 23.5q18 15 28 28h106v-442z" />
    <glyph glyph-name="threequarters" unicode="&#xbe;" horiz-adv-x="1125" 
d="M1093 90h-71v-90h-118v89h-268v81l265 271h121v-267h71v-84zM801 626l-410 -652l-70 45l409 652zM466 340q0 -63 -59.5 -103t-157.5 -42q-156 -3 -212 80q-18 27 -26 78l123 6q6 -38 26.5 -55t73.5 -17q108 0 108 56q0 24 -22 39q-15 10 -99 10h-48v79h71q17 0 25.5 0.5
t26 4.5t26 14.5t8.5 27.5q0 50 -81 50q-70 0 -92 -27q-5 -6 -11 -27l-122 5q11 48 26 68q52 71 192 71q215 0 215 -125q0 -31 -17.5 -54t-33.5 -31t-32 -12q55 -15 75 -41q17 -23 17 -55zM905 173v158l-143 -158h143z" />
    <glyph glyph-name="questiondown" unicode="&#xbf;" horiz-adv-x="688" 
d="M411 583h-165v123h165v-123zM623 215q-4 -34 -11 -62q-20 -79 -78 -118q-72 -50 -213 -50q-131 0 -206 46q-36 29 -41 34q-48 51 -48 121q0 29 8 52q12 37 45.5 69.5t100.5 70.5q34 18 46 30q20 22 20 63v29h165v-52q0 -51 -17 -74q-15 -20 -71 -56q-80 -55 -90 -63
q-38 -33 -38 -70q0 -25 14 -43q32 -43 123 -43q38 0 64 10q62 25 66 114z" />
    <glyph glyph-name="Agrave" unicode="&#xc0;" horiz-adv-x="875" 
d="M500 760h-100l-125 125h170zM874 0h-198l-60 133h-362l-60 -133h-193l341 706h191zM559 258l-123 276l-125 -276h248z" />
    <glyph glyph-name="Aacute" unicode="&#xc1;" horiz-adv-x="875" 
d="M591 885l-122 -124h-101l52 124h171zM874 0h-198l-60 133h-362l-60 -133h-193l341 706h191zM559 258l-123 276l-125 -276h248z" />
    <glyph glyph-name="Acircumflex" unicode="&#xc2;" horiz-adv-x="875" 
d="M629 761h-113l-83 78l-84 -78h-115l96 124h204zM874 0h-198l-60 133h-362l-60 -133h-193l341 706h191zM559 258l-123 276l-125 -276h248z" />
    <glyph glyph-name="Atilde" unicode="&#xc3;" horiz-adv-x="875" 
d="M649 884q-6 -44 -14 -62q-27 -59 -99 -58q-32 0 -129 28q-44 12 -58 12q-25 0 -38 -19q-2 -3 -3.5 -6.5t-2.5 -6.5l-1 -3l-61 1q0 25 8 49q20 67 101 67q52 0 110 -23q52 -16 76 -16q32 0 44 21q4 8 5 16h62zM874 0h-198l-60 133h-362l-60 -133h-193l341 706h191z
M559 258l-123 276l-125 -276h248z" />
    <glyph glyph-name="Adieresis" unicode="&#xc4;" horiz-adv-x="875" 
d="M676 754h-164v126h164v-126zM372 754h-164v126h164v-126zM874 0h-198l-60 133h-362l-60 -133h-193l341 706h191zM559 258l-123 276l-125 -276h248z" />
    <glyph glyph-name="Aring" unicode="&#xc5;" horiz-adv-x="875" 
d="M570 824q0 -22 -10 -42q-29 -60 -117 -60q-26 0 -47 6q-38 10 -62.5 35.5t-24.5 62.5q0 25 11 44q13 22 42.5 39.5t74.5 18.5q52 1 92.5 -26t40.5 -78zM874 0h-198l-60 133h-362l-60 -133h-193l341 706h191zM493 825q0 9 -3 17q-5 14 -16.5 22t-20.5 9.5t-16 0.5
q-22 -1 -36.5 -14.5t-14.5 -35.5q0 -23 15 -36t38 -13q29 0 41.5 16.5t12.5 33.5zM559 258l-123 276l-125 -276h248z" />
    <glyph glyph-name="AE" unicode="&#xc6;" horiz-adv-x="1104" 
d="M1061 0h-539v170h-239l-92 -170h-189l399 706h647v-124h-356v-164h334v-124h-334v-170h369v-124zM522 294v322l-172 -322h172z" />
    <glyph glyph-name="Ccedilla" unicode="&#xc7;" horiz-adv-x="896" 
d="M890 240q-12 -38 -21 -59t-29 -49t-52 -55q-25 -21 -52 -37.5t-53 -26.5t-49.5 -17t-47.5 -11t-38.5 -5.5t-31.5 -2.5t-19 -1l-33 -50q18 2 28 2q44 0 80 -18.5t36 -64.5q0 -36 -26.5 -58.5t-54.5 -28.5t-56 -6q-30 0 -92 10l1 50q22 -3 45 -3q43 0 56 16q11 11 9 22
q-1 33 -46 33q-14 0 -55 -9l-11 27l63 78l-9 1q-178 20 -283.5 112t-105.5 264q0 79 24.5 143t65.5 106.5t97 71.5t118 41.5t129 12.5h32t64.5 -7.5t91.5 -21.5t91 -46t85 -76q18 -22 41 -69l-193 -24q-16 26 -26 36q-70 78 -186 78q-113 0 -183.5 -70.5t-67.5 -182.5
q2 -79 43 -135q31 -44 85.5 -74t127.5 -30q125 0 189 78q16 20 33 54z" />
    <glyph glyph-name="Egrave" unicode="&#xc8;" horiz-adv-x="792" 
d="M480 760h-100l-124 125h169zM755 0h-678v706h658v-127h-481v-159h465v-126h-465v-168h501v-126z" />
    <glyph glyph-name="Eacute" unicode="&#xc9;" horiz-adv-x="792" 
d="M569 885l-122 -124h-100l52 124h170zM755 0h-678v706h658v-127h-481v-159h465v-126h-465v-168h501v-126z" />
    <glyph glyph-name="Ecircumflex" unicode="&#xca;" horiz-adv-x="792" 
d="M608 761h-114l-83 78l-84 -78h-114l95 124h204zM755 0h-678v706h658v-127h-481v-159h465v-126h-465v-168h501v-126z" />
    <glyph glyph-name="Edieresis" unicode="&#xcb;" horiz-adv-x="792" 
d="M651 757h-164v125h164v-125zM346 757h-164v125h164v-125zM755 0h-678v706h658v-127h-481v-159h465v-126h-465v-168h501v-126z" />
    <glyph glyph-name="Igrave" unicode="&#xcc;" horiz-adv-x="333" 
d="M229 760h-100l-124 125h169zM255 0h-177v706h177v-706z" />
    <glyph glyph-name="Iacute" unicode="&#xcd;" horiz-adv-x="333" 
d="M320 885l-122 -124h-100l52 124h170zM255 0h-177v706h177v-706z" />
    <glyph glyph-name="Icircumflex" unicode="&#xce;" horiz-adv-x="333" 
d="M359 761h-114l-83 78l-84 -78h-114l95 124h204zM255 0h-177v706h177v-706z" />
    <glyph glyph-name="Idieresis" unicode="&#xcf;" horiz-adv-x="333" 
d="M401 757h-165v125h165v-125zM96 757h-164v125h164v-125zM255 0h-177v706h177v-706z" />
    <glyph glyph-name="Eth" unicode="&#xd0;" horiz-adv-x="896" 
d="M849 350q-1 -74 -23 -135t-58.5 -100t-77 -63.5t-84.5 -36.5q-57 -15 -165 -15h-364v306h-78v115h78v285h387q96 0 160 -19q43 -13 81 -38t72 -64t53.5 -100t18.5 -135zM673 360q0 30 -4.5 58t-16 60t-36.5 56.5t-61 35.5q-33 11 -98 11h-204v-160h186v-115h-186v-181
h195q74 0 113 15q112 44 112 220z" />
    <glyph glyph-name="Ntilde" unicode="&#xd1;" horiz-adv-x="938" 
d="M680 884q-4 -40 -13 -62q-27 -59 -99 -58q-33 0 -130 28q-42 12 -58 12q-25 0 -38 -19q-6 -9 -6 -16l-62 1q6 38 9 49q22 67 101 67q52 0 109 -23q52 -16 77 -16q31 0 43 21q4 8 5 16h62zM855 0h-174l-436 495v-495h-168v706h177l433 -493v493h168v-706z" />
    <glyph glyph-name="Ograve" unicode="&#xd2;" horiz-adv-x="958" 
d="M541 760h-99l-125 125h170zM910 360q0 -51 -8 -90q-27 -142 -144 -221q-110 -72 -279 -72q-143 0 -234.5 46.5t-137.5 113.5q-63 89 -63 216q0 187 131 288q104 80 275 87q161 5 273 -50q36 -20 56 -34q34 -26 56 -53q75 -88 75 -231zM730 352q0 103 -63 172
q-73 80 -198 77q-57 -4 -102 -23q-46 -20 -77 -52.5t-43.5 -68t-16.5 -60.5t-4 -49q0 -58 19 -102q9 -23 27 -48q27 -33 36 -40q63 -54 169 -54q55 0 102 17q49 17 82 49.5t46.5 69.5t18 63t4.5 49z" />
    <glyph glyph-name="Oacute" unicode="&#xd3;" horiz-adv-x="958" 
d="M633 885l-122 -124h-101l52 124h171zM910 360q0 -51 -8 -90q-27 -142 -144 -221q-110 -72 -279 -72q-143 0 -234.5 46.5t-137.5 113.5q-63 89 -63 216q0 187 131 288q104 80 275 87q161 5 273 -50q36 -20 56 -34q34 -26 56 -53q75 -88 75 -231zM730 352q0 103 -63 172
q-73 80 -198 77q-57 -4 -102 -23q-46 -20 -77 -52.5t-43.5 -68t-16.5 -60.5t-4 -49q0 -58 19 -102q9 -23 27 -48q27 -33 36 -40q63 -54 169 -54q55 0 102 17q49 17 82 49.5t46.5 69.5t18 63t4.5 49z" />
    <glyph glyph-name="Ocircumflex" unicode="&#xd4;" horiz-adv-x="958" 
d="M671 761h-114l-83 78l-84 -78h-114l96 124h204zM910 360q0 -51 -8 -90q-27 -142 -144 -221q-110 -72 -279 -72q-143 0 -234.5 46.5t-137.5 113.5q-63 89 -63 216q0 187 131 288q104 80 275 87q161 5 273 -50q36 -20 56 -34q34 -26 56 -53q75 -88 75 -231zM730 352
q0 103 -63 172q-73 80 -198 77q-57 -4 -102 -23q-46 -20 -77 -52.5t-43.5 -68t-16.5 -60.5t-4 -49q0 -58 19 -102q9 -23 27 -48q27 -33 36 -40q63 -54 169 -54q55 0 102 17q49 17 82 49.5t46.5 69.5t18 63t4.5 49z" />
    <glyph glyph-name="Otilde" unicode="&#xd5;" horiz-adv-x="958" 
d="M691 884q-7 -46 -14 -62q-27 -59 -99 -58q-31 0 -130 28q-42 12 -57 12q-25 0 -38 -19q-2 -3 -3.5 -6.5t-2.5 -6.5l-1 -3l-62 1q6 38 9 49q22 67 101 67q41 0 110 -23q51 -16 76 -16q32 0 44 21q2 4 5 16h62zM910 360q0 -51 -8 -90q-27 -142 -144 -221q-110 -72 -279 -72
q-143 0 -234.5 46.5t-137.5 113.5q-63 89 -63 216q0 187 131 288q104 80 275 87q161 5 273 -50q36 -20 56 -34q34 -26 56 -53q75 -88 75 -231zM730 352q0 103 -63 172q-73 80 -198 77q-57 -4 -102 -23q-46 -20 -77 -52.5t-43.5 -68t-16.5 -60.5t-4 -49q0 -58 19 -102
q9 -23 27 -48q27 -33 36 -40q63 -54 169 -54q55 0 102 17q49 17 82 49.5t46.5 69.5t18 63t4.5 49z" />
    <glyph glyph-name="Odieresis" unicode="&#xd6;" horiz-adv-x="958" 
d="M715 756h-165v126h165v-126zM410 756h-164v126h164v-126zM910 360q0 -51 -8 -90q-27 -142 -144 -221q-110 -72 -279 -72q-143 0 -234.5 46.5t-137.5 113.5q-63 89 -63 216q0 187 131 288q104 80 275 87q161 5 273 -50q36 -20 56 -34q34 -26 56 -53q75 -88 75 -231z
M730 352q0 103 -63 172q-73 80 -198 77q-57 -4 -102 -23q-46 -20 -77 -52.5t-43.5 -68t-16.5 -60.5t-4 -49q0 -58 19 -102q9 -23 27 -48q27 -33 36 -40q63 -54 169 -54q55 0 102 17q49 17 82 49.5t46.5 69.5t18 63t4.5 49z" />
    <glyph glyph-name="multiply" unicode="&#xd7;" horiz-adv-x="769" 
d="M644 160l-108 -112l-160 151l-152 -151l-92 88l152 151l-159 150l108 112l158 -150l152 151l92 -88l-151 -151z" />
    <glyph glyph-name="Oslash" unicode="&#xd8;" horiz-adv-x="958" 
d="M910 360q0 -48 -10 -97q-31 -141 -147 -216q-106 -70 -273 -70q-129 0 -219 38q-24 10 -56 30l-103 -95l-47 52l92 87q-22 22 -40 48q-63 93 -63 216q0 105 39 178q27 53 71 92.5t98 62t110.5 33t116.5 10.5q123 0 218 -41q24 -10 59 -31l96 88l48 -54l-86 -81
q21 -22 34 -39q62 -86 62 -211zM643 551q-16 12 -32 22q-56 32 -132 32q-69 0 -131 -32q-41 -22 -69.5 -54t-40 -66t-15.5 -58t-4 -47q0 -76 46 -151zM734 352q0 79 -41 147l-378 -351q18 -12 29 -18q57 -31 135 -31q103 0 171 58q41 34 62.5 86t21.5 109z" />
    <glyph glyph-name="Ugrave" unicode="&#xd9;" horiz-adv-x="917" 
d="M520 760h-99l-125 125h170zM836 295q0 -41 -1.5 -64.5t-9.5 -55t-25 -58.5q-20 -30 -42 -50q-53 -47 -134.5 -69t-164.5 -22q-72 0 -138 14q-173 38 -226 162q-20 47 -20 144v410h176v-416q0 -46 11.5 -77.5t44.5 -55.5q53 -38 153 -38q83 0 132 28q37 20 56 56
q12 24 12 62v441h176v-411z" />
    <glyph glyph-name="Uacute" unicode="&#xda;" horiz-adv-x="917" 
d="M612 885l-122 -124h-101l52 124h171zM836 295q0 -41 -1.5 -64.5t-9.5 -55t-25 -58.5q-20 -30 -42 -50q-53 -47 -134.5 -69t-164.5 -22q-72 0 -138 14q-173 38 -226 162q-20 47 -20 144v410h176v-416q0 -46 11.5 -77.5t44.5 -55.5q53 -38 153 -38q83 0 132 28q37 20 56 56
q12 24 12 62v441h176v-411z" />
    <glyph glyph-name="Ucircumflex" unicode="&#xdb;" horiz-adv-x="917" 
d="M650 761h-113l-83 78l-85 -78h-114l96 124h204zM836 295q0 -41 -1.5 -64.5t-9.5 -55t-25 -58.5q-20 -30 -42 -50q-53 -47 -134.5 -69t-164.5 -22q-72 0 -138 14q-173 38 -226 162q-20 47 -20 144v410h176v-416q0 -46 11.5 -77.5t44.5 -55.5q53 -38 153 -38q83 0 132 28
q37 20 56 56q12 24 12 62v441h176v-411z" />
    <glyph glyph-name="Udieresis" unicode="&#xdc;" horiz-adv-x="917" 
d="M693 755h-164v125h164v-125zM389 755h-164v125h164v-125zM836 295q0 -41 -1.5 -64.5t-9.5 -55t-25 -58.5q-20 -30 -42 -50q-53 -47 -134.5 -69t-164.5 -22q-72 0 -138 14q-173 38 -226 162q-20 47 -20 144v410h176v-416q0 -46 11.5 -77.5t44.5 -55.5q53 -38 153 -38
q83 0 132 28q37 20 56 56q12 24 12 62v441h176v-411z" />
    <glyph glyph-name="Yacute" unicode="&#xdd;" horiz-adv-x="854" 
d="M580 885l-121 -124h-101l52 124h170zM850 706l-337 -441v-265h-176v265l-336 441h217l208 -295l209 295h215z" />
    <glyph glyph-name="Thorn" unicode="&#xde;" horiz-adv-x="792" 
d="M779 379q0 -76 -34 -127q-62 -92 -206 -92h-288v-160h-174v706h174v-106h286q40 0 58 -3q141 -19 175 -145q9 -34 9 -73zM603 377q0 30 -10 50q-24 51 -92 51h-250v-194h235q117 0 117 93z" />
    <glyph glyph-name="germandbls" unicode="&#xdf;" 
d="M712 213q0 -86 -47 -144q-68 -83 -209 -83q-57 0 -145 19v99q64 -16 103 -16q34 0 59 10.5t38 24.5t20.5 34t9.5 35t2 30q0 42 -16 71q-18 35 -51 45.5t-82 10.5q-40 0 -77 -3v101q65 -3 95 2t49 26q18 23 18 57q0 42 -24 65q-30 28 -96 28q-61 0 -89 -23q-13 -8 -22 -27
q-10 -21 -10 -63v-512h-165v474q0 44 2 69.5t15.5 60t39.5 56.5q73 64 239 64q122 0 191 -34q88 -43 88 -141q0 -65 -38 -103q-31 -31 -84 -40q43 -6 62 -11q84 -23 112 -106q12 -36 12 -76z" />
    <glyph glyph-name="agrave" unicode="&#xe0;" 
d="M438 571h-100l-124 125h170zM699 0h-180q-8 27 -10 54q-2 -1 -13.5 -8t-15.5 -9.5t-16.5 -9t-19 -9t-20 -8.5t-23 -8.5t-24.5 -6t-28.5 -5.5t-30.5 -3t-35 -1q-142 0 -201 64q-41 44 -41 105q0 95 75 133q63 30 237 30h157q0 39 -8 53q-23 39 -135 39q-75 0 -106 -17
q-16 -8 -23 -19q-2 -5 -4 -11l-167 2q10 55 42 89q67 70 263 70q128 0 199 -28q56 -26 78 -58q27 -40 27 -139v-237q0 -9 1 -16.5t2 -12t4 -10.5t4 -7.5t6 -8t6 -7.5zM509 234h-115q-34 0 -76 -5q-77 -7 -95 -38q-9 -13 -9 -31q0 -16 9 -29q24 -35 102 -35q29 0 52 5
q9 2 22.5 6.5t33.5 13.5t39 25.5t29 37.5q9 17 8 50z" />
    <glyph glyph-name="aacute" unicode="&#xe1;" 
d="M531 696l-122 -124h-102l53 124h171zM699 0h-180q-8 27 -10 54q-2 -1 -13.5 -8t-15.5 -9.5t-16.5 -9t-19 -9t-20 -8.5t-23 -8.5t-24.5 -6t-28.5 -5.5t-30.5 -3t-35 -1q-142 0 -201 64q-41 44 -41 105q0 95 75 133q63 30 237 30h157q0 39 -8 53q-23 39 -135 39
q-75 0 -106 -17q-16 -8 -23 -19q-2 -5 -4 -11l-167 2q10 55 42 89q67 70 263 70q128 0 199 -28q56 -26 78 -58q27 -40 27 -139v-237q0 -9 1 -16.5t2 -12t4 -10.5t4 -7.5t6 -8t6 -7.5zM509 234h-115q-34 0 -76 -5q-77 -7 -95 -38q-9 -13 -9 -31q0 -16 9 -29q24 -35 102 -35
q29 0 52 5q9 2 22.5 6.5t33.5 13.5t39 25.5t29 37.5q9 17 8 50z" />
    <glyph glyph-name="acircumflex" unicode="&#xe2;" 
d="M569 571h-114l-82 78l-85 -78h-114l96 124h204zM699 0h-180q-8 27 -10 54q-2 -1 -13.5 -8t-15.5 -9.5t-16.5 -9t-19 -9t-20 -8.5t-23 -8.5t-24.5 -6t-28.5 -5.5t-30.5 -3t-35 -1q-142 0 -201 64q-41 44 -41 105q0 95 75 133q63 30 237 30h157q0 39 -8 53q-23 39 -135 39
q-75 0 -106 -17q-16 -8 -23 -19q-2 -5 -4 -11l-167 2q10 55 42 89q67 70 263 70q128 0 199 -28q56 -26 78 -58q27 -40 27 -139v-237q0 -9 1 -16.5t2 -12t4 -10.5t4 -7.5t6 -8t6 -7.5zM509 234h-115q-34 0 -76 -5q-77 -7 -95 -38q-9 -13 -9 -31q0 -16 9 -29q24 -35 102 -35
q29 0 52 5q9 2 22.5 6.5t33.5 13.5t39 25.5t29 37.5q9 17 8 50z" />
    <glyph glyph-name="atilde" unicode="&#xe3;" 
d="M586 695q-4 -40 -13 -62q-26 -59 -99 -59q-36 0 -130 29q-39 11 -57 11q-28 0 -39 -18q-6 -9 -6 -17l-62 1q5 37 9 50q22 67 101 67q52 0 109 -23q52 -16 77 -16q32 0 44 20q2 3 5 17h61zM699 0h-180q-8 27 -10 54q-2 -1 -13.5 -8t-15.5 -9.5t-16.5 -9t-19 -9t-20 -8.5
t-23 -8.5t-24.5 -6t-28.5 -5.5t-30.5 -3t-35 -1q-142 0 -201 64q-41 44 -41 105q0 95 75 133q63 30 237 30h157q0 39 -8 53q-23 39 -135 39q-75 0 -106 -17q-16 -8 -23 -19q-2 -5 -4 -11l-167 2q10 55 42 89q67 70 263 70q128 0 199 -28q56 -26 78 -58q27 -40 27 -139v-237
q0 -9 1 -16.5t2 -12t4 -10.5t4 -7.5t6 -8t6 -7.5zM509 234h-115q-34 0 -76 -5q-77 -7 -95 -38q-9 -13 -9 -31q0 -16 9 -29q24 -35 102 -35q29 0 52 5q9 2 22.5 6.5t33.5 13.5t39 25.5t29 37.5q9 17 8 50z" />
    <glyph glyph-name="adieresis" unicode="&#xe4;" 
d="M553 570h-149v123h149v-123zM347 570h-147v123h147v-123zM699 0h-180q-8 27 -10 54q-2 -1 -13.5 -8t-15.5 -9.5t-16.5 -9t-19 -9t-20 -8.5t-23 -8.5t-24.5 -6t-28.5 -5.5t-30.5 -3t-35 -1q-142 0 -201 64q-41 44 -41 105q0 95 75 133q63 30 237 30h157q0 39 -8 53
q-23 39 -135 39q-75 0 -106 -17q-16 -8 -23 -19q-2 -5 -4 -11l-167 2q10 55 42 89q67 70 263 70q128 0 199 -28q56 -26 78 -58q27 -40 27 -139v-237q0 -9 1 -16.5t2 -12t4 -10.5t4 -7.5t6 -8t6 -7.5zM509 234h-115q-34 0 -76 -5q-77 -7 -95 -38q-9 -13 -9 -31q0 -16 9 -29
q24 -35 102 -35q29 0 52 5q9 2 22.5 6.5t33.5 13.5t39 25.5t29 37.5q9 17 8 50z" />
    <glyph glyph-name="aring" unicode="&#xe5;" 
d="M507 655q0 -22 -10 -42q-31 -60 -118 -60q-22 0 -46 6q-39 10 -63.5 35.5t-24.5 62.5q0 23 12 44q12 22 41.5 39.5t74.5 18.5q52 1 93 -26t41 -78zM699 0h-180q-8 27 -10 54q-2 -1 -13.5 -8t-15.5 -9.5t-16.5 -9t-19 -9t-20 -8.5t-23 -8.5t-24.5 -6t-28.5 -5.5t-30.5 -3
t-35 -1q-142 0 -201 64q-41 44 -41 105q0 95 75 133q63 30 237 30h157q0 39 -8 53q-23 39 -135 39q-75 0 -106 -17q-16 -8 -23 -19q-2 -5 -4 -11l-167 2q10 55 42 89q67 70 263 70q128 0 199 -28q56 -26 78 -58q27 -40 27 -139v-237q0 -9 1 -16.5t2 -12t4 -10.5t4 -7.5t6 -8
t6 -7.5zM429 655q0 7 -3 17q-13 37 -53 33q-22 -1 -36.5 -14.5t-14.5 -36.5q0 -22 15 -35t38 -13q29 0 41.5 16t12.5 33zM509 234h-115q-34 0 -76 -5q-77 -7 -95 -38q-9 -13 -9 -31q0 -16 9 -29q24 -35 102 -35q29 0 52 5q9 2 22.5 6.5t33.5 13.5t39 25.5t29 37.5q9 17 8 50
z" />
    <glyph glyph-name="ae" unicode="&#xe6;" horiz-adv-x="1104" 
d="M1063 155q-30 -63 -65 -96q-32 -31 -90.5 -55t-137.5 -24q-139 0 -227 76q-14 14 -19 20q-20 -20 -45 -37q-89 -59 -214 -59q-84 0 -146 33q-23 14 -35 25q-43 43 -43 113q0 71 44 111q21 19 47 29q63 25 185 25h136q-3 39 -11 55q-26 44 -119 44q-74 0 -97 -28
q-6 -8 -13 -26l-149 2q10 57 33 87q59 80 221 80q123 0 187 -43q19 -12 37 -33q18 16 32 25q79 51 191 51q125 0 207 -65q52 -41 74 -105q17 -49 17 -132h-444q7 -41 23 -64q20 -33 56 -52t76 -19q65 0 109 44q10 10 26 35zM895 316q-11 50 -38 73q-37 31 -92 31
q-81 0 -121 -59q-9 -13 -21 -45h272zM451 228h-140q-54 0 -79 -12q-37 -17 -37 -56q0 -29 24 -50t73 -21q78 0 122 49q11 11 20 29q4 7 17 61z" />
    <glyph glyph-name="ccedilla" unicode="&#xe7;" horiz-adv-x="703" 
d="M689 156q-12 -23 -19 -34.5t-19.5 -25.5t-33.5 -31q-90 -74 -222 -85l-36 -54q20 2 28 2q44 0 80.5 -18.5t36.5 -64.5q0 -35 -25.5 -57.5t-54 -29t-57.5 -6.5q-30 0 -92 10l1 50q22 -3 45 -3q30 0 48 9.5t17 28.5q0 12 -6 18q-15 15 -41 15q-13 0 -54 -9l-11 27l65 81
q-75 7 -127 28q-29 12 -56.5 30t-55.5 47t-45 73t-17 97q0 72 31.5 127.5t82.5 86t106.5 45t113.5 14.5q72 0 145.5 -24t123.5 -81q19 -21 38 -58l-172 -19q-45 58 -135 58q-67 0 -117 -40t-50 -110q0 -23 8.5 -47t26.5 -48t52 -39t79 -15q35 0 74.5 13t63.5 42q0 1 2.5 4.5
t5 8t4.5 8.5z" />
    <glyph glyph-name="egrave" unicode="&#xe8;" 
d="M438 571h-100l-124 125h170zM714 152q-10 -17 -23 -35q-44 -58 -109 -91q-89 -46 -208 -46q-94 0 -163.5 26.5t-105.5 69.5t-52 88.5t-16 93.5q0 126 95 198q91 70 244 70q104 0 190 -42.5t122 -130.5q19 -49 20 -128h-502q4 -21 12 -39q16 -35 57 -61t108 -26
q83 0 133 40q17 14 27 30zM526 316q-7 28 -14 39q-19 29 -59 42t-80 13q-94 0 -137 -50q-12 -14 -25 -44h315z" />
    <glyph glyph-name="eacute" unicode="&#xe9;" 
d="M531 696l-122 -124h-102l53 124h171zM714 152q-10 -17 -23 -35q-44 -58 -109 -91q-89 -46 -208 -46q-94 0 -163.5 26.5t-105.5 69.5t-52 88.5t-16 93.5q0 126 95 198q91 70 244 70q104 0 190 -42.5t122 -130.5q19 -49 20 -128h-502q4 -21 12 -39q16 -35 57 -61t108 -26
q83 0 133 40q17 14 27 30zM526 316q-7 28 -14 39q-19 29 -59 42t-80 13q-94 0 -137 -50q-12 -14 -25 -44h315z" />
    <glyph glyph-name="ecircumflex" unicode="&#xea;" 
d="M569 571h-114l-82 78l-85 -78h-114l96 124h204zM714 152q-10 -17 -23 -35q-44 -58 -109 -91q-89 -46 -208 -46q-94 0 -163.5 26.5t-105.5 69.5t-52 88.5t-16 93.5q0 126 95 198q91 70 244 70q104 0 190 -42.5t122 -130.5q19 -49 20 -128h-502q4 -21 12 -39q16 -35 57 -61
t108 -26q83 0 133 40q17 14 27 30zM526 316q-7 28 -14 39q-19 29 -59 42t-80 13q-94 0 -137 -50q-12 -14 -25 -44h315z" />
    <glyph glyph-name="edieresis" unicode="&#xeb;" 
d="M550 572h-148v123h148v-123zM344 572h-147v123h147v-123zM714 152q-10 -17 -23 -35q-44 -58 -109 -91q-89 -46 -208 -46q-94 0 -163.5 26.5t-105.5 69.5t-52 88.5t-16 93.5q0 126 95 198q91 70 244 70q104 0 190 -42.5t122 -130.5q19 -49 20 -128h-502q4 -21 12 -39
q16 -35 57 -61t108 -26q83 0 133 40q17 14 27 30zM526 316q-7 28 -14 39q-19 29 -59 42t-80 13q-94 0 -137 -50q-12 -14 -25 -44h315z" />
    <glyph glyph-name="igrave" unicode="&#xec;" horiz-adv-x="313" 
d="M220 571h-101l-124 125h170zM238 0h-164v506h164v-506z" />
    <glyph glyph-name="iacute" unicode="&#xed;" horiz-adv-x="313" 
d="M312 696l-122 -124h-101l52 124h171zM238 0h-164v506h164v-506z" />
    <glyph glyph-name="icircumflex" unicode="&#xee;" horiz-adv-x="313" 
d="M350 571h-113l-83 78l-85 -78h-113l95 124h204zM238 0h-164v506h164v-506z" />
    <glyph glyph-name="idieresis" unicode="&#xef;" horiz-adv-x="313" 
d="M331 572h-148v123h148v-123zM125 572h-147v123h147v-123zM238 0h-164v506h164v-506z" />
    <glyph glyph-name="eth" unicode="&#xf0;" horiz-adv-x="771" 
d="M732 279q0 -112 -72 -194q-93 -106 -281 -106q-86 0 -154 24.5t-107.5 64.5t-60 86.5t-20.5 94.5q0 91 52 159.5t152 100.5q60 21 117 21q89 0 147 -42q-58 78 -84 104l-192 -36l-26 56l163 31q-30 27 -55 47l170 31q2 -2 31 -26l21 -21l112 22l28 -56l-89 -17
q56 -57 102 -147t46 -197zM561 258q0 74 -50.5 112.5t-120.5 38.5h-14q-33 0 -71 -15q-33 -13 -55 -34t-30 -45t-10 -37t-2 -26q0 -42 23 -80.5t70 -57.5q31 -13 85 -13q50 0 86.5 15t54.5 40t26 50t8 52z" />
    <glyph glyph-name="ntilde" unicode="&#xf1;" horiz-adv-x="771" 
d="M597 695q-6 -44 -14 -62q-26 -59 -99 -59q-15 0 -34 3.5t-31 6.5t-35.5 10t-28.5 9q-35 11 -58 11q-26 0 -38 -18q-2 -3 -3.5 -6.5t-2.5 -6.5t-1 -4l-61 1q0 26 8 50q20 67 101 67q52 0 110 -23q52 -16 76 -16q32 0 44 20q4 8 5 17h62zM695 0h-165v258q0 81 -37 114
q-34 32 -104 32q-118 0 -146 -77q-7 -20 -7 -55v-272h-163v506h163v-72q19 20 36 33q71 54 187 54q124 0 188 -69q21 -23 32 -53q16 -42 16 -119v-280z" />
    <glyph glyph-name="ograve" unicode="&#xf2;" horiz-adv-x="771" 
d="M449 571h-100l-125 125h171zM731 261q0 -83 -42 -147q-23 -35 -59 -62q-96 -73 -245 -73q-104 0 -183 34q-34 14 -60 34q-29 22 -53 51q-51 65 -51 156q0 75 38 135q37 57 115.5 99t199.5 41q91 0 171 -30.5t126 -97.5q43 -63 43 -140zM561 258q0 45 -22 80
q-49 77 -163 71q-78 -4 -122 -45q-46 -43 -46 -113q0 -47 27 -84.5t72 -54.5q33 -11 79 -11q40 0 76 12q31 11 53 31t31 43t12 39.5t3 31.5z" />
    <glyph glyph-name="oacute" unicode="&#xf3;" horiz-adv-x="771" 
d="M541 696l-122 -124h-101l52 124h171zM731 261q0 -83 -42 -147q-23 -35 -59 -62q-96 -73 -245 -73q-104 0 -183 34q-34 14 -60 34q-29 22 -53 51q-51 65 -51 156q0 75 38 135q37 57 115.5 99t199.5 41q91 0 171 -30.5t126 -97.5q43 -63 43 -140zM561 258q0 45 -22 80
q-49 77 -163 71q-78 -4 -122 -45q-46 -43 -46 -113q0 -47 27 -84.5t72 -54.5q33 -11 79 -11q40 0 76 12q31 11 53 31t31 43t12 39.5t3 31.5z" />
    <glyph glyph-name="ocircumflex" unicode="&#xf4;" horiz-adv-x="771" 
d="M579 571h-113l-83 78l-84 -78h-114l95 124h204zM731 261q0 -83 -42 -147q-23 -35 -59 -62q-96 -73 -245 -73q-104 0 -183 34q-34 14 -60 34q-29 22 -53 51q-51 65 -51 156q0 75 38 135q37 57 115.5 99t199.5 41q91 0 171 -30.5t126 -97.5q43 -63 43 -140zM561 258
q0 45 -22 80q-49 77 -163 71q-78 -4 -122 -45q-46 -43 -46 -113q0 -47 27 -84.5t72 -54.5q33 -11 79 -11q40 0 76 12q31 11 53 31t31 43t12 39.5t3 31.5z" />
    <glyph glyph-name="otilde" unicode="&#xf5;" horiz-adv-x="771" 
d="M597 695q-6 -44 -14 -62q-26 -59 -99 -59q-15 0 -34 3.5t-31 6.5t-35.5 10t-28.5 9q-35 11 -58 11q-26 0 -38 -18q-2 -3 -3.5 -6.5t-2.5 -6.5t-1 -4l-61 1q0 26 8 50q20 67 101 67q52 0 110 -23q52 -16 76 -16q32 0 44 20q4 8 5 17h62zM731 261q0 -83 -42 -147
q-23 -35 -59 -62q-96 -73 -245 -73q-104 0 -183 34q-34 14 -60 34q-29 22 -53 51q-51 65 -51 156q0 75 38 135q37 57 115.5 99t199.5 41q91 0 171 -30.5t126 -97.5q43 -63 43 -140zM561 258q0 45 -22 80q-49 77 -163 71q-78 -4 -122 -45q-46 -43 -46 -113q0 -47 27 -84.5
t72 -54.5q33 -11 79 -11q40 0 76 12q31 11 53 31t31 43t12 39.5t3 31.5z" />
    <glyph glyph-name="odieresis" unicode="&#xf6;" horiz-adv-x="771" 
d="M563 570h-149v124h149v-124zM357 570h-147v124h147v-124zM731 261q0 -83 -42 -147q-23 -35 -59 -62q-96 -73 -245 -73q-104 0 -183 34q-34 14 -60 34q-29 22 -53 51q-51 65 -51 156q0 75 38 135q37 57 115.5 99t199.5 41q91 0 171 -30.5t126 -97.5q43 -63 43 -140z
M561 258q0 45 -22 80q-49 77 -163 71q-78 -4 -122 -45q-46 -43 -46 -113q0 -47 27 -84.5t72 -54.5q33 -11 79 -11q40 0 76 12q31 11 53 31t31 43t12 39.5t3 31.5z" />
    <glyph glyph-name="divide" unicode="&#xf7;" horiz-adv-x="772" 
d="M461 419h-152v148h152v-148zM692 236h-612v130h612v-130zM462 33h-152v148h152v-148z" />
    <glyph glyph-name="oslash" unicode="&#xf8;" horiz-adv-x="771" 
d="M731 261q0 -91 -46 -156q-17 -25 -53 -54q-93 -72 -249 -72q-105 0 -176 29q-17 7 -40 20l-60 -53l-38 44l51 44q-25 25 -35 39q-47 63 -47 149q0 102 61 171q91 105 283 105q106 0 174 -26q10 -4 19 -8.5t17 -9t10 -5.5l63 55l38 -44l-54 -46q15 -12 33 -35
q49 -59 49 -147zM573 253q0 50 -33 96l-265 -228q10 -6 20 -10q48 -17 92 -17q43 0 83 15q42 15 66.5 44.5t30.5 52.5t6 47zM494 385q-9 5 -29 13q-36 13 -81 13q-63 0 -106 -21q-26 -13 -44 -32t-25.5 -40t-10 -36t-2.5 -28q0 -48 34 -97z" />
    <glyph glyph-name="ugrave" unicode="&#xf9;" horiz-adv-x="771" 
d="M449 571h-100l-125 125h171zM698 0h-164v72q-24 -24 -42 -36q-71 -48 -190 -48q-104 0 -167 50q-33 27 -46 56q-16 35 -16 103v309h165v-266q0 -60 20 -88q27 -37 81 -45q19 -3 43 -3q47 0 84 14q43 18 55.5 49t12.5 86v253h164v-506z" />
    <glyph glyph-name="uacute" unicode="&#xfa;" horiz-adv-x="771" 
d="M541 696l-122 -124h-101l52 124h171zM698 0h-164v72q-24 -24 -42 -36q-71 -48 -190 -48q-104 0 -167 50q-33 27 -46 56q-16 35 -16 103v309h165v-266q0 -60 20 -88q27 -37 81 -45q19 -3 43 -3q47 0 84 14q43 18 55.5 49t12.5 86v253h164v-506z" />
    <glyph glyph-name="ucircumflex" unicode="&#xfb;" horiz-adv-x="771" 
d="M579 571h-113l-83 78l-84 -78h-114l95 124h204zM698 0h-164v72q-24 -24 -42 -36q-71 -48 -190 -48q-104 0 -167 50q-33 27 -46 56q-16 35 -16 103v309h165v-266q0 -60 20 -88q27 -37 81 -45q19 -3 43 -3q47 0 84 14q43 18 55.5 49t12.5 86v253h164v-506z" />
    <glyph glyph-name="udieresis" unicode="&#xfc;" horiz-adv-x="771" 
d="M568 571h-149v124h149v-124zM361 571h-146v124h146v-124zM698 0h-164v72q-24 -24 -42 -36q-71 -48 -190 -48q-104 0 -167 50q-33 27 -46 56q-16 35 -16 103v309h165v-266q0 -60 20 -88q27 -37 81 -45q19 -3 43 -3q47 0 84 14q43 18 55.5 49t12.5 86v253h164v-506z" />
    <glyph glyph-name="yacute" unicode="&#xfd;" horiz-adv-x="625" 
d="M469 696l-123 -124h-101l53 124h171zM626 506l-238 -539q-23 -50 -41 -78q-32 -51 -72 -66.5t-108 -15.5q-54 0 -122 5l1 119q67 -5 83 -5q43 0 63 16q13 10 36 59l-226 505h176l140 -365l134 365h174z" />
    <glyph glyph-name="thorn" unicode="&#xfe;" 
d="M711 248q-1 -121 -76.5 -191.5t-195.5 -70.5q-110 0 -181 55q-4 3 -10.5 9t-10.5 10v-252h-165v898h166v-258q19 18 38 30q62 40 156 40q85 0 147.5 -35t93.5 -84q39 -62 38 -151zM543 257q0 22 -7 44.5t-22.5 47.5t-48.5 40t-79 14q-39 0 -71 -16q-77 -40 -77 -137
q0 -46 17.5 -78.5t45 -46.5t49.5 -19.5t42 -5.5q73 0 112 43t39 114z" />
    <glyph glyph-name="ydieresis" unicode="&#xff;" horiz-adv-x="625" 
d="M487 572h-148v123h148v-123zM281 572h-147v123h147v-123zM626 506l-238 -539q-23 -50 -41 -78q-32 -51 -72 -66.5t-108 -15.5q-54 0 -122 5l1 119q67 -5 83 -5q43 0 63 16q13 10 36 59l-226 505h176l140 -365l134 365h174z" />
    <glyph glyph-name="OE" unicode="&#x152;" horiz-adv-x="1125" 
d="M1083 0h-545v20q-2 -1 -13 -5t-15.5 -5.5t-16 -5t-19 -5t-20.5 -4.5t-24 -4t-25.5 -2t-29.5 -1q-90 0 -162 38q-116 62 -153 206q-16 59 -16 123q0 26 3.5 54.5t15 74t40.5 91t72 78.5q84 66 209 66q73 0 123 -20q6 -2 31 -16v23h531v-122h-354v-161h335v-123h-335v-175
h368v-125zM538 134v434q-59 36 -117 36q-70 0 -118 -38q-15 -11 -27 -27q-24 -29 -38 -65q-17 -46 -17 -119q0 -102 42 -170q12 -19 26 -33q51 -51 134 -51q51 0 115 33z" />
    <glyph glyph-name="oe" unicode="&#x153;" horiz-adv-x="1104" 
d="M1064 155q-2 -3 -4.5 -9.5t-5 -11.5t-5.5 -9q-30 -55 -98 -100t-176 -45q-125 0 -198 57q-12 10 -27 25q-21 -24 -38 -35q-68 -46 -176 -46q-68 0 -126 22q-81 30 -127 96t-46 153q0 53 20 104q32 84 108 127t171 43q104 0 172 -46q16 -10 42 -36q24 22 36 31
q69 52 182 52q55 0 109 -17q117 -38 161 -139q21 -50 26 -147h-444q7 -32 16 -51q40 -80 135 -80q80 0 123 57q4 6 11 19zM897 314q-5 25 -13 40q-31 64 -118 64t-125 -64q-10 -15 -18 -40h274zM474 254q0 59 -26 99q-14 22 -37 37q-34 23 -80 21q-38 -3 -64 -20
q-66 -42 -66 -139q0 -37 12 -69q6 -17 18 -34t41.5 -35t66.5 -18q74 0 111 60q24 38 24 98z" />
    <glyph glyph-name="Scaron" unicode="&#x160;" horiz-adv-x="812" 
d="M602 884l-96 -124h-204l-95 124h114l82 -78l85 78h114zM774 559l-167 -42q-42 82 -200 85q-162 2 -162 -82q0 -27 21 -44q23 -20 196 -49l21 -3q117 -19 162 -38q121 -49 121 -173q0 -61 -26 -106t-63 -69t-89.5 -38.5t-93.5 -18t-87 -3.5q-286 0 -386 199l161 41
q1 -2 4 -7t7 -11t9 -13q64 -80 217 -80q17 0 34.5 1.5t45 7t48 15t35.5 28t15 43.5q0 11 -4 20.5t-9 16t-15 12.5t-16.5 9t-20 6.5t-19 4.5t-18.5 3t-15 2q-30 5 -83.5 13.5t-78.5 12.5t-63.5 13.5t-60 19.5t-45 26.5t-40.5 38.5q-36 47 -35 112q2 100 89 158t240 58
q239 0 343 -128q17 -21 28 -41z" />
    <glyph glyph-name="scaron" unicode="&#x161;" horiz-adv-x="708" 
d="M550 695l-96 -124h-204l-95 124h114l82 -79l85 79h114zM667 163q0 -84 -77 -132.5t-224 -48.5q-146 0 -223 44q-52 29 -79 79q-12 24 -20 54l177 13q9 -30 31 -48q39 -30 121 -30q61 0 93 14q30 12 30 38q0 17 -15 27t-31 13.5t-52 8.5q-26 3 -78.5 8t-78.5 9
q-68 9 -108 34q-60 38 -60 110q0 43 21 76q60 99 274 99q126 0 202 -42q32 -18 53 -40q28 -30 42 -79l-171 -11q-6 17 -24 32q-37 30 -113 30q-50 0 -82.5 -13t-31.5 -37q0 -16 15 -26q21 -13 119 -24q20 -2 58 -5.5t58 -5.5q77 -9 112 -31q62 -39 62 -116z" />
    <glyph glyph-name="Ydieresis" unicode="&#x178;" horiz-adv-x="854" 
d="M661 757h-164v125h164v-125zM357 757h-165v125h165v-125zM850 706l-337 -441v-265h-176v265l-336 441h217l208 -295l209 295h215z" />
    <glyph glyph-name="florin" unicode="&#x192;" horiz-adv-x="375" 
d="M395 652l-12 -107q-12 4 -43 8q-26 1 -43 -7.5t-24.5 -25t-9.5 -25.5t-3 -23l-2 -18h114l-11 -98h-114l-37 -344q-8 -74 -12 -89q-16 -60 -59 -92t-127 -32q-34 0 -104 14l12 107q22 -7 43 -7t35.5 6t22 12.5t13 23.5t6.5 25t4 31l38 345h-81l11 98h81l3 30q3 29 6.5 48
t15.5 47t31 45t55.5 30t85.5 13q45 0 105 -15z" />
    <glyph glyph-name="circumflex" unicode="&#x2c6;" horiz-adv-x="375" 
d="M385 571h-114l-82 78l-85 -78h-114l96 124h204z" />
    <glyph glyph-name="tilde" unicode="&#x2dc;" horiz-adv-x="375" 
d="M391 695q-4 -40 -13 -62q-28 -59 -99 -59q-36 0 -130 29q-39 11 -57 11q-27 0 -38 -18q-7 -10 -7 -17l-63 1q0 1 2.5 19t6.5 31q25 67 101 67q41 0 110 -23q51 -16 76 -16q33 0 44 20q1 2 5 17h62z" />
    <glyph glyph-name="endash" unicode="&#x2013;" horiz-adv-x="640" 
d="M607 240h-574v130h574v-130z" />
    <glyph glyph-name="emdash" unicode="&#x2014;" horiz-adv-x="950" 
d="M917 240h-884v130h884v-130z" />
    <glyph glyph-name="quoteleft" unicode="&#x2018;" horiz-adv-x="292" 
d="M227 411h-166v134q0 64 18 100t73 53q27 8 75 8v-48q-51 -6 -67 -28t-16 -76h83v-143z" />
    <glyph glyph-name="quoteright" unicode="&#x2019;" horiz-adv-x="292" 
d="M228 574q0 -64 -18 -100.5t-73 -53.5q-20 -6 -75 -8v49q51 5 67 27.5t16 76.5h-83v141h166v-132z" />
    <glyph glyph-name="quotesinglbase" unicode="&#x201a;" horiz-adv-x="292" 
d="M229 -3q0 -45 -8.5 -72.5t-38.5 -48.5q-39 -28 -119 -28v48q52 6 67.5 28t15.5 76h-83v143h166v-146z" />
    <glyph glyph-name="quotedblleft" unicode="&#x201c;" horiz-adv-x="542" 
d="M475 412h-165v142q0 85 39 119t126 34v-48q-51 -5 -67.5 -28t-15.5 -76h83v-143zM228 413h-165v142q0 85 39 119t126 34v-48q-51 -6 -67.5 -28.5t-15.5 -76.5h83v-142z" />
    <glyph glyph-name="quotedblright" unicode="&#x201d;" horiz-adv-x="542" 
d="M477 573q0 -64 -18 -100.5t-73 -53.5q-20 -6 -75 -8v49q51 5 67 27.5t16 77.5h-83v141h166v-133zM231 574q0 -64 -18 -100.5t-73 -53.5q-20 -6 -75 -8v49q52 5 68 27.5t16 76.5h-84v141h166v-132z" />
    <glyph glyph-name="quotedblbase" unicode="&#x201e;" horiz-adv-x="542" 
d="M474 0q0 -86 -39.5 -119.5t-126.5 -33.5v48q52 5 68.5 28t15.5 77h-84v142h166v-142zM229 3q0 -88 -38.5 -121.5t-127.5 -33.5v48q51 5 67 27.5t16 76.5h-83v143h166v-140z" />
    <glyph glyph-name="dagger" unicode="&#x2020;" horiz-adv-x="625" 
d="M600 376h-207v-501h-165v501h-206v130h206v200h165v-200h207v-130z" />
    <glyph glyph-name="daggerdbl" unicode="&#x2021;" horiz-adv-x="625" 
d="M599 55h-204v-179h-165v180h-206v126h206v237h-206v126h206v161h165v-162h204v-125h-204v-237h204v-127z" />
    <glyph glyph-name="bullet" unicode="&#x2022;" horiz-adv-x="333" 
d="M295 237h-257v235h257v-235z" />
    <glyph glyph-name="ellipsis" unicode="&#x2026;" horiz-adv-x="1000" 
d="M892 0h-116v120h116v-120zM558 0h-116v120h116v-120zM224 0h-116v120h116v-120z" />
    <glyph glyph-name="perthousand" unicode="&#x2030;" horiz-adv-x="1625" 
d="M1596 219q0 -97 -47 -155q-29 -36 -77.5 -55t-99.5 -19q-47 0 -93 16.5t-75 47.5q-12 13 -22 30q-34 55 -34 134q0 59 15 100q19 52 65 91.5t132 39.5q143 0 201 -88q35 -54 35 -142zM1096 219q0 -97 -47 -155q-29 -36 -77.5 -55t-99.5 -19q-47 0 -93 16.5t-75 47.5
q-12 13 -22 30q-34 55 -34 134q0 59 15 100q19 52 65 91.5t132 39.5q143 0 201 -88q35 -54 35 -142zM801 626l-410 -652l-70 45l409 652zM474 426q0 -97 -47 -155q-29 -36 -77.5 -55t-99.5 -19q-47 0 -93 16.5t-75 47.5q-12 13 -22 30q-34 55 -34 134q0 59 15 100
q19 52 65 91.5t132 39.5q143 0 201 -88q35 -54 35 -142zM1472 230q0 59 -20 89q-11 15 -20 22q-24 17 -68 17q-77 0 -92 -92q-4 -19 -4 -47q0 -67 28 -103q10 -14 33 -25q23 -10 43 -10q55 0 80 46q10 21 15 49q5 30 5 54zM972 230q0 59 -20 89q-11 15 -20 22q-24 17 -68 17
q-77 0 -92 -92q-4 -19 -4 -47q0 -67 28 -103q10 -14 33 -25q23 -10 43 -10q55 0 80 46q10 21 15 49q5 30 5 54zM350 437q0 59 -20 89q-11 15 -20 22q-24 17 -68 17q-77 0 -92 -92q-4 -19 -4 -47q0 -67 28 -103q10 -14 33 -25q23 -10 43 -10q55 0 80 46q10 20 15 49
q5 30 5 54z" />
    <glyph glyph-name="guilsinglleft" unicode="&#x2039;" horiz-adv-x="313" 
d="M264 36l-224 166v104l224 169v-102l-124 -120l124 -114v-103z" />
    <glyph glyph-name="guilsinglright" unicode="&#x203a;" horiz-adv-x="313" 
d="M270 205l-224 -169v102l123 119l-124 115v104l225 -167v-104z" />
    <glyph glyph-name="Euro" unicode="&#x20ac;" horiz-adv-x="968" 
d="M911 628l-69 -140q-83 110 -264 110q-188 0 -240 -147h487l-38 -77h-460v-13q0 -12 3 -36h432l-38 -77h-380q21 -67 86.5 -104t163.5 -37q162 0 277 97l-1 -171q-138 -57 -302 -57q-220 0 -331 118q-62 66 -82 154h-99l41 77h47v19q0 17 1 30h-89l40 77h58
q34 136 145.5 206.5t289.5 70.5q203 0 322 -100z" />
    <glyph glyph-name="trademark" unicode="&#x2122;" horiz-adv-x="703" 
d="M663 374h-76l3 245l-71 -245h-75l-68 248l5 -248h-76v332h109l71 -239l69 239h109v-332zM276 640h-98v-266h-81v266h-99v66h278v-66z" />
    </font>
</defs>
</svg>
