<?xml version="1.0" standalone="no"?>
<!DOCTYPE svg PUBLIC "-//W3C//DTD SVG 1.1//EN" "http://www.w3.org/Graphics/SVG/1.1/DTD/svg11.dtd" >
<svg xmlns="http://www.w3.org/2000/svg" xmlns:xlink="http://www.w3.org/1999/xlink" version="1.1">
<metadata>
Created by FontForge 20170731 at Thu May 17 20:00:01 2007
 By Aleksey,,,
Copyright  1997, 2001, Berthold LLC. All rights reserved. Akzidenz-Grotesk is a trademark of Berthold Types Limited.
</metadata>
<defs>
<font id="AkzidenzGroteskBQ-MdCndItAlt" horiz-adv-x="333" >
  <font-face 
    font-family="Akzidenz-Grotesk BQ Condensed A"
    font-weight="500"
    font-style="italic"
    font-stretch="condensed"
    units-per-em="1000"
    panose-1="0 0 0 0 0 0 0 0 0 0"
    ascent="800"
    descent="-200"
    x-height="533"
    cap-height="706"
    bbox="-102 -212 860 920"
    underline-thickness="66"
    underline-position="-374"
    slope="-13"
    unicode-range="U+0020-2122"
  />
<missing-glyph horiz-adv-x="500" 
 />
    <glyph glyph-name=".notdef" horiz-adv-x="500" 
 />
    <glyph glyph-name=".null" horiz-adv-x="0" 
 />
    <glyph glyph-name="nonmarkingreturn" 
 />
    <glyph glyph-name="space" unicode=" " horiz-adv-x="187" 
 />
    <glyph glyph-name="exclam" unicode="!" horiz-adv-x="187" 
d="M275 706l-61 -262l-69 -215h-46l31 215l61 262h84zM140 127l-30 -127h-81l30 127h81z" />
    <glyph glyph-name="quotedbl" unicode="&#x22;" horiz-adv-x="255" 
d="M350 741l-90 -289h-29l41 289h78zM230 741l-90 -289h-28l41 289h77z" />
    <glyph glyph-name="numbersign" unicode="#" horiz-adv-x="537" 
d="M586 491l-18 -80h-114l-32 -101h111l-19 -82h-120l-73 -228h-84l73 228h-77l-74 -228h-85l73 228h-117l19 82h124l33 101h-122l19 80h128l70 215h86l-70 -215h77l71 215h84l-71 -215h108zM369 411h-78l-32 -101h78z" />
    <glyph glyph-name="dollar" unicode="$" 
d="M388 621q0 -17 -8 -53l-23 -98h-82l22 95q7 29 7 40q0 35 -36 38q-8 0 -20 -6q-7 -4 -12 -11t-7 -10.5t-5.5 -16.5t-3.5 -14q-16 -55 -16 -87q0 -13 3 -25q4 -13 31 -64q5 -8 14.5 -25t12.5 -23t10 -19t9 -18t6.5 -15t5.5 -15.5t3 -14.5t2.5 -16.5t0.5 -16.5
q0 -19 -5 -49.5t-10 -50.5l-5 -21q-14 -85 -75 -117q-20 -12 -41 -14q-12 -2 -24 0l-17 -70h-43l16 72q-16 2 -26 6q-58 21 -58 93q0 23 10 67l22 94h83l-24 -106q-7 -28 -7 -43q0 -24 13 -33.5t28 -9.5q32 0 45 40q8 23 16.5 67.5t8.5 66.5q0 20 -7.5 37t-29.5 55
q-3 5 -13.5 22t-14.5 24t-12 22.5t-11 25.5t-6 24.5t-3 27.5q0 27 16 104q21 106 100 129q14 3 37 6l13 58h43l-13 -60q26 -7 37 -12q43 -27 43 -80z" />
    <glyph glyph-name="percent" unicode="%" horiz-adv-x="583" 
d="M596 376l-8 -54l-40 -180q-2 -8 -5.5 -24.5t-5.5 -24.5q-9 -36 -17 -51q-25 -48 -90 -48q-35 0 -57 18t-22 53q0 12 2.5 29.5t5.5 29.5l3 11l44 201q11 51 22 71q24 40 86 40q21 0 36 -5q46 -17 46 -66zM582 706l-457 -706h-58l458 706h57zM303 641q0 -18 -8 -54
l-40 -180q-11 -49 -15 -65t-15 -36t-28 -31q-25 -16 -60 -16q-10 0 -20.5 2t-25.5 8.5t-24 22.5t-9 39q0 12 3 29.5t5 28.5l3 11l45 201q1 3 4.5 19.5t4.5 20.5t5 16.5t8.5 17t11 12.5t15.5 12.5t21 7.5q15 5 37 5q37 0 59.5 -18t22.5 -53zM540 371q-2 30 -33 30
q-19 0 -29 -17q-5 -8 -14 -49l-47 -213q-9 -36 -9 -48q0 -29 31 -29q22 0 32 21q1 2 13 50l49 220q7 28 7 35zM246 636q0 30 -32 30q-20 0 -29 -17q-4 -5 -14 -49l-47 -213q-9 -42 -9 -49q0 -28 31 -28q22 0 31 20q3 6 14 51l49 220q6 24 6 35z" />
    <glyph glyph-name="ampersand" unicode="&#x26;" horiz-adv-x="458" 
d="M446 353q-20 -116 -65 -199q-5 -10 -27 -43q35 -30 68 -36l-18 -82q-20 1 -29 3q-42 6 -84 45q-35 -27 -63 -38.5t-68 -11.5q-66 0 -100 49q-29 45 -29 106q0 37 13 74q10 30 29.5 58.5t36.5 46.5t47 46q-14 70 -14 111q0 71 25 117.5t58 70.5q36 25 74 25q45 0 73 -31.5
t28 -77.5q0 -57 -45 -119q-25 -35 -109 -117q16 -85 58 -172q21 38 33 71.5t28 103.5h80zM318 588q0 36 -30 36q-12 0 -26 -13q-33 -33 -33 -117q0 -29 3 -56q43 48 65 88q21 39 21 62zM247 102q-14 24 -20 36q-27 56 -50 146q-13 -13 -24 -28q-34 -49 -34 -102q0 -18 3 -30
q15 -49 58 -49q28 0 67 27z" />
    <glyph glyph-name="quotesingle" unicode="'" horiz-adv-x="135" 
d="M230 741l-90 -289h-28l41 289h77z" />
    <glyph glyph-name="parenleft" unicode="(" horiz-adv-x="250" 
d="M365 730l-14 -61q-47 -30 -92 -92q-62 -87 -105 -248t-43 -279q0 -127 51 -200l-14 -62q-63 67 -89.5 138.5t-26.5 165.5q0 125 34.5 247t112.5 230.5t186 160.5z" />
    <glyph glyph-name="parenright" unicode=")" horiz-adv-x="250" 
d="M245 426q0 -267 -142 -470q-45 -64 -86 -98q-46 -39 -105 -70l14 61q55 38 99 102q59 86 100 244t41 274q0 132 -51 199l14 62q64 -75 90 -141t26 -163z" />
    <glyph glyph-name="asterisk" unicode="*" horiz-adv-x="320" 
d="M390 555l-101 -15l42 -89l-55 -27l-43 92l-70 -69l-42 46l70 68l-85 46l28 53l88 -45l20 97l60 -12l-20 -99l100 13z" />
    <glyph glyph-name="plus" unicode="+" horiz-adv-x="558" 
d="M509 335l-18 -76h-153l-38 -168h-86l38 168h-154l18 76h154l38 168h86l-38 -168h153z" />
    <glyph glyph-name="comma" unicode="," horiz-adv-x="146" 
d="M102 131l-25 -107q-1 -5 -3.5 -19t-4.5 -21q-28 -100 -113 -118l6 45q25 9 41 34.5t19 54.5h-38l30 131h88z" />
    <glyph glyph-name="hyphen" unicode="-" horiz-adv-x="229" 
d="M234 333l-19 -84h-177l19 84h177z" />
    <glyph glyph-name="period" unicode="." horiz-adv-x="146" 
d="M101 131l-31 -131h-81l30 131h82z" />
    <glyph glyph-name="slash" unicode="/" horiz-adv-x="292" 
d="M384 706l-337 -706h-67l337 706h67z" />
    <glyph glyph-name="zero" unicode="0" horiz-adv-x="354" 
d="M410 604q0 -25 -13 -87l-64 -290q-5 -25 -23 -98q-14 -57 -37 -85q-42 -53 -127 -53q-54 0 -86 25q-39 29 -39 88q0 32 17 110l72 325q15 69 25.5 96.5t34.5 47.5q38 32 110 32q34 0 52 -6q12 -3 23.5 -9t25 -18t21.5 -32t8 -46zM325 596q-1 24 -16 37.5t-39 13.5
q-36 0 -52 -34q-3 -6 -20 -74l-76 -344q-14 -66 -14 -79q0 -50 52 -50q19 0 33 10q5 3 8.5 7t6.5 8.5t5 8t4 10t3 9t2.5 10.5t2.5 10q9 33 11 44l78 356q11 51 11 57z" />
    <glyph glyph-name="one" unicode="1" horiz-adv-x="354" 
d="M356 718l-167 -718h-90l125 539h-70l16 68q10 0 23 3q50 14 81 61q10 16 19 47h63z" />
    <glyph glyph-name="two" unicode="2" horiz-adv-x="354" 
d="M415 607q0 -29 -7 -57l-19 -78q-4 -20 -15 -44q-24 -55 -98 -123q-85 -80 -107 -105q-51 -57 -64 -115h200l-20 -85h-296q4 13 13.5 46t14.5 49t15.5 41t22.5 46q16 28 39.5 55.5t38 41t50.5 45.5q37 32 65 63q22 24 33.5 43t15 31.5t13.5 52.5l12 49q5 20 5 34
q0 44 -47 46q-13 0 -27 -7q-11 -6 -18 -17.5t-10 -21t-10 -39.5l-17 -69h-86l24 105q9 39 24 64q34 57 132 57q82 0 110 -52q13 -23 13 -56z" />
    <glyph glyph-name="three" unicode="3" horiz-adv-x="354" 
d="M394 620q0 -17 -6 -43l-11 -45q-13 -48 -15 -55q-14 -40 -36 -57t-63 -18l-2 -8q21 -3 27 -5q47 -15 47 -70q0 -33 -17 -100l-10 -39q-2 -7 -5.5 -20t-4.5 -19q-1 -3 -5 -19t-6 -22t-6.5 -20t-8.5 -21.5t-10.5 -17t-13.5 -16.5q-36 -34 -107 -34q-35 0 -65 10
q-62 23 -62 89q0 12 3 32t5 34l3 13l8 42h81l-7 -38q-9 -47 -9 -66q0 -44 49 -44q19 0 31 9q9 6 16 20t10 25t10 41l13 55q16 69 16 81q0 38 -31 49q-7 3 -24 3q-1 0 -55 -3l21 85q84 -6 109 20q13 15 30 82l5 21q9 36 9 56q0 39 -43 39q-14 0 -26 -7q-16 -8 -23 -24
t-17 -55l-7 -28h-82l10 37q20 72 33 92q33 54 125 54q23 0 39 -3q78 -15 78 -92z" />
    <glyph glyph-name="four" unicode="4" horiz-adv-x="354" 
d="M402 706l-109 -468h49l-17 -76h-49l-38 -162h-86l37 162h-195l18 75l268 469h122zM298 622l-204 -384h112z" />
    <glyph glyph-name="five" unicode="5" horiz-adv-x="354" 
d="M416 706l-19 -80h-165l-40 -156q9 12 10 13q24 21 60 21q12 0 26 -2.5t35.5 -15.5t31.5 -36q7 -18 7 -44q0 -37 -16 -106l-27 -118q-21 -96 -40 -128q-35 -63 -129 -63q-124 0 -124 99q0 25 12 85l9 42h80l-8 -51q-9 -54 -9 -58q0 -27 22 -38q12 -6 26 -6q32 0 48 27
q6 11 19 69l35 150q13 54 13 69q0 22 -14 34.5t-36 12.5q-18 0 -31 -8q-8 -4 -14 -10t-10.5 -15.5t-6.5 -15t-5.5 -18t-4.5 -15.5h-74l93 362h246z" />
    <glyph glyph-name="six" unicode="6" horiz-adv-x="354" 
d="M409 615q0 -22 -10 -76l-5 -27h-81l5 29q8 48 8 56q-1 23 -15 35.5t-37 12.5q-30 0 -46 -27q-11 -20 -25 -85l-33 -143q12 16 14 18q27 27 72 27q51 0 77 -36q15 -21 15 -53q0 -31 -16 -101l-25 -106q-11 -46 -12 -50q-8 -27 -19.5 -46t-43 -35.5t-78.5 -16.5
q-70 0 -105 35q-27 28 -27 71q0 32 15 100l78 337q10 44 17 66q8 30 20 52q36 63 126 63q75 0 107 -32q24 -26 24 -68zM258 307q0 23 -13.5 37.5t-36.5 14.5q-33 0 -49 -28q-6 -12 -19 -71l-19 -83q-13 -55 -13 -69q0 -23 15 -35t37 -12q34 0 48 30q8 20 21 75l15 65
q14 63 14 76z" />
    <glyph glyph-name="seven" unicode="7" horiz-adv-x="354" 
d="M440 706l-17 -74q-44 -63 -94 -160q-110 -213 -179 -472h-101q15 57 31 102q70 207 160 365q37 65 103 159h-216l19 80h294z" />
    <glyph glyph-name="eight" unicode="8" horiz-adv-x="354" 
d="M414 615q0 -17 -12 -70l-11 -49q-15 -69 -28 -89q-25 -41 -91 -41q28 -8 41 -18q25 -19 25 -61q0 -27 -11 -72l-14 -60q-1 -6 -4 -17t-5 -17q-8 -29 -12.5 -43t-17 -33.5t-31.5 -30.5q-36 -23 -96 -23q-71 0 -101.5 31.5t-30.5 74.5q0 19 18 100l7 32q11 51 20 71
q14 34 41 52q12 7 36.5 11t37.5 3q-16 4 -35 12q-34 15 -34 60q0 19 12 73l15 63q7 32 10 43q29 98 139 98q37 0 58 -6q74 -24 74 -94zM329 604q0 21 -14 33t-36 12q-15 0 -25 -6q-19 -12 -36 -80l-14 -57q-12 -45 -12 -63q0 -40 51 -40q19 0 31.5 12.5t15.5 22t9 33.5
q1 7 5 20t5 20l8 31q12 46 12 62zM254 286q0 45 -56 45q-19 0 -34 -10q-5 -3 -8.5 -8.5t-6 -10.5t-5.5 -14.5t-4.5 -15t-4.5 -20t-5 -21.5l-16 -67q-10 -40 -10 -60q0 -18 11 -29t20.5 -13t18.5 -2q35 0 51 24q9 14 21 67l15 68q13 59 13 67z" />
    <glyph glyph-name="nine" unicode="9" horiz-adv-x="354" 
d="M406 606q0 -32 -13 -86l-78 -336q-1 -6 -4 -17q-24 -101 -43 -127q-38 -49 -124 -49q-127 0 -127 98q0 26 8 65l11 52h83l-5 -31q-9 -55 -9 -68q0 -7 3 -16q7 -25 44 -25q10 0 23 5q21 10 31 37q17 56 26 98l27 118q-31 -52 -83 -52q-17 0 -36.5 5t-41 27t-21.5 59
q0 24 17 97l23 101q10 42 17 62t14.5 33t22.5 28.5t40 23t60 7.5q72 0 103.5 -32.5t31.5 -76.5zM319 596q0 23 -14 37t-37 14q-13 0 -25 -6q-15 -8 -22 -26t-17 -60l-3 -12l-22 -94q-10 -47 -10 -56q0 -21 14 -34t35 -13q18 0 31 10q10 7 17 20t10 23.5t10 41.5l20 87
q13 55 13 68z" />
    <glyph glyph-name="colon" unicode=":" horiz-adv-x="187" 
d="M235 533l-30 -128h-81l29 128h82zM142 131l-30 -131h-82l31 131h81z" />
    <glyph glyph-name="semicolon" unicode=";" horiz-adv-x="187" 
d="M236 533l-29 -127h-85l29 127h85zM143 131l-25 -107q0 -2 -2.5 -13t-3 -13l-3 -12t-3.5 -12.5t-3.5 -11t-4.5 -12t-5.5 -10.5t-6.5 -11.5l-7 -10.5t-9 -11q-29 -32 -73 -41l7 45q47 19 60 89h-39l31 131h87z" />
    <glyph glyph-name="less" unicode="&#x3c;" horiz-adv-x="559" 
d="M528 546l-22 -94l-308 -145l245 -146l-20 -83l-316 193l19 81z" />
    <glyph glyph-name="equal" unicode="=" horiz-adv-x="559" 
d="M522 425l-16 -74h-390l17 74h389zM483 254l-17 -74h-390l17 74h390z" />
    <glyph glyph-name="greater" unicode="&#x3e;" horiz-adv-x="559" 
d="M504 351l-19 -80l-402 -195l22 94l308 145l-245 146l20 84z" />
    <glyph glyph-name="question" unicode="?" 
d="M377 599q0 -59 -24 -105q-12 -24 -55 -80l-56 -72q-42 -53 -58 -114h-78q8 47 19 71t42 65l66 88q2 3 10.5 14t10.5 13.5t8.5 12t8 13.5t6 12.5t6 14.5t4 15t3.5 18q3 24 3 29q0 13 -4 24q-9 23 -39 23q-15 0 -24 -5q-4 -2 -7.5 -5t-6 -6t-5 -8l-4 -8t-3.5 -9.5t-2.5 -9
t-2.5 -9.5t-2 -9l-14 -61h-77l13 58q17 76 44.5 111t96.5 35q45 0 73 -17t38 -39t10 -60zM166 130l-30 -130h-81l30 130h81z" />
    <glyph glyph-name="at" unicode="@" horiz-adv-x="788" 
d="M769 445q0 -140 -74 -258q-72 -117 -159 -117q-66 0 -69 86q-63 -85 -135 -85q-53 0 -82 39.5t-29 110.5q0 115 63.5 205t145.5 90q37 0 60 -19.5t39 -63.5l17 62h62l-59 -240q-17 -68 -17 -92q0 -38 26 -38t55 34q44 52 71 128t27 150q0 105 -56 164t-156 59
q-140 0 -240 -111q-61 -68 -96.5 -158t-35.5 -179q0 -127 74.5 -204t198.5 -77q76 0 148 31q46 19 79.5 42t86.5 73l29 -44q-54 -51 -88.5 -75t-88.5 -46q-85 -35 -168 -35q-152 0 -242.5 91.5t-90.5 244.5q0 133 60 248t162.5 183t219.5 68q121 0 191.5 -72t70.5 -195z
M502 350v10q0 98 -66 98q-55 0 -99 -71.5t-44 -160.5q0 -45 17.5 -70.5t47.5 -25.5q54 0 99 67t45 153z" />
    <glyph glyph-name="A" unicode="A" 
d="M353 706l-72 -706h-89l17 133h-112l-52 -133h-91l284 706h115zM265 583l-137 -369h92z" />
    <glyph glyph-name="B" unicode="B" horiz-adv-x="375" 
d="M424 622q0 -16 -10 -63l-22 -96q-9 -36 -17 -51q-4 -7 -10 -13t-11.5 -10t-12.5 -7t-12 -5t-12 -3t-10.5 -1t-9 -0.5t-6.5 -0.5l6 -2q6 -1 10 -2t11 -3.5t11.5 -5.5t9.5 -7.5t8 -10.5q8 -17 8 -34q0 -15 -10 -60l-19 -82q-8 -36 -18 -71q-6 -34 -26 -60
q-17 -22 -39.5 -28t-57.5 -6h-185l164 706h115q68 0 85 -5q61 -16 60 -79zM333 593q-1 23 -23 29q-11 2 -46 2h-26l-51 -216h28q52 0 69 15q7 6 12 15.5t7 17t7 29.5q1 5 3.5 15t3.5 15l11 48q5 25 5 30zM262 296q0 14 -6 22q-7 10 -17 12t-36 2h-33l-57 -247h29
q33 0 46.5 3t24.5 16q4 5 7.5 11t6.5 15.5t4.5 15.5t5 22t5.5 24l11 48q9 42 9 56z" />
    <glyph glyph-name="C" unicode="C" horiz-adv-x="375" 
d="M417 604q0 -27 -18 -105l-8 -33h-88l13 52q15 62 15 77q-1 25 -14.5 35.5t-28.5 10.5q-31 0 -45 -31q-7 -18 -27 -96l-79 -330q-12 -48 -12 -70q0 -24 13 -34.5t28 -10.5q38 0 52 42q2 6 22 79l22 80h90l-14 -62q-22 -97 -33 -124q-36 -93 -145 -93q-56 0 -91.5 29
t-35.5 84q0 42 22 134l64 266q28 119 57 158q40 53 115 53q90 0 117 -61q9 -20 9 -50z" />
    <glyph glyph-name="D" unicode="D" horiz-adv-x="375" 
d="M419 613q0 -35 -15 -97l-84 -364q-7 -31 -11 -45.5t-15.5 -40t-26.5 -38.5q-31 -28 -107 -28h-159l163 706h113h37q71 -3 93 -41q12 -21 12 -52zM323 586q0 19 -10.5 27.5t-19.5 9.5t-30 1h-26l-125 -540h29q52 0 66 18q11 14 29 90l75 325q12 49 12 69z" />
    <glyph glyph-name="E" unicode="E" horiz-adv-x="313" 
d="M390 706l-19 -83h-133l-50 -216h122l-20 -84h-121l-55 -237h154l-20 -86h-248l163 706h227z" />
    <glyph glyph-name="F" unicode="F" horiz-adv-x="313" 
d="M409 706l-20 -84h-151l-49 -210h138l-19 -84h-138l-76 -328h-95l163 706h247z" />
    <glyph glyph-name="G" unicode="G" horiz-adv-x="375" 
d="M410 612q0 -19 -18 -101l-6 -27h-86l12 53q12 48 12 63q0 22 -13.5 32t-26.5 10q-23 -1 -39 -23q-10 -15 -32 -105l-79 -330q-12 -48 -12 -69q0 -25 13 -35.5t29 -10.5t29 10q17 13 31 76q1 6 2 10l29 127h-58l19 82h153l-87 -374h-57l1 38l-4 -6q-4 -7 -7 -10
q-26 -32 -73 -32q-17 0 -37 7q-74 27 -74 107q0 42 22 134l63 266q27 115 55 155q39 56 117 56q26 0 46 -5q76 -20 76 -98z" />
    <glyph glyph-name="H" unicode="H" horiz-adv-x="375" 
d="M444 706l-163 -706h-94l78 327h-96l-76 -327h-92l163 706h92l-70 -298h97l70 298h91z" />
    <glyph glyph-name="I" unicode="I" horiz-adv-x="187" 
d="M257 706l-164 -706h-92l163 706h93z" />
    <glyph glyph-name="J" unicode="J" horiz-adv-x="271" 
d="M341 706l-122 -542q-11 -46 -17 -65q-6 -21 -14 -36t-24 -33.5t-44.5 -28.5t-67.5 -10q-50 0 -95 17l24 74q34 -13 66 -13q15 0 26 5q25 10 38 45q13 38 58 240l77 347h95z" />
    <glyph glyph-name="K" unicode="K" horiz-adv-x="354" 
d="M447 706l-191 -337l55 -369h-96l-43 341l-79 -341h-92l163 706h93l-78 -308l176 308h92z" />
    <glyph glyph-name="L" unicode="L" horiz-adv-x="313" 
d="M270 84l-26 -84h-241l163 706h93l-143 -622h154z" />
    <glyph glyph-name="M" unicode="M" horiz-adv-x="500" 
d="M562 706l-158 -706h-86l133 575l-212 -575h-74l54 575l-133 -575h-86l171 706h118l-41 -513l192 513h122z" />
    <glyph glyph-name="N" unicode="N" horiz-adv-x="396" 
d="M465 706l-167 -706h-96l-8 527l-106 -527h-88l163 706h96l9 -525l113 525h84z" />
    <glyph glyph-name="O" unicode="O" horiz-adv-x="396" 
d="M434 586q-1 -36 -15 -95l-68 -296q-26 -113 -58 -153q-23 -27 -55 -39q-29 -12 -69 -12q-41 0 -73 15q-63 32 -63 108q0 30 12 83l74 321q14 57 15 62q19 68 57 101.5t107 33.5q102 0 128 -74q8 -27 8 -55zM343 586q0 11 -3 20q-13 33 -52 33q-37 0 -51 -35
q-9 -21 -26 -94l-72 -312q-13 -58 -13 -75q0 -51 53 -51q16 0 30 8q17 10 25.5 30.5t18.5 64.5l79 344q11 48 11 67z" />
    <glyph glyph-name="P" unicode="P" horiz-adv-x="354" 
d="M420 616q0 -31 -10 -66l-25 -109q-18 -81 -45 -103q-26 -21 -98 -21h-74l-73 -317h-93l163 706h157q14 0 26.5 -2.5t31 -10.5t29.5 -27.5t11 -49.5zM323 590q0 10 -3 17q-8 16 -53 16h-28l-52 -222h23q24 0 32.5 0.5t19 3.5t16.5 11q12 15 25 75l16 72q4 14 4 27z" />
    <glyph glyph-name="Q" unicode="Q" horiz-adv-x="396" 
d="M434 586q-1 -36 -15 -95l-68 -296q-22 -97 -48 -138q-34 -54 -108 -63q-5 -20 -5 -30q0 -8 1.5 -12.5t8 -8t19.5 -3.5t46 11l-20 -85q-27 -10 -56 -10q-11 0 -22.5 2.5t-28 9t-26.5 24t-10 43.5q0 24 13 63q-28 12 -36 18q-44 34 -44 102q0 29 10 79l74 321q6 28 17 68
q7 24 14.5 39.5t25 39.5t48.5 37t74 13q102 0 128 -74q8 -27 8 -55zM343 586q0 11 -3 20q-13 33 -52 33q-37 0 -51 -35q-9 -21 -26 -94l-72 -312q-13 -58 -13 -75q0 -51 53 -51q16 0 30 8q17 10 25.5 30.5t18.5 64.5l79 344q11 48 11 67z" />
    <glyph glyph-name="R" unicode="R" horiz-adv-x="375" 
d="M421 617q0 -18 -8 -55l-21 -91q-15 -64 -35 -86q-23 -25 -73 -25q62 -24 62 -83q0 -19 -7 -47l-15 -65q-20 -88 -20 -165h-95q2 79 18 158l11 53q1 4 3 11t4.5 23.5t2.5 27.5q0 17 -8 30q-15 22 -58 22h-14l-75 -325h-92l163 706h146q50 0 77 -18q34 -23 34 -71zM327 589
q0 23 -14.5 28.5t-40.5 5.5h-35l-51 -220h17q48 0 65 9q12 6 20.5 20t10.5 22l7 28l14 60q7 32 7 47z" />
    <glyph glyph-name="S" unicode="S" 
d="M388 621q0 -17 -8 -53l-23 -98h-82l22 95q7 29 7 40q0 35 -36 38q-8 0 -20 -6q-7 -4 -12 -11t-7 -10.5t-5.5 -16.5t-3.5 -14q-16 -55 -16 -87q0 -13 3 -25q4 -13 31 -64q5 -8 14.5 -25t12.5 -23t10 -19t9 -18t6.5 -15t5.5 -15.5t3 -14.5t2.5 -16.5t0.5 -16.5
q0 -37 -17 -111q-18 -73 -49 -105q-37 -39 -104 -39q-58 0 -88 27t-30 77q0 23 10 67l22 94h83l-24 -106q-7 -28 -7 -43q0 -24 13 -33.5t28 -9.5q32 0 45 40q8 23 16.5 67.5t8.5 66.5q0 20 -7.5 37t-29.5 55q-3 5 -13.5 22t-14.5 24t-12 22.5t-11 25.5t-6 24.5t-3 27.5
q0 40 18 115q32 124 145 124q62 0 87.5 -27.5t25.5 -66.5z" />
    <glyph glyph-name="T" unicode="T" horiz-adv-x="313" 
d="M429 706l-25 -84h-103l-143 -622h-96l143 622h-106l26 84h304z" />
    <glyph glyph-name="U" unicode="U" horiz-adv-x="375" 
d="M448 706l-132 -572q-12 -54 -33 -86.5t-66 -46.5q-33 -10 -66 -10q-56 0 -91 28.5t-35 83.5q0 24 6 48l128 555h94l-131 -567q-3 -15 -3 -25q0 -8 2.5 -17t13.5 -18.5t28 -9.5q16 0 28 9q15 11 22.5 31t17.5 64q2 8 3 13l120 520h94z" />
    <glyph glyph-name="V" unicode="V" 
d="M445 706l-270 -706h-113l58 706h91l-61 -564l201 564h94z" />
    <glyph glyph-name="W" unicode="W" horiz-adv-x="479" 
d="M594 706l-248 -706h-107l66 508l-167 -508h-106l85 706h94l-87 -566l183 566h89l-78 -566l180 566h96z" />
    <glyph glyph-name="X" unicode="X" 
d="M441 706l-181 -340l25 -366h-92l-10 259l-126 -259h-98l198 373l-28 333h91l11 -230l114 230h96z" />
    <glyph glyph-name="Y" unicode="Y" 
d="M452 706l-218 -410l-71 -296h-96l65 296l-14 410h92l-3 -301l144 301h101z" />
    <glyph glyph-name="Z" unicode="Z" horiz-adv-x="313" 
d="M404 706l-12 -55l-300 -567h168l-20 -84h-271l13 62l299 564h-138l19 80h242z" />
    <glyph glyph-name="bracketleft" unicode="[" horiz-adv-x="208" 
d="M328 724l-11 -49h-84l-193 -834h85l-11 -47h-168l214 930h168z" />
    <glyph glyph-name="backslash" unicode="\" horiz-adv-x="292" 
d="M248 0h-67l-65 706h66z" />
    <glyph glyph-name="bracketright" unicode="]" horiz-adv-x="208" 
d="M289 724l-215 -930h-168l11 49h85l193 834h-85l10 47h169z" />
    <glyph glyph-name="asciicircum" unicode="^" horiz-adv-x="559" 
d="M536 356h-86l-71 270l-192 -268h-97l262 348h82z" />
    <glyph glyph-name="underscore" unicode="_" horiz-adv-x="500" 
d="M433 -143l-15 -66h-520l15 66h520z" />
    <glyph glyph-name="grave" unicode="`" horiz-adv-x="208" 
d="M177 603h-47l-99 120h99z" />
    <glyph glyph-name="a" unicode="a" horiz-adv-x="313" 
d="M328 457q0 -19 -7 -50l-68 -294q-15 -65 -15 -83l3 -30h-84v43q-24 -51 -76 -51q-30 1 -48.5 18.5t-18.5 46.5q0 19 8 59l10 49q10 49 25 74q11 17 21 25q18 15 89 47l22 10q24 12 36 19l19 80q4 18 4 29q0 28 -29 28q-7 0 -13 -3t-9.5 -6t-7 -10.5t-4 -10.5t-3 -13
t-2.5 -11l-14 -61h-82l16 67q5 22 10 38q26 75 115 75q15 0 36 -4q67 -16 67 -81zM206 262q-61 -32 -67 -39q-15 -15 -28 -68l-9 -39q-4 -20 -4 -28q0 -16 8.5 -23t18.5 -7q18 0 32 21t29 92z" />
    <glyph glyph-name="b" unicode="b" horiz-adv-x="313" 
d="M326 458q0 -27 -8 -62l-52 -223q-16 -70 -31 -108q-31 -74 -98 -74q-54 0 -68 55l-28 -46h-45l163 706h81l-49 -212q15 30 37 40q16 8 32 8q27 -1 46.5 -20.5t19.5 -63.5zM245 435q0 18 -10 26t-21 8q-13 0 -22 -8q-4 -4 -8 -9.5t-6 -10.5t-5 -14.5t-4.5 -15.5t-4.5 -20
t-5 -21l-47 -204q-12 -52 -12 -68q0 -14 8.5 -23.5t23.5 -9.5q14 0 23 9q12 12 30 87l47 202q13 54 13 72z" />
    <glyph glyph-name="c" unicode="c" horiz-adv-x="292" 
d="M316 457q0 -21 -12 -77l-9 -40h-78l8 35q14 58 14 72q0 16 -9 23t-19 7q-17 -1 -26 -22q-9 -22 -16 -55l-57 -240q-14 -58 -14 -72q0 -16 8 -23t18 -7q6 0 11.5 2.5t9.5 8t7 10t6.5 15l5.5 16.5t5.5 20t5.5 20l18 64h80l-21 -78q-19 -71 -34 -94q-34 -51 -106 -51
q-53 0 -73.5 28t-20.5 61q0 26 10 67l61 254q7 30 11.5 45t14.5 37t21.5 32.5t32 18.5t47.5 8q20 0 43 -6q57 -18 57 -79z" />
    <glyph glyph-name="d" unicode="d" horiz-adv-x="313" 
d="M389 706l-163 -706h-78l10 44q-4 -9 -9 -18q-25 -35 -66 -35q-46 0 -60 41q-6 14 -6 37q0 24 9 65l66 283q9 35 16 58q23 68 85 67q46 0 70 -43l48 207h78zM245 433q0 35 -33 35q-9 0 -15.5 -3.5t-10.5 -9.5t-6.5 -10.5t-3.5 -10.5l-2 -6q-8 -30 -11 -45l-51 -219
q-12 -55 -12 -71q0 -32 32 -32q12 0 19 6q17 14 31 79l53 232q10 35 10 55z" />
    <glyph glyph-name="e" unicode="e" horiz-adv-x="313" 
d="M336 449q0 -25 -10 -65l-33 -138h-163l-25 -105q-10 -43 -10 -53q0 -31 35 -31q26 0 40 26q2 5 6.5 18t9 28t5.5 19l13 44h81l-10 -35q-3 -10 -8.5 -31t-8.5 -31q-6 -20 -12.5 -33t-21 -32t-40.5 -29t-62 -10q-59 0 -82 26.5t-23 63.5q0 19 9 59l61 255q2 7 5.5 20
t4.5 18q11 41 27 65.5t50 35.5q24 8 52 8q47 -1 78.5 -24t31.5 -69zM254 438q0 39 -34 39q-20 0 -28 -10q-14 -14 -29 -81l-16 -71h81l18 77q8 34 8 46z" />
    <glyph glyph-name="f" unicode="f" horiz-adv-x="167" 
d="M291 702l-17 -74q-16 6 -25 6q-14 0 -20.5 -9.5t-12.5 -34.5l-13 -57h50l-15 -65h-51l-108 -468h-80l108 468h-41l14 65h42l22 95q6 31 22 52q24 30 67 30q10 0 23.5 -2t23.5 -4t11 -2z" />
    <glyph glyph-name="g" unicode="g" horiz-adv-x="313" 
d="M348 533l-115 -501q-18 -80 -37.5 -115.5t-59.5 -50.5q-24 -9 -51 -9q-11 0 -24 2.5t-31 10t-29.5 26t-11.5 45.5q0 14 8 54h77q-7 -35 -7 -44q0 -13 8 -22t21 -9q7 0 15 4q13 7 18.5 19.5t12.5 40.5l23 99q-6 -10 -15 -19q-25 -25 -58 -25q-24 1 -45 18.5t-21 58.5
q0 36 17 103l42 168q26 103 49 130q21 25 53 25q51 -1 72 -51l9 42h80zM242 429q0 4 -2 14q-7 25 -30 25q-21 0 -33 -25q-5 -11 -18 -65l-38 -165q-12 -56 -12 -66q0 -19 11 -26.5t22 -7.5q7 0 12 2q12 6 19 22q9 19 20 68l36 157q13 58 13 67z" />
    <glyph glyph-name="h" unicode="h" 
d="M351 469q0 -14 -11 -64l-94 -405h-80l94 408q4 17 4 26q0 13 -9 24.5t-31 11.5t-32 -12.5t-16 -38.5l-97 -419h-80l163 706h80l-48 -209q34 46 81 45q34 0 55 -19.5t21 -53.5z" />
    <glyph glyph-name="i" unicode="i" horiz-adv-x="167" 
d="M241 706l-24 -106h-80l24 106h80zM203 533l-124 -533h-80l123 533h81z" />
    <glyph glyph-name="j" unicode="j" horiz-adv-x="167" 
d="M243 706l-25 -109h-81l26 109h80zM203 533l-125 -544q-1 -5 -3.5 -15l-4.5 -18t-4 -15q-5 -15 -10 -25.5t-17 -25.5t-32.5 -23.5t-48.5 -8.5q-23 0 -52 7l16 73q12 -5 24 -5q26 0 37 15q8 13 18 58l121 527h81z" />
    <glyph glyph-name="k" unicode="k" horiz-adv-x="292" 
d="M364 533l-134 -190l20 -343h-76l-18 275l-19 -23l-58 -252h-80l163 706h80l-79 -350l112 177h89z" />
    <glyph glyph-name="l" unicode="l" horiz-adv-x="167" 
d="M236 706l-157 -706h-82l158 706h81z" />
    <glyph glyph-name="m" unicode="m" horiz-adv-x="500" 
d="M516 468q0 -22 -7 -54l-96 -414h-80l90 393q6 24 6 37q0 14 -4 20q-7 18 -33 18q-5 0 -20 -5q-22 -11 -31 -49l-95 -414h-81l93 406l2 9q2 9 2 14q0 12 -4 20q-8 20 -32 20q-39 -1 -55 -67l-93 -402h-80l123 533h80l-11 -46q29 53 86 53q61 0 75 -53q32 53 90 53
q47 0 66 -33q9 -14 9 -39z" />
    <glyph glyph-name="n" unicode="n" 
d="M351 469q0 -14 -11 -64l-94 -405h-80l94 408q4 17 4 26q0 13 -9 24.5t-31 11.5t-32 -12.5t-16 -38.5l-97 -419h-80l122 533h80l-7 -36q34 46 81 45q34 0 55 -19.5t21 -53.5z" />
    <glyph glyph-name="o" unicode="o" 
d="M346 449q0 -16 -9 -59l-60 -260q-15 -58 -22 -78q-10 -27 -33 -41q-30 -20 -84 -20q-62 0 -89 27t-27 66q0 14 9 59l59 260q16 68 27 87q19 37 67 47q20 5 46 5q62 0 88.5 -27t27.5 -66zM265 439q0 40 -43 40q-26 0 -39 -25q-6 -12 -15 -56l-54 -243q-11 -51 -11 -61
q0 -40 43 -40q25 0 37 21q7 12 17 60l54 243q11 51 11 61z" />
    <glyph glyph-name="p" unicode="p" horiz-adv-x="313" 
d="M329 472q0 -37 -12 -79l-58 -250q-1 -3 -2 -9t-2 -9q-19 -75 -40 -102q-24 -32 -65 -32q-53 0 -64 50l-43 -186h-81l157 678h80l-8 -36q25 46 72 45q31 0 48.5 -19.5t17.5 -50.5zM247 439q0 14 -9.5 24t-24.5 10q-23 0 -33 -22q-6 -15 -16 -60l-57 -246q-8 -32 -8 -51
q0 -17 11.5 -23.5t21.5 -6.5q18 0 29 16q7 9 20 62l55 237q11 44 11 60z" />
    <glyph glyph-name="q" unicode="q" horiz-adv-x="313" 
d="M351 533l-157 -678h-81l43 185q-31 -49 -74 -49q-25 0 -46 18t-21 60q0 17 10 62l67 291q9 42 21 67q25 53 77 53q46 0 71 -44l39 35h51zM245 436q0 19 -11.5 27t-22.5 8q-21 0 -31 -27q-3 -8 -16 -59l-55 -238q-8 -32 -8 -48q0 -32 32 -32q17 0 27 13q9 12 19 61l54 235
q12 50 12 60z" />
    <glyph glyph-name="r" unicode="r" horiz-adv-x="229" 
d="M309 540l-22 -94q-18 11 -38 11q-41 0 -62 -36q-15 -25 -29 -84l-79 -337h-80l123 533h80l-21 -92q7 16 13 28q27 55 69 67q15 5 31 5q2 0 7 -0.5t8 -0.5z" />
    <glyph glyph-name="s" unicode="s" horiz-adv-x="292" 
d="M318 449q0 -38 -8 -54l-6 -24h-74l5 24q6 30 6 39q0 13 -3 20q-8 17 -31 17q-27 0 -37 -29q-15 -39 -15 -66q0 -14 8 -27q8 -15 47 -51l7.5 -7.5t8.5 -8t7 -7.5q29 -32 29 -79q0 -34 -16 -95q-18 -62 -43 -83q-30 -27 -85 -27q-14 0 -29 3t-35.5 12t-33.5 31t-13 55
q0 28 19 104h75l-11 -49q-7 -35 -7 -46q0 -22 12.5 -31t25.5 -9q19 0 32 13q12 13 20.5 45t8.5 54q0 21 -8 35q-4 7 -15 19.5t-26.5 28.5t-17.5 18q-38 41 -38 82q0 29 14 82q14 54 38 78q28 26 77 26q78 0 102 -49q10 -23 10 -44z" />
    <glyph glyph-name="t" unicode="t" horiz-adv-x="167" 
d="M256 533l-16 -65h-51l-90 -369q-3 -13 -3 -19q0 -21 21 -21q13 0 34 13l-18 -68q-33 -13 -57 -13q-14 0 -31 5q-35 15 -35 57q0 14 3 26l94 389h-45l17 65h45l19 76l91 37l-29 -113h51z" />
    <glyph glyph-name="u" unicode="u" 
d="M369 533l-122 -533h-80l7 36q-33 -45 -81 -45q-34 0 -55 19.5t-21 53.5q0 11 2.5 27t5.5 27l3 10l94 405h80l-95 -408q-3 -13 -3 -26t8.5 -24.5t30.5 -11.5q12 0 19 3q22 9 30 48l97 419h80z" />
    <glyph glyph-name="v" unicode="v" horiz-adv-x="250" 
d="M329 533l-201 -533h-101l54 533h74l-53 -429l149 429h78z" />
    <glyph glyph-name="w" unicode="w" horiz-adv-x="396" 
d="M465 533l-184 -533h-97l49 338l-117 -338h-93l67 533h78l-70 -421l151 421h58l-52 -421l131 421h79z" />
    <glyph glyph-name="x" unicode="x" horiz-adv-x="292" 
d="M359 533l-144 -245l33 -288h-81l-18 198l-105 -198h-88l168 288l-24 245h77l10 -165l84 165h88z" />
    <glyph glyph-name="y" unicode="y" horiz-adv-x="271" 
d="M353 533l-226 -560q-12 -32 -20 -47q-9 -18 -17.5 -30t-32.5 -25.5t-57 -13.5q-24 0 -54 7l17 74q14 -7 34 -7q18 0 30 12q6 7 9 18q7 40 9 75l35 497h84l-47 -418l148 418h88z" />
    <glyph glyph-name="z" unicode="z" horiz-adv-x="292" 
d="M350 533l-17 -69l-255 -399h166l-17 -65h-253l14 59l258 409h-144l17 65h231z" />
    <glyph glyph-name="braceleft" unicode="{" horiz-adv-x="354" 
d="M439 731l-11 -47q-32 0 -54 -7q-33 -11 -47 -42q-13 -29 -28 -93l-22 -94q-16 -70 -25 -96.5t-22 -44.5q-28 -38 -79 -52l-1 -4q56 -24 56 -83q0 -19 -7 -54l-11 -52l-17 -75q-14 -64 -14 -88q0 -30 16.5 -44t56.5 -18l-11 -48q-61 3 -86 13q-57 22 -57 98q0 30 14 85
l3 12l20 87q15 63 15 93q0 51 -45 62l10 43q33 6 50 26q21 23 30 53q9 27 24 89l23 100q15 66 32.5 99.5t46.5 52.5q42 29 126 29h14z" />
    <glyph glyph-name="bar" unicode="|" horiz-adv-x="229" 
d="M277 733l-217 -943h-80l217 943h80z" />
    <glyph glyph-name="braceright" unicode="}" horiz-adv-x="354" 
d="M305 620q0 -30 -14 -85l-3 -12l-20 -87q-15 -63 -15 -93q0 -51 45 -62l-10 -43q-33 -8 -50 -26q-20 -22 -31 -53q-5 -16 -23 -89l-23 -100q-15 -66 -32.5 -100t-46.5 -53q-43 -28 -126 -28h-14l11 47q30 0 54 7q32 9 47 42q8 17 27 93l23 94q27 113 47 141q28 39 79 52
l1 4q-56 24 -56 83q0 19 7 54l11 52l17 75q14 64 14 88q0 30 -16 43.5t-57 18.5l11 48q57 -2 86 -13q57 -22 57 -98z" />
    <glyph glyph-name="asciitilde" unicode="~" horiz-adv-x="559" 
d="M513 297q-35 -33 -64 -49q-36 -20 -70 -20q-31 0 -84 27l-23 12q-41 21 -70 21q-22 0 -40 -9.5t-46 -37.5l-9 -9l-26 69q28 28 48 43q40 27 83 27q11 0 29 -4q22 -6 50 -20l41 -20q35 -17 54 -17q24 0 52 15q20 13 49 40z" />
    <glyph glyph-name="exclamdown" unicode="&#xa1;" horiz-adv-x="187" 
d="M227 706l-30 -127h-80l29 127h81zM157 477l-31 -215l-61 -262h-84l61 262l69 215h46z" />
    <glyph glyph-name="cent" unicode="&#xa2;" horiz-adv-x="313" 
d="M322 456q0 -33 -11 -76l-10 -40h-81l9 34q13 49 13 72q0 31 -27 31q-10 0 -23 -13q-8 -10 -20 -64l-57 -240q-14 -59 -14 -71q0 -31 25 -31q7 0 12.5 2.5t9.5 8t7.5 11t7 15.5t5.5 17t5 19t5 19l18 64h80l-21 -77q-21 -76 -36 -98q-28 -39 -93 -48l-16 -68h-39l17 71
q-67 19 -67 85q0 38 10 68l61 254q11 46 17 64.5t20.5 37.5t39.5 29q10 5 45 10l13 58h39l-14 -61q70 -21 70 -83z" />
    <glyph glyph-name="sterling" unicode="&#xa3;" horiz-adv-x="479" 
d="M489 596q0 -18 -10 -61l-12 -49h-86l9 39q7 28 7 55q0 30 -15.5 42.5t-33.5 12.5q-32 -1 -56 -33t-24 -89q0 -46 21 -142h104l-16 -67l-78 -1l1 -14q2 -14 1 -25q-2 -79 -61 -164q50 -33 70 -33q13 0 25 9q11 11 21 55l16 67h81l-18 -80q-3 -13 -8 -29
q-26 -100 -106 -100q-48 0 -124 63q-20 -20 -33 -28q-47 -32 -98 -32q-19 0 -34 6q-23 9 -31.5 29t-8.5 35q0 18 9 33q33 56 109 56q40 0 77 -20q23 41 23 86q0 37 -7 87h-109l16 67h81q-13 90 -13 136q0 82 40 137q20 27 45 43q44 28 96 28q24 0 43 -6q87 -26 87 -113z
M155 79q-38 18 -63 18q-24 0 -37 -9.5t-13 -23.5q0 -25 32 -25q38 0 81 40z" />
    <glyph glyph-name="currency" unicode="&#xa4;" horiz-adv-x="661" 
d="M657 557l-78 -69q33 -56 33 -117q0 -108 -72 -198l64 -77l-60 -54l-64 77q-75 -42 -147 -42q-84 0 -154 56l-79 -69l-49 60l79 68q-34 64 -34 125q0 107 72 191l-63 78l59 54l63 -77q71 42 146 42q89 0 157 -55l77 67zM527 360q0 76 -43.5 122t-114.5 46
q-81 0 -134 -58.5t-53 -147.5q0 -73 43 -121t109 -48q82 0 137.5 60t55.5 147z" />
    <glyph glyph-name="yen" unicode="&#xa5;" 
d="M451 706l-149 -279h69l-26 -69h-79l-24 -46h97l-23 -69h-97l-56 -243h-96l54 243h-104l23 69h91l-1 46h-83l23 69h59l-12 279h92l-2 -303l143 303h101z" />
    <glyph glyph-name="brokenbar" unicode="&#xa6;" horiz-adv-x="229" 
d="M277 733l-94 -407h-80l94 407h80zM154 198l-94 -408h-80l94 408h80z" />
    <glyph glyph-name="section" unicode="&#xa7;" horiz-adv-x="375" 
d="M411 588q0 -20 -3 -41h-80q5 33 5 38q0 29 -15 50t-43 21t-45 -23t-17 -52q0 -28 17.5 -49.5t42 -37.5t49 -35t42 -50.5t17.5 -73.5q0 -54 -32 -97.5t-84 -64.5q42 -45 42 -100q0 -70 -49.5 -115t-120.5 -45q-64 0 -100.5 38.5t-36.5 102.5q0 20 3 38h84q-3 -14 -3 -26
q0 -33 17 -56.5t49 -23.5q29 0 47.5 22.5t18.5 51.5t-18 50.5t-50 43.5t-44 34q-48 50 -48 116q0 99 115 152q-51 61 -51 116q0 66 44.5 112t110.5 46q64 0 100 -39t36 -103zM294 316q0 52 -71 97q-3 -2 -9.5 -5.5t-9.5 -5.5q-56 -37 -56 -89q0 -22 11 -41.5t22 -29.5
t34 -27q33 16 56 42t23 59z" />
    <glyph glyph-name="dieresis" unicode="&#xa8;" horiz-adv-x="208" 
d="M217 723l-23 -100h-74l23 100h74zM85 723l-23 -100h-71l23 100h71z" />
    <glyph glyph-name="copyright" unicode="&#xa9;" horiz-adv-x="833" 
d="M820 354q0 -151 -103 -254t-254 -103q-148 0 -251.5 104t-103.5 252q0 149 103.5 252.5t252.5 103.5t252.5 -103t103.5 -252zM780 352q0 135 -91.5 227.5t-224.5 92.5q-131 0 -223.5 -93.5t-92.5 -226.5t92 -225.5t223 -92.5q132 0 224.5 92.5t92.5 225.5zM600 519
q0 -25 -12 -76l-7 -31h-72l10 37q10 36 10 57q0 31 -29 31q-16 0 -25 -12q-3 -4 -7 -12q-5 -14 -14 -53l-44 -196q0 -2 -6.5 -26.5t-6.5 -32.5q0 -28 28 -28q18 0 27 16.5t25 76.5l7 26h73l-14 -58q-17 -72 -44 -100t-78 -28q-46 0 -72.5 22t-26.5 60q0 21 13 74l46 194
q16 71 30 96q26 46 90 46q46 0 72.5 -22.5t26.5 -60.5z" />
    <glyph glyph-name="ordfeminine" unicode="&#xaa;" horiz-adv-x="208" 
d="M273 658q0 -14 -5 -32l-46 -199q-5 -25 -5 -33q0 -13 2 -21h-56v21q-23 -27 -46 -26q-7 0 -15.5 2.5t-17.5 13t-9 26.5q0 10 5 37l6 30q9 42 23.5 57t60.5 35l14 6q14 7 22 12l12 48v3q1 3 1.5 7.5t0.5 7.5q0 16 -17 16q-5 0 -9 -2t-6 -6.5t-3 -8t-2.5 -9t-1.5 -7.5
l-9 -39h-54l10 43q4 16 6.5 23.5t10.5 21.5t23.5 20.5t38.5 6.5q34 0 50 -15.5t16 -38.5zM194 534q-3 -2 -9 -4.5t-9 -4.5q-23 -14 -27 -19.5t-11 -35.5l-6 -24q-2 -10 -2 -17q0 -17 15 -17q20 0 33 51q0 2 4 18z" />
    <glyph glyph-name="guillemotleft" unicode="&#xab;" horiz-adv-x="375" 
d="M400 491l-26 -113l-88 -65l58 -66l-22 -95l-105 120l23 100zM233 491l-26 -113l-88 -65l58 -66l-22 -95l-105 120l23 100z" />
    <glyph glyph-name="logicalnot" unicode="&#xac;" horiz-adv-x="559" 
d="M507 334l-59 -260h-87l42 185h-329l18 75h415z" />
    <glyph glyph-name="registered" unicode="&#xae;" horiz-adv-x="833" 
d="M820 354q0 -151 -103 -254t-254 -103q-148 0 -251.5 104t-103.5 252q0 149 103.5 252.5t252.5 103.5t252.5 -103t103.5 -252zM780 352q0 135 -91.5 227.5t-224.5 92.5q-131 0 -223.5 -93.5t-92.5 -226.5t92 -225.5t223 -92.5q132 0 224.5 92.5t92.5 225.5zM604 520
q0 -21 -3 -34l-15 -74q-14 -68 -74 -83l19 -209h-67l-17 204h-20l-47 -204h-68l108 470h90q94 0 94 -70zM532 497q0 18 -13 24q-7 3 -15 3h-30l-30 -133h13q39 0 49 10q10 9 17 44l7 31q2 8 2 21z" />
    <glyph glyph-name="macron" unicode="&#xaf;" horiz-adv-x="209" 
d="M213 687l-14 -64h-203l14 64h203z" />
    <glyph glyph-name="degree" unicode="&#xb0;" horiz-adv-x="354" 
d="M386 594q0 -67 -47.5 -114.5t-114.5 -47.5t-114 47.5t-47 114.5t47 114t114 47q68 0 115 -47t47 -114zM303 596q0 33 -23 56t-56 23t-56 -23t-23 -56q0 -32 23.5 -55.5t55.5 -23.5q33 0 56 23t23 56z" />
    <glyph glyph-name="plusminus" unicode="&#xb1;" horiz-adv-x="559" 
d="M512 373l-18 -75h-154l-38 -168h-84l38 168h-155l18 75h155l38 169h84l-38 -169h154zM443 76l-17 -76h-393l18 76h392z" />
    <glyph glyph-name="twosuperior" unicode="&#xb2;" horiz-adv-x="229" 
d="M306 643q0 -19 -5 -36l-11 -48q-8 -35 -23.5 -56.5t-50.5 -52t-56 -53.5q-40 -46 -46 -76h124l-13 -56h-187q4 13 11 37t11 36t12.5 30.5t22 35.5t32.5 36q6 6 29 26.5t40 38t25 31.5q6 10 16 50l8 30q3 14 3 21q0 26 -28 26q-6 0 -11.5 -1.5t-9 -5.5t-6 -7t-4.5 -9.5
t-3 -8.5t-2.5 -9.5t-1.5 -8.5l-11 -45h-57l16 67q5 19 9.5 30t14 23t27.5 17.5t44 6.5q81 0 81 -69z" />
    <glyph glyph-name="threesuperior" unicode="&#xb3;" horiz-adv-x="229" 
d="M296 651q0 -13 -3 -27l-7 -28q-9 -38 -17.5 -53.5t-28.5 -24.5q-16 -3 -25 -4q2 -1 10.5 -3.5t12.5 -4.5t10 -7t9 -13.5t3 -20.5q1 -11 -11 -63l-6 -24q-1 -4 -5.5 -23t-6 -23.5t-6.5 -19t-9 -19l-12 -13.5t-17 -12t-22 -5.5t-29 -2.5q-78 0 -78 63q0 16 6 49l5 27h54
l-4 -25q-1 -4 -3.5 -17.5t-2.5 -22.5q-1 -27 29 -27q12 0 24 12q4 4 15 46l9 34q9 30 9 50q0 30 -31 30q-10 0 -38 -2l14 57q4 0 11 -0.5t11 -0.5q35 0 45.5 12.5t18.5 49.5l3 14q6 29 6 34q0 22 -25 22q-17 0 -24 -11t-15 -41l-5 -18h-54l7 25q1 3 4 15.5t5 18t7 17
t11.5 17t16.5 12t24.5 9.5t32.5 3q72 0 72 -61z" />
    <glyph glyph-name="acute" unicode="&#xb4;" horiz-adv-x="208" 
d="M205 723l-155 -121h-47l101 121h101z" />
    <glyph glyph-name="mu" unicode="&#xb5;" 
d="M369 533l-96 -420l-5 -20q-10 -41 -10 -65q0 -16 3 -28h-81q-3 18 -3 27v9q-26 -42 -59 -42q-20 0 -37 16l-36 -155h-80l157 678h80l-95 -408q-3 -12 -3 -25q0 -37 40 -37q20 0 30.5 11t17.5 40l97 419h80z" />
    <glyph glyph-name="paragraph" unicode="&#xb6;" horiz-adv-x="600" 
d="M579 706l-15 -61h-34l-186 -812h-59l187 812h-90l-187 -812h-60l112 486q-87 53 -87 160q0 87 46 146q36 47 101 68q42 13 112 13h160z" />
    <glyph glyph-name="periodcentered" unicode="&#xb7;" horiz-adv-x="146" 
d="M155 384l-30 -131h-82l30 131h82z" />
    <glyph glyph-name="cedilla" unicode="&#xb8;" horiz-adv-x="208" 
d="M200 -86q0 -18 -13 -36q-37 -49 -118 -49q-32 0 -61 8l7 27q12 -6 36 -6q35 0 53 20q8 9 8 19q0 7 -3 12q-10 14 -42 14q-12 0 -22 -2l102 119h46l-64 -78q16 3 30 0q18 -3 29.5 -16t11.5 -32z" />
    <glyph glyph-name="onesuperior" unicode="&#xb9;" horiz-adv-x="229" 
d="M270 714l-105 -449h-59l78 334h-44l11 45q61 7 76 70h43z" />
    <glyph glyph-name="ordmasculine" unicode="&#xba;" horiz-adv-x="208" 
d="M278 654q0 -9 -2 -24l-3 -14l-37 -161q-5 -24 -7.5 -32t-9 -22.5t-14.5 -19.5t-22 -9.5t-35 -4.5q-37 0 -55.5 16.5t-18.5 41.5q0 11 6 38l37 161q6 28 9.5 38.5t12.5 25.5t24.5 19.5t40.5 4.5q37 0 55.5 -16.5t18.5 -41.5zM225 648q0 8 -5.5 15t-18.5 7q-4 0 -7.5 -0.5
t-6 -2t-4.5 -3t-4 -5t-3 -5.5t-2 -7l-1.5 -7.5t-2 -9t-2.5 -9.5l-34 -151q-7 -24 -7 -39q0 -22 25 -22q5 0 9.5 1t7.5 3.5t5 5t3.5 8t2.5 8.5t2.5 11t2.5 12l33 151q8 29 7 39z" />
    <glyph glyph-name="guillemotright" unicode="&#xbb;" horiz-adv-x="375" 
d="M380 371l-23 -100l-160 -119l26 113l88 65l-58 66l22 95zM213 371l-23 -100l-160 -119l26 113l89 65l-59 66l22 95z" />
    <glyph glyph-name="onequarter" unicode="&#xbc;" horiz-adv-x="583" 
d="M591 442l-67 -291h30l-11 -51h-31l-23 -100h-58l24 100h-121l12 49l166 293h79zM270 714l-105 -449h-59l78 334h-44l11 45q61 7 76 70h43zM582 706l-457 -706h-58l458 706h57zM520 374l-119 -223h66z" />
    <glyph glyph-name="onehalf" unicode="&#xbd;" horiz-adv-x="583" 
d="M599 378q0 -16 -5 -36l-11 -48q-2 -10 -5 -18.5t-5 -14.5t-7.5 -13.5t-8 -11.5t-10.5 -12.5t-11.5 -12t-15.5 -14.5t-17 -16q-53 -50 -70 -72t-26 -52h124l-13 -57h-187q3 9 7 24t7 24q12 41 30 70.5t30 42t42 38.5q52 48 62.5 63.5t20.5 58.5l7 30q4 16 4 21
q0 27 -28 27q-6 0 -11.5 -1.5t-9 -5.5t-6 -7t-4.5 -9.5t-3 -9.5t-2.5 -10t-1.5 -8l-11 -45h-57l15 67q8 38 27 57t69 20q81 1 81 -69zM270 714l-105 -449h-59l78 334h-44l11 45q61 7 76 70h43zM582 706l-457 -706h-58l458 706h57z" />
    <glyph glyph-name="threequarters" unicode="&#xbe;" horiz-adv-x="583" 
d="M591 442l-67 -291h30l-11 -51h-31l-23 -100h-58l24 100h-121l12 49l166 293h79zM582 706l-457 -706h-58l458 706h57zM296 651q0 -13 -3 -27l-7 -28q-9 -38 -17.5 -53.5t-28.5 -24.5q-16 -3 -25 -4q2 -1 10.5 -3.5t12.5 -4.5t10 -7t9 -13.5t3 -20.5q1 -11 -11 -63l-6 -24
q-1 -4 -5.5 -23t-6 -23.5t-6.5 -19t-9 -19l-12 -13.5t-17 -12t-22 -5.5t-29 -2.5q-78 0 -78 63q0 16 6 49l5 27h54l-4 -25q-1 -4 -3.5 -17.5t-2.5 -22.5q-1 -27 29 -27q12 0 24 12q4 4 15 46l9 34q9 30 9 50q0 30 -31 30q-10 0 -38 -2l14 57q4 0 11 -0.5t11 -0.5
q35 0 45.5 12.5t18.5 49.5l3 14q6 29 6 34q0 22 -25 22q-17 0 -24 -11t-15 -41l-5 -18h-54l7 25q1 3 4 15.5t5 18t7 17t11.5 17t16.5 12t24.5 9.5t32.5 3q72 0 72 -61zM520 374l-119 -223h66z" />
    <glyph glyph-name="questiondown" unicode="&#xbf;" 
d="M344 706l-30 -129h-81l30 129h81zM297 195l-13 -57q-18 -77 -45 -112t-96 -35q-85 0 -111 57q-10 20 -10 59q0 60 23 105q15 27 56 80l56 73q48 62 58 114l78 -1q-8 -46 -19.5 -70.5t-41.5 -65.5l-66 -88q-2 -3 -10.5 -14t-10.5 -13.5t-8.5 -12t-8 -13.5t-6 -12.5
t-6 -14.5t-4 -15t-3.5 -18q-2 -15 -2 -29q0 -16 3 -23q10 -24 40 -24q11 0 23 5q4 2 7.5 5.5t6 6.5t5 8l4 8t3.5 9.5t2.5 9t2.5 9.5t2 9l14 60h77z" />
    <glyph glyph-name="Agrave" unicode="&#xc0;" 
d="M343 774h-48l-96 119h98zM353 706l-72 -706h-89l17 133h-112l-52 -133h-91l284 706h115zM265 583l-137 -369h92z" />
    <glyph glyph-name="Aacute" unicode="&#xc1;" 
d="M469 893l-155 -120h-45l100 120h100zM353 706l-72 -706h-89l17 133h-112l-52 -133h-91l284 706h115zM265 583l-137 -369h92z" />
    <glyph glyph-name="Acircumflex" unicode="&#xc2;" 
d="M419 773h-55l-45 72l-81 -72h-54l119 120h54zM353 706l-72 -706h-89l17 133h-112l-52 -133h-91l284 706h115zM265 583l-137 -369h92z" />
    <glyph glyph-name="Atilde" unicode="&#xc3;" 
d="M445 883q-1 -2 -10 -17t-12.5 -21t-13 -18t-16.5 -17.5t-18 -10.5t-22 -5q-25 0 -52 16q-4 2 -12 6.5t-12.5 7t-12 4.5t-13.5 2q-18 0 -28.5 -11.5t-20.5 -31.5h-24q25 47 26 49q25 47 72 47q29 0 61 -16q36 -15 44 -15q10 0 19.5 8t14.5 15.5t5 8.5zM353 706l-72 -706
h-89l17 133h-112l-52 -133h-91l284 706h115zM265 583l-137 -369h92z" />
    <glyph glyph-name="Adieresis" unicode="&#xc4;" 
d="M438 893l-23 -99h-74l23 99h74zM306 893l-23 -99h-71l23 99h71zM353 706l-72 -706h-89l17 133h-112l-52 -133h-91l284 706h115zM265 583l-137 -369h92z" />
    <glyph glyph-name="Aring" unicode="&#xc5;" 
d="M397 843q0 -31 -22.5 -53t-53.5 -22q-15 0 -32 7q-44 21 -44 69q0 32 23 54t55 22q15 0 33 -8q19 -10 30 -29t11 -40zM353 706l-72 -706h-89l17 133h-112l-52 -133h-91l284 706h115zM371 846q0 19 -14.5 33.5t-34.5 14.5q-13 0 -23 -5q-27 -15 -27 -45q0 -7 5 -22
q14 -28 45 -28q22 1 35.5 15.5t13.5 36.5zM265 583l-137 -369h92z" />
    <glyph glyph-name="AE" unicode="&#xc6;" horiz-adv-x="500" 
d="M569 706l-20 -82h-125l-50 -220h123l-18 -80h-123l-55 -238h154l-20 -86h-242l75 324h-69l-143 -324h-93l324 706h282zM342 646l-114 -245h62z" />
    <glyph glyph-name="Ccedilla" unicode="&#xc7;" horiz-adv-x="375" 
d="M417 604q0 -30 -18 -105l-8 -33h-88l13 52q15 62 15 77q0 21 -12 34t-33 12q-21 0 -37 -21q-10 -14 -33 -106l-79 -329q-12 -48 -12 -70q0 -25 13.5 -35.5t28.5 -10.5q10 0 18 3t14.5 10t10.5 13.5t9 20t7 21.5t7 26t7 27l22 80h90l-14 -61q-2 -7 -6.5 -29t-6 -28l-6 -24
t-7 -24t-7 -20t-8.5 -19.5t-10 -15.5t-12 -16t-14.5 -12.5t-17.5 -11.5q-22 -12 -76 -19l-23 -28q14 2 18 2q27 0 40 -16.5t13 -32.5q0 -35 -38 -60.5t-94 -25.5q-31 0 -60 8l6 27q22 -6 36 -6q26 0 44 11.5t18 27.5q0 26 -40 26h-3q-13 0 -24 -2l62 73q-89 25 -89 110
q0 39 22 134l64 265q10 39 19 72q19 64 40 90q40 50 113 50q12 0 22.5 -1t31.5 -7t35 -16.5t25.5 -33t11.5 -53.5z" />
    <glyph glyph-name="Egrave" unicode="&#xc8;" horiz-adv-x="313" 
d="M322 774h-47l-97 119h98zM390 706l-19 -83h-133l-50 -216h122l-20 -84h-121l-55 -237h154l-20 -86h-248l163 706h227z" />
    <glyph glyph-name="Eacute" unicode="&#xc9;" horiz-adv-x="313" 
d="M448 893l-155 -120h-45l100 120h100zM390 706l-19 -83h-133l-50 -216h122l-20 -84h-121l-55 -237h154l-20 -86h-248l163 706h227z" />
    <glyph glyph-name="Ecircumflex" unicode="&#xca;" horiz-adv-x="313" 
d="M403 773h-55l-45 72l-81 -72h-54l120 120h54zM390 706l-19 -83h-133l-50 -216h122l-20 -84h-121l-55 -237h154l-20 -86h-248l163 706h227z" />
    <glyph glyph-name="Edieresis" unicode="&#xcb;" horiz-adv-x="313" 
d="M416 893l-23 -99h-74l23 99h74zM284 893l-23 -99h-71l23 99h71zM390 706l-19 -83h-133l-50 -216h122l-20 -84h-121l-55 -237h154l-20 -86h-248l163 706h227z" />
    <glyph glyph-name="Igrave" unicode="&#xcc;" horiz-adv-x="187" 
d="M259 774h-47l-97 119h99zM257 706l-164 -706h-92l163 706h93z" />
    <glyph glyph-name="Iacute" unicode="&#xcd;" horiz-adv-x="187" 
d="M386 893l-155 -120h-46l101 120h100zM257 706l-164 -706h-92l163 706h93z" />
    <glyph glyph-name="Icircumflex" unicode="&#xce;" horiz-adv-x="187" 
d="M341 773h-56l-44 72l-82 -72h-53l119 120h54zM257 706l-164 -706h-92l163 706h93z" />
    <glyph glyph-name="Idieresis" unicode="&#xcf;" horiz-adv-x="187" 
d="M353 893l-23 -99h-73l22 99h74zM222 893l-23 -99h-72l23 99h72zM257 706l-164 -706h-92l163 706h93z" />
    <glyph glyph-name="Eth" unicode="&#xd0;" horiz-adv-x="375" 
d="M419 616q0 -16 -3.5 -40.5t-7 -41t-4.5 -18.5l-84 -364q-12 -53 -26 -84.5t-35.5 -46t-41.5 -18t-57 -3.5h-159l80 351l-30 1l15 64h30l68 290h126q23 0 37 -1t33 -6t30.5 -14t19.5 -26.5t9 -42.5zM323 586q0 7 -1 12.5t-4 9.5t-5 6.5t-7.5 4.5t-7.5 3t-9 1.5t-8.5 0.5
h-9h-8.5h-26l-49 -208h56l-15 -65h-56l-61 -267h29q50 0 63.5 15t28.5 78q0 3 0.5 4t1 3l1 4t0.5 4l75 325q12 51 12 69z" />
    <glyph glyph-name="Ntilde" unicode="&#xd1;" horiz-adv-x="396" 
d="M471 883q-1 -2 -10 -17t-12.5 -21t-13 -18t-16.5 -17.5t-18 -10.5t-22 -5q-25 0 -52 16q-4 2 -12 6.5t-13 7t-12 4.5t-14 2q-12 0 -22 -7.5t-14.5 -15t-11.5 -20.5h-24q25 47 26 49q25 47 72 47q29 0 61 -16q36 -15 44 -15q10 0 19.5 8t14.5 15.5t5 8.5zM465 706
l-167 -706h-96l-8 527l-106 -527h-88l163 706h96l9 -525l113 525h84z" />
    <glyph glyph-name="Ograve" unicode="&#xd2;" horiz-adv-x="396" 
d="M364 774h-48l-97 119h99zM434 586q-1 -36 -15 -95l-68 -296q-26 -113 -58 -153q-23 -27 -55 -39q-29 -12 -69 -12q-41 0 -73 15q-63 32 -63 108q0 30 12 83l74 321q14 57 15 62q19 68 57 101.5t107 33.5q102 0 128 -74q8 -27 8 -55zM343 586q0 11 -3 20q-13 33 -52 33
q-37 0 -51 -35q-9 -21 -26 -94l-72 -312q-13 -58 -13 -75q0 -51 53 -51q16 0 30 8q17 10 25.5 30.5t18.5 64.5l79 344q11 48 11 67z" />
    <glyph glyph-name="Oacute" unicode="&#xd3;" horiz-adv-x="396" 
d="M490 893l-155 -120h-46l101 120h100zM434 586q-1 -36 -15 -95l-68 -296q-26 -113 -58 -153q-23 -27 -55 -39q-29 -12 -69 -12q-41 0 -73 15q-63 32 -63 108q0 30 12 83l74 321q14 57 15 62q19 68 57 101.5t107 33.5q102 0 128 -74q8 -27 8 -55zM343 586q0 11 -3 20
q-13 33 -52 33q-37 0 -51 -35q-9 -21 -26 -94l-72 -312q-13 -58 -13 -75q0 -51 53 -51q16 0 30 8q17 10 25.5 30.5t18.5 64.5l79 344q11 48 11 67z" />
    <glyph glyph-name="Ocircumflex" unicode="&#xd4;" horiz-adv-x="396" 
d="M445 773h-55l-45 72l-81 -72h-54l119 120h54zM434 586q-1 -36 -15 -95l-68 -296q-26 -113 -58 -153q-23 -27 -55 -39q-29 -12 -69 -12q-41 0 -73 15q-63 32 -63 108q0 30 12 83l74 321q14 57 15 62q19 68 57 101.5t107 33.5q102 0 128 -74q8 -27 8 -55zM343 586
q0 11 -3 20q-13 33 -52 33q-37 0 -51 -35q-9 -21 -26 -94l-72 -312q-13 -58 -13 -75q0 -51 53 -51q16 0 30 8q17 10 25.5 30.5t18.5 64.5l79 344q11 48 11 67z" />
    <glyph glyph-name="Otilde" unicode="&#xd5;" horiz-adv-x="396" 
d="M471 883q-1 -2 -10 -17t-12.5 -21t-13 -18t-16.5 -17.5t-18 -10.5t-22 -5q-25 0 -52 16q-4 2 -12 6.5t-13 7t-12 4.5t-14 2q-12 0 -22 -7.5t-14.5 -15t-11.5 -20.5h-24q25 47 26 49q25 47 72 47q29 0 61 -16q36 -15 44 -15q10 0 19.5 8t14.5 15.5t5 8.5zM434 586
q-1 -36 -15 -95l-68 -296q-26 -113 -58 -153q-23 -27 -55 -39q-29 -12 -69 -12q-41 0 -73 15q-63 32 -63 108q0 30 12 83l74 321q14 57 15 62q19 68 57 101.5t107 33.5q102 0 128 -74q8 -27 8 -55zM343 586q0 11 -3 20q-13 33 -52 33q-37 0 -51 -35q-9 -21 -26 -94l-72 -312
q-13 -58 -13 -75q0 -51 53 -51q16 0 30 8q17 10 25.5 30.5t18.5 64.5l79 344q11 48 11 67z" />
    <glyph glyph-name="Odieresis" unicode="&#xd6;" horiz-adv-x="396" 
d="M456 893l-23 -99h-74l23 99h74zM324 893l-23 -99h-71l23 99h71zM434 586q-1 -36 -15 -95l-68 -296q-26 -113 -58 -153q-23 -27 -55 -39q-29 -12 -69 -12q-41 0 -73 15q-63 32 -63 108q0 30 12 83l74 321q14 57 15 62q19 68 57 101.5t107 33.5q102 0 128 -74q8 -27 8 -55z
M343 586q0 11 -3 20q-13 33 -52 33q-37 0 -51 -35q-9 -21 -26 -94l-72 -312q-13 -58 -13 -75q0 -51 53 -51q16 0 30 8q17 10 25.5 30.5t18.5 64.5l79 344q11 48 11 67z" />
    <glyph glyph-name="multiply" unicode="&#xd7;" horiz-adv-x="558" 
d="M483 422l-120 -127l93 -139l-66 -52l-84 131l-114 -119l-50 57l121 127l-92 137l66 51l84 -128l112 120z" />
    <glyph glyph-name="Oslash" unicode="&#xd8;" horiz-adv-x="396" 
d="M498 692l-63 -86q3 -15 3 -29q0 -28 -14 -86l-73 -296q-13 -57 -32 -101q-14 -38 -38 -62q-17 -17 -49 -29q-33 -12 -65 -12q-66 0 -103 42q-8 8 -18 27l-55 -76l-29 20l75 104q-4 40 8 89l80 321q1 2 6.5 25t7 29t7.5 24.5t10.5 27.5t12.5 22t17 23q43 46 115 46
q67 0 103 -39q8 -8 18 -25l47 63zM350 587q0 24 -14.5 38t-38.5 14q-30 0 -46 -26q-11 -15 -34 -103l-63 -235l187 262q9 39 9 50zM323 445l-187 -260q-11 -53 -11 -64q1 -29 17.5 -39t33.5 -10t32 11q25 19 44 92z" />
    <glyph glyph-name="Ugrave" unicode="&#xd9;" horiz-adv-x="375" 
d="M353 774h-47l-97 119h99zM448 706l-132 -572q-12 -54 -33 -86.5t-66 -46.5q-33 -10 -66 -10q-56 0 -91 28.5t-35 83.5q0 24 6 48l128 555h94l-131 -567q-3 -15 -3 -25q0 -8 2.5 -17t13.5 -18.5t28 -9.5q16 0 28 9q15 11 22.5 31t17.5 64q2 8 3 13l120 520h94z" />
    <glyph glyph-name="Uacute" unicode="&#xda;" horiz-adv-x="375" 
d="M479 893l-154 -120h-46l100 120h100zM448 706l-132 -572q-12 -54 -33 -86.5t-66 -46.5q-33 -10 -66 -10q-56 0 -91 28.5t-35 83.5q0 24 6 48l128 555h94l-131 -567q-3 -15 -3 -25q0 -8 2.5 -17t13.5 -18.5t28 -9.5q16 0 28 9q15 11 22.5 31t17.5 64q2 8 3 13l120 520h94z
" />
    <glyph glyph-name="Ucircumflex" unicode="&#xdb;" horiz-adv-x="375" 
d="M434 773h-55l-45 72l-81 -72h-54l120 120h54zM448 706l-132 -572q-12 -54 -33 -86.5t-66 -46.5q-33 -10 -66 -10q-56 0 -91 28.5t-35 83.5q0 24 6 48l128 555h94l-131 -567q-3 -15 -3 -25q0 -8 2.5 -17t13.5 -18.5t28 -9.5q16 0 28 9q15 11 22.5 31t17.5 64q2 8 3 13
l120 520h94z" />
    <glyph glyph-name="Udieresis" unicode="&#xdc;" horiz-adv-x="375" 
d="M448 893l-23 -99h-74l23 99h74zM316 893l-23 -99h-71l23 99h71zM448 706l-132 -572q-12 -54 -33 -86.5t-66 -46.5q-33 -10 -66 -10q-56 0 -91 28.5t-35 83.5q0 24 6 48l128 555h94l-131 -567q-3 -15 -3 -25q0 -8 2.5 -17t13.5 -18.5t28 -9.5q16 0 28 9q15 11 22.5 31
t17.5 64q2 8 3 13l120 520h94z" />
    <glyph glyph-name="Yacute" unicode="&#xdd;" 
d="M459 893l-155 -120h-46l101 120h100zM452 706l-218 -410l-71 -296h-96l65 296l-14 410h92l-3 -301l144 301h101z" />
    <glyph glyph-name="Thorn" unicode="&#xde;" horiz-adv-x="354" 
d="M393 496q0 -18 -10 -64l-25 -109q-18 -79 -42 -101t-101 -22h-74l-46 -200h-93l163 706h93l-27 -117h22q58 0 83 -6t43 -33q15 -24 14 -54zM296 472q0 37 -56 34l-28 -1l-52 -222h43q28 0 39 7q18 12 34 83l16 72q4 12 4 27z" />
    <glyph glyph-name="germandbls" unicode="&#xdf;" horiz-adv-x="313" 
d="M377 632q0 -14 -17 -95l-5 -25q-2 -11 -11 -33q-14 -28 -55 -28l-3 -11l4 -1q4 -1 5.5 -1.5t5.5 -2.5t6.5 -3t6 -3.5t5.5 -5t4.5 -6.5t4 -8t2.5 -9.5t1 -11.5q0 -12 -3 -26l-63 -273q-7 -31 -17 -47q-28 -47 -91 -47q-27 0 -52 11l16 71q13 -8 27 -8q22 0 34 20
q5 9 15 50l50 215q3 12 3 25q0 32 -45 38l15 62q14 -3 18 -3q9 0 19 5q14 9 19 34l12 56q7 26 7 41q0 17 -10.5 26t-26.5 9q-7 0 -12.5 -1.5t-10 -5.5t-7 -7t-5 -10t-3.5 -10t-2.5 -11.5t-2.5 -10.5l-137 -591h-79l142 615q7 31 18 48q31 53 119 53q53 0 76 -26t23 -58z" />
    <glyph glyph-name="agrave" unicode="&#xe0;" horiz-adv-x="313" 
d="M276 603h-47l-97 120h98zM328 457q0 -19 -7 -50l-68 -294q-15 -65 -15 -83l3 -30h-84v43q-24 -51 -76 -51q-30 1 -48.5 18.5t-18.5 46.5q0 19 8 59l10 49q10 49 25 74q11 17 21 25q18 15 89 47l22 10q24 12 36 19l19 80q4 18 4 29q0 28 -29 28q-7 0 -13 -3t-9.5 -6
t-7 -10.5t-4 -10.5t-3 -13t-2.5 -11l-14 -61h-82l16 67q5 22 10 38q26 75 115 75q15 0 36 -4q67 -16 67 -81zM206 262q-61 -32 -67 -39q-15 -15 -28 -68l-9 -39q-4 -20 -4 -28q0 -16 8.5 -23t18.5 -7q18 0 32 21t29 92z" />
    <glyph glyph-name="aacute" unicode="&#xe1;" horiz-adv-x="313" 
d="M414 723l-155 -121h-45l100 121h100zM328 457q0 -19 -7 -50l-68 -294q-15 -65 -15 -83l3 -30h-84v43q-24 -51 -76 -51q-30 1 -48.5 18.5t-18.5 46.5q0 19 8 59l10 49q10 49 25 74q11 17 21 25q18 15 89 47l22 10q24 12 36 19l19 80q4 18 4 29q0 28 -29 28q-7 0 -13 -3
t-9.5 -6t-7 -10.5t-4 -10.5t-3 -13t-2.5 -11l-14 -61h-82l16 67q5 22 10 38q26 75 115 75q15 0 36 -4q67 -16 67 -81zM206 262q-61 -32 -67 -39q-15 -15 -28 -68l-9 -39q-4 -20 -4 -28q0 -16 8.5 -23t18.5 -7q18 0 32 21t29 92z" />
    <glyph glyph-name="acircumflex" unicode="&#xe2;" horiz-adv-x="313" 
d="M364 603h-55l-45 71l-81 -71h-54l120 120h54zM328 457q0 -19 -7 -50l-68 -294q-15 -65 -15 -83l3 -30h-84v43q-24 -51 -76 -51q-30 1 -48.5 18.5t-18.5 46.5q0 19 8 59l10 49q10 49 25 74q11 17 21 25q18 15 89 47l22 10q24 12 36 19l19 80q4 18 4 29q0 28 -29 28
q-7 0 -13 -3t-9.5 -6t-7 -10.5t-4 -10.5t-3 -13t-2.5 -11l-14 -61h-82l16 67q5 22 10 38q26 75 115 75q15 0 36 -4q67 -16 67 -81zM206 262q-61 -32 -67 -39q-15 -15 -28 -68l-9 -39q-4 -20 -4 -28q0 -16 8.5 -23t18.5 -7q18 0 32 21t29 92z" />
    <glyph glyph-name="atilde" unicode="&#xe3;" horiz-adv-x="313" 
d="M396 713q-2 -4 -9.5 -18t-10.5 -19t-10 -14.5t-15 -16.5q-11 -11 -19 -15q-12 -7 -28 -7q-24 0 -56 18q-36 18 -46 18q-30 0 -48 -43l-24 1q3 6 9 17.5t9 17.5q2 3 5.5 10t5.5 10q27 41 68 41q24 0 62 -17q31 -14 43 -14q5 0 10.5 2t9.5 5.5t8 7.5t6 7.5t4 5.5l2 3h24z
M328 457q0 -19 -7 -50l-68 -294q-15 -65 -15 -83l3 -30h-84v43q-24 -51 -76 -51q-30 1 -48.5 18.5t-18.5 46.5q0 19 8 59l10 49q10 49 25 74q11 17 21 25q18 15 89 47l22 10q24 12 36 19l19 80q4 18 4 29q0 28 -29 28q-7 0 -13 -3t-9.5 -6t-7 -10.5t-4 -10.5t-3 -13
t-2.5 -11l-14 -61h-82l16 67q5 22 10 38q26 75 115 75q15 0 36 -4q67 -16 67 -81zM206 262q-61 -32 -67 -39q-15 -15 -28 -68l-9 -39q-4 -20 -4 -28q0 -16 8.5 -23t18.5 -7q18 0 32 21t29 92z" />
    <glyph glyph-name="adieresis" unicode="&#xe4;" horiz-adv-x="313" 
d="M375 723l-23 -100h-74l23 100h74zM243 723l-23 -100h-71l23 100h71zM328 457q0 -19 -7 -50l-68 -294q-15 -65 -15 -83l3 -30h-84v43q-24 -51 -76 -51q-30 1 -48.5 18.5t-18.5 46.5q0 19 8 59l10 49q10 49 25 74q11 17 21 25q18 15 89 47l22 10q24 12 36 19l19 80
q4 18 4 29q0 28 -29 28q-7 0 -13 -3t-9.5 -6t-7 -10.5t-4 -10.5t-3 -13t-2.5 -11l-14 -61h-82l16 67q5 22 10 38q26 75 115 75q15 0 36 -4q67 -16 67 -81zM206 262q-61 -32 -67 -39q-15 -15 -28 -68l-9 -39q-4 -20 -4 -28q0 -16 8.5 -23t18.5 -7q18 0 32 21t29 92z" />
    <glyph glyph-name="aring" unicode="&#xe5;" horiz-adv-x="313" 
d="M334 672q0 -31 -22.5 -53t-53.5 -22q-14 0 -32 7q-44 21 -44 69q0 32 23 54t55 22q15 0 33 -8q19 -10 30 -29t11 -40zM328 457q0 -19 -7 -50l-68 -294q-15 -65 -15 -83l3 -30h-84v43q-24 -51 -76 -51q-30 1 -48.5 18.5t-18.5 46.5q0 19 8 59l10 49q10 49 25 74
q11 17 21 25q18 15 89 47l22 10q24 12 36 19l19 80q4 18 4 29q0 28 -29 28q-7 0 -13 -3t-9.5 -6t-7 -10.5t-4 -10.5t-3 -13t-2.5 -11l-14 -61h-82l16 67q5 22 10 38q26 75 115 75q15 0 36 -4q67 -16 67 -81zM308 675q0 19 -14.5 33.5t-34.5 14.5q-13 0 -23 -5
q-27 -15 -27 -45q0 -7 5 -22q14 -28 45 -28q22 1 35.5 15.5t13.5 36.5zM206 262q-61 -32 -67 -39q-15 -15 -28 -68l-9 -39q-4 -20 -4 -28q0 -16 8.5 -23t18.5 -7q18 0 32 21t29 92z" />
    <glyph glyph-name="ae" unicode="&#xe6;" horiz-adv-x="479" 
d="M496 452q0 -18 -4 -35l-39 -169h-160l-29 -126q-5 -23 -5 -33q0 -31 38 -31q14 0 24 8q11 8 25 57l21 76h80l-20 -76q-8 -28 -13 -41q-36 -91 -130 -91q-62 0 -90 32q-1 1 -17 28q-7 -15 -16 -25q-29 -34 -73 -34q-49 0 -67 34q-8 16 -8 37q0 23 8 55l13 54q2 6 4 17
t4 16q0 1 2 7.5t3 9t3.5 9t5.5 11t7 10t9.5 10.5t12.5 10q10 7 119 54q20 9 25.5 18t10.5 33l12 53q3 13 3 23q0 16 -12 22.5t-21 6.5q-10 -1 -20 -6q-15 -9 -25 -52l-15 -66h-80l17 77q5 21 10.5 35t18.5 33t39 29t63 10q53 0 84 -29q8 8 14 11q26 18 66 18q9 0 19 -1
t26 -6.5t27.5 -14t20.5 -26.5t9 -42zM416 445q-1 32 -35 32q-12 0 -22 -5q-4 -2 -7 -4.5t-5.5 -6.5t-4 -6.5t-3 -8t-2 -8t-2 -8.5t-1.5 -8l-25 -107h80l22 102q5 25 5 28zM214 263q-6 -2 -22.5 -10t-26.5 -12q-25 -12 -33 -23q-11 -13 -21 -54l-10 -42q-4 -18 -4 -29
q1 -19 11.5 -26t21.5 -7q26 0 39 25q8 18 14 46z" />
    <glyph glyph-name="ccedilla" unicode="&#xe7;" horiz-adv-x="292" 
d="M316 457q0 -25 -12 -77l-9 -40h-78l8 34q14 60 14 72q0 31 -27 31q-5 0 -8.5 -1t-7 -4.5l-6 -6t-5 -8.5t-4 -9.5t-3.5 -11t-3 -11t-3 -13t-3 -12.5l-57 -240q-14 -59 -14 -71q0 -31 25 -31q6 0 11.5 2t10 8t7.5 11t6.5 16t5.5 16.5t6 19.5t5 19l18 64h80l-21 -77
q-21 -74 -33 -94q-27 -44 -97 -52l-24 -29q14 2 18 2q27 0 40.5 -16t13.5 -33q0 -35 -38.5 -60.5t-94.5 -25.5q-30 0 -59 8l6 27q22 -6 36 -6q26 0 44.5 11.5t17.5 27.5q0 26 -40 26h-3q-15 0 -25 -2l64 74q-60 18 -60 83q0 29 10 69l61 254q6 24 8 31.5t8.5 27.5t11.5 27.5
t14.5 21t20.5 19t27 10t36 4.5q54 0 77.5 -25t23.5 -60z" />
    <glyph glyph-name="egrave" unicode="&#xe8;" horiz-adv-x="313" 
d="M276 603h-47l-97 120h98zM336 449q0 -25 -10 -65l-33 -138h-163l-25 -105q-10 -43 -10 -53q0 -31 35 -31q26 0 40 26q2 5 6.5 18t9 28t5.5 19l13 44h81l-10 -35q-3 -10 -8.5 -31t-8.5 -31q-6 -20 -12.5 -33t-21 -32t-40.5 -29t-62 -10q-59 0 -82 26.5t-23 63.5q0 19 9 59
l61 255q2 7 5.5 20t4.5 18q11 41 27 65.5t50 35.5q24 8 52 8q47 -1 78.5 -24t31.5 -69zM254 438q0 39 -34 39q-20 0 -28 -10q-14 -14 -29 -81l-16 -71h81l18 77q8 34 8 46z" />
    <glyph glyph-name="eacute" unicode="&#xe9;" horiz-adv-x="313" 
d="M414 723l-155 -121h-45l100 121h100zM336 449q0 -25 -10 -65l-33 -138h-163l-25 -105q-10 -43 -10 -53q0 -31 35 -31q26 0 40 26q2 5 6.5 18t9 28t5.5 19l13 44h81l-10 -35q-3 -10 -8.5 -31t-8.5 -31q-6 -20 -12.5 -33t-21 -32t-40.5 -29t-62 -10q-59 0 -82 26.5
t-23 63.5q0 19 9 59l61 255q2 7 5.5 20t4.5 18q11 41 27 65.5t50 35.5q24 8 52 8q47 -1 78.5 -24t31.5 -69zM254 438q0 39 -34 39q-20 0 -28 -10q-14 -14 -29 -81l-16 -71h81l18 77q8 34 8 46z" />
    <glyph glyph-name="ecircumflex" unicode="&#xea;" horiz-adv-x="313" 
d="M370 603h-56l-44 71l-82 -71h-54l120 120h54zM336 449q0 -25 -10 -65l-33 -138h-163l-25 -105q-10 -43 -10 -53q0 -31 35 -31q26 0 40 26q2 5 6.5 18t9 28t5.5 19l13 44h81l-10 -35q-3 -10 -8.5 -31t-8.5 -31q-6 -20 -12.5 -33t-21 -32t-40.5 -29t-62 -10q-59 0 -82 26.5
t-23 63.5q0 19 9 59l61 255q2 7 5.5 20t4.5 18q11 41 27 65.5t50 35.5q24 8 52 8q47 -1 78.5 -24t31.5 -69zM254 438q0 39 -34 39q-20 0 -28 -10q-14 -14 -29 -81l-16 -71h81l18 77q8 34 8 46z" />
    <glyph glyph-name="edieresis" unicode="&#xeb;" horiz-adv-x="313" 
d="M382 723l-23 -100h-74l23 100h74zM250 723l-23 -100h-71l23 100h71zM336 449q0 -25 -10 -65l-33 -138h-163l-25 -105q-10 -43 -10 -53q0 -31 35 -31q26 0 40 26q2 5 6.5 18t9 28t5.5 19l13 44h81l-10 -35q-3 -10 -8.5 -31t-8.5 -31q-6 -20 -12.5 -33t-21 -32t-40.5 -29
t-62 -10q-59 0 -82 26.5t-23 63.5q0 19 9 59l61 255q2 7 5.5 20t4.5 18q11 41 27 65.5t50 35.5q24 8 52 8q47 -1 78.5 -24t31.5 -69zM254 438q0 39 -34 39q-20 0 -28 -10q-14 -14 -29 -81l-16 -71h81l18 77q8 34 8 46z" />
    <glyph glyph-name="igrave" unicode="&#xec;" horiz-adv-x="167" 
d="M203 603h-47l-97 120h99zM203 533l-124 -533h-80l123 533h81z" />
    <glyph glyph-name="iacute" unicode="&#xed;" horiz-adv-x="167" 
d="M341 723l-155 -121h-45l100 121h100zM203 533l-124 -533h-80l123 533h81z" />
    <glyph glyph-name="icircumflex" unicode="&#xee;" horiz-adv-x="167" 
d="M291 603h-55l-45 71l-81 -71h-54l120 120h54zM203 533l-124 -533h-80l123 533h81z" />
    <glyph glyph-name="idieresis" unicode="&#xef;" horiz-adv-x="167" 
d="M304 723l-23 -100h-74l23 100h74zM172 723l-23 -100h-71l23 100h71zM203 533l-124 -533h-80l123 533h81z" />
    <glyph glyph-name="eth" unicode="&#xf0;" 
d="M388 633l-48 -14l3 -8q13 -34 13 -81q0 -56 -19 -140l-60 -259q-8 -35 -12.5 -50.5t-14.5 -37t-23 -30t-35 -15.5t-54 -7q-9 0 -16.5 0.5t-27.5 5t-34 13t-25.5 27.5t-12.5 45q0 21 9 61l59 259q12 54 22 77.5t33 41.5q28 22 75 22q24 0 42 -10.5t20 -24.5q0 1 1 7
t1.5 14.5t0.5 14.5q0 32 -13 55l-99 -28l-18 49l88 26q-14 23 -43 50l64 24q30 -26 48 -54l58 17zM265 441q-1 19 -12.5 28.5t-29.5 9.5q-25 0 -34.5 -16.5t-19.5 -58.5q0 -4 -1 -6l-54 -243q-11 -55 -11 -63q1 -19 12.5 -28.5t29.5 -9.5t28.5 11t15 24t11.5 46l54 243
q11 53 11 63z" />
    <glyph glyph-name="ntilde" unicode="&#xf1;" 
d="M407 713q-28 -51 -46 -68q-11 -11 -19 -15q-12 -7 -27 -7q-25 0 -56 18q-36 18 -47 18q-30 0 -48 -43l-24 1q3 6 9 17.5t9 17.5q2 3 5.5 10t5.5 10q27 41 69 41q24 0 61 -17q34 -14 43 -14q10 0 20 7.5t15 15t5 8.5h25zM351 469q0 -14 -11 -64l-94 -405h-80l94 408
q4 17 4 26q0 13 -9 24.5t-31 11.5t-32 -12.5t-16 -38.5l-97 -419h-80l122 533h80l-7 -36q34 46 81 45q34 0 55 -19.5t21 -53.5z" />
    <glyph glyph-name="ograve" unicode="&#xf2;" 
d="M287 603h-48l-97 120h99zM346 449q0 -16 -9 -59l-60 -260q-15 -58 -22 -78q-10 -27 -33 -41q-30 -20 -84 -20q-62 0 -89 27t-27 66q0 14 9 59l59 260q16 68 27 87q19 37 67 47q20 5 46 5q62 -1 88.5 -27.5t27.5 -65.5zM265 439q0 40 -43 40q-26 0 -39 -25q-6 -12 -15 -56
l-54 -243q-11 -51 -11 -61q0 -40 43 -40q25 0 37 21q7 12 17 60l54 243q11 51 11 61z" />
    <glyph glyph-name="oacute" unicode="&#xf3;" 
d="M424 723l-155 -121h-45l100 121h100zM346 449q0 -16 -9 -59l-60 -260q-15 -58 -22 -78q-10 -27 -33 -41q-30 -20 -84 -20q-62 0 -89 27t-27 66q0 14 9 59l59 260q16 68 27 87q19 37 67 47q20 5 46 5q62 -1 88.5 -27.5t27.5 -65.5zM265 439q0 40 -43 40q-26 0 -39 -25
q-6 -12 -15 -56l-54 -243q-11 -51 -11 -61q0 -40 43 -40q25 0 37 21q7 12 17 60l54 243q11 51 11 61z" />
    <glyph glyph-name="ocircumflex" unicode="&#xf4;" 
d="M375 603h-56l-44 71l-82 -71h-53l119 120h54zM346 449q0 -16 -9 -59l-60 -260q-15 -58 -22 -78q-10 -27 -33 -41q-30 -20 -84 -20q-62 0 -89 27t-27 66q0 14 9 59l59 260q16 68 27 87q19 37 67 47q20 5 46 5q62 -1 88.5 -27.5t27.5 -65.5zM265 439q0 40 -43 40
q-26 0 -39 -25q-6 -12 -15 -56l-54 -243q-11 -51 -11 -61q0 -40 43 -40q25 0 37 21q7 12 17 60l54 243q11 51 11 61z" />
    <glyph glyph-name="otilde" unicode="&#xf5;" 
d="M407 713q-28 -51 -46 -68q-11 -11 -19 -15q-12 -7 -27 -7q-25 0 -56 18q-36 18 -47 18q-30 0 -48 -43l-24 1q3 6 9 17.5t9 17.5q2 3 5.5 10t5.5 10q27 41 69 41q24 0 61 -17q34 -14 43 -14q10 0 20 7.5t15 15t5 8.5h25zM346 449q0 -16 -9 -59l-60 -260q-15 -58 -22 -78
q-10 -27 -33 -41q-30 -20 -84 -20q-62 0 -89 27t-27 66q0 14 9 59l59 260q16 68 27 87q19 37 67 47q20 5 46 5q62 -1 88.5 -27.5t27.5 -65.5zM265 439q0 40 -43 40q-26 0 -39 -25q-6 -12 -15 -56l-54 -243q-11 -51 -11 -61q0 -40 43 -40q25 0 37 21q7 12 17 60l54 243
q11 51 11 61z" />
    <glyph glyph-name="odieresis" unicode="&#xf6;" 
d="M383 723l-23 -100h-74l23 100h74zM251 723l-23 -100h-71l23 100h71zM346 449q0 -16 -9 -59l-60 -260q-15 -58 -22 -78q-10 -27 -33 -41q-30 -20 -84 -20q-62 0 -89 27t-27 66q0 14 9 59l59 260q16 68 27 87q19 37 67 47q20 5 46 5q62 -1 88.5 -27.5t27.5 -65.5zM265 439
q0 40 -43 40q-26 0 -39 -25q-6 -12 -15 -56l-54 -243q-11 -51 -11 -61q0 -40 43 -40q25 0 37 21q7 12 17 60l54 243q11 51 11 61z" />
    <glyph glyph-name="divide" unicode="&#xf7;" horiz-adv-x="559" 
d="M395 504l-25 -110h-92l25 110h92zM510 335l-17 -75h-402l18 75h401zM326 201l-25 -111h-92l25 111h92z" />
    <glyph glyph-name="oslash" unicode="&#xf8;" 
d="M384 527l-42 -58q4 -22 4 -30q-1 -29 -8 -49l-64 -260l-2 -7q-2 -7 -4.5 -16.5t-6 -21t-8.5 -23t-10 -20.5q-21 -35 -64 -46q-24 -5 -43 -5q-46 0 -78 23q-11 8 -23 23l-35 -48l-23 16l47 65q-4 32 5 73l63 260q3 13 11 39q21 64 52 82q29 18 77 18q47 0 76 -22
q7 -5 20 -21l33 46zM268 440q-1 39 -43 39q-26 0 -38 -25q-2 -5 -17 -56l-48 -186l140 194q6 24 6 34zM247 334l-140 -195q-8 -32 -8 -47q0 -14 9.5 -26t33.5 -12q25 0 37 21q7 15 18 60z" />
    <glyph glyph-name="ugrave" unicode="&#xf9;" 
d="M287 603h-48l-97 120h99zM369 533l-122 -533h-80l7 36q-33 -45 -81 -45q-34 0 -55 19.5t-21 53.5q0 11 2.5 27t5.5 27l3 10l94 405h80l-95 -408q-3 -13 -3 -26t8.5 -24.5t30.5 -11.5q12 0 19 3q22 9 30 48l97 419h80z" />
    <glyph glyph-name="uacute" unicode="&#xfa;" 
d="M424 723l-155 -121h-45l100 121h100zM369 533l-122 -533h-80l7 36q-33 -45 -81 -45q-34 0 -55 19.5t-21 53.5q0 11 2.5 27t5.5 27l3 10l94 405h80l-95 -408q-3 -13 -3 -26t8.5 -24.5t30.5 -11.5q12 0 19 3q22 9 30 48l97 419h80z" />
    <glyph glyph-name="ucircumflex" unicode="&#xfb;" 
d="M375 603h-56l-44 71l-82 -71h-53l119 120h54zM369 533l-122 -533h-80l7 36q-33 -45 -81 -45q-34 0 -55 19.5t-21 53.5q0 11 2.5 27t5.5 27l3 10l94 405h80l-95 -408q-3 -13 -3 -26t8.5 -24.5t30.5 -11.5q12 0 19 3q22 9 30 48l97 419h80z" />
    <glyph glyph-name="udieresis" unicode="&#xfc;" 
d="M385 723l-23 -100h-74l23 100h74zM253 723l-23 -100h-71l23 100h71zM369 533l-122 -533h-80l7 36q-33 -45 -81 -45q-34 0 -55 19.5t-21 53.5q0 11 2.5 27t5.5 27l3 10l94 405h80l-95 -408q-3 -13 -3 -26t8.5 -24.5t30.5 -11.5q12 0 19 3q22 9 30 48l97 419h80z" />
    <glyph glyph-name="yacute" unicode="&#xfd;" horiz-adv-x="271" 
d="M393 723l-155 -121h-45l100 121h100zM353 533l-226 -560q-12 -32 -20 -47q-9 -18 -17.5 -30t-32.5 -25.5t-57 -13.5q-24 0 -54 7l17 74q14 -7 34 -7q18 0 30 12q6 7 9 18q7 40 9 75l35 497h84l-47 -418l148 418h88z" />
    <glyph glyph-name="thorn" unicode="&#xfe;" horiz-adv-x="313" 
d="M328 472q0 -11 -2 -25t-4 -24t-4 -19.5t-2 -10.5l-57 -249q-18 -82 -37 -112q-28 -41 -72 -41q-53 0 -64 50l-43 -186h-80l195 851h82l-49 -209q17 39 69 45q32 1 50 -18.5t18 -51.5zM246 438q0 15 -10 25t-24 10q-7 0 -13 -2t-10.5 -7t-7 -8.5t-5.5 -13t-4.5 -14.5
t-4.5 -18t-4 -19l-56 -245q-9 -36 -9 -51q0 -13 7.5 -20.5t14 -9t12.5 -1.5q21 0 30.5 18.5t18.5 59.5l54 237q11 50 11 59z" />
    <glyph glyph-name="ydieresis" unicode="&#xff;" horiz-adv-x="271" 
d="M356 723l-23 -100h-74l23 100h74zM224 723l-23 -100h-71l23 100h71zM353 533l-226 -560q-12 -32 -20 -47q-9 -18 -17.5 -30t-32.5 -25.5t-57 -13.5q-24 0 -54 7l17 74q14 -7 34 -7q18 0 30 12q6 7 9 18q7 40 9 75l35 497h84l-47 -418l148 418h88z" />
    <glyph glyph-name="OE" unicode="&#x152;" horiz-adv-x="521" 
d="M580 706l-20 -83h-132l-49 -216h120l-20 -84h-120l-55 -237h153l-21 -86h-214q-30 -10 -65 -10q-20 0 -35 4q-88 23 -88 109q0 47 21 135l61 266q7 31 11 41q17 79 43 115q39 55 114 55q33 0 60 -9h236zM325 595q0 25 -13 35.5t-29 10.5q-32 0 -45 -34q-11 -28 -25 -93
l-76 -330q-12 -44 -12 -69q0 -43 42 -46q23 0 38 19q13 17 33 102l73 328q14 70 14 77z" />
    <glyph glyph-name="oe" unicode="&#x153;" horiz-adv-x="500" 
d="M517 451l-9 -62l-32 -138h-170l-24 -104q-11 -48 -11 -54q0 -15 9.5 -24t17 -10.5t14.5 -1.5q22 0 36 15q10 11 30 84l12 41h79l-12 -48q-9 -36 -19 -62q-11 -29 -22.5 -46.5t-43.5 -33.5t-80 -16q-41 0 -63 15q-9 6 -16 17q-36 -33 -85 -33q-47 0 -76.5 24t-29.5 71
q0 25 8 58l60 261l2 8q2 8 4.5 18.5t6.5 23t10 25t12 20.5q33 43 105 43q49 0 79 -17q5 -2 18 -13q2 5 14 13q25 16 68 16q47 0 77.5 -22.5t30.5 -67.5zM438 442q0 13 -9.5 24.5t-31.5 10.5q-29 0 -42 -24q-4 -8 -18 -64l-16 -71h92l16 70q9 39 9 54zM266 436q0 24 -14.5 33
t-28.5 8q-13 0 -23 -5q-17 -10 -30 -67l-61 -263q-8 -35 -8 -48q0 -15 10.5 -24t18.5 -10.5t15 -1.5q27 0 38 22q7 11 17 58l57 249q9 37 9 49z" />
    <glyph glyph-name="Scaron" unicode="&#x160;" 
d="M443 895l-119 -120h-55l-61 120h55l45 -72l81 72h54zM388 621q0 -17 -8 -53l-23 -98h-82l22 95q7 29 7 40q0 35 -36 38q-8 0 -20 -6q-7 -4 -12 -11t-7 -10.5t-5.5 -16.5t-3.5 -14q-16 -55 -16 -87q0 -13 3 -25q4 -13 31 -64q5 -8 14.5 -25t12.5 -23t10 -19t9 -18t6.5 -15
t5.5 -15.5t3 -14.5t2.5 -16.5t0.5 -16.5q0 -37 -17 -111q-18 -73 -49 -105q-37 -39 -104 -39q-58 0 -88 27t-30 77q0 23 10 67l22 94h83l-24 -106q-7 -28 -7 -43q0 -24 13 -33.5t28 -9.5q32 0 45 40q8 23 16.5 67.5t8.5 66.5q0 20 -7.5 37t-29.5 55q-3 5 -13.5 22t-14.5 24
t-12 22.5t-11 25.5t-6 24.5t-3 27.5q0 40 18 115q32 124 145 124q62 0 87.5 -27.5t25.5 -66.5z" />
    <glyph glyph-name="scaron" unicode="&#x161;" horiz-adv-x="292" 
d="M383 724l-119 -120h-54l-62 120h56l45 -72l81 72h53zM318 449q0 -38 -8 -54l-6 -24h-74l5 24q6 30 6 39q0 13 -3 20q-8 17 -31 17q-27 0 -37 -29q-15 -39 -15 -66q0 -14 8 -27q8 -15 47 -51l7.5 -7.5t8.5 -8t7 -7.5q29 -32 29 -79q0 -34 -16 -95q-18 -62 -43 -83
q-30 -27 -85 -27q-14 0 -29 3t-35.5 12t-33.5 31t-13 55q0 28 19 104h75l-11 -49q-7 -35 -7 -46q0 -22 12.5 -31t25.5 -9q19 0 32 13q12 13 20.5 45t8.5 54q0 21 -8 35q-4 7 -15 19.5t-26.5 28.5t-17.5 18q-38 41 -38 82q0 29 14 82q14 54 38 78q28 26 77 26q78 0 102 -49
q10 -23 10 -44z" />
    <glyph glyph-name="Ydieresis" unicode="&#x178;" 
d="M426 893l-23 -99h-74l23 99h74zM294 893l-23 -99h-71l23 99h71zM452 706l-218 -410l-71 -296h-96l65 296l-14 410h92l-3 -301l144 301h101z" />
    <glyph glyph-name="florin" unicode="&#x192;" horiz-adv-x="208" 
d="M309 702l-17 -74q-10 5 -25 5q-17 0 -22.5 -8.5t-11.5 -34.5l-13 -57h50l-15 -65h-50l-118 -515q-19 -82 -88 -82q-4 0 -60 8l17 74q18 -6 25 -6q15 0 21.5 10t12.5 34l109 477h-41l15 65h41l22 95q3 13 6.5 22.5t13 25.5t27 25t41.5 9q12 0 24.5 -1.5t23 -4t12.5 -2.5z
" />
    <glyph glyph-name="circumflex" unicode="&#x2c6;" horiz-adv-x="208" 
d="M222 603h-55l-45 71l-81 -71h-55l120 120h54z" />
    <glyph glyph-name="tilde" unicode="&#x2dc;" horiz-adv-x="208" 
d="M237 713q-29 -52 -45 -68q-7 -7 -19 -15q-14 -7 -28 -7q-24 0 -56 18q-36 18 -46 18q-29 0 -49 -43l-23 1q6 14 18 35q1 3 11 20q24 41 68 41q24 0 62 -17q31 -14 43 -14q5 0 10.5 2t9.5 5.5t8 7.5t6 7.5t4 5.5l2 3h24z" />
    <glyph glyph-name="endash" unicode="&#x2013;" horiz-adv-x="348" 
d="M353 333l-19 -84h-296l19 84h296z" />
    <glyph glyph-name="emdash" unicode="&#x2014;" horiz-adv-x="495" 
d="M499 333l-19 -84h-443l19 84h443z" />
    <glyph glyph-name="quoteleft" unicode="&#x2018;" horiz-adv-x="146" 
d="M234 712l-6 -44q-51 -24 -60 -90h38l-30 -131h-88l25 108q1 5 3 14.5t3 14.5q25 111 115 128z" />
    <glyph glyph-name="quoteright" unicode="&#x2019;" horiz-adv-x="146" 
d="M233 706l-25 -107q-2 -6 -4 -17t-3 -17q-25 -106 -114 -123l7 44q50 22 59 89h-38l31 131h87z" />
    <glyph glyph-name="quotesinglbase" unicode="&#x201a;" horiz-adv-x="146" 
d="M102 131l-25 -107q-8 -33 -15 -53.5t-20.5 -45t-34.5 -39t-51 -20.5l6 45q25 9 41 34.5t19 54.5h-38l30 131h88z" />
    <glyph glyph-name="quotedblleft" unicode="&#x201c;" horiz-adv-x="292" 
d="M379 712l-7 -44q-24 -10 -41.5 -36.5t-17.5 -52.5h38l-30 -132h-88l25 108q17 72 34 98q9 14 21 25q30 27 66 34zM233 712l-6 -44q-25 -11 -42.5 -37t-17.5 -53h38l-30 -131h-88l25 108q1 5 3 14.5t3 14.5q25 111 115 128z" />
    <glyph glyph-name="quotedblright" unicode="&#x201d;" horiz-adv-x="292" 
d="M380 706l-25 -107q-8 -34 -15 -54.5t-20 -44.5t-34.5 -38t-51.5 -20l6 44q24 6 42 34.5t18 54.5h-38l30 131h88zM234 706l-25 -107q-1 -6 -3 -17t-4 -17q-25 -106 -114 -123l6 44q51 19 60 89h-38l31 131h87z" />
    <glyph glyph-name="quotedblbase" unicode="&#x201e;" horiz-adv-x="292" 
d="M248 131l-25 -107q-1 -3 -5 -21t-5.5 -22t-5.5 -18t-8 -20.5t-10.5 -16.5t-14.5 -19q-29 -32 -72 -41l6 45q47 19 60 89h-38l30 131h88zM102 131l-25 -107q-1 -5 -3.5 -19t-4.5 -21q-28 -100 -113 -118l6 45q25 9 41 34.5t19 54.5h-38l30 131h88z" />
    <glyph glyph-name="dagger" unicode="&#x2020;" 
d="M392 521l-18 -83h-108l-102 -438h-83l101 438h-109l19 83h109l43 185h83l-43 -185h108z" />
    <glyph glyph-name="daggerdbl" unicode="&#x2021;" horiz-adv-x="354" 
d="M409 561l-18 -79h-110l-56 -240h110l-18 -81h-110l-38 -161h-81l37 161h-108l18 81h109l55 240h-108l18 79h109l33 145h82l-34 -145h110z" />
    <glyph glyph-name="bullet" unicode="&#x2022;" 
d="M339 488l-61 -264h-212l61 264h212z" />
    <glyph glyph-name="ellipsis" unicode="&#x2026;" horiz-adv-x="1000" 
d="M860 111l-26 -111h-98l26 111h98zM527 111l-26 -111h-98l26 111h98zM193 111l-25 -111h-98l25 111h98z" />
    <glyph glyph-name="perthousand" unicode="&#x2030;" horiz-adv-x="812" 
d="M825 376q0 -19 -8 -54l-40 -180q-7 -32 -12 -52q-13 -51 -31 -69q-26 -28 -74 -27q-44 1 -62 22t-18 50q0 14 11 69l45 201q8 34 12.5 48t16 32.5t30.5 24.5t50 6q9 0 18.5 -1.5t25.5 -7.5t26 -22t10 -40zM596 376q0 -30 -8 -54l-40 -180q-1 -6 -5 -24.5t-5.5 -26.5
t-6.5 -24t-10 -24t-13.5 -19.5t-19 -16.5t-25 -9t-32.5 -4q-44 1 -62 22t-18 50q0 11 2.5 28t5.5 29l3 12l45 201q7 32 12.5 47.5t17 33t30.5 24t49 6.5q43 0 61.5 -21t18.5 -50zM582 706l-457 -706h-58l458 706h57zM303 641q0 -14 -8 -54l-40 -180q-6 -30 -12 -54
q-14 -50 -32 -68q-26 -27 -74 -26q-9 0 -19 2t-25.5 8t-25 22t-9.5 40q0 36 11 69l45 201q8 34 12.5 48.5t16 32.5t30.5 24t50 6q43 0 61.5 -21t18.5 -50zM769 373q-2 28 -32 28q-14 0 -22.5 -9.5t-11.5 -20t-9 -36.5l-47 -212q-9 -42 -9 -48q0 -30 30 -30q5 0 9 1t7 2t6 4
t5 5.5t4 7t3 7.5t3 10t2.5 10t2.5 11.5t3 12.5l49 220q7 31 7 37zM540 373q-2 28 -32 28q-20 0 -28 -14.5t-16 -51.5l-47 -212q-9 -43 -9 -48q-1 -14 7.5 -22t23.5 -8q14 0 22.5 8.5t12 19.5t8.5 34q0 2 0.5 3t1 3t0.5 3l49 220q7 33 7 37zM247 636q0 14 -9.5 22t-22.5 8
q-5 0 -9.5 -1t-8 -3t-6.5 -4t-5 -6.5t-3.5 -7t-3.5 -9.5t-2.5 -10.5t-2.5 -12t-3 -12.5l-47 -212q-9 -39 -9 -48q0 -30 30 -30q8 0 13.5 1.5t9.5 5.5l7 7t5.5 11t3.5 13t3.5 16t3.5 17l49 220q7 25 7 35z" />
    <glyph glyph-name="guilsinglleft" unicode="&#x2039;" horiz-adv-x="208" 
d="M237 491l-26 -113l-89 -65l59 -66l-22 -95l-106 120l24 100z" />
    <glyph glyph-name="guilsinglright" unicode="&#x203a;" horiz-adv-x="208" 
d="M213 371l-23 -100l-160 -119l26 113l89 65l-59 66l22 95z" />
    <glyph glyph-name="Euro" unicode="&#x20ac;" horiz-adv-x="409" 
d="M481 646l-40 -77q-38 68 -94 68q-15 0 -27 -4t-20.5 -13.5t-14.5 -17t-11 -23t-7.5 -23.5t-6.5 -26.5t-5 -23.5l-15 -60h147l-31 -59h-131l-12 -51h121l-30 -57h-104q-30 -128 -30 -148q0 -66 71 -66q59 0 112 50l-22 -99q-54 -25 -123 -25q-60 0 -97 27.5t-37 85.5
q0 52 32 175h-66l30 57h50l12 51h-62l30 59h46l14 58q25 102 43 136q41 74 135 74q50 0 81.5 -15t61.5 -53z" />
    <glyph glyph-name="trademark" unicode="&#x2122;" horiz-adv-x="567" 
d="M645 706l-77 -332h-62l66 268l-122 -268h-68l3 271l-59 -271h-60l76 332h96l-4 -251l113 251h98zM316 706l-14 -57h-67l-63 -275h-65l64 275h-65l13 57h197z" />
    </font>
</defs>
</svg>
