<?xml version="1.0" standalone="no"?>
<!DOCTYPE svg PUBLIC "-//W3C//DTD SVG 1.1//EN" "http://www.w3.org/Graphics/SVG/1.1/DTD/svg11.dtd" >
<svg xmlns="http://www.w3.org/2000/svg" xmlns:xlink="http://www.w3.org/1999/xlink" version="1.1">
<metadata>
Created by FontForge 20170731 at Thu May 17 20:00:01 2007
 By Aleksey,,,
Copyright  1997, 2001, Berthold LLC. All rights reserved. Akzidenz-Grotesk is a trademark of Berthold Types Limited.
</metadata>
<defs>
<font id="AkzidenzGroteskBQ-MdCndAlt" horiz-adv-x="313" >
  <font-face 
    font-family="Akzidenz-Grotesk BQ Condensed A"
    font-weight="500"
    font-stretch="condensed"
    units-per-em="1000"
    panose-1="0 0 0 0 0 0 0 0 0 0"
    ascent="800"
    descent="-200"
    x-height="536"
    cap-height="706"
    bbox="-56 -210 882 911"
    underline-thickness="66"
    underline-position="-374"
    unicode-range="U+0020-2122"
  />
<missing-glyph horiz-adv-x="500" 
 />
    <glyph glyph-name=".notdef" horiz-adv-x="500" 
 />
    <glyph glyph-name=".null" horiz-adv-x="0" 
 />
    <glyph glyph-name="nonmarkingreturn" horiz-adv-x="333" 
 />
    <glyph glyph-name="space" unicode=" " horiz-adv-x="187" 
 />
    <glyph glyph-name="exclam" unicode="!" horiz-adv-x="187" 
d="M150 427l-18 -206h-43l-19 231v247h80v-272zM151 0h-81v129h81v-129z" />
    <glyph glyph-name="quotedbl" unicode="&#x22;" horiz-adv-x="255" 
d="M226 741l-23 -289h-29l-26 289h78zM106 741l-23 -289h-29l-25 289h77z" />
    <glyph glyph-name="numbersign" unicode="#" horiz-adv-x="537" 
d="M516 411h-114l-9 -101h111v-82h-120l-21 -228h-84l21 228h-77l-22 -228h-85l21 228h-117v82h125l9 101h-121v80h128l21 215h86l-22 -215h78l21 215h84l-21 -215h108v-80zM317 411h-78l-9 -101h78z" />
    <glyph glyph-name="dollar" unicode="$" horiz-adv-x="333" 
d="M310 151q0 -118 -90 -149q-12 -5 -33 -7v-70h-46v70q-49 12 -73 39q-18 19 -26.5 54t-9.5 63t-2 101h83q2 -132 12 -156q13 -29 44 -29q17 0 28 8q28 19 28 75q0 70 -48 131l-46 59q-48 62 -73 113.5t-25 114.5q0 57 25.5 91.5t55.5 46.5q7 3 26 7v58h46v-57
q51 -8 76 -37q36 -40 36 -136q0 -17 -2 -51l-78 1q0 49 -1 74q-2 36 -10 51q-13 25 -39 25q-22 0 -36.5 -18.5t-14.5 -56.5q0 -25 9 -52q14 -38 59 -99l43 -57q43 -57 62.5 -101.5t19.5 -105.5z" />
    <glyph glyph-name="percent" unicode="%" horiz-adv-x="583" 
d="M564 112q0 -53 -9 -72q-20 -45 -85 -45q-34 0 -57 15q-22 15 -28 35.5t-6 53.5v254q0 34 8 51q20 45 83 45q68 0 87 -51q7 -21 7 -52v-234zM472 711l-309 -737l-49 21l309 736zM207 376q0 -53 -9 -72q-20 -46 -85 -46q-34 0 -57 15q-22 15 -28 35.5t-6 53.5v254
q0 34 8 52q19 44 83 44q94 0 94 -102v-234zM507 82v283q0 37 -37 37q-6 0 -11 -1t-8.5 -3.5t-6 -5t-4 -6t-2.5 -6t-1.5 -6.5t-0.5 -6v-6v-4v-267v-5v-6.5t0.5 -7.5t2 -8t4 -7.5t6.5 -7t10 -4t13 -1.5q35 0 35 38zM149 345v287q0 33 -36 33q-6 0 -11 -1t-8.5 -3.5t-6 -5
t-4 -6t-2.5 -6t-1.5 -6.5t-0.5 -6v-6v-4v-267v-4v-7.5t0.5 -7.5t2 -8t4 -7t6.5 -6.5t10 -4t13 -1.5q34 0 34 37z" />
    <glyph glyph-name="ampersand" unicode="&#x26;" horiz-adv-x="437" 
d="M437 -7q-50 9 -83 25q-27 14 -45 30q-51 -57 -119 -57q-36 0 -67 15q-38 18 -66.5 61t-27.5 115q0 35 7 65q14 53 69 124q-12 24 -14 29q-28 67 -28 132q0 66 31 110q39 54 106 54q30 0 54 -12q60 -31 60 -110q0 -89 -107 -211q18 -42 39 -81q16 -28 48 -82q19 56 22 154
h80q-2 -152 -44 -229q43 -38 85 -41v-91zM233 577q0 49 -38 49q-22 0 -36 -20t-14 -58q0 -52 23 -105q22 29 31 42t21.5 40.5t12.5 51.5zM248 111q-45 72 -56 91q-7 12 -14.5 26.5t-16.5 32.5l-14 28q-36 -52 -35 -101q0 -41 17 -73q25 -40 61 -40q34 0 58 36z" />
    <glyph glyph-name="quotesingle" unicode="'" horiz-adv-x="135" 
d="M106 741l-23 -289h-29l-25 289h77z" />
    <glyph glyph-name="parenleft" unicode="(" horiz-adv-x="250" 
d="M234 669q-31 -28 -47 -57q-67 -115 -67 -372q0 -268 113 -391v-59q-104 75 -153 206t-49 278q0 118 38.5 230.5t116.5 185.5q18 17 48 38v-59z" />
    <glyph glyph-name="parenright" unicode=")" horiz-adv-x="250" 
d="M219 242q0 -118 -38.5 -229t-116.5 -185q-28 -26 -48 -38v58q28 24 47 57q67 115 67 374q0 246 -92 366q-1 1 -20 23v60q60 -48 94 -95q54 -75 80.5 -180t26.5 -211z" />
    <glyph glyph-name="asterisk" unicode="*" horiz-adv-x="320" 
d="M304 585l-96 -35l59 -79l-48 -38l-61 81l-55 -81l-50 37l55 80l-93 28l17 58l95 -26v99h61v-101l96 33z" />
    <glyph glyph-name="plus" unicode="+" horiz-adv-x="558" 
d="M475 260h-152v-168h-86v168h-154v76h154v168h86v-168h152v-76z" />
    <glyph glyph-name="comma" unicode="," horiz-adv-x="146" 
d="M111 22q0 -67 -12.5 -97t-63.5 -60v22q7 5 12 10t8.5 11t6.5 10.5t4.5 13t2.5 12t1.5 14t0.5 13.5v14.5v14.5h-40v129h80v-107z" />
    <glyph glyph-name="hyphen" unicode="-" horiz-adv-x="229" 
d="M203 249h-177v84h177v-84z" />
    <glyph glyph-name="period" unicode="." horiz-adv-x="146" 
d="M112 0h-82v132h82v-132z" />
    <glyph glyph-name="slash" unicode="/" horiz-adv-x="250" 
d="M239 706l-152 -706h-78l153 706h77z" />
    <glyph glyph-name="zero" unicode="0" horiz-adv-x="354" 
d="M322 152q0 -52 -8.5 -78.5t-30.5 -46.5q-39 -34 -108 -34q-111 0 -136 84q-7 22 -7 85v408q0 36 7 61q28 84 140 84q109 0 135 -83q8 -29 8 -67v-413zM236 130v442q0 37 -11.5 56t-47.5 19q-60 0 -60 -63v-449v-3q-1 -66 60 -66q21 0 34 7q25 14 25 57z" />
    <glyph glyph-name="one" unicode="1" horiz-adv-x="354" 
d="M234 0h-89v533h-78l1 69q49 6 75 36q16 20 21 33q6 13 9 32h61v-703z" />
    <glyph glyph-name="two" unicode="2" horiz-adv-x="354" 
d="M321 0h-282q0 85 16 140q20 71 95 177q9 13 24.5 34t20.5 28t11.5 19.5t11.5 24.5q11 29 11 80v70v3q0 11 -1 19t-5 20.5t-16 20t-31 7.5t-31 -7q-23 -12 -23 -51v-113h-86v107q0 34 4 51q21 82 135 82q74 0 107 -31q29 -26 33 -77q2 -24 2 -72q0 -88 -14 -127
q-14 -38 -77 -128l-9 -13q-9 -12 -15 -21.5t-17 -27t-19.5 -33.5t-16.5 -36t-13 -39q-4 -18 -5 -28h190v-79z" />
    <glyph glyph-name="three" unicode="3" horiz-adv-x="354" 
d="M312 149q0 -57 -8 -81q-24 -74 -133 -74q-74 0 -109 35q-16 16 -24 38q-5 17 -5 48v99h85v-90q0 -22 4 -32q9 -27 50 -27q34 0 47 23q7 12 7 39v135q0 33 -7 47q-16 37 -86 37q-5 0 -16 -0.5t-17 -0.5v83q74 -3 98 24q15 19 15 46v103q0 47 -47 47q-17 0 -28 -5
t-14.5 -15t-4.5 -15.5t-1 -16.5v-63h-85v63q0 33 5 47q23 72 131 72q103 0 124 -67q4 -13 4 -47v-107q0 -56 -23 -75q-13 -12 -46 -20q2 -1 7 -1.5t11 -2t12 -4.5q19 -7 30.5 -20t16.5 -31.5t6 -32t1 -36.5v-122z" />
    <glyph glyph-name="four" unicode="4" horiz-adv-x="354" 
d="M337 163h-50v-163h-84v163h-195v72l149 467h130v-464h50v-75zM202 238v370l-114 -370h114z" />
    <glyph glyph-name="five" unicode="5" horiz-adv-x="354" 
d="M319 123q0 -35 -7 -56q-24 -76 -131 -76q-28 0 -49 4q-62 16 -81 59q-9 20 -9 59v104h84v-98q0 -34 19 -47q13 -10 32 -10q22 0 36 10q4 2 6.5 5t4.5 7t3.5 6.5t2.5 8t1.5 7.5t1 8.5t0.5 8v8.5v7v227q0 59 -54 59q-39 0 -51 -25q-7 -14 -7 -37v-15h-74v355h252v-81h-174
v-152q34 29 83 29q84 0 104 -63q7 -20 7 -51v-261z" />
    <glyph glyph-name="six" unicode="6" horiz-adv-x="354" 
d="M322 130q0 -40 -9 -64q-12 -30 -44.5 -51.5t-88.5 -21.5q-108 0 -133 84q-6 22 -6 66v419q0 75 24 107q36 45 120 45q106 0 129 -82q5 -19 5 -60v-71h-82v77q0 64 -56 64q-21 0 -34 -9q-21 -14 -21 -66v-177q14 17 27 26q25 16 60 16q41 0 68 -20q27 -19 34 -47.5
t7 -71.5v-163zM238 125v165q0 14 -2 28q-7 39 -54 39q-41 0 -53 -34q-4 -13 -4 -34v-158q0 -45 22 -60q13 -9 35 -9q19 0 35 9q21 13 21 54z" />
    <glyph glyph-name="seven" unicode="7" horiz-adv-x="354" 
d="M307 623q-25 -56 -38 -93q-64 -179 -82 -418q-4 -74 -5 -112h-102q12 203 49 348q33 127 99 271h-186v80h265v-76z" />
    <glyph glyph-name="eight" unicode="8" horiz-adv-x="354" 
d="M319 128q0 -37 -9 -61q-30 -76 -136 -76q-111 0 -135 86q-7 25 -7 61v85q0 50 4.5 74.5t20.5 42.5q18 20 55 29q-24 9 -38 19q-32 23 -32 78v104q0 72 36 105q19 19 51 27q18 6 49 6q62 0 97 -28q19 -15 28.5 -37.5t11 -39.5t1.5 -47v-55q0 -58 -13.5 -87.5t-61.5 -44.5
q29 -7 44 -18q16 -11 24 -29t9 -31.5t1 -37.5v-125zM230 466v117q0 11 -0.5 16.5t-4.5 17t-15 17.5t-29 6q-54 -1 -54 -63v-115q0 -15 2 -24q9 -32 49 -32q18 0 30 7q22 13 22 53zM233 153v113q0 21 -3 30q-9 34 -54 34q-40 0 -52 -28q-7 -16 -7 -65v-106q0 -16 4 -32
q12 -37 54 -37q32 0 48 23q10 15 10 68z" />
    <glyph glyph-name="nine" unicode="9" horiz-adv-x="354" 
d="M313 146q0 -27 -0.5 -39t-6 -32.5t-17.5 -34.5q-36 -46 -120 -46q-106 0 -129 82q-5 19 -5 61v71h82v-78q0 -63 56 -63q20 0 34 9q21 14 21 65v177q-12 -15 -27 -25q-22 -16 -60 -16q-42 0 -68 19q-19 14 -28.5 35.5t-11 38.5t-1.5 45v164q0 39 9 64q12 30 44.5 51.5
t88.5 21.5q60 0 92 -25t42 -60q5 -18 5 -66v-419zM229 420v158q0 44 -22 60q-13 9 -35 9q-19 0 -35 -9q-20 -14 -20 -55v-165q0 -21 1 -28q8 -40 54 -39q41 0 53 35q4 12 4 34z" />
    <glyph glyph-name="colon" unicode=":" horiz-adv-x="187" 
d="M155 323h-82v129h82v-129zM155 0h-83v132h83v-132z" />
    <glyph glyph-name="semicolon" unicode=";" horiz-adv-x="187" 
d="M152 324h-82v129h82v-129zM151 11q0 -56 -16 -89.5t-62 -56.5v23q9 6 15 12.5t10 15.5t6.5 13.5t3.5 17.5t1 15.5v19v18.5h-40v132h82v-121z" />
    <glyph glyph-name="less" unicode="&#x3c;" horiz-adv-x="559" 
d="M446 76l-358 194v80l358 195v-86l-277 -146l277 -144v-93z" />
    <glyph glyph-name="equal" unicode="=" horiz-adv-x="559" 
d="M474 351h-389v74h389v-74zM474 180h-389v74h389v-74z" />
    <glyph glyph-name="greater" unicode="&#x3e;" horiz-adv-x="559" 
d="M471 271l-358 -195v85l277 146l-277 144v94l358 -194v-80z" />
    <glyph glyph-name="question" unicode="?" horiz-adv-x="333" 
d="M311 560q0 -66 -43 -152q-10 -21 -26.5 -51.5t-21 -40t-11.5 -27.5t-8.5 -32t-1.5 -36h-71q0 30 3 56q1 9 3 17.5t5.5 18.5t6 16.5t8.5 20.5t9.5 20.5t12.5 26t14 29.5l5 12q5 11 10.5 25t9.5 25q11 36 11 69q0 18 -1 27q-2 12 -3.5 18.5t-12.5 17t-30 10.5q-17 0 -28 -8
q-21 -15 -21 -80v-39l-76 1q-2 99 10 129q26 70 115 70q40 0 68 -16q64 -36 64 -127zM205 0h-80v129h80v-129z" />
    <glyph glyph-name="at" unicode="@" horiz-adv-x="802" 
d="M746 422q0 -89 -30 -171t-79.5 -131.5t-103.5 -49.5q-67 0 -74 86q-59 -85 -131 -85q-55 0 -87 44t-32 120q0 114 57.5 197.5t136.5 83.5q37 0 61 -19.5t43 -63.5l13 62h63l-48 -240q-11 -55 -11 -85q0 -45 28 -45q26 0 52 34q38 49 60.5 119t22.5 142q0 110 -59 175
t-160 65q-144 0 -248.5 -126.5t-104.5 -300.5q0 -136 79.5 -219t209.5 -83q75 0 146 31q45 20 77 42.5t83 72.5l32 -44q-52 -51 -85.5 -75t-85.5 -46q-83 -35 -166 -35q-158 0 -254.5 99t-96.5 260q0 128 56.5 238t153 174t210.5 64q125 0 198.5 -78t73.5 -212zM484 349
q0 52 -19 80.5t-53 28.5q-54 0 -92.5 -65.5t-38.5 -156.5q0 -49 19.5 -77.5t51.5 -28.5q52 0 92 66.5t40 152.5z" />
    <glyph glyph-name="A" unicode="A" horiz-adv-x="333" 
d="M328 0h-91l-18 130h-106l-16 -130h-91l100 706h113zM207 216l-45 367l-39 -367h84z" />
    <glyph glyph-name="B" unicode="B" horiz-adv-x="354" 
d="M317 190q0 -57 -2 -86q0 -1 -0.5 -7l-1 -12t-2.5 -15t-5 -17t-8.5 -16.5t-12.5 -14.5q-27 -22 -101 -22h-142v706h165q60 0 83 -21q12 -12 17.5 -30t6.5 -34t2 -56q0 -6 0.5 -18t0.5 -18q0 -22 -2 -66q0 -37 -9 -55q-10 -22 -38 -29l-29 -6q51 -4 67 -32q3 -6 5 -12
t3 -17t1 -17t0.5 -24t0.5 -26q0 -9 0.5 -27t0.5 -28zM225 517q0 33 -3 66q-1 26 -10 33q-7 6 -34 6h-46v-212h36q18 0 27 1.5t17 9.5t10 25q3 21 3 71zM227 210q0 23 -2 71q-3 35 -12 44q-9 8 -29 8h-52v-246h48h4q13 0 19 0.5t12.5 6.5t8.5 17q3 33 3 99z" />
    <glyph glyph-name="C" unicode="C" horiz-adv-x="375" 
d="M344 160q0 -69 -26 -107q-42 -62 -128 -62t-125 58q-25 36 -25 121v341q0 16 2 48q9 117 97 145q26 9 59 9q61 0 98 -31q22 -18 33 -44q15 -34 15 -98v-90h-94v109v3q1 70 -57 70q-22 0 -38 -12q-11 -9 -16 -24.5t-5 -23v-29.5v-390q0 -16 1 -24q3 -57 56 -57q23 0 36 10
q23 16 23 73v137h94v-132z" />
    <glyph glyph-name="D" unicode="D" horiz-adv-x="354" 
d="M318 122q0 -36 -5 -58q-14 -65 -92 -64h-3h-179v706h171q54 0 78 -21q30 -26 30 -93v-470zM224 126v445q0 14 -1 21q-4 28 -37 28h-54v-533h62q17 0 23.5 7.5t6.5 31.5z" />
    <glyph glyph-name="E" unicode="E" horiz-adv-x="292" 
d="M275 0h-233v706h233v-88h-139v-207h124v-88h-123v-234h138v-89z" />
    <glyph glyph-name="F" unicode="F" horiz-adv-x="292" 
d="M284 619h-149v-205h135v-86h-134v-328h-94v706h242v-87z" />
    <glyph glyph-name="G" unicode="G" horiz-adv-x="354" 
d="M317 0h-56l-9 33q-32 -44 -87 -44q-47 0 -78 26q-30 25 -38.5 60t-8.5 86v354q0 78 12 112q29 87 130 87q70 0 103 -46q14 -19 18.5 -41t4.5 -68v-74h-86v80q0 3 -0.5 11t-0.5 11l-1 5v6t-1 6.5t-2 7.5t-3.5 7.5t-5.5 7t-7 5t-9.5 3.5t-12.5 1q-18 0 -28 -8q-3 -2 -6 -5
t-5 -7.5t-3.5 -7t-2 -8t-1.5 -8.5t-1 -9.5v-8v-8.5v-8v-406q0 -49 7 -63q12 -23 39 -22q16 0 27 7q20 14 20 56v160h-57v86h149v-376z" />
    <glyph glyph-name="H" unicode="H" horiz-adv-x="354" 
d="M311 0h-93v328h-86v-328h-93v706h93v-287h86v287h93v-706z" />
    <glyph glyph-name="I" unicode="I" horiz-adv-x="167" 
d="M129 0h-92v706h92v-706z" />
    <glyph glyph-name="J" unicode="J" horiz-adv-x="292" 
d="M253 216q0 -48 -0.5 -69.5t-4.5 -45t-12 -40.5q-31 -66 -130 -66q-45 0 -99 9l1 85q43 -14 87 -14q51 0 60 35q5 16 5 87v509h93v-490z" />
    <glyph glyph-name="K" unicode="K" horiz-adv-x="354" 
d="M349 0h-94l-123 326v-326h-93v706h94v-324l100 324h95l-117 -350z" />
    <glyph glyph-name="L" unicode="L" horiz-adv-x="292" 
d="M290 0h-247v706h93v-619h154v-87z" />
    <glyph glyph-name="M" unicode="M" horiz-adv-x="500" 
d="M455 0h-86v568l-81 -568h-79l-80 568v-568h-87v706h133l76 -469l67 469h137v-706z" />
    <glyph glyph-name="N" unicode="N" horiz-adv-x="375" 
d="M336 0h-103l-113 518l8 -518h-87v706h100l111 -481l-4 481h88v-706z" />
    <glyph glyph-name="O" unicode="O" horiz-adv-x="375" 
d="M336 158q0 -51 -12 -83q-30 -82 -143 -82q-35 0 -59 9q-58 22 -76 86q-7 24 -7 74v352q0 42 2 64t14.5 52t38.5 50q41 31 97 31q57 0 92 -28q21 -17 32 -38q14 -24 17.5 -54.5t3.5 -96.5v-336zM243 166v356q0 70 -11 87q-14 21 -43 21q-20 0 -34 -10q-16 -10 -19.5 -28
t-3.5 -59v-11v-378q0 -35 10.5 -54.5t43.5 -19.5q14 0 25 3.5t16.5 13t9 15t5 22t1.5 20v22.5z" />
    <glyph glyph-name="P" unicode="P" horiz-adv-x="333" 
d="M319 451q0 -51 -4 -75.5t-20 -38.5q-18 -17 -70 -17h-93v-320h-91v706h182q57 0 78 -27q18 -23 18 -94v-134zM225 435v150q0 20 -7 27.5t-28 7.5h-57v-216h59q19 0 26 6.5t7 24.5z" />
    <glyph glyph-name="Q" unicode="Q" horiz-adv-x="375" 
d="M336 182q0 -7 -0.5 -21t-0.5 -22q-5 -76 -38 -108q-18 -17 -42 -26q-13 -5 -32 -8v-19q0 -35 45 -35q22 0 45 3v-86q-66 -2 -90 3q-34 7 -52.5 29t-23 44.5t-6.5 61.5q-31 9 -51 22q-51 36 -51 131v351q0 62 5 90q9 54 46 84q40 35 104 35q68 0 107 -46q17 -19 25 -48.5
t9 -48t1 -54.5v-332zM244 168v377q0 4 -0.5 12t-0.5 12q-3 46 -30 57q-11 4 -24 4q-40 0 -52 -34q-5 -12 -5 -30v-417q0 -36 4 -47q9 -32 51 -33q22 0 36 10q21 17 21 89z" />
    <glyph glyph-name="R" unicode="R" horiz-adv-x="354" 
d="M334 0h-97q-14 77 -14 148v50q0 41 -4 73q-4 33 -17 45q-12 9 -30 9h-38v-325h-93v706h152q24 0 35 -1q20 -2 32 -4.5t30 -19t24 -45.5q6 -27 6 -101q0 -55 -2 -83q-2 -35 -11 -56q-4 -9 -10.5 -15.5t-12 -10t-14.5 -6.5t-13.5 -3.5t-12.5 -1.5t-9 -1q2 0 13 -1.5
t17.5 -3t16.5 -8t17 -17.5q11 -17 14 -40t3 -72v-77q0 -60 3 -83t15 -56zM228 542q0 15 -2 45q-1 21 -10 28q-6 6 -34 6h-47v-218h44q37 0 44 31q5 21 5 108z" />
    <glyph glyph-name="S" unicode="S" horiz-adv-x="333" 
d="M306 155q0 -121 -78 -157q-26 -11 -62 -11q-68 0 -103 42q-31 35 -31 112v117h86v-129q0 -46 20 -59q12 -9 28 -9t26 7.5t14 23t4.5 25t0.5 27.5q0 65 -34 123q-14 25 -43.5 68.5t-41.5 63.5q-54 86 -54 166q0 99 63 136q32 19 80 19q90 0 112 -68q7 -23 7 -53v-125h-85
v125l-1 6q0 6 -0.5 10t-3 10.5t-6 11t-10.5 7.5t-16 3q-21 0 -32 -12.5t-12.5 -25t-1.5 -34.5q0 -41 10.5 -71t36.5 -70q4 -7 41 -62q15 -21 31 -46q55 -86 55 -171z" />
    <glyph glyph-name="T" unicode="T" horiz-adv-x="333" 
d="M323 623h-110v-623h-95v623h-107v83h312v-83z" />
    <glyph glyph-name="U" unicode="U" horiz-adv-x="375" 
d="M336 171q0 -51 -9 -84q-9 -32 -28.5 -54t-43.5 -30.5t-39.5 -11t-31.5 -2.5q-101 0 -132 83q-12 30 -12 83v551h91v-546q0 -22 1 -33t5.5 -28t17 -25t32.5 -8q23 0 36 11q14 12 17.5 30.5t3.5 58.5v540h92v-535z" />
    <glyph glyph-name="V" unicode="V" horiz-adv-x="333" 
d="M332 706l-108 -706h-110l-108 706h93l72 -566l69 566h92z" />
    <glyph glyph-name="W" unicode="W" horiz-adv-x="479" 
d="M472 706l-82 -706h-107l-48 472l-44 -472h-107l-79 706h92l43 -546l52 546h85l59 -546l44 546h92z" />
    <glyph glyph-name="X" unicode="X" horiz-adv-x="333" 
d="M328 0h-94l-70 246l-67 -246h-92l108 364l-107 342h93l65 -215l61 215h93l-104 -341z" />
    <glyph glyph-name="Y" unicode="Y" horiz-adv-x="333" 
d="M329 706l-117 -410v-296h-101v295l-107 411h95l65 -282l71 282h94z" />
    <glyph glyph-name="Z" unicode="Z" horiz-adv-x="292" 
d="M280 645l-166 -560h151v-85h-250v62l167 562h-127v82h225v-61z" />
    <glyph glyph-name="bracketleft" unicode="[" horiz-adv-x="271" 
d="M229 683h-86v-833h84v-46h-168v929h170v-50z" />
    <glyph glyph-name="backslash" unicode="\" horiz-adv-x="250" 
d="M239 0h-77l-153 706h78z" />
    <glyph glyph-name="bracketright" unicode="]" horiz-adv-x="271" 
d="M213 -196h-169v49h86v833h-85v47h168v-929z" />
    <glyph glyph-name="asciicircum" unicode="^" horiz-adv-x="559" 
d="M497 358h-91l-127 268l-125 -268h-93l177 348h83z" />
    <glyph glyph-name="underscore" unicode="_" horiz-adv-x="500" 
d="M510 -209h-520v66h520v-66z" />
    <glyph glyph-name="grave" unicode="`" horiz-adv-x="208" 
d="M191 577h-48l-126 121h102z" />
    <glyph glyph-name="a" unicode="a" 
d="M286 0h-85q-9 20 -14 43q-17 -26 -34 -37.5t-44 -11.5q-75 0 -75 90v96q0 42 8 60t41 39l77 48q20 13 32 31v80q0 41 -35 41t-35 -40v-75h-82v66q0 31 6 50q22 65 110 65q52 0 82 -24q19 -14 27 -36q7 -18 7 -55v-340q0 -61 14 -90zM191 140v125q-7 -6 -18 -14l-31 -21
q-9 -6 -14 -12q-14 -15 -14 -42v-55q0 -34 4 -44q8 -19 28 -19q12 0 22 7q23 19 23 75z" />
    <glyph glyph-name="b" unicode="b" 
d="M277 112q0 -32 -8 -57q-20 -64 -90 -64q-40 0 -61 26q-8 9 -16 28l-18 -45h-45v706h80v-208q8 12 13 17q26 30 64 28q62 0 77 -55q4 -14 4 -37v-339zM196 110v318q0 44 -35 44q-13 0 -23 -7q-19 -12 -19 -45v-300q0 -28 4 -36q7 -20 34 -20q12 0 20 5q19 10 19 41z" />
    <glyph glyph-name="c" unicode="c" horiz-adv-x="305" 
d="M277 343h-81v91q0 14 -2 21q-7 22 -38 22q-15 0 -25 -6q-16 -10 -16 -47v-325q0 -29 20 -38q11 -4 19 -4q12 0 21 4q21 8 21 52v100h80v-98q0 -31 -4 -47q-15 -54 -69 -71q-18 -6 -49 -6q-86 0 -109 56q-9 21 -9 59v317q0 33 6 50q23 72 115 72q31 0 54 -9q42 -15 58 -57
q8 -21 8 -62v-74z" />
    <glyph glyph-name="d" unicode="d" 
d="M276 0h-81v37q-30 -45 -74 -45q-23 0 -42 10q-39 21 -39 86v356q0 64 37 87q21 12 44 12q37 0 74 -40v203h81v-706zM195 127v292q0 32 -14 43q-8 7 -23 7q-14 0 -23 -6q-16 -10 -16 -49v-307q0 -43 36 -43q10 0 22 7q18 13 18 56z" />
    <glyph glyph-name="e" unicode="e" 
d="M277 129q0 -43 -9 -69q-24 -69 -113 -69t-110 66q-6 19 -6 45v287q0 29 3 59q7 49 40 73q30 23 77 23q10 0 21.5 -1.5t30 -7t34.5 -20t24 -36.5q8 -23 8 -56v-173h-159v-151q0 -43 37 -43q41 1 40 47v2v94h82v-70zM196 316v113q0 15 -2 24.5t-10.5 17t-24.5 7.5
q-13 0 -24 -6q-17 -11 -17 -52v-104h78z" />
    <glyph glyph-name="f" unicode="f" horiz-adv-x="187" 
d="M182 468h-47v-468h-82v468h-44v68h45v92q0 32 6 46q13 32 67 32q27 0 53 -3v-68q-17 1 -24 0t-13.5 -8t-6.5 -23v-68h46v-68z" />
    <glyph glyph-name="g" unicode="g" 
d="M274 -19q0 -33 -8 -56q-12 -34 -43.5 -51t-69.5 -17q-15 0 -31 3.5t-38 13t-35 33.5t-12 59h80q0 -42 39 -42q12 0 21 5q17 10 17 38v69q-8 -9 -12 -14q-27 -28 -64 -28q-82 1 -82 92v360q0 21 4 37q3 13 9.5 25t24.5 24.5t44 12.5q39 0 65 -29l12 -18v38h79v-555z
M194 127v277q0 15 -1 22q-4 45 -40 46q-29 0 -35 -26q-3 -11 -3 -58v-264q0 -19 1.5 -28.5t10 -19t26.5 -9.5q41 0 41 60z" />
    <glyph glyph-name="h" unicode="h" 
d="M278 0h-81v421q0 12 -1 18q-4 31 -36 31q-41 0 -41 -55v-415h-79v706h79v-206q34 44 77 44q30 0 49 -15q21 -17 27 -40.5t6 -59.5v-429z" />
    <glyph glyph-name="i" unicode="i" horiz-adv-x="167" 
d="M124 597h-80v106h80v-106zM123 0h-80v536h80v-536z" />
    <glyph glyph-name="j" unicode="j" horiz-adv-x="167" 
d="M127 596h-81v107h81v-107zM127 -9q0 -42 -5 -63q-17 -68 -110 -68q-20 0 -30 1l1 70q18 -2 27 -2q36 0 36 37v570h81v-545z" />
    <glyph glyph-name="k" unicode="k" horiz-adv-x="292" 
d="M289 536l-93 -205l90 -331h-85l-63 246l-16 -42v-204h-81v706h81v-384l80 214h87z" />
    <glyph glyph-name="l" unicode="l" horiz-adv-x="167" 
d="M124 0h-82v706h82v-706z" />
    <glyph glyph-name="m" unicode="m" horiz-adv-x="479" 
d="M439 0h-82v422q0 26 -5 35q-7 14 -31 14q-15 0 -25 -7q-16 -11 -16 -49v-415h-80v420q0 16 -2 25.5t-10.5 18t-24.5 8.5q-41 0 -41 -56v-416h-80v536h79v-37q30 46 76 46q56 -1 76 -53q9 14 14.5 22t25 19t43.5 11q30 0 51 -16q15 -12 22.5 -30.5t8.5 -31t1 -37.5v-429z
" />
    <glyph glyph-name="n" unicode="n" 
d="M278 0h-82v420q0 24 -4 33q-7 19 -31 19q-15 0 -26 -9q-16 -13 -16 -58v-405h-80v536h80v-35q33 44 78 44q30 0 51 -16q14 -11 21 -29t8 -30.5t1 -35.5v-434z" />
    <glyph glyph-name="o" unicode="o" 
d="M278 118q0 -35 -8 -59q-24 -68 -113 -68q-46 0 -73 18q-22 14 -33 40t-12 42.5t-1 52.5v247q0 32 1 47t9.5 39t26.5 39q17 15 36 21q19 7 49 7q87 0 110 -62q8 -21 8 -63v-301zM199 111v316q0 25 -7.5 38t-31.5 13q-16 0 -25 -6q-17 -12 -17 -52v-315q0 -35 17 -44
q9 -4 21 -4q26 0 34.5 14t8.5 40z" />
    <glyph glyph-name="p" unicode="p" 
d="M275 103q0 -68 -33 -94q-20 -15 -49 -15q-44 0 -75 45v-184h-81v681h81v-37q32 45 78 45q23 0 43 -12q36 -22 36 -88v-341zM195 117v303q0 16 -1.5 26t-10 18.5t-24.5 8.5q-14 0 -24 -8q-17 -12 -17 -57v-294q0 -30 16 -41q12 -7 23 -7q38 0 38 51z" />
    <glyph glyph-name="q" unicode="q" 
d="M273 -145h-81v184q-34 -44 -81 -44q-22 0 -41 10q-34 20 -34 81v338q0 28 1 42.5t10 35.5t27 32q19 11 44 11q48 0 82 -53l22 44h51v-681zM193 136v266v19.5t-2 17t-6 17.5t-12.5 10t-20.5 5q-9 0 -16 -3t-10.5 -7t-6 -10.5t-3 -10t-0.5 -10.5l-1 -6v-313q0 -45 34 -45
q16 0 25 7q19 14 19 63z" />
    <glyph glyph-name="r" unicode="r" horiz-adv-x="229" 
d="M225 447q-21 16 -48 16q-22 0 -36 -14q-22 -23 -22 -90v-359h-80v536h82v-61q15 33 33 50t49 17q8 0 22 -2v-93z" />
    <glyph glyph-name="s" unicode="s" horiz-adv-x="292" 
d="M268 134q0 -82 -48 -120q-32 -25 -76 -25q-46 0 -77 24q-20 15 -30.5 42t-11.5 45t-1 52v45h76v-45q0 -25 1 -37q0 -54 46 -54q17 0 26 9q17 13 17 59q0 16 -3 28q-6 31 -41 66l-43 43q-20 20 -29 31q-42 46 -42 115q0 72 38 105q30 26 81 26q69 0 95 -49q17 -32 17 -119
l-74 1q0 28 -1 40.5t-5.5 27.5t-13.5 20t-24 5q-38 0 -38 -50q0 -29 9.5 -46t33.5 -40l37 -36q14 -12 26 -26q55 -59 55 -137z" />
    <glyph glyph-name="t" unicode="t" horiz-adv-x="187" 
d="M188 60l-1 -61q-27 -5 -46 -5q-34 0 -52 8q-12 5 -19.5 13.5t-10.5 22t-3.5 21t-0.5 24.5v385h-48v68h50v115h80v-115h45v-68h-46v-370q0 -9 0.5 -12.5t3 -11t10.5 -11t21 -3.5h17z" />
    <glyph glyph-name="u" unicode="u" 
d="M276 0h-80v34q-33 -44 -79 -44q-30 0 -50 16q-31 25 -31 95v435h83v-420q0 -28 3 -34q9 -18 32 -18q16 0 26 8q16 13 16 58v406h80v-536z" />
    <glyph glyph-name="v" unicode="v" horiz-adv-x="271" 
d="M265 536l-83 -536h-96l-79 536h82l47 -418l47 418h82z" />
    <glyph glyph-name="w" unicode="w" horiz-adv-x="396" 
d="M385 536l-67 -536h-89l-34 310l-35 -310h-89l-63 536h77l29 -402l53 402h58l49 -402q21 267 32 402h79z" />
    <glyph glyph-name="x" unicode="x" horiz-adv-x="292" 
d="M283 0h-84l-53 213l-64 -213h-78l97 288l-83 248h80l49 -190l47 190h80l-83 -246z" />
    <glyph glyph-name="y" unicode="y" horiz-adv-x="271" 
d="M265 536l-102 -598q-11 -56 -46 -72q-20 -9 -54 -9q-13 0 -41 2v77q44 0 56 18q11 17 6 56l-80 526h82l47 -425l49 425h83z" />
    <glyph glyph-name="z" unicode="z" horiz-adv-x="271" 
d="M261 459l-163 -383h159v-76h-246v76l163 385h-129v75h216v-77z" />
    <glyph glyph-name="braceleft" unicode="{" horiz-adv-x="354" 
d="M314 675l-30 -6q-22 -6 -35.5 -19.5t-18.5 -35t-6 -36t-1 -41.5v-3.5v-3.5v-76v-29v-31.5t-1.5 -27.5t-5 -29t-9.5 -23t-14.5 -23.5t-21.5 -16.5t-30 -14v-3q18 -5 28 -11q10 -5 18 -12.5t13.5 -17.5t9.5 -18.5t6.5 -22.5t4 -21.5t2 -24t0.5 -22.5v-23v-20v-78
q0 -34 1 -51.5t11.5 -44t32.5 -37.5q8 -4 22.5 -6t20.5 -4v-53q-50 4 -78 11t-52.5 32t-33.5 71q-3 16 -4.5 40t-1.5 41.5t0.5 45.5t0.5 38v21.5v23.5t-1 21.5t-3 23t-5 19.5t-8.5 19t-13 14.5t-18 13t-23.5 6.5v55q26 5 35 12q8 5 14 13t9.5 15.5t6.5 19t4.5 19t2 21.5
t0.5 19.5v20.5v18v103q0 67 19 110t74 61q25 8 79 10v-53z" />
    <glyph glyph-name="bar" unicode="|" horiz-adv-x="229" 
d="M155 -210h-81v943h81v-943z" />
    <glyph glyph-name="braceright" unicode="}" horiz-adv-x="354" 
d="M314 231q-29 -8 -36 -13t-13 -13t-10 -15t-6.5 -19t-4 -19t-2 -21t-0.5 -19.5v-20v-17.5v-104q0 -95 -38 -137.5t-134 -42.5v53q34 5 38 7q19 8 31 22t16.5 37.5t5 36.5t0.5 41v77v19v22.5t0.5 21.5t2 24t4 21.5t6 22.5t8.5 18.5t12 17.5t16 13q7 4 33 13v3
q-32 13 -33 14q-10 6 -18 16t-13 18.5t-8.5 23.5t-5.5 23.5t-3 27t-1 24v25.5v22v77q0 26 -0.5 37.5t-4 34.5t-13.5 37.5t-26 22.5q-8 4 -23.5 7t-20.5 5v53q76 -6 113.5 -27.5t50.5 -87.5q3 -16 4.5 -40t1.5 -41.5t-0.5 -45.5t-0.5 -38v-15v-18.5t0.5 -18.5t1.5 -20.5
t2.5 -18t4.5 -18.5t7 -16t9 -15t12 -10q13 -8 35 -12v-55z" />
    <glyph glyph-name="asciitilde" unicode="~" horiz-adv-x="565" 
d="M501 300q-30 -35 -57 -51q-33 -20 -68 -20q-33 0 -90 26l-26 12q-47 22 -76 22q-36 0 -75 -44l-7 -8l-39 63q27 30 44 44q32 27 78 27q33 0 78 -20l54 -23q42 -18 60 -18q39 0 86 52z" />
    <glyph glyph-name="exclamdown" unicode="&#xa1;" horiz-adv-x="187" 
d="M119 570h-80v129h80v-129zM119 0h-80v272l18 206h44l18 -230v-248z" />
    <glyph glyph-name="cent" unicode="&#xa2;" 
d="M281 343h-81v91q0 43 -40 43q-9 0 -15.5 -2t-11 -5t-7.5 -7.5t-4.5 -8.5t-2 -9.5t-0.5 -8.5v-8v-4v-325q0 -42 40 -42q18 0 27.5 9.5t11.5 19.5t2 27v100h80v-98q0 -116 -104 -124v-64h-38v64q-35 4 -57 17t-30 34t-9.5 32.5t-1.5 31.5l-1 316q0 107 99 122v57h38v-56
q31 -4 53 -16.5t31.5 -24.5t15 -33.5t5.5 -28.5v-25v-74z" />
    <glyph glyph-name="sterling" unicode="&#xa3;" horiz-adv-x="479" 
d="M448 200q3 -55 0.5 -93.5t-14.5 -60.5q-26 -46 -88 -46q-45 0 -96 35q-15 11 -28 22q-15 -17 -23 -25.5t-36 -23t-59 -14.5q-35 0 -60 18.5t-25 53.5q0 20 11 38q27 42 92 42q22 0 70 -12q7 27 7 49q0 42 -32 122h-105v67h80q-38 104 -38 172q0 42 11 72q14 38 48 68
t98 30q86 0 121 -60q13 -21 19 -52t5.5 -58t-0.5 -55h-85q-2 96 -9 114q-12 33 -50 33q-19 0 -33 -9q-31 -19 -31 -79q0 -32 6.5 -63t13.5 -52t23 -60h105v-67h-78q10 -47 10 -81q0 -18 -1.5 -33t-5.5 -29l-6 -21t-7.5 -20.5t-6.5 -15.5q63 -35 79 -35q29 0 34 34q3 24 3 95
h81zM167 82q-30 12 -55 12q-21 0 -32 -8.5t-11 -20.5q0 -8 8 -16.5t23 -7.5q28 0 56 26q11 11 11 15z" />
    <glyph glyph-name="currency" unicode="&#xa4;" horiz-adv-x="627" 
d="M586 569l-71 -75q48 -78 48 -153q0 -85 -49 -158l71 -76l-53 -55l-72 76q-72 -52 -149 -52q-41 0 -72 11t-74 41l-72 -74l-52 55l72 74q-28 44 -38.5 78.5t-10.5 78.5q0 81 49 155l-70 74l52 55l70 -73q72 51 149 51q79 0 147 -51l72 74zM474 338q0 78 -45.5 130
t-114.5 52t-115.5 -51.5t-46.5 -128.5t47 -129t117 -52q67 0 112.5 51.5t45.5 127.5z" />
    <glyph glyph-name="yen" unicode="&#xa5;" horiz-adv-x="333" 
d="M329 706l-87 -303h70v-63h-87l-13 -46v-8h100v-64h-100v-222h-101v222h-97v64h97v8l-12 46h-85v63h68l-78 303h95l65 -287l71 287h94z" />
    <glyph glyph-name="brokenbar" unicode="&#xa6;" horiz-adv-x="229" 
d="M155 325h-81v408h81v-408zM155 -210h-81v408h81v-408z" />
    <glyph glyph-name="section" unicode="&#xa7;" horiz-adv-x="396" 
d="M371 328q0 -42 -19 -75t-55 -69q28 -28 40.5 -52.5t12.5 -60.5q0 -69 -47.5 -109.5t-116.5 -40.5q-111 0 -144 88q-10 27 -10 92h86q-1 -9 -1 -28q0 -83 72 -83q31 0 51.5 18.5t20.5 49.5q0 36 -23 59.5t-69.5 45t-58.5 29.5q-76 52 -76 135q0 43 18.5 73.5t57.5 58.5
q-34 34 -49.5 62t-15.5 68q0 64 44.5 104.5t108.5 40.5q68 0 106.5 -40t38.5 -110q0 -5 -0.5 -15t-0.5 -15h-77q1 12 1 36q0 35 -16.5 56.5t-49.5 21.5q-29 0 -48 -17t-19 -46q0 -36 24.5 -62t59.5 -43.5t70 -36.5t59.5 -53t24.5 -82zM287 313q0 21 -9 37.5t-28.5 30.5
t-31.5 20t-37 18q-61 -38 -61 -83q0 -12 3 -23t11 -20.5t14 -16.5t19 -15l19.5 -12t22 -12t19.5 -10q59 38 59 86z" />
    <glyph glyph-name="dieresis" unicode="&#xa8;" horiz-adv-x="208" 
d="M207 589h-77v100h77v-100zM74 589h-73v100h73v-100z" />
    <glyph glyph-name="copyright" unicode="&#xa9;" horiz-adv-x="833" 
d="M773 354q0 -151 -103 -254t-254 -103q-148 0 -251.5 104t-103.5 252q0 149 103.5 252.5t252.5 103.5t252.5 -103t103.5 -252zM733 352q0 135 -91.5 227.5t-224.5 92.5q-131 0 -223.5 -93.5t-92.5 -226.5t92 -225.5t223 -92.5q132 0 224.5 92.5t92.5 225.5zM527 420h-72
v73q0 43 -36 43q-21 0 -29 -11.5t-8 -41.5v-270q0 -42 36 -42q21 0 29 12t8 44v63h71v-63q0 -57 -28 -87.5t-80 -30.5q-54 0 -80 28t-26 87v262q0 52 29 82t80 30q106 0 106 -121v-57z" />
    <glyph glyph-name="ordfeminine" unicode="&#xaa;" horiz-adv-x="187" 
d="M166 419h-49l-8 18q-16 -21 -40 -21q-42 2 -42 53v42q0 25 5.5 37.5t23.5 23.5l33 21q15 7 21 20v36q0 22 -14 22q-17 0 -17 -18v-42h-48v38q0 36 19 50t42 14t38 -7t20.5 -20.5t6.5 -21.5t1 -21v-169q0 -34 8 -55zM109 495v60l-19 -14q-10 -8 -12.5 -14t-2.5 -23v-22
q0 -26 14 -26q20 0 20 39z" />
    <glyph glyph-name="guillemotleft" unicode="&#xab;" horiz-adv-x="333" 
d="M307 157l-132 116v108l131 116v-100l-78 -71l79 -71v-98zM159 154l-133 119v105l132 119v-100l-79 -72l80 -71v-100z" />
    <glyph glyph-name="logicalnot" unicode="&#xac;" horiz-adv-x="559" 
d="M475 74h-91v185h-324v75h415v-260z" />
    <glyph glyph-name="registered" unicode="&#xae;" horiz-adv-x="833" 
d="M773 354q0 -151 -103 -254t-254 -103q-148 0 -251.5 104t-103.5 252q0 149 103.5 252.5t252.5 103.5t252.5 -103t103.5 -252zM733 352q0 135 -91.5 227.5t-224.5 92.5q-131 0 -223.5 -93.5t-92.5 -226.5t92 -225.5t223 -92.5q132 0 224.5 92.5t92.5 225.5zM534 120h-73
l-61 208h-15v-208h-69v470h100q63 0 84.5 -19t21.5 -77v-72q0 -50 -19 -69q-10 -12 -35 -19zM453 445v37q0 26 -10.5 34t-43.5 8h-13v-133h13q34 0 44 10t10 44z" />
    <glyph glyph-name="macron" unicode="&#xaf;" horiz-adv-x="209" 
d="M207 592h-205v63h205v-63z" />
    <glyph glyph-name="degree" unicode="&#xb0;" horiz-adv-x="354" 
d="M338 594q0 -67 -47 -114.5t-114 -47.5t-114 47.5t-47 114.5t47 114t114 47q68 0 114.5 -46.5t46.5 -114.5zM256 596q0 33 -23 56t-56 23t-56 -23t-23 -56q0 -32 23.5 -55.5t55.5 -23.5q33 0 56 23t23 56z" />
    <glyph glyph-name="plusminus" unicode="&#xb1;" horiz-adv-x="559" 
d="M476 298h-153l-1 -168h-83v168h-155v75h155v168h84v-168h153v-75zM476 0h-392v76h392v-76z" />
    <glyph glyph-name="twosuperior" unicode="&#xb2;" horiz-adv-x="229" 
d="M205 265h-181v10q0 22 2.5 41.5t9 38.5t11.5 31.5t16 30.5t15.5 24.5t17.5 24t15 20.5q25 35 29.5 48.5t4.5 50.5v35q0 13 -1 20t-8.5 15t-21.5 8q-33 0 -33 -43v-63h-57v63q0 18 2 30t10 28.5t28 24.5t51 7q16 0 29 -2.5t22 -8t15.5 -10t10.5 -14.5t6.5 -15.5t3.5 -18.5
t1.5 -19t0 -21.5t-0.5 -20.5q0 -35 -6.5 -56t-27.5 -54q-4 -6 -24.5 -36t-28 -43t-17.5 -35t-11 -39h117v-52z" />
    <glyph glyph-name="threesuperior" unicode="&#xb3;" horiz-adv-x="229" 
d="M202 357v-5q0 -19 -1.5 -30.5t-9 -29t-28 -26.5t-52.5 -8q-52 1 -70 24t-18 59v57h57v-54q0 -39 34 -37q31 1 31 41v76q0 34 -13.5 43.5t-47.5 9.5h-18v55h15q35 0 45.5 12.5t10.5 37.5v54q0 29 -26 29h-1q-29 0 -29 -32v-39h-57v32q0 16 2.5 27.5t10 26t25.5 22.5t46 8
q86 0 86 -70v-60q0 -33 -10.5 -47.5t-33.5 -19.5q33 -10 42.5 -26t9.5 -48v-82z" />
    <glyph glyph-name="acute" unicode="&#xb4;" horiz-adv-x="208" 
d="M190 698l-125 -121h-47l72 121h100z" />
    <glyph glyph-name="mu" unicode="&#xb5;" 
d="M288 0h-77q-9 18 -13 39q-11 -44 -47 -44q-18 0 -34 13v-153h-83v680h83v-419q0 -29 8 -40.5t28 -11.5q41 0 41 61v410h80v-459q0 -48 14 -76z" />
    <glyph glyph-name="paragraph" unicode="&#xb6;" horiz-adv-x="600" 
d="M470 643h-34v-810h-58v810h-92v-810h-58v486q-142 36 -142 187q0 96 59 150q31 29 69 39.5t109 10.5h147v-63z" />
    <glyph glyph-name="periodcentered" unicode="&#xb7;" horiz-adv-x="146" 
d="M112 259h-82v132h82v-132z" />
    <glyph glyph-name="cedilla" unicode="&#xb8;" horiz-adv-x="208" 
d="M193 -93q0 -39 -48 -61q-41 -18 -103 -18q-4 0 -12.5 0.5t-13.5 0.5v31q62 -3 83 13q12 8 12 20q0 2 -4 10q-10 16 -54 18q-4 0 -11 1h-7l72 120h48l-44 -79q53 -2 70 -25q12 -12 12 -31z" />
    <glyph glyph-name="onesuperior" unicode="&#xb9;" horiz-adv-x="229" 
d="M156 264h-59v330h-49v46q16 2 26.5 6.5t23 19.5t19.5 40h39v-442z" />
    <glyph glyph-name="ordmasculine" unicode="&#xba;" horiz-adv-x="187" 
d="M161 489q0 -14 -1 -21.5t-6.5 -22t-20.5 -22t-39 -7.5q-39 1 -52 23t-13 59v142q0 72 65 73q24 0 39 -7.5t20.5 -22t6.5 -22t1 -21.5v-151zM112 487v156q0 28 -17 28q-19 0 -19 -28v-158q0 -28 18 -28q9 0 13.5 6t4.5 9.5v14.5z" />
    <glyph glyph-name="guillemotright" unicode="&#xbb;" horiz-adv-x="333" 
d="M308 273l-131 -119v100l78 72l-80 71v100l133 -118v-106zM160 270l-132 -116v100l79 71l-80 71v98l133 -116v-108z" />
    <glyph glyph-name="onequarter" unicode="&#xbc;" horiz-adv-x="583" 
d="M573 100h-31v-100h-53v100h-125v50l95 290h83v-290h31v-50zM472 711l-309 -737l-49 21l309 736zM156 264h-59v330h-49v46q16 2 26.5 6.5t23 19.5t19.5 40h39v-442zM489 150v237l-72 -237h72z" />
    <glyph glyph-name="onehalf" unicode="&#xbd;" horiz-adv-x="583" 
d="M559 0h-181v10q0 60 16.5 98.5t66.5 106.5q28 38 33 52.5t5 52.5v35q0 13 -1 20.5t-8.5 15t-21.5 7.5q-33 0 -33 -43v-63h-57v63q0 29 4 41q17 50 87 49q40 -1 61 -17l8 -8t6.5 -7.5t4.5 -9t3.5 -9t2.5 -11t1.5 -11t0.5 -13v-13v-15v-16.5q0 -37 -5.5 -57t-27.5 -53
q-4 -4 -21 -28t-38 -62.5t-23 -62.5h117v-52zM457 711l-309 -737l-48 21l308 736zM156 264h-59v330h-49v46q16 2 26.5 6.5t23 19.5t19.5 40h39v-442z" />
    <glyph glyph-name="threequarters" unicode="&#xbe;" horiz-adv-x="583" 
d="M573 100h-31v-100h-53v100h-125v50l95 290h83v-290h31v-50zM493 711l-309 -737l-49 21l309 736zM202 357v-5q0 -19 -1.5 -30.5t-9 -29t-28 -26.5t-52.5 -8q-52 1 -70 24t-18 59v57h57v-54q0 -39 34 -37q31 1 31 41v76q0 34 -13.5 43.5t-47.5 9.5h-18v55h15
q35 0 45.5 12.5t10.5 37.5v54q0 29 -26 29h-1q-29 0 -29 -32v-39h-57v32q0 16 2.5 27.5t10 26t25.5 22.5t46 8q86 0 86 -70v-60q0 -33 -10.5 -47.5t-33.5 -19.5q33 -10 42.5 -26t9.5 -48v-82zM489 150v237l-72 -237h72z" />
    <glyph glyph-name="questiondown" unicode="&#xbf;" horiz-adv-x="333" 
d="M209 570h-81v129h81v-129zM280 151q0 -78 -26 -112q-32 -43 -99 -43q-41 0 -68 15q-64 38 -64 128q0 64 42 152q11 22 27 51t21 39.5t11.5 28t8.5 32t2 36.5h70q1 -32 -2 -56q-1 -9 -3 -17.5t-5.5 -18.5t-6 -16.5t-8.5 -20.5t-9.5 -20.5t-12.5 -26t-14 -29.5l-5 -12
q-5 -12 -10.5 -25.5t-9.5 -24.5q-11 -36 -11 -70q0 -17 1 -26q7 -46 46 -46q16 0 28 8q21 15 21 80v38h76v-44z" />
    <glyph glyph-name="Agrave" unicode="&#xc0;" horiz-adv-x="333" 
d="M197 774h-49l-126 121h102zM328 0h-91l-18 130h-106l-16 -130h-91l100 706h113zM207 216l-45 367l-39 -367h84z" />
    <glyph glyph-name="Aacute" unicode="&#xc1;" horiz-adv-x="333" 
d="M301 897l-125 -122h-48l72 122h101zM328 0h-91l-18 130h-106l-16 -130h-91l100 706h113zM207 216l-45 367l-39 -367h84z" />
    <glyph glyph-name="Acircumflex" unicode="&#xc2;" horiz-adv-x="333" 
d="M284 775h-57l-60 71l-64 -72h-54l89 121h56zM328 0h-91l-18 130h-106l-16 -130h-91l100 706h113zM207 216l-45 367l-39 -367h84z" />
    <glyph glyph-name="Atilde" unicode="&#xc3;" horiz-adv-x="333" 
d="M290 884q-17 -39 -29 -57q-21 -33 -49 -33q-8 0 -38 10l-24 11q-22 11 -37 11q-25 0 -39 -25q-1 -2 -5 -15h-26q2 6 5.5 16t4.5 13q24 66 74 66q18 0 45 -9l25 -10q18 -8 29 -8q21 0 36 30h28zM328 0h-91l-18 130h-106l-16 -130h-91l100 706h113zM207 216l-45 367
l-39 -367h84z" />
    <glyph glyph-name="Adieresis" unicode="&#xc4;" horiz-adv-x="333" 
d="M268 777h-75v101h75v-101zM137 777h-73v100h73v-100zM328 0h-91l-18 130h-106l-16 -130h-91l100 706h113zM207 216l-45 367l-39 -367h84z" />
    <glyph glyph-name="Aring" unicode="&#xc5;" horiz-adv-x="333" 
d="M242 836q0 -31 -22.5 -53t-52.5 -22q-32 0 -53 22q-22 22 -22 53t22 53t53 22t53 -22.5t22 -52.5zM328 0h-91l-18 130h-106l-16 -130h-91l100 706h113zM216 836q0 21 -14.5 35t-34.5 14q-21 0 -35 -14.5t-14 -34.5q0 -21 14 -35t35 -14t35 14.5t14 34.5zM207 216l-45 367
l-39 -367h84z" />
    <glyph glyph-name="AE" unicode="&#xc6;" horiz-adv-x="479" 
d="M462 0h-246v325h-72l-62 -325h-92l147 706h311v-87h-142v-215h123v-78h-123v-238h156v-88zM216 403v245h-12l-45 -245h57z" />
    <glyph glyph-name="Ccedilla" unicode="&#xc7;" horiz-adv-x="375" 
d="M344 160q0 -44 -11 -79t-48 -62q-28 -21 -69 -27l-16 -29q50 -3 68 -22q13 -14 13 -32q1 -43 -45 -62t-104 -19q-4 0 -13 0.5t-14 0.5v31h22q31 0 52 8t20 25q-1 29 -74 29l42 70q-45 6 -74 28q-25 19 -37.5 49t-14 48.5t-1.5 52.5v340q0 79 15 115q36 88 143 88
q148 0 146 -168v-5v-90h-94v109q0 33 -10.5 52.5t-44.5 20.5q-17 1 -29.5 -5.5t-18.5 -14.5t-9 -22.5t-3.5 -23t-0.5 -23.5v-390v-23t3 -20t8.5 -20.5t17 -12t28.5 -5.5q24 0 37 10q14 11 18 27t4 46v137h94v-132z" />
    <glyph glyph-name="Egrave" unicode="&#xc8;" horiz-adv-x="292" 
d="M181 774h-49l-126 121h103zM275 0h-233v706h233v-88h-139v-207h124v-88h-123v-234h138v-89z" />
    <glyph glyph-name="Eacute" unicode="&#xc9;" horiz-adv-x="292" 
d="M291 897l-126 -122h-47l71 122h102zM275 0h-233v706h233v-88h-139v-207h124v-88h-123v-234h138v-89z" />
    <glyph glyph-name="Ecircumflex" unicode="&#xca;" horiz-adv-x="292" 
d="M274 775h-57l-61 71l-64 -72h-54l89 121h57zM275 0h-233v706h233v-88h-139v-207h124v-88h-123v-234h138v-89z" />
    <glyph glyph-name="Edieresis" unicode="&#xcb;" horiz-adv-x="292" 
d="M253 777h-75v101h75v-101zM121 777h-72v100h72v-100zM275 0h-233v706h233v-88h-139v-207h124v-88h-123v-234h138v-89z" />
    <glyph glyph-name="Igrave" unicode="&#xcc;" horiz-adv-x="167" 
d="M119 774h-49l-126 121h102zM129 0h-92v706h92v-706z" />
    <glyph glyph-name="Iacute" unicode="&#xcd;" horiz-adv-x="167" 
d="M218 897l-126 -122h-47l71 122h102zM129 0h-92v706h92v-706z" />
    <glyph glyph-name="Icircumflex" unicode="&#xce;" horiz-adv-x="167" 
d="M201 775h-57l-61 71l-64 -72h-54l90 121h56zM129 0h-92v706h92v-706z" />
    <glyph glyph-name="Idieresis" unicode="&#xcf;" horiz-adv-x="167" 
d="M185 777h-75v101h75v-101zM53 777h-72v100h72v-100zM129 0h-92v706h92v-706z" />
    <glyph glyph-name="Eth" unicode="&#xd0;" horiz-adv-x="354" 
d="M318 122q0 -73 -23 -97.5t-77 -24.5h-179v353h-39v68h39v285h171q31 0 47 -5q27 -8 41.5 -28t17 -37t2.5 -44v-470zM224 126v445q0 31 -7.5 40t-30.5 9h-54v-199h52v-68h-52v-266h62q18 0 24 7.5t6 31.5z" />
    <glyph glyph-name="Ntilde" unicode="&#xd1;" horiz-adv-x="375" 
d="M316 884q-17 -39 -28 -57q-23 -33 -50 -33q-8 0 -38 10l-24 11q-22 11 -37 11q-25 0 -39 -25q-1 -2 -5 -15h-26q2 6 5.5 16t4.5 13q24 66 74 66q18 0 45 -9l25 -10q18 -8 29 -8q21 0 36 30h28zM336 0h-103l-113 518l8 -518h-87v706h100l111 -481l-4 481h88v-706z" />
    <glyph glyph-name="Ograve" unicode="&#xd2;" horiz-adv-x="375" 
d="M223 774h-49l-126 121h102zM336 158q0 -51 -12 -83q-30 -82 -143 -82q-35 0 -59 9q-58 22 -76 86q-7 24 -7 74v352q0 42 2 64t14.5 52t38.5 50q41 31 97 31q57 0 92 -28q21 -17 32 -38q14 -24 17.5 -54.5t3.5 -96.5v-336zM243 166v356q0 70 -11 87q-14 21 -43 21
q-20 0 -34 -10q-16 -10 -19.5 -28t-3.5 -59v-11v-378q0 -35 10.5 -54.5t43.5 -19.5q14 0 25 3.5t16.5 13t9 15t5 22t1.5 20v22.5z" />
    <glyph glyph-name="Oacute" unicode="&#xd3;" horiz-adv-x="375" 
d="M322 897l-125 -122h-48l71 122h102zM336 158q0 -51 -12 -83q-30 -82 -143 -82q-35 0 -59 9q-58 22 -76 86q-7 24 -7 74v352q0 42 2 64t14.5 52t38.5 50q41 31 97 31q57 0 92 -28q21 -17 32 -38q14 -24 17.5 -54.5t3.5 -96.5v-336zM243 166v356q0 70 -11 87q-14 21 -43 21
q-20 0 -34 -10q-16 -10 -19.5 -28t-3.5 -59v-11v-378q0 -35 10.5 -54.5t43.5 -19.5q14 0 25 3.5t16.5 13t9 15t5 22t1.5 20v22.5z" />
    <glyph glyph-name="Ocircumflex" unicode="&#xd4;" horiz-adv-x="375" 
d="M305 775h-57l-61 71l-63 -72h-55l90 121h56zM336 158q0 -51 -12 -83q-30 -82 -143 -82q-35 0 -59 9q-58 22 -76 86q-7 24 -7 74v352q0 42 2 64t14.5 52t38.5 50q41 31 97 31q57 0 92 -28q21 -17 32 -38q14 -24 17.5 -54.5t3.5 -96.5v-336zM243 166v356q0 70 -11 87
q-14 21 -43 21q-20 0 -34 -10q-16 -10 -19.5 -28t-3.5 -59v-11v-378q0 -35 10.5 -54.5t43.5 -19.5q14 0 25 3.5t16.5 13t9 15t5 22t1.5 20v22.5z" />
    <glyph glyph-name="Otilde" unicode="&#xd5;" horiz-adv-x="375" 
d="M316 884q-17 -39 -28 -57q-23 -33 -50 -33q-8 0 -38 10l-24 11q-22 11 -37 11q-25 0 -39 -25q-1 -2 -5 -15h-26q2 6 5.5 16t4.5 13q24 66 74 66q18 0 45 -9l25 -10q18 -8 29 -8q21 0 36 30h28zM336 158q0 -51 -12 -83q-30 -82 -143 -82q-35 0 -59 9q-58 22 -76 86
q-7 24 -7 74v352q0 42 2 64t14.5 52t38.5 50q41 31 97 31q57 0 92 -28q21 -17 32 -38q14 -24 17.5 -54.5t3.5 -96.5v-336zM243 166v356q0 70 -11 87q-14 21 -43 21q-20 0 -34 -10q-16 -10 -19.5 -28t-3.5 -59v-11v-378q0 -35 10.5 -54.5t43.5 -19.5q14 0 25 3.5t16.5 13
t9 15t5 22t1.5 20v22.5z" />
    <glyph glyph-name="Odieresis" unicode="&#xd6;" horiz-adv-x="375" 
d="M289 777h-75v101h75v-101zM157 777h-72v100h72v-100zM336 158q0 -51 -12 -83q-30 -82 -143 -82q-35 0 -59 9q-58 22 -76 86q-7 24 -7 74v352q0 42 2 64t14.5 52t38.5 50q41 31 97 31q57 0 92 -28q21 -17 32 -38q14 -24 17.5 -54.5t3.5 -96.5v-336zM243 166v356
q0 70 -11 87q-14 21 -43 21q-20 0 -34 -10q-16 -10 -19.5 -28t-3.5 -59v-11v-378q0 -35 10.5 -54.5t43.5 -19.5q14 0 25 3.5t16.5 13t9 15t5 22t1.5 20v22.5z" />
    <glyph glyph-name="multiply" unicode="&#xd7;" horiz-adv-x="558" 
d="M448 188l-56 -62l-115 116l-102 -114l-54 50l105 116l-116 116l57 60l114 -114l104 116l52 -52l-105 -116z" />
    <glyph glyph-name="Oslash" unicode="&#xd8;" horiz-adv-x="375" 
d="M376 699l-40 -85q4 -24 4 -37l1 -28v-362q0 -7 -0.5 -21t-0.5 -21q-4 -88 -53 -125q-36 -28 -94 -28q-61 0 -100 29q-7 5 -23 21l-28 -56l-35 17l39 83q-9 29 -9 68v385q0 10 2 30q3 79 61 120q35 24 92 24q77 0 122 -49l25 52zM248 521v33q0 34 -7 50q-15 30 -51 30
q-23 0 -38 -11q-24 -19 -24 -78v-284zM249 162v265l-122 -262q3 -37 6 -52q11 -43 55 -43q23 0 38 11q23 19 23 81z" />
    <glyph glyph-name="Ugrave" unicode="&#xd9;" horiz-adv-x="375" 
d="M223 774h-49l-126 121h102zM336 171q0 -51 -9 -84q-9 -32 -28.5 -54t-43.5 -30.5t-39.5 -11t-31.5 -2.5q-101 0 -132 83q-12 30 -12 83v551h91v-546q0 -22 1 -33t5.5 -28t17 -25t32.5 -8q23 0 36 11q14 12 17.5 30.5t3.5 58.5v540h92v-535z" />
    <glyph glyph-name="Uacute" unicode="&#xda;" horiz-adv-x="375" 
d="M322 897l-125 -122h-48l71 122h102zM336 171q0 -51 -9 -84q-9 -32 -28.5 -54t-43.5 -30.5t-39.5 -11t-31.5 -2.5q-101 0 -132 83q-12 30 -12 83v551h91v-546q0 -22 1 -33t5.5 -28t17 -25t32.5 -8q23 0 36 11q14 12 17.5 30.5t3.5 58.5v540h92v-535z" />
    <glyph glyph-name="Ucircumflex" unicode="&#xdb;" horiz-adv-x="375" 
d="M305 775h-57l-61 71l-63 -72h-55l90 121h56zM336 171q0 -51 -9 -84q-9 -32 -28.5 -54t-43.5 -30.5t-39.5 -11t-31.5 -2.5q-101 0 -132 83q-12 30 -12 83v551h91v-546q0 -22 1 -33t5.5 -28t17 -25t32.5 -8q23 0 36 11q14 12 17.5 30.5t3.5 58.5v540h92v-535z" />
    <glyph glyph-name="Udieresis" unicode="&#xdc;" horiz-adv-x="375" 
d="M289 777h-75v101h75v-101zM157 777h-72v100h72v-100zM336 171q0 -51 -9 -84q-9 -32 -28.5 -54t-43.5 -30.5t-39.5 -11t-31.5 -2.5q-101 0 -132 83q-12 30 -12 83v551h91v-546q0 -22 1 -33t5.5 -28t17 -25t32.5 -8q23 0 36 11q14 12 17.5 30.5t3.5 58.5v540h92v-535z" />
    <glyph glyph-name="Yacute" unicode="&#xdd;" horiz-adv-x="333" 
d="M301 897l-125 -122h-48l72 122h101zM329 706l-117 -410v-296h-101v295l-107 411h95l65 -282l71 282h94z" />
    <glyph glyph-name="Thorn" unicode="&#xde;" horiz-adv-x="333" 
d="M319 333q0 -83 -16.5 -107t-77.5 -24h-93v-202h-91v706h92v-117h89q34 0 55 -8t29.5 -27.5t10.5 -36t2 -49.5v-135zM225 318v149q0 21 -7 28.5t-28 7.5h-57v-217h59q18 0 25.5 7t7.5 25z" />
    <glyph glyph-name="germandbls" unicode="&#xdf;" 
d="M281 108q0 -37 -7 -56q-19 -56 -96 -56q-18 0 -38 4v71l4 -1h9t10.5 0.5t12 2.5t10.5 6t9 10q6 10 6 43v265q0 20 -2 30q-7 31 -54 31v61q17 -2 27.5 1.5t15 14.5t5.5 20t1 27v21q0 41 -39 41q-7 0 -12 -1.5t-9 -4t-6.5 -5t-4 -6.5t-2.5 -7.5t-1.5 -7.5t-0.5 -6.5v-5.5
v-4v-596h-79v591q0 28 3 43q18 78 115 78q48 0 80 -24q18 -14 25 -31q10 -20 10 -53v-40q0 -37 -12 -54q-10 -14 -24 -21q14 -5 22 -11q22 -17 22 -75v-295z" />
    <glyph glyph-name="agrave" unicode="&#xe0;" 
d="M195 577h-49l-126 121h102zM286 0h-85q-9 20 -14 43q-17 -26 -34 -37.5t-44 -11.5q-75 0 -75 90v96q0 42 8 60t41 39l77 48q20 13 32 31v80q0 41 -35 41t-35 -40v-75h-82v66q0 31 6 50q22 65 110 65q52 0 82 -24q19 -14 27 -36q7 -18 7 -55v-340q0 -61 14 -90zM191 140
v125q-7 -6 -18 -14l-31 -21q-9 -6 -14 -12q-14 -15 -14 -42v-55q0 -34 4 -44q8 -19 28 -19q12 0 22 7q23 19 23 75z" />
    <glyph glyph-name="aacute" unicode="&#xe1;" 
d="M292 698l-125 -121h-46l72 121h99zM286 0h-85q-9 20 -14 43q-17 -26 -34 -37.5t-44 -11.5q-75 0 -75 90v96q0 42 8 60t41 39l77 48q20 13 32 31v80q0 41 -35 41t-35 -40v-75h-82v66q0 31 6 50q22 65 110 65q52 0 82 -24q19 -14 27 -36q7 -18 7 -55v-340q0 -61 14 -90z
M191 140v125q-7 -6 -18 -14l-31 -21q-9 -6 -14 -12q-14 -15 -14 -42v-55q0 -34 4 -44q8 -19 28 -19q12 0 22 7q23 19 23 75z" />
    <glyph glyph-name="acircumflex" unicode="&#xe2;" 
d="M280 577h-57l-60 73l-64 -73h-55l91 121h55zM286 0h-85q-9 20 -14 43q-17 -26 -34 -37.5t-44 -11.5q-75 0 -75 90v96q0 42 8 60t41 39l77 48q20 13 32 31v80q0 41 -35 41t-35 -40v-75h-82v66q0 31 6 50q22 65 110 65q52 0 82 -24q19 -14 27 -36q7 -18 7 -55v-340
q0 -61 14 -90zM191 140v125q-7 -6 -18 -14l-31 -21q-9 -6 -14 -12q-14 -15 -14 -42v-55q0 -34 4 -44q8 -19 28 -19q12 0 22 7q23 19 23 75z" />
    <glyph glyph-name="atilde" unicode="&#xe3;" 
d="M286 684q-15 -36 -29 -56q-23 -33 -49 -33q-8 0 -38 10l-24 11q-22 11 -37 11q-25 0 -39 -25l-5 -15h-26q2 6 5.5 16t4.5 13q24 65 74 65q18 0 45 -9l25 -9q24 -8 29 -8q22 0 36 30zM286 0h-85q-9 20 -14 43q-17 -26 -34 -37.5t-44 -11.5q-75 0 -75 90v96q0 42 8 60
t41 39l77 48q20 13 32 31v80q0 41 -35 41t-35 -40v-75h-82v66q0 31 6 50q22 65 110 65q52 0 82 -24q19 -14 27 -36q7 -18 7 -55v-340q0 -61 14 -90zM191 140v125q-7 -6 -18 -14l-31 -21q-9 -6 -14 -12q-14 -15 -14 -42v-55q0 -34 4 -44q8 -19 28 -19q12 0 22 7q23 19 23 75z
" />
    <glyph glyph-name="adieresis" unicode="&#xe4;" 
d="M262 589h-75v100h75v-100zM130 589h-72v100h72v-100zM286 0h-85q-9 20 -14 43q-17 -26 -34 -37.5t-44 -11.5q-75 0 -75 90v96q0 42 8 60t41 39l77 48q20 13 32 31v80q0 41 -35 41t-35 -40v-75h-82v66q0 31 6 50q22 65 110 65q52 0 82 -24q19 -14 27 -36q7 -18 7 -55v-340
q0 -61 14 -90zM191 140v125q-7 -6 -18 -14l-31 -21q-9 -6 -14 -12q-14 -15 -14 -42v-55q0 -34 4 -44q8 -19 28 -19q12 0 22 7q23 19 23 75z" />
    <glyph glyph-name="aring" unicode="&#xe5;" 
d="M233 651q0 -31 -22.5 -53.5t-53.5 -22.5t-54 23q-21 21 -21 53t22 54t54 22q31 0 53 -22t22 -54zM286 0h-85q-9 20 -14 43q-17 -26 -34 -37.5t-44 -11.5q-75 0 -75 90v96q0 42 8 60t41 39l77 48q20 13 32 31v80q0 41 -35 41t-35 -40v-75h-82v66q0 31 6 50q22 65 110 65
q52 0 82 -24q19 -14 27 -36q7 -18 7 -55v-340q0 -61 14 -90zM207 652q0 20 -15 34.5t-35 14.5t-34.5 -15t-14.5 -35t15 -35q14 -14 35 -14q20 0 34.5 15t14.5 35zM191 140v125q-7 -6 -18 -14l-31 -21q-9 -6 -14 -12q-14 -15 -14 -42v-55q0 -34 4 -44q8 -19 28 -19q12 0 22 7
q23 19 23 75z" />
    <glyph glyph-name="ae" unicode="&#xe6;" horiz-adv-x="458" 
d="M423 118q0 -37 -7 -59q-24 -68 -109 -68q-50 0 -80 20q-10 7 -18 17q-3 3 -13 21q-7 -14 -11 -19q-33 -39 -82 -39q-43 0 -61 27q-13 19 -13 66v106q0 23 4 36q8 29 55 60l84 56q10 7 11.5 11.5t1.5 18.5v78q0 11 -8 19.5t-26 8.5q-37 0 -37 -44v-70h-80v59q0 33 6 52
q21 71 111 71q45 0 77 -24q33 23 79 23t77 -22q21 -14 30 -38q9 -21 9 -61v-175h-157v-144v-4v-5.5t0.5 -6t1 -7t2 -6t3 -6t4.5 -5.5t7 -4.5t9 -2.5t11 -1q38 0 38 47v94h81v-80zM342 316v117q0 23 -7 34t-29 11q-40 0 -40 -47v-115h76zM185 127v138q-18 -15 -25 -20
l-25 -16q-6 -3 -13 -10q-14 -14 -14 -52v-64q0 -45 32 -45q14 0 24 8q21 15 21 61z" />
    <glyph glyph-name="ccedilla" unicode="&#xe7;" horiz-adv-x="305" 
d="M277 343h-81v91q0 18 -6.5 28t-14 12.5t-19.5 2.5q-18 0 -27.5 -8t-11.5 -18t-2 -27v-325q0 -42 40 -42q19 0 28.5 9.5t11 19.5t1.5 27v100h80v-98q0 -31 -4 -46t-10.5 -27t-15 -19.5t-16.5 -13t-18 -9t-15.5 -5t-14.5 -3.5l-8 -1l-16 -28q80 -3 82 -54q2 -41 -41 -61
t-109 -20h-5q-3 0 -10.5 0.5t-11.5 0.5v31h23q31 0 52 8t20 25t-20 22.5t-55 6.5l42 71q-89 10 -89 113v316q0 35 6 53q26 72 118 70q33 -1 57 -11.5t35.5 -23.5t17.5 -34t6.5 -31.5t0.5 -27.5v-74z" />
    <glyph glyph-name="egrave" unicode="&#xe8;" 
d="M195 577h-49l-126 121h102zM277 129q0 -43 -9 -69q-24 -69 -113 -69t-110 66q-6 19 -6 45v287q0 29 3 59q7 49 40 73q30 23 77 23q10 0 21.5 -1.5t30 -7t34.5 -20t24 -36.5q8 -23 8 -56v-173h-159v-151q0 -43 37 -43q41 1 40 47v2v94h82v-70zM196 316v113q0 15 -2 24.5
t-10.5 17t-24.5 7.5q-13 0 -24 -6q-17 -11 -17 -52v-104h78z" />
    <glyph glyph-name="eacute" unicode="&#xe9;" 
d="M292 698l-125 -121h-46l72 121h99zM277 129q0 -43 -9 -69q-24 -69 -113 -69t-110 66q-6 19 -6 45v287q0 29 3 59q7 49 40 73q30 23 77 23q10 0 21.5 -1.5t30 -7t34.5 -20t24 -36.5q8 -23 8 -56v-173h-159v-151q0 -43 37 -43q41 1 40 47v2v94h82v-70zM196 316v113
q0 15 -2 24.5t-10.5 17t-24.5 7.5q-13 0 -24 -6q-17 -11 -17 -52v-104h78z" />
    <glyph glyph-name="ecircumflex" unicode="&#xea;" 
d="M280 577h-57l-60 73l-64 -73h-55l91 121h55zM277 129q0 -43 -9 -69q-24 -69 -113 -69t-110 66q-6 19 -6 45v287q0 29 3 59q7 49 40 73q30 23 77 23q10 0 21.5 -1.5t30 -7t34.5 -20t24 -36.5q8 -23 8 -56v-173h-159v-151q0 -43 37 -43q41 1 40 47v2v94h82v-70zM196 316
v113q0 15 -2 24.5t-10.5 17t-24.5 7.5q-13 0 -24 -6q-17 -11 -17 -52v-104h78z" />
    <glyph glyph-name="edieresis" unicode="&#xeb;" 
d="M267 589h-75v100h75v-100zM135 589h-72v100h72v-100zM277 129q0 -43 -9 -69q-24 -69 -113 -69t-110 66q-6 19 -6 45v287q0 29 3 59q7 49 40 73q30 23 77 23q10 0 21.5 -1.5t30 -7t34.5 -20t24 -36.5q8 -23 8 -56v-173h-159v-151q0 -43 37 -43q41 1 40 47v2v94h82v-70z
M196 316v113q0 15 -2 24.5t-10.5 17t-24.5 7.5q-13 0 -24 -6q-17 -11 -17 -52v-104h78z" />
    <glyph glyph-name="igrave" unicode="&#xec;" horiz-adv-x="167" 
d="M122 577h-49l-126 121h102zM123 0h-80v536h80v-536z" />
    <glyph glyph-name="iacute" unicode="&#xed;" horiz-adv-x="167" 
d="M219 698l-124 -121h-47l72 121h99zM123 0h-80v536h80v-536z" />
    <glyph glyph-name="icircumflex" unicode="&#xee;" horiz-adv-x="167" 
d="M201 577h-56l-60 73l-65 -73h-54l91 121h55zM123 0h-80v536h80v-536z" />
    <glyph glyph-name="idieresis" unicode="&#xef;" horiz-adv-x="167" 
d="M189 589h-75v100h75v-100zM57 589h-72v100h72v-100zM123 0h-80v536h80v-536z" />
    <glyph glyph-name="eth" unicode="&#xf0;" 
d="M285 640l-45 -18q22 -34 30 -79.5t8 -123.5v-301q0 -127 -122 -127q-31 0 -53.5 9.5t-34 21t-18.5 30.5t-8.5 30t-2.5 27q-1 13 -1 35v247q0 65 12 91q11 26 35 43q29 21 63 21q37 0 53 -19q-7 39 -26 73l-95 -37l-20 43l85 34q-16 18 -46 45l62 31q19 -15 34 -30
q2 -2 8.5 -9.5t9.5 -10.5l49 19zM199 111v316q0 16 -1.5 25t-10.5 17.5t-26 8.5q-19 0 -29 -9.5t-12 -20t-2 -28.5v-315v-4v-7t0.5 -8t2 -8.5t4.5 -7.5t6.5 -6.5t10 -4.5t14.5 -2q26 0 34.5 14t8.5 40z" />
    <glyph glyph-name="ntilde" unicode="&#xf1;" 
d="M281 684q-15 -36 -29 -56q-21 -33 -49 -33q-8 0 -38 10l-25 11l-4 2q-5 2 -9.5 4t-10.5 3.5t-12 1.5q-26 0 -39 -25q-2 -4 -6 -15h-25q6 20 9 29q24 65 75 65q18 0 45 -9l24 -9q20 -8 30 -8q22 0 36 30zM278 0h-82v420q0 24 -4 33q-7 19 -31 19q-15 0 -26 -9
q-16 -13 -16 -58v-405h-80v536h80v-35q33 44 78 44q30 0 51 -16q14 -11 21 -29t8 -30.5t1 -35.5v-434z" />
    <glyph glyph-name="ograve" unicode="&#xf2;" 
d="M195 577h-49l-126 121h102zM278 118q0 -35 -8 -59q-24 -68 -113 -68q-46 0 -73 18q-22 14 -33 40t-12 42.5t-1 52.5v247q0 32 1 47t9.5 39t26.5 39q17 15 36 21q19 7 49 7q87 0 110 -62q8 -21 8 -63v-301zM199 111v316q0 25 -7.5 38t-31.5 13q-16 0 -25 -6
q-17 -12 -17 -52v-315q0 -35 17 -44q9 -4 21 -4q26 0 34.5 14t8.5 40z" />
    <glyph glyph-name="oacute" unicode="&#xf3;" 
d="M292 698l-125 -121h-46l72 121h99zM278 118q0 -35 -8 -59q-24 -68 -113 -68q-46 0 -73 18q-22 14 -33 40t-12 42.5t-1 52.5v247q0 32 1 47t9.5 39t26.5 39q17 15 36 21q19 7 49 7q87 0 110 -62q8 -21 8 -63v-301zM199 111v316q0 25 -7.5 38t-31.5 13q-16 0 -25 -6
q-17 -12 -17 -52v-315q0 -35 17 -44q9 -4 21 -4q26 0 34.5 14t8.5 40z" />
    <glyph glyph-name="ocircumflex" unicode="&#xf4;" 
d="M280 577h-57l-60 73l-64 -73h-55l91 121h55zM278 118q0 -35 -8 -59q-24 -68 -113 -68q-46 0 -73 18q-22 14 -33 40t-12 42.5t-1 52.5v247q0 32 1 47t9.5 39t26.5 39q17 15 36 21q19 7 49 7q87 0 110 -62q8 -21 8 -63v-301zM199 111v316q0 25 -7.5 38t-31.5 13
q-16 0 -25 -6q-17 -12 -17 -52v-315q0 -35 17 -44q9 -4 21 -4q26 0 34.5 14t8.5 40z" />
    <glyph glyph-name="otilde" unicode="&#xf5;" 
d="M286 684q-15 -36 -29 -56q-23 -33 -49 -33q-8 0 -38 10l-24 11q-22 11 -37 11q-25 0 -39 -25l-5 -15h-26q2 6 5.5 16t4.5 13q24 65 74 65q18 0 45 -9l25 -9q24 -8 29 -8q22 0 36 30zM278 118q0 -35 -8 -59q-24 -68 -113 -68q-46 0 -73 18q-22 14 -33 40t-12 42.5t-1 52.5
v247q0 32 1 47t9.5 39t26.5 39q17 15 36 21q19 7 49 7q87 0 110 -62q8 -21 8 -63v-301zM199 111v316q0 25 -7.5 38t-31.5 13q-16 0 -25 -6q-17 -12 -17 -52v-315q0 -35 17 -44q9 -4 21 -4q26 0 34.5 14t8.5 40z" />
    <glyph glyph-name="odieresis" unicode="&#xf6;" 
d="M262 589h-75v100h75v-100zM130 589h-72v100h72v-100zM278 118q0 -35 -8 -59q-24 -68 -113 -68q-46 0 -73 18q-22 14 -33 40t-12 42.5t-1 52.5v247q0 32 1 47t9.5 39t26.5 39q17 15 36 21q19 7 49 7q87 0 110 -62q8 -21 8 -63v-301zM199 111v316q0 25 -7.5 38t-31.5 13
q-16 0 -25 -6q-17 -12 -17 -52v-315q0 -35 17 -44q9 -4 21 -4q26 0 34.5 14t8.5 40z" />
    <glyph glyph-name="divide" unicode="&#xf7;" horiz-adv-x="559" 
d="M326 394h-92v110h92v-110zM480 260h-401v75h401v-75zM327 90h-92v111h92v-111z" />
    <glyph glyph-name="oslash" unicode="&#xf8;" 
d="M301 533l-28 -62q4 -22 4 -42v-319q0 -30 -7 -51q-23 -69 -113 -69q-54 0 -92 36l-18 -37l-28 14l27 59q-8 26 -8 50v302q0 38 9 60q27 70 114 70q44 0 73 -18q9 -6 19 -16l19 37zM198 387v44q0 46 -38 46q-17 0 -26 -7q-17 -12 -17 -52v-202zM198 116v196l-81 -172v-43
q0 -11 2 -16q8 -23 37 -23q16 0 24 6q18 12 18 52z" />
    <glyph glyph-name="ugrave" unicode="&#xf9;" 
d="M195 577h-49l-126 121h102zM276 0h-80v34q-33 -44 -79 -44q-30 0 -50 16q-31 25 -31 95v435h83v-420q0 -28 3 -34q9 -18 32 -18q16 0 26 8q16 13 16 58v406h80v-536z" />
    <glyph glyph-name="uacute" unicode="&#xfa;" 
d="M292 698l-125 -121h-46l72 121h99zM276 0h-80v34q-33 -44 -79 -44q-30 0 -50 16q-31 25 -31 95v435h83v-420q0 -28 3 -34q9 -18 32 -18q16 0 26 8q16 13 16 58v406h80v-536z" />
    <glyph glyph-name="ucircumflex" unicode="&#xfb;" 
d="M274 577h-56l-61 73l-64 -73h-54l91 121h55zM276 0h-80v34q-33 -44 -79 -44q-30 0 -50 16q-31 25 -31 95v435h83v-420q0 -28 3 -34q9 -18 32 -18q16 0 26 8q16 13 16 58v406h80v-536z" />
    <glyph glyph-name="udieresis" unicode="&#xfc;" 
d="M262 589h-75v100h75v-100zM130 589h-72v100h72v-100zM276 0h-80v34q-33 -44 -79 -44q-30 0 -50 16q-31 25 -31 95v435h83v-420q0 -28 3 -34q9 -18 32 -18q16 0 26 8q16 13 16 58v406h80v-536z" />
    <glyph glyph-name="yacute" unicode="&#xfd;" horiz-adv-x="271" 
d="M271 698l-124 -121h-47l72 121h99zM265 536l-102 -598q-11 -56 -46 -72q-20 -9 -54 -9q-13 0 -41 2v77q44 0 56 18q11 17 6 56l-80 526h82l47 -425l49 425h83z" />
    <glyph glyph-name="thorn" unicode="&#xfe;" 
d="M275 103q0 -22 -1.5 -36t-11.5 -33t-29 -30q-17 -10 -40 -10q-43 0 -75 45v-184h-81v851h82v-209q22 47 76 47q80 0 80 -100v-341zM195 117v303q0 16 -1 24.5t-9.5 18.5t-25.5 10q-15 0 -24 -6t-12.5 -18.5t-4 -20t-0.5 -20.5v-293q0 -47 38 -49q39 -2 39 51z" />
    <glyph glyph-name="ydieresis" unicode="&#xff;" horiz-adv-x="271" 
d="M241 589h-75v100h75v-100zM109 589h-72v100h72v-100zM265 536l-102 -598q-11 -56 -46 -72q-20 -9 -54 -9q-13 0 -41 2v77q44 0 56 18q11 17 6 56l-80 526h82l47 -425l49 425h83z" />
    <glyph glyph-name="OE" unicode="&#x152;" horiz-adv-x="479" 
d="M466 0h-237q-34 -4 -52 -4q-54 0 -89 28q-18 14 -28.5 31.5t-14.5 42t-5 39.5t-1 45v323q0 106 15 140q28 64 131 64q27 0 56 -3h218v-87h-143v-209h123v-86h-124v-239h151v-85zM222 158v421q0 9 -2.5 18t-13.5 17.5t-29 8.5t-30 -8q-21 -15 -21 -57v-383q0 -43 2 -53
q6 -41 47 -41q18 0 29 9q12 9 15 23t3 45z" />
    <glyph glyph-name="oe" unicode="&#x153;" horiz-adv-x="479" 
d="M443 250h-163v-144q0 -33 19 -43q11 -5 22 -5q13 0 25 7q16 11 16 48v85h80v-81q0 -36 -7 -56q-23 -71 -112 -71q-42 0 -69 16q-9 6 -15 12q-33 -28 -83 -28q-44 0 -72 16q-33 18 -43 62q-4 16 -4 37v316q0 35 7 55q24 71 113 71q47 0 84 -25q36 25 82 25
q50 -1 77.5 -21.5t36.5 -48.5q6 -17 6 -50v-177zM363 316v113q0 10 -0.5 14t-3.5 15t-12.5 16t-24.5 5q-16 0 -26 -7q-16 -12 -16 -55v-101h83zM200 109v317q0 7 -2 21q-5 32 -41 32q-16 0 -25 -8q-16 -12 -16 -48v-317q0 -50 41 -49q15 0 25 7q18 11 18 45z" />
    <glyph glyph-name="Scaron" unicode="&#x160;" horiz-adv-x="333" 
d="M289 896l-91 -120h-55l-90 119h57l60 -71l64 72h55zM306 156q0 -11 -0.5 -18.5t-3.5 -31t-12 -41t-22.5 -37t-39 -30.5t-58.5 -11q-52 -1 -85 22q-24 17 -36.5 42t-14.5 43t-2 47v117h86v-133q0 -66 49 -64q25 1 34.5 20.5t9.5 57.5v4q0 16 -2 31.5t-3.5 26.5t-8.5 26
t-9.5 22.5t-13.5 25t-15 23.5t-19.5 28t-20.5 30q-1 1 -9.5 14t-11.5 17.5t-11.5 18t-12.5 22t-11 23t-10 26.5t-7.5 27t-6 30t-1.5 31q0 15 2 30.5t10 39.5t22.5 41.5t42.5 30.5t66 13q119 0 119 -121v-125h-85v125q0 48 -38 48q-16 0 -26 -6.5t-14 -20.5t-4.5 -22
t-0.5 -23q0 -35 10.5 -67t22.5 -51.5t43 -66.5q2 -2 17.5 -24t22 -32.5t20 -35.5t20 -43.5t12.5 -45.5t6 -53z" />
    <glyph glyph-name="scaron" unicode="&#x161;" horiz-adv-x="292" 
d="M270 698l-91 -121h-56l-88 121h57l59 -72l65 72h54zM268 137q1 -61 -28.5 -104t-93.5 -44q-39 0 -65 15q-57 33 -57 116v77h76v-45q0 -2 -0.5 -13.5t0 -17l1.5 -16.5t4 -17t8 -13t13 -10.5t19 -3.5q21 0 31.5 13t12 24.5t1.5 31.5q0 30 -9 48.5t-35 44.5l-43 42
q-26 26 -36.5 38t-22.5 41.5t-12 66.5q0 62 30 97.5t92 34.5q27 0 47 -7t31.5 -22.5t18 -27.5t9 -37t3 -36t0.5 -38h-74q0 24 -1 37t-4.5 28.5t-12.5 22t-24 6.5q-40 0 -40 -48v-2q0 -22 7 -38.5t13.5 -24.5t22.5 -23l37 -35q25 -23 39 -40t27.5 -49.5t14.5 -71.5z" />
    <glyph glyph-name="Ydieresis" unicode="&#x178;" horiz-adv-x="333" 
d="M269 777h-76v101h76v-101zM137 777h-72v100h72v-100zM329 706l-117 -410v-296h-101v295l-107 411h95l65 -282l71 282h94z" />
    <glyph glyph-name="florin" unicode="&#x192;" horiz-adv-x="271" 
d="M256 703l-8 -68h-13q-11 0 -18 -2.5t-10.5 -8t-4.5 -9t-2 -11.5l-8 -70h47l-8 -66h-47l-60 -517q-2 -19 -4 -26.5t-9.5 -23t-24.5 -22t-43 -6.5q-14 0 -54 2l8 69h14q16 0 24 6.5t10 24.5l57 493h-44l8 66h45l10 94q2 17 4 26t9.5 23.5t25 21.5t43.5 7q23 0 53 -3z" />
    <glyph glyph-name="circumflex" unicode="&#x2c6;" horiz-adv-x="208" 
d="M222 577h-57l-60 73l-64 -73h-55l91 121h56z" />
    <glyph glyph-name="tilde" unicode="&#x2dc;" horiz-adv-x="208" 
d="M228 684q-12 -29 -29 -56q-23 -33 -49 -33q-18 0 -38 10l-25 11q-1 0 -7.5 3t-14.5 5.5t-15 2.5q-25 0 -38 -25q-2 -4 -6 -15h-26q6 20 9 29q24 65 75 65q22 0 45 -9l24 -9q22 -8 30 -8q22 0 36 30z" />
    <glyph glyph-name="endash" unicode="&#x2013;" horiz-adv-x="348" 
d="M322 249h-296v84h296v-84z" />
    <glyph glyph-name="emdash" unicode="&#x2014;" horiz-adv-x="495" 
d="M469 249h-443v84h443v-84z" />
    <glyph glyph-name="quoteleft" unicode="&#x2018;" horiz-adv-x="146" 
d="M114 440h-81v107q0 67 12.5 97t64.5 60v-22q-7 -5 -12 -10t-8.5 -11t-6.5 -10.5t-4.5 -13t-2.5 -12t-1.5 -14t-0.5 -13.5v-14.5v-14.5h40v-129z" />
    <glyph glyph-name="quoteright" unicode="&#x2019;" horiz-adv-x="146" 
d="M112 599q0 -67 -12.5 -97t-63.5 -60v22q14 10 22 21.5t10.5 31.5t3 26t0.5 34h-40v129h80v-107z" />
    <glyph glyph-name="quotesinglbase" unicode="&#x201a;" horiz-adv-x="146" 
d="M111 22q0 -67 -12.5 -97t-63.5 -60v22q7 5 12 10t8.5 11t6.5 10.5t4.5 13t2.5 12t1.5 14t0.5 13.5v14.5v14.5h-40v129h80v-107z" />
    <glyph glyph-name="quotedblleft" unicode="&#x201c;" horiz-adv-x="292" 
d="M258 442h-81v107q0 67 13 97t64 60v-22q-7 -5 -12 -10t-8.5 -11t-6.5 -10.5t-4.5 -13t-2.5 -12t-1.5 -14t-0.5 -13.5v-14.5v-14.5h40v-129zM127 442h-80v107q0 67 12.5 97t63.5 60v-22q-7 -5 -12 -10t-8.5 -11t-6.5 -10.5t-4.5 -13t-2.5 -12t-1.5 -14t-0.5 -13.5v-14.5
v-14.5h40v-129z" />
    <glyph glyph-name="quotedblright" unicode="&#x201d;" horiz-adv-x="292" 
d="M254 597q0 -67 -13 -96.5t-64 -59.5v21q14 10 22 21.5t10.5 31.5t3 26t0.5 34h-40v131h81v-109zM121 598q0 -67 -12.5 -97t-63.5 -60v22q7 5 12 10t8.5 11.5t6.5 11t4.5 12.5t2.5 12t1.5 14t0.5 13v14.5v14.5h-40v130h80v-108z" />
    <glyph glyph-name="quotedblbase" unicode="&#x201e;" horiz-adv-x="292" 
d="M250 22q0 -67 -13 -97t-64 -60v22q7 5 12 10t8.5 11t6.5 10.5t4.5 13t2.5 12t1.5 14t0.5 13.5v14.5v14.5h-40v129h81v-107zM118 22q0 -67 -12.5 -97t-63.5 -60v22q7 5 12 10t8.5 11t6.5 10.5t4.5 13t2.5 12t1.5 14t0.5 13.5v14.5v14.5h-40v129h80v-107z" />
    <glyph glyph-name="dagger" unicode="&#x2020;" horiz-adv-x="333" 
d="M322 431h-105v-431h-95v433h-106v92h106v181h95v-182h105v-93z" />
    <glyph glyph-name="daggerdbl" unicode="&#x2021;" horiz-adv-x="333" 
d="M317 160h-104v-161h-93v161h-104v84h104v234h-104v85h104v140h93v-140h104v-85h-104v-234h104v-84z" />
    <glyph glyph-name="bullet" unicode="&#x2022;" horiz-adv-x="333" 
d="M273 224h-213v264h213v-264z" />
    <glyph glyph-name="ellipsis" unicode="&#x2026;" horiz-adv-x="1000" 
d="M882 0h-98v111h98v-111zM549 0h-98v111h98v-111zM216 0h-98v111h98v-111z" />
    <glyph glyph-name="perthousand" unicode="&#x2030;" horiz-adv-x="812" 
d="M790 98v-4q0 -18 -1.5 -30t-9 -30.5t-28 -29t-53.5 -10.5q-44 0 -66 22q-8 7 -13 17t-8 18t-4.5 22t-1.5 19v21v17v195q0 18 1 29q1 17 3.5 28t11 28.5t28 27t48.5 9.5q57 0 75 -29t18 -86v-234zM561 98v-22.5t-4.5 -25.5t-13.5 -28.5t-28 -18.5t-46 -9q-23 0 -40 5
t-27 17.5t-15.5 22t-7.5 30t-2.5 29t-0.5 32.5v195q0 18 1 28q3 94 91 94q17 0 31 -3t23.5 -9t16.5 -12.5t11 -16.5t6.5 -17t3.5 -17.5t1.5 -16t0 -14t-0.5 -9.5v-234zM472 711l-309 -737l-49 21l309 736zM207 363v-23t-4.5 -25.5t-13.5 -28t-28 -18.5t-47 -9q-23 0 -40 5
t-26.5 17.5t-15 21.5t-7.5 30t-2.5 29t-0.5 32v196q0 18 1 28q3 94 91 94q57 0 75 -29.5t18 -85.5v-234zM733 98v252q0 16 -1 24t-9.5 16.5t-24.5 8.5q-6 0 -10.5 -1t-8 -1.5t-6 -3.5t-4.5 -4t-3 -5.5t-1.5 -5.5t-1 -7t-0.5 -6.5v-7.5v-7v-252q0 -14 0.5 -19t3 -15.5
t10.5 -15t21 -4.5q6 0 10.5 1t8 2t6 4.5t4.5 5t3 6.5t1.5 6.5t1 7.5t0.5 7v8v6zM504 98v252q0 16 -1 24t-9.5 16.5t-24.5 8.5q-17 0 -25.5 -8.5t-9 -15.5t-0.5 -25v-252q0 -14 0.5 -19t3 -15.5t10.5 -15t21 -4.5q8 0 14.5 1.5t10 6t6 7t3.5 10t1 9.5v11v9zM149 363v252
q0 16 -1 24t-9 16.5t-25 8.5t-25 -8.5t-8.5 -15.5t-0.5 -25v-252q0 -37 10 -46q8 -8 25 -8q7 0 12.5 1.5t9 3.5t6 6.5t4 7t2 9t0.5 8.5v10v8z" />
    <glyph glyph-name="guilsinglleft" unicode="&#x2039;" horiz-adv-x="187" 
d="M160 154l-132 119v105l131 119v-100l-78 -72l79 -71v-100z" />
    <glyph glyph-name="guilsinglright" unicode="&#x203a;" horiz-adv-x="187" 
d="M161 270l-132 -116v100l79 71l-80 71v98l133 -116v-108z" />
    <glyph glyph-name="Euro" unicode="&#x20ac;" horiz-adv-x="413" 
d="M398 664l-25 -82q-43 57 -114 57q-54 0 -71 -27.5t-17 -84.5v-90h174l-15 -54h-157l-1 -45l150 -1l-15 -53l-137 -1l1 -99q1 -61 19.5 -90t74.5 -29q68 0 118 53v-92q-60 -34 -143 -34q-104 0 -139 76q-16 34 -16 114v101h-68l11 54l58 1v44h-67l11 55h55v74q0 34 1 51.5
t8.5 43t22.5 45.5q46 62 141 62q90 0 140 -49z" />
    <glyph glyph-name="trademark" unicode="&#x2122;" horiz-adv-x="567" 
d="M532 374h-62l5 268l-61 -268h-68l-60 267l4 -267h-60v332h95l56 -251l54 251h97v-332zM203 649h-67v-275h-65v275h-65v57h197v-57z" />
    </font>
</defs>
</svg>
