<?xml version="1.0" standalone="no"?>
<!DOCTYPE svg PUBLIC "-//W3C//DTD SVG 1.1//EN" "http://www.w3.org/Graphics/SVG/1.1/DTD/svg11.dtd" >
<svg xmlns="http://www.w3.org/2000/svg" xmlns:xlink="http://www.w3.org/1999/xlink" version="1.1">
<metadata>
Created by FontForge 20170731 at Thu May 17 20:00:00 2007
 By Aleksey,,,
Copyright  1997, 2001, Berthold LLC. All rights reserved. Akzidenz-Grotesk is a trademark of Berthold Types Limited.
</metadata>
<defs>
<font id="AkzidenzGroteskBQ-LightSC" horiz-adv-x="708" >
  <font-face 
    font-family="Akzidenz-Grotesk BQ Light Small"
    font-weight="300"
    font-stretch="normal"
    units-per-em="1000"
    panose-1="0 0 0 0 0 0 0 0 0 0"
    ascent="800"
    descent="-200"
    x-height="503"
    cap-height="706"
    bbox="-92 -244 1219 907"
    underline-thickness="59"
    underline-position="-350"
    unicode-range="U+0020-2122"
  />
<missing-glyph horiz-adv-x="500" 
 />
    <glyph glyph-name=".notdef" horiz-adv-x="500" 
 />
    <glyph glyph-name=".null" horiz-adv-x="0" 
 />
    <glyph glyph-name="nonmarkingreturn" horiz-adv-x="333" 
 />
    <glyph glyph-name="space" unicode=" " horiz-adv-x="271" 
 />
    <glyph glyph-name="exclam" unicode="!" horiz-adv-x="208" 
d="M156 307l-9 -131h-47l-8 131v405h64v-405zM162 0h-76v116h76v-116z" />
    <glyph glyph-name="quotedbl" unicode="&#x22;" horiz-adv-x="357" 
d="M306 743l-26 -291h-30l-27 291h83zM134 743l-26 -291h-30l-27 291h83z" />
    <glyph glyph-name="numbersign" unicode="#" horiz-adv-x="667" 
d="M624 410h-175l-13 -97h168v-54h-175l-35 -259h-62l38 259h-101l-38 -259h-58l36 259h-167v54h175l13 97h-167v57h174l32 241h63l-34 -241h100l31 241h60l-33 -241h168v-57zM390 410h-100l-14 -97h101z" />
    <glyph glyph-name="dollar" unicode="$" horiz-adv-x="604" 
d="M552 203q0 -17 -4 -35.5t-13.5 -43t-31 -48.5t-52.5 -42q-58 -32 -128 -34v-92h-58v92q-118 12 -188 94q-30 34 -51 84l71 7q16 -35 46 -64.5t65 -43.5q26 -11 57 -15v284q-199 53 -197 184q0 75 50 120q54 51 147 56v62h58v-62q43 -2 84 -21t67 -50q34 -45 46 -92
l-67 -7q-21 56 -57.5 80t-72.5 27v-247q2 -1 14.5 -4t24.5 -6.5t28.5 -9t34 -13t32.5 -15.5q95 -51 95 -145zM265 414v231q-29 0 -58 -11q-73 -29 -73 -101q0 -47 41 -78q39 -31 90 -41zM484 197q0 51 -42 81q-41 31 -119 49v-267q44 0 78 15q33 14 53 39.5t25 45t5 37.5z
" />
    <glyph glyph-name="percent" unicode="%" horiz-adv-x="875" 
d="M844 212q-8 -135 -68 -188q-37 -32 -89 -32q-43 0 -75 22q-34 23 -57.5 75t-23.5 130q0 128 58 189q38 41 100 41q64 -1 102 -44q53 -62 53 -193zM638 730l-353 -769l-40 18l351 770zM344 477q0 -105 -49 -168q-42 -52 -108 -52q-42 0 -73 20q-83 54 -83 208
q0 139 69 198q36 31 89 31q46 0 77 -22q36 -25 58 -79.5t20 -135.5zM793 213q1 78 -21 129q-28 64 -84 64q-27 0 -52 -20q-56 -47 -54 -165q0 -48 11 -92q14 -55 46 -78q20 -14 49 -14q102 0 105 176zM293 478q1 89 -27 141t-78 51q-52 0 -81 -55q-25 -48 -25 -131
q0 -94 32 -142q25 -40 74 -40q102 1 105 176z" />
    <glyph glyph-name="ampersand" unicode="&#x26;" horiz-adv-x="646" 
d="M620 -9q-44 1 -76 21q-14 8 -31 23q-9 9 -24.5 26.5t-19.5 21.5q-23 -31 -58 -53q-58 -38 -136 -38q-82 0 -140 42q-80 60 -80 154q0 47 21.5 90.5t40 63t37.5 34.5q14 12 42.5 30.5t35.5 23.5q-57 75 -57 151q0 62 38.5 100t101.5 38q60 0 99 -32.5t39 -91.5
q0 -48 -30 -92q-14 -20 -32.5 -38t-33 -28t-41.5 -28q15 -23 44.5 -67.5t36.5 -54.5q46 -68 72 -99q23 62 25 128h63q-1 -71 -29 -135q-8 -19 -21 -44q4 -5 12.5 -15.5t12.5 -15.5q22 -28 40.5 -40.5t47.5 -13.5v-61zM391 591q0 24 -17 48t-58 24q-25 0 -42 -9t-24.5 -23
t-10.5 -26t-3 -24q0 -20 9.5 -45t15 -34.5t23.5 -39.5q67 31 95 81q12 24 12 48zM435 128q-36 50 -77 110q-82 124 -93 140q-30 -19 -34 -22q-107 -72 -107 -165q0 -37 15 -64q16 -28 50 -53t88 -24q94 0 158 78z" />
    <glyph glyph-name="quotesingle" unicode="'" horiz-adv-x="185" 
d="M134 743l-26 -291h-30l-27 291h83z" />
    <glyph glyph-name="parenleft" unicode="(" horiz-adv-x="308" 
d="M311 -125l-25 -37q-118 90 -180.5 215t-62.5 272q0 101 33 200q38 113 114 193q38 39 93 79l24 -33q-58 -50 -91 -94q-100 -134 -100 -341q0 -162 71 -302q28 -54 61 -93q27 -33 63 -59z" />
    <glyph glyph-name="parenright" unicode=")" horiz-adv-x="313" 
d="M275 315q0 -100 -34 -202q-37 -111 -115 -193q-34 -36 -93 -78l-24 32q61 53 91 94q101 135 101 343q0 163 -70 301q-27 51 -60 93q-25 29 -63 59l25 37q118 -91 180 -215.5t62 -270.5z" />
    <glyph glyph-name="asterisk" unicode="*" horiz-adv-x="357" 
d="M324 595l-110 -39l67 -91l-37 -27l-68 90l-61 -90l-38 27l62 92l-106 30l14 43l106 -28v109h48v-111l108 36z" />
    <glyph glyph-name="plus" unicode="+" horiz-adv-x="724" 
d="M630 263h-238v-238h-60v238h-238v60h238v237h60v-237h238v-60z" />
    <glyph glyph-name="comma" unicode="," horiz-adv-x="167" 
d="M123 36q0 -52 -1.5 -74t-11.5 -54t-33 -66l-33 23q23 38 30.5 63.5t7.5 71.5h-38v116h79v-80z" />
    <glyph glyph-name="hyphen" unicode="-" horiz-adv-x="341" 
d="M303 264h-265v60h265v-60z" />
    <glyph glyph-name="period" unicode="." horiz-adv-x="167" 
d="M123 0h-79v116h79v-116z" />
    <glyph glyph-name="slash" unicode="/" horiz-adv-x="479" 
d="M469 706l-383 -706h-76l385 706h74z" />
    <glyph glyph-name="zero" unicode="0" horiz-adv-x="521" 
d="M492 268q0 -60 -14 -111q-23 -79 -80 -124t-138 -45q-76 0 -130 40.5t-77.5 101t-23.5 133.5q0 62 19 116q26 73 82.5 113.5t134.5 40.5q109 0 171 -80q54 -70 56 -185zM430 266q0 54 -15 101q-13 35 -27 54q-46 61 -125 61q-42 0 -76 -19q-40 -23 -68 -72.5t-28 -128.5
q0 -138 80 -194q38 -27 92 -27t92 28q75 54 75 197z" />
    <glyph glyph-name="one" unicode="1" horiz-adv-x="313" 
d="M33 366v51q73 0 100.5 29.5t31.5 80.5h55v-527h-63v398q-38 -32 -114 -32h-10z" />
    <glyph glyph-name="two" unicode="2" horiz-adv-x="521" 
d="M484 0h-422v49q23 16 87 61.5t98 70.5q93 70 119 121q15 29 15 59q0 52 -36.5 86t-89.5 34q-31 0 -63 -15q-41 -20 -55.5 -54.5t-14.5 -62.5q0 -17 6 -35l-66 21q-6 66 28 116q58 82 166 82q112 0 160 -77q28 -44 28 -95q0 -67 -45 -123q-63 -79 -198 -156l-58 -33l341 6
v-55z" />
    <glyph glyph-name="three" unicode="3" horiz-adv-x="521" 
d="M473 26q0 -41 -16 -78q-19 -44 -67.5 -80t-128.5 -36q-49 0 -89 14.5t-65 38t-39.5 45t-22.5 43.5q-9 23 -14 62l63 18q0 -13 5 -33q11 -58 53 -95q48 -39 111 -39q42 0 74 17q43 22 58 59.5t15 67.5q0 52 -35 86.5t-79 46.5t-93 12q-13 0 -41 -2l1 51q110 -8 170 28
q58 35 58 100q0 22 -9 45q-12 33 -44.5 59t-90.5 26q-55 0 -87.5 -26t-45.5 -57q-6 -15 -9 -28l-58 22q10 31 23 51q28 43 76 66t102 23q40 0 80 -14q55 -20 89 -64.5t34 -101.5q0 -53 -31 -91q-33 -41 -89 -56q-2 0 -6.5 -1t-10.5 -2l-12 -2q171 -35 171 -175z" />
    <glyph glyph-name="four" unicode="4" horiz-adv-x="521" 
d="M499 0h-93v-168h-59v168h-311v53l311 471h59v-471h93v-53zM355 460q-31 -63 -64 -113l-189 -294h245v96q0 56 2 170q0 29 2 87q1 9 2.5 27.5t1.5 26.5z" />
    <glyph glyph-name="five" unicode="5" horiz-adv-x="521" 
d="M482 72q0 -49 -15 -93q-24 -69 -79 -108t-129 -39q-37 0 -73 12q-77 27 -110 99q-15 35 -21 77l66 21q0 -25 3 -40q10 -53 48 -85t93 -32q35 0 66 15q34 17 60.5 59t26.5 107q0 51 -14 86q-13 34 -46 63t-92 29q-76 0 -114 -54q-14 -20 -23 -52l-47 6l10 378h349v-52
h-296l-9 -245q10 16 17 23q45 50 128 50q45 0 85 -18q59 -27 87.5 -82t28.5 -125z" />
    <glyph glyph-name="six" unicode="6" horiz-adv-x="521" 
d="M485 221q0 -56 -17 -100q-8 -21 -21 -40.5t-35.5 -42.5t-59 -36.5t-82.5 -13.5q-77 0 -132 41q-97 74 -97 279q0 155 46 249q21 42 51 71q61 61 155 61q110 0 156 -83q14 -25 24 -65l-58 -20q-5 33 -11 46q-15 36 -47 54t-71 17q-79 0 -126 -71q-49 -75 -56 -218
q10 19 19 31q54 72 154 72q98 0 153 -65.5t55 -165.5zM422 226q-2 102 -62 146q-38 30 -89 29q-71 0 -119 -52q-44 -47 -44 -120q0 -52 23.5 -99t66.5 -71q33 -20 76 -20q36 0 66 16q82 44 82 171z" />
    <glyph glyph-name="seven" unicode="7" horiz-adv-x="521" 
d="M489 469q-68 -99 -98 -156q-114 -214 -140 -481l-67 1q12 91 35 188q26 104 71 208.5t137 239.5h-315v-154h-52v206h429v-52z" />
    <glyph glyph-name="eight" unicode="8" horiz-adv-x="521" 
d="M487 182q0 -87 -63 -140q-62 -54 -167 -54q-84 0 -141 40q-82 58 -82 159q1 54 25 89.5t51 53.5q18 13 63 31q-29 12 -47 23q-68 43 -68 127q0 40 17 76q50 102 186 102q131 0 181 -91q20 -40 20 -84q0 -32 -11 -62q-8 -23 -21 -40t-31 -27.5t-26 -14.5t-23 -9
q43 -15 74 -41q66 -56 63 -138zM403 509q0 59 -40.5 94t-100.5 35q-63 0 -100 -30q-44 -36 -45 -94q0 -36 15 -62q16 -28 47 -44t49.5 -19t35.5 -3q57 0 98 33t41 90zM425 184q0 36 -14 65q-15 32 -52.5 56.5t-98.5 24.5q-70 0 -116 -38.5t-45 -107.5q1 -67 47.5 -105
t114.5 -38q69 0 116.5 38t47.5 105z" />
    <glyph glyph-name="nine" unicode="9" horiz-adv-x="521" 
d="M480 201q0 -198 -79 -293q-63 -76 -169 -76q-94 0 -148 69q-24 33 -35 75l61 24q4 -26 11 -43q11 -27 39.5 -50.5t76.5 -23.5q40 0 67 14q44 22 75 83q36 70 38 195q-11 -22 -15 -28q-19 -29 -59.5 -53.5t-99.5 -24.5q-51 0 -89 18q-60 26 -90 85t-30 130q0 116 73 179
q29 26 68 40q33 11 77 11q82 0 136 -46q92 -78 92 -285zM412 292q0 45 -17 84q-25 59 -68 82t-82 23q-44 0 -80 -24q-69 -50 -67 -165q0 -41 13 -77q17 -43 54 -69t83 -26q27 0 53 9q53 18 82 62t29 101z" />
    <glyph glyph-name="colon" unicode=":" horiz-adv-x="208" 
d="M165 352h-79v116h79v-116zM165 0h-79v116h79v-116z" />
    <glyph glyph-name="semicolon" unicode=";" horiz-adv-x="208" 
d="M165 352h-79v116h79v-116zM165 1q0 -51 -9.5 -84t-37.5 -75l-32 23q23 39 30.5 64.5t7.5 70.5h-38v116h79v-115z" />
    <glyph glyph-name="less" unicode="&#x3c;" horiz-adv-x="724" 
d="M580 20l-466 236v68l466 239v-64l-409 -208l409 -206v-65z" />
    <glyph glyph-name="equal" unicode="=" horiz-adv-x="724" 
d="M625 349h-526v59h526v-59zM625 173h-526v58h526v-58z" />
    <glyph glyph-name="greater" unicode="&#x3e;" horiz-adv-x="724" 
d="M610 257l-465 -240v65l409 208l-409 206v64l465 -236v-67z" />
    <glyph glyph-name="question" unicode="?" horiz-adv-x="479" 
d="M462 525q0 -64 -31 -113q-21 -34 -95 -101q-42 -41 -50 -55q-11 -22 -11 -67v-20h-62v35q0 56 18 85q9 14 25 30q0 1 67 64q75 73 75 142q0 19 -7 43q-30 91 -131 91q-29 0 -54 -9q-39 -15 -58.5 -49t-19.5 -77q0 -51 25 -97l-75 22q-11 51 -11 81q0 50 17 87
q15 33 41 55.5t55 31.5t47 11.5t35 2.5q97 0 154 -66q46 -53 46 -127zM284 0h-78v116h78v-116z" />
    <glyph glyph-name="at" unicode="@" horiz-adv-x="896" 
d="M827 424q0 -70 -19 -131q-24 -80 -81 -150.5t-128 -70.5q-80 0 -80 93q-65 -92 -151 -92q-64 0 -95.5 46t-31.5 113q0 72 30 140.5t84 108.5q46 34 95 34q83 0 119 -95l16 72h59l-32 -146q-2 -10 -9.5 -41.5t-10.5 -48t-6.5 -42t-3.5 -45.5q0 -19 9.5 -34t27.5 -15
q24 0 56 30q50 46 78 123t28 150q0 115 -69.5 180t-185.5 65q-113 0 -208.5 -61t-149.5 -161t-54 -212q0 -146 95 -229.5t243 -83.5q93 0 181.5 38.5t156.5 106.5l27 -32q-171 -158 -365 -158q-84 0 -161 30q-108 42 -165 126.5t-57 200.5q0 126 60 236t167 176.5t234 66.5
q134 0 215.5 -77t81.5 -211zM548 352q0 46 -24 78t-68 32q-46 0 -81.5 -41t-50.5 -91t-15 -94q0 -46 22 -77.5t65 -31.5q47 0 83.5 40t52.5 90t16 95z" />
    <glyph glyph-name="A" unicode="A" horiz-adv-x="646" 
d="M635 0h-73l-81 213h-316l-81 -213h-74l288 706h56zM461 267l-136 361l-138 -361h274z" />
    <glyph glyph-name="B" unicode="B" horiz-adv-x="667" 
d="M626 199q0 -122 -96 -172q-12 -6 -25 -11t-30 -8t-27 -4.5t-31 -2.5t-27.5 -1h-30.5h-27h-251v706h293q30 0 46 -1q101 -4 150 -70q33 -46 33 -105q-4 -86 -63 -125q-33 -22 -64 -25q72 -14 111 -61t39 -120zM533 531q0 41 -21 69q-17 23 -47.5 33.5t-48 11.5t-58.5 1
h-210v-239h199q41 0 60.5 1t51.5 12.5t50 34.5q24 31 24 76zM559 197q0 84 -71 126q-44 26 -144 26h-196v-288h180q106 0 131 6q36 8 68 38.5t32 91.5z" />
    <glyph glyph-name="C" unicode="C" horiz-adv-x="667" 
d="M625 541l-68 -34q-7 36 -29 72q-55 86 -173 86q-68 0 -109 -23q-48 -26 -81 -85q-45 -80 -45 -200q0 -69 13 -126q41 -189 233 -189q98 0 153 72q28 37 38 78l63 -38q-42 -91 -111 -135q-59 -37 -151 -37q-152 0 -231 101q-77 96 -77 266q0 183 87 284q36 43 92 69
q51 22 122 22q65 0 116 -18q58 -20 94.5 -61t63.5 -104z" />
    <glyph glyph-name="D" unicode="D" horiz-adv-x="688" 
d="M638 355q0 -170 -93 -272q-41 -45 -91 -64q-33 -13 -70.5 -16t-118.5 -3h-184v706h189q49 0 74 -1q68 -3 113 -18t86 -59q95 -100 95 -273zM570 353q0 142 -70 225q-31 38 -72 53q-39 14 -155 14h-124v-585h106q142 0 188 22q42 19 71 65q56 79 56 206z" />
    <glyph glyph-name="E" unicode="E" horiz-adv-x="604" 
d="M567 0h-486v706h461v-61h-394v-252h357v-62h-357v-269h419v-62z" />
    <glyph glyph-name="F" unicode="F" horiz-adv-x="562" 
d="M543 647h-397v-239h356v-58h-356v-350h-65v706h462v-59z" />
    <glyph glyph-name="G" unicode="G" 
d="M627 545l-63 -34q-23 84 -75 122q-50 37 -119 35q-54 0 -99 -21q-62 -28 -106 -102t-44 -194q0 -121 41.5 -194t103.5 -99q37 -16 88 -16q90 0 144 57q66 72 66 209h-260v61h318v-369h-58v118q-20 -48 -54 -80q-61 -56 -159 -56q-77 0 -139 33q-58 31 -95.5 87t-52 117
t-14.5 129q0 21 1 41t9.5 65t23 81.5t45.5 77.5t74 68q69 43 164 43q51 0 93 -13.5t67.5 -31t47.5 -45.5t31.5 -45.5t20.5 -43.5z" />
    <glyph glyph-name="H" unicode="H" horiz-adv-x="729" 
d="M648 0h-67v331h-434v-331h-66v706h66v-315h434v315h67v-706z" />
    <glyph glyph-name="I" unicode="I" horiz-adv-x="229" 
d="M148 0h-67v706h67v-706z" />
    <glyph glyph-name="J" unicode="J" horiz-adv-x="500" 
d="M419 292q0 -79 -2 -118q-4 -92 -46 -137q-23 -25 -58 -39t-91 -14q-44 0 -74 8q-92 26 -121 109q-4 13 -7.5 29.5t-4.5 27.5t-1.5 23t-0.5 13l71 16q-1 -10 -1 -31q0 -68 32 -100q37 -36 113 -36q73 0 103 48q22 34 22 137v478h66v-414z" />
    <glyph glyph-name="K" unicode="K" horiz-adv-x="667" 
d="M649 0h-82l-264 382l-154 -155v-227h-68v706h68v-394l384 394h92l-276 -280z" />
    <glyph glyph-name="L" unicode="L" horiz-adv-x="562" 
d="M539 0h-458v706h68v-644h390v-62z" />
    <glyph glyph-name="M" unicode="M" horiz-adv-x="792" 
d="M711 0h-66l5 600l-230 -600h-46l-235 600l8 -600h-66v706h79l239 -599l229 599h83v-706z" />
    <glyph glyph-name="N" unicode="N" 
d="M627 0h-66l-414 610v-610h-66v706h66l419 -604l-5 604h66v-706z" />
    <glyph glyph-name="O" unicode="O" 
d="M658 357q0 -72 -20 -145t-60 -126q-47 -60 -111 -85q-52 -19 -111 -19q-126 0 -205 82q-101 105 -101 291q0 179 94 281q44 47 97 68q49 20 115 20q156 0 236 -118q67 -97 66 -249zM587 357q1 24 -1.5 55.5t-20 87t-49.5 93.5q-30 34 -62 51q-42 22 -98 22
q-63 0 -110 -28t-73.5 -75t-39 -100t-12.5 -110q0 -29 2.5 -61t24 -94.5t60.5 -99.5q59 -56 145 -56q95 0 152 64q36 39 56 99.5t23 92.5t3 59z" />
    <glyph glyph-name="P" unicode="P" horiz-adv-x="625" 
d="M613 513q0 -75 -40 -128q-19 -25 -52 -43q-34 -16 -77.5 -20t-142.5 -4h-156v-318h-64v706h242q93 0 124 -3q80 -6 120 -53q46 -53 46 -137zM548 514q0 47 -20 80q-15 25 -40 38t-43 14.5t-55 2.5q-13 0 -37.5 0.5t-36.5 0.5h-171v-273h151q16 0 46 0.5t45 0.5
q32 1 50.5 3t42 12t39.5 30q29 35 29 91z" />
    <glyph glyph-name="Q" unicode="Q" 
d="M695 29l-42 -45l-89 82q-84 -84 -208 -84q-114 0 -189 65q-40 34 -66 80.5t-35.5 93.5t-12.5 73.5t-3 51.5q0 176 90 280q26 29 54 48q71 50 168 50q112 0 185 -66q113 -102 113 -297q0 -140 -60 -244zM592 346q0 140 -57 226q-32 50 -80 74q-43 20 -96 20
q-64 0 -111 -28q-66 -40 -97 -120.5t-31 -169.5q0 -130 56 -215q16 -24 40 -45q54 -49 140 -49q114 0 176 88q58 82 60 219z" />
    <glyph glyph-name="R" unicode="R" horiz-adv-x="646" 
d="M621 0h-84l-223 313h-165v-313h-68v706h199q99 0 119 -1q126 -9 175 -94q27 -49 27 -107q0 -64 -32 -110.5t-91 -65.5q-32 -11 -86 -15zM535 507q0 45 -21 79q-22 37 -58 48.5t-89 11.5h-218v-275h166q37 0 56 1q33 1 52.5 3.5t45 14.5t41.5 34q25 34 25 83z" />
    <glyph glyph-name="S" unicode="S" horiz-adv-x="604" 
d="M575 193q0 -98 -87 -161q-72 -50 -176 -50q-222 0 -263 196l67 35q2 -50 16 -79q18 -39 62.5 -66t117.5 -27q45 0 80 10q51 16 83 52.5t32 87.5q0 38 -19 68q-17 27 -49 43.5t-97 33.5q-117 30 -155 48q-102 51 -102 157q0 61 34 105q61 78 199 78q133 0 202 -82
q25 -30 41 -73l-62 -33q-12 38 -29 61q-50 72 -154 72q-88 0 -133 -45q-33 -33 -33 -81q0 -37 21 -66q14 -19 38.5 -33t41.5 -19.5t49 -13.5q5 -1 39.5 -10t48.5 -13.5t41 -14t46 -19.5t34 -23q66 -54 66 -138z" />
    <glyph glyph-name="T" unicode="T" horiz-adv-x="542" 
d="M527 647h-223v-647h-67v647h-222v59h512v-59z" />
    <glyph glyph-name="U" unicode="U" horiz-adv-x="688" 
d="M608 385q0 -97 -2 -146q-4 -117 -55 -178q-68 -79 -205 -79q-111 0 -181 55q-31 25 -51 58q-24 41 -29 91t-5 162v31v327h66v-458q0 -74 21 -116q19 -38 61 -61q50 -27 117 -27q106 0 156 59q19 22 28 54t10.5 53.5t1.5 60.5v435h67v-321z" />
    <glyph glyph-name="V" unicode="V" horiz-adv-x="604" 
d="M594 706l-265 -706h-60l-259 706h74l217 -614l222 614h71z" />
    <glyph glyph-name="W" unicode="W" horiz-adv-x="875" 
d="M864 706l-201 -706h-54l-169 571l-168 -571h-53l-209 706h72l166 -586l168 586h46l174 -586l161 586h67z" />
    <glyph glyph-name="X" unicode="X" horiz-adv-x="667" 
d="M646 0h-83l-228 338l-237 -338h-77l268 380l-231 326h85l192 -285l196 285h81l-232 -326z" />
    <glyph glyph-name="Y" unicode="Y" horiz-adv-x="625" 
d="M615 706l-276 -414v-292h-66v292l-263 414h79l218 -351l227 351h81z" />
    <glyph glyph-name="Z" unicode="Z" horiz-adv-x="583" 
d="M554 660l-430 -600h424v-60h-519v44l435 602h-409v60h499v-46z" />
    <glyph glyph-name="bracketleft" unicode="[" horiz-adv-x="271" 
d="M244 -144h-170v923h170v-51h-109v-822h109v-50z" />
    <glyph glyph-name="backslash" unicode="\" horiz-adv-x="479" 
d="M469 0h-74l-385 706h76z" />
    <glyph glyph-name="bracketright" unicode="]" horiz-adv-x="271" 
d="M196 -143h-170v50h109v823h-109v50h170v-923z" />
    <glyph glyph-name="asciicircum" unicode="^" horiz-adv-x="724" 
d="M596 289h-64l-170 360l-170 -360h-64l199 417h68z" />
    <glyph glyph-name="underscore" unicode="_" horiz-adv-x="500" 
d="M510 -206h-520v59h520v-59z" />
    <glyph glyph-name="grave" unicode="`" horiz-adv-x="271" 
d="M248 558h-53l-172 140h112z" />
    <glyph glyph-name="a" unicode="a" horiz-adv-x="507" 
d="M489 0h-63l-63 149h-222l-63 -149h-60l217 503h42zM343 197l-89 222l-94 -222h183z" />
    <glyph glyph-name="b" unicode="b" horiz-adv-x="516" 
d="M480 139q0 -39 -18.5 -70t-52.5 -47q-29 -14 -58 -18q-32 -4 -134 -4h-147v503h212q98 0 137 -32q42 -33 42 -95q0 -87 -98 -110q56 -10 86.5 -42.5t30.5 -84.5zM401 372q0 42 -30 62q-27 19 -101 19h-140v-166h131q83 0 111 23q29 21 29 62zM419 140q0 52 -37.5 75
t-123.5 23h-128v-188h150q55 0 88 12q51 19 51 78z" />
    <glyph glyph-name="c" unicode="c" horiz-adv-x="529" 
d="M495 389l-57 -26q-36 107 -151 107q-86 0 -131.5 -57.5t-45.5 -164.5q0 -99 47.5 -156t131.5 -57q112 0 152 101l52 -29q-16 -31 -35 -53q-61 -70 -172 -70t-176.5 70.5t-65.5 190.5q0 128 65 201t180 73q77 0 126.5 -31t79.5 -99z" />
    <glyph glyph-name="d" unicode="d" horiz-adv-x="548" 
d="M504 254q0 -168 -118 -226q-28 -15 -62 -21q-48 -7 -126 -7h-128v503h139q94 0 139 -10q73 -17 114.5 -80.5t41.5 -158.5zM441 254q0 103 -59 159q-22 22 -54 31t-68 9h-130v-403h67q47 0 64 1q80 6 119 38q61 50 61 165z" />
    <glyph glyph-name="e" unicode="e" horiz-adv-x="487" 
d="M452 0h-382v503h361v-53h-302v-163h273v-52h-273v-182h323v-53z" />
    <glyph glyph-name="f" unicode="f" horiz-adv-x="457" 
d="M435 450h-305v-165h272v-52h-272v-233h-60v503h365v-53z" />
    <glyph glyph-name="g" unicode="g" horiz-adv-x="557" 
d="M495 393l-56 -25q-20 54 -55.5 78.5t-94.5 24.5q-85 0 -132.5 -58t-47.5 -162q0 -103 45.5 -160.5t127.5 -57.5q49 0 86.5 22t54.5 65q14 34 15 94h-196v52h247v-266h-51v76q-39 -92 -164 -92q-104 0 -167 72t-63 190q0 125 67.5 199t181.5 74q76 0 125 -30.5t77 -95.5z
" />
    <glyph glyph-name="h" unicode="h" horiz-adv-x="579" 
d="M508 0h-59v233h-319v-233h-60v503h60v-218h319v218h59v-503z" />
    <glyph glyph-name="i" unicode="i" horiz-adv-x="200" 
d="M130 0h-60v503h60v-503z" />
    <glyph glyph-name="j" unicode="j" horiz-adv-x="413" 
d="M346 208v-23.5v-29t-1 -26t-3.5 -30t-7 -24t-10.5 -23.5q-39 -63 -144 -63q-168 0 -168 162l62 14q-1 -8 -1 -24q0 -51 28 -78t79 -27q107 0 107 110v357h59v-295z" />
    <glyph glyph-name="k" unicode="k" horiz-adv-x="517" 
d="M496 0h-74l-195 255l-97 -95v-160h-60v503h60v-275l274 275h79l-215 -209z" />
    <glyph glyph-name="l" unicode="l" horiz-adv-x="448" 
d="M423 0h-358v503h59v-450h299v-53z" />
    <glyph glyph-name="m" unicode="m" horiz-adv-x="649" 
d="M578 0h-56l4 435l-182 -435h-36l-187 440l8 -440h-59v503h81l178 -416l168 416h81v-503z" />
    <glyph glyph-name="n" unicode="n" horiz-adv-x="563" 
d="M493 0h-57l-311 441l3 -441h-58v503h76l296 -420l-5 420h56v-503z" />
    <glyph glyph-name="o" unicode="o" horiz-adv-x="576" 
d="M532 261q0 -125 -66.5 -200.5t-178.5 -75.5q-109 0 -176 73.5t-67 192.5q0 121 67.5 194t179.5 73q110 0 175.5 -70t65.5 -187zM467 251q0 99 -49 159t-129 60q-83 0 -131.5 -58.5t-48.5 -157.5q0 -102 47.5 -161t129.5 -59q83 0 132 58.5t49 158.5z" />
    <glyph glyph-name="p" unicode="p" horiz-adv-x="495" 
d="M475 354q0 -88 -60 -122q-21 -13 -50 -19q-43 -10 -163 -10h-72v-203h-60v503h253q44 0 75 -13q77 -32 77 -136zM412 352q0 62 -39 85q-19 10 -44.5 13t-105.5 3h-93v-202h84q120 0 152 15q46 23 46 86z" />
    <glyph glyph-name="q" unicode="q" horiz-adv-x="576" 
d="M560 21l-35 -40l-76 64q-67 -60 -162 -60q-109 0 -176 73.5t-67 192.5q0 121 67.5 194t179.5 73q110 0 175.5 -70t65.5 -187q0 -73 -24 -135q-9 -22 -24 -44zM467 251q0 99 -49 159t-129 60q-83 0 -131.5 -58.5t-48.5 -157.5q0 -102 47.5 -161t129.5 -59q83 0 132 58.5
t49 158.5z" />
    <glyph glyph-name="r" unicode="r" horiz-adv-x="509" 
d="M481 0h-76l-150 211h-125v-211h-60v503h171q108 0 142 -12q41 -14 65 -50t24 -82q0 -127 -152 -144zM408 360q0 49 -36 72q-22 15 -40 17q-22 4 -93 4h-109v-192h109q17 0 33 1q53 1 79 11q57 21 57 87z" />
    <glyph glyph-name="s" unicode="s" horiz-adv-x="463" 
d="M428 139q0 -69 -54 -110.5t-145 -41.5q-168 0 -200 140l55 25q14 -117 145 -117q65 0 101.5 25.5t36.5 70.5q0 36 -23.5 57.5t-80.5 35.5l-88 22q-120 30 -120 131q0 64 48 101.5t130 37.5q137 0 186 -110l-52 -32q-27 94 -139 94q-54 0 -84 -23t-30 -64q0 -31 20.5 -50
t67.5 -32l103 -28q64 -17 93.5 -49t29.5 -83z" />
    <glyph glyph-name="t" unicode="t" horiz-adv-x="443" 
d="M427 453h-176v-453h-59v453h-177v50h412v-50z" />
    <glyph glyph-name="u" unicode="u" horiz-adv-x="553" 
d="M484 257q0 -43 -1 -67q-3 -75 -20 -110q-47 -93 -188 -93q-110 0 -164 59q-17 19 -26 41q-16 37 -16 112v304h59v-266q0 -48 1 -68q3 -56 29 -88q39 -45 122 -45q72 0 112 40q20 22 29 58q5 24 5 105v264h58v-246z" />
    <glyph glyph-name="v" unicode="v" horiz-adv-x="487" 
d="M473 503l-207 -503h-49l-203 503h64l165 -424l169 424h61z" />
    <glyph glyph-name="w" unicode="w" horiz-adv-x="714" 
d="M699 503l-155 -503h-49l-130 398l-133 -398h-48l-168 503h62l135 -410l133 410h39l136 -410l118 410h60z" />
    <glyph glyph-name="x" unicode="x" horiz-adv-x="524" 
d="M499 0h-73l-165 227l-169 -227h-69l200 265l-177 238h72l143 -196l144 196h69l-177 -233z" />
    <glyph glyph-name="y" unicode="y" horiz-adv-x="493" 
d="M482 503l-212 -292v-211h-59v211l-200 292h71l161 -243l170 243h69z" />
    <glyph glyph-name="z" unicode="z" horiz-adv-x="455" 
d="M432 470l-319 -417h314v-53h-404v31l319 419h-299v53h389v-33z" />
    <glyph glyph-name="braceleft" unicode="{" horiz-adv-x="268" 
d="M255 -148l-29 1q-67 3 -94 35q-16 19 -22 43q-7 31 -7 83v6l1 166q0 56 -10 73q-15 27 -75 33v51q37 4 56 15q17 10 23 28.5t6 62.5l-1 167v5q0 57 7 84q18 78 116 78h29v-49h-17q-41 0 -56 -16q-9 -9 -12 -22q-5 -19 -5 -70v-174q0 -62 -16 -89t-65 -46q30 -9 47 -24
q19 -18 26.5 -41.5t7.5 -68.5v-174q0 -51 5 -70q10 -38 68 -38h17v-49z" />
    <glyph glyph-name="bar" unicode="|" horiz-adv-x="229" 
d="M144 -143h-61v921h61v-921z" />
    <glyph glyph-name="braceright" unicode="}" horiz-adv-x="268" 
d="M248 292q-37 -4 -56 -15q-17 -10 -23 -29t-6 -62l1 -167v-5q0 -57 -7 -84q-20 -78 -116 -78h-29v49h18q40 0 55 16q9 9 12 22q5 19 5 70v174q0 62 16 89t65 46q-30 9 -46 24q-20 18 -27.5 41.5t-7.5 68.5v173q0 52 -5 71q-10 38 -67 38h-18v49l29 -1q67 -3 94 -35
q15 -17 22 -43t7 -83v-6l-1 -166q0 -55 10 -73q16 -29 75 -33v-51z" />
    <glyph glyph-name="asciitilde" unicode="~" horiz-adv-x="724" 
d="M650 318q-39 -48 -72 -70q-45 -29 -93 -29q-31 0 -65 14q-36 14 -54 23l-36 18q-60 30 -104 30q-18 0 -33 -6q-7 -3 -12.5 -6t-12.5 -9.5t-10.5 -10.5t-15 -16.5t-17.5 -19.5l-10 -11l-40 41q28 40 53 62q45 39 104 39q19 0 42 -5q28 -7 96 -37l41 -18q57 -25 79 -25
q35 0 66 23q22 16 54 54z" />
    <glyph glyph-name="exclamdown" unicode="&#xa1;" horiz-adv-x="208" 
d="M122 596h-75v116h75v-116zM117 0h-65v405l9 131h47l9 -131v-405z" />
    <glyph glyph-name="cent" unicode="&#xa2;" horiz-adv-x="479" 
d="M454 107q-9 -21 -21 -38q-51 -71 -143 -80v-102h-50v102q-68 7 -114 46.5t-64.5 91.5t-17.5 113q1 60 19 107.5t48 75.5t62 44t67 20v93h50v-92q10 0 23 -2t37 -9.5t48 -27t42 -48.5q4 -7 14 -32l-55 -14q-23 64 -109 80v-393q29 5 51 19t31.5 26.5t21.5 32.5zM240 42
v391q-49 -10 -80 -43.5t-41 -70t-11 -78.5q0 -119 64 -170q21 -17 68 -29z" />
    <glyph glyph-name="sterling" unicode="&#xa3;" horiz-adv-x="604" 
d="M565 181l-1 -12q0 -12 -1.5 -26.5t-4.5 -32t-9.5 -35.5t-15.5 -31q-32 -47 -102 -47q-17 0 -32.5 2.5t-34.5 9.5t-26.5 10t-32 16t-28.5 15q-54 -55 -129 -55q-55 0 -80.5 24t-25.5 56q0 29 24 52.5t74 23.5q60 0 110 -28q19 42 19 73q0 46 -40 86h-132v52h93
q-17 15 -20 18q-30 27 -60 67q-14 19 -24 40q-15 30 -15 67q0 49 27 88q24 36 73 64t123 28q100 0 163 -53q26 -22 42 -52t23 -84l-66 -13q-2 38 -12 61q-15 32 -53 56.5t-99 24.5q-31 0 -58 -8q-41 -12 -67.5 -41t-26.5 -70q0 -20 6 -37q11 -30 38 -61q17 -18 35 -35
q46 -46 58 -60h152v-52h-121q27 -42 27 -90q0 -50 -26 -88q36 -20 75 -35q26 -13 52 -13q24 0 38 14q15 15 19.5 40.5t5.5 77.5zM229 74q-40 25 -89 25q-19 0 -27 -3q-19 -8 -19 -23q0 -8 4 -13q11 -16 44 -16q54 0 87 30z" />
    <glyph glyph-name="currency" unicode="&#xa4;" horiz-adv-x="667" 
d="M610 569l-74 -74q54 -70 54 -156q0 -82 -55 -157l74 -75l-46 -45l-74 75q-71 -54 -157 -54q-46 0 -79.5 11.5t-75.5 42.5l-75 -73l-45 45l75 73q-55 76 -55 159q0 82 55 155l-73 73l45 45l73 -72q74 54 156 54q95 0 157 -54l74 73zM527 339q0 85 -55 141.5t-138 56.5
q-82 0 -138.5 -57t-56.5 -140q0 -85 56.5 -141.5t141.5 -56.5q81 0 135.5 56.5t54.5 140.5z" />
    <glyph glyph-name="yen" unicode="&#xa5;" horiz-adv-x="625" 
d="M615 706l-205 -307h157v-56h-194l-34 -53h228v-56h-228v-234h-66v234h-215v56h215l-32 53h-183v56h147l-195 307h79l218 -348l227 348h81z" />
    <glyph glyph-name="brokenbar" unicode="&#xa6;" horiz-adv-x="229" 
d="M145 383h-61v395h61v-395zM145 -143h-61v396h61v-396z" />
    <glyph glyph-name="section" unicode="&#xa7;" horiz-adv-x="521" 
d="M474 356q0 -96 -84 -147q-3 -2 -10 -5t-10 -5q41 -23 61 -51.5t20 -72.5q0 -74 -55 -115.5t-132 -41.5q-130 0 -225 98l47 46q35 -36 85 -58.5t98 -22.5q46 0 80.5 24t34.5 68q0 15 -6.5 28t-13.5 21.5t-23.5 18.5t-24.5 14t-28.5 12.5t-24.5 10.5q-51 22 -95 45
q-56 30 -87 64.5t-31 87.5t32 95.5t83 59.5q-35 24 -52.5 49.5t-17.5 63.5q0 24 12 53q38 87 145 87q54 0 97.5 -22t92.5 -64l-46 -45q-27 23 -45 35.5t-46 23.5t-57 11q-39 0 -63 -20.5t-24 -58.5q0 -19 13 -38q8 -11 27 -23.5t34.5 -20t41.5 -18t32 -13.5q42 -18 66 -32
q49 -27 74 -59t25 -83zM410 350q0 38 -27 66q-31 33 -167 83q-18 -8 -27 -13q-31 -18 -52.5 -47.5t-21.5 -61.5q0 -30 22 -53q19 -21 84.5 -53.5t100.5 -43.5q33 18 60.5 54t27.5 69z" />
    <glyph glyph-name="dieresis" unicode="&#xa8;" horiz-adv-x="271" 
d="M252 582h-61v92h61v-92zM80 582h-61v92h61v-92z" />
    <glyph glyph-name="copyright" unicode="&#xa9;" horiz-adv-x="833" 
d="M773 358q0 -152 -103 -256.5t-253 -104.5t-253 103t-103 253q0 151 103 253.5t254 102.5q147 0 251 -103t104 -248zM740 352q0 137 -93 231t-229 94t-230.5 -94.5t-94.5 -230.5q0 -134 94.5 -228.5t229.5 -94.5q134 0 228.5 94.5t94.5 228.5zM606 276q-17 -76 -65 -116.5
t-121 -40.5q-90 0 -144 62t-54 164q0 107 57.5 174t149.5 67q137 0 173 -138l-54 -12q-16 53 -45 76.5t-79 23.5q-68 0 -106 -49t-38 -137q0 -85 38 -132.5t106 -47.5q104 0 129 112z" />
    <glyph glyph-name="ordfeminine" unicode="&#xaa;" horiz-adv-x="313" 
d="M309 406h-10q-71 0 -76 41l-2 -3q-6 -10 -15 -17q-35 -27 -83 -27q-51 0 -74.5 26.5t-22.5 58.5q0 29 17 48q32 40 147 61l31 6v11q0 62 -65 62q-25 0 -41 -6t-22 -18.5t-7.5 -22t-1.5 -25.5l-50 9q4 31 13 46q28 58 108 58q89 -2 107 -61q3 -11 3 -46v-104
q0 -25 1 -34.5t8 -16.5t23 -7h12v-39zM221 543v15l-12 -3q-105 -26 -120 -38q-17 -15 -17 -31q0 -18 13 -31t40 -13q8 0 20.5 2t35 15t32.5 35q8 16 8 49z" />
    <glyph glyph-name="guillemotleft" unicode="&#xab;" horiz-adv-x="375" 
d="M339 168l-47 -31l-119 172l119 185l47 -30l-99 -155zM204 168l-48 -31l-118 172l118 185l48 -30l-100 -155z" />
    <glyph glyph-name="logicalnot" unicode="&#xac;" horiz-adv-x="724" 
d="M637 0h-61v263h-505v60h566v-323z" />
    <glyph glyph-name="registered" unicode="&#xae;" horiz-adv-x="833" 
d="M773 356l-1 -5q-2 -149 -105.5 -251.5t-251.5 -102.5t-251 104t-103 254q0 149 103 251.5t253 102.5q149 0 252.5 -102.5t103.5 -250.5zM740 351q0 137 -93.5 231.5t-229.5 94.5t-230.5 -94.5t-94.5 -230.5q0 -134 94.5 -228.5t229.5 -94.5q134 0 229 94.5t95 227.5z
M564 128h-59l-92 198h-74v-198h-54v450h123q88 0 121 -37q29 -32 29 -89q0 -102 -89 -120zM504 452q0 44 -20.5 60.5t-73.5 16.5h-71v-156h78q47 0 67 18t20 61z" />
    <glyph glyph-name="macron" unicode="&#xaf;" horiz-adv-x="271" 
d="M252 582h-233v62h233v-62z" />
    <glyph glyph-name="degree" unicode="&#xb0;" horiz-adv-x="354" 
d="M324 601q0 -61 -43 -104t-104 -43t-104 43t-43 104t43 104t104 43q60 0 103.5 -43.5t43.5 -103.5zM263 601q0 36 -25 61.5t-61 25.5t-61.5 -25.5t-25.5 -61.5t25.5 -61.5t61.5 -25.5t61 25.5t25 61.5z" />
    <glyph glyph-name="plusminus" unicode="&#xb1;" horiz-adv-x="724" 
d="M630 348h-238v-229h-60v229h-238v60h238v228h60v-228h238v-60zM630 0h-536v60h536v-60z" />
    <glyph glyph-name="twosuperior" unicode="&#xb2;" horiz-adv-x="375" 
d="M338 572q0 -39 -19 -77.5t-54.5 -73t-66.5 -58.5t-76 -54h202v-44h-283v42q159 99 214 173q32 45 32 94q0 46 -28 72t-72 26q-52 0 -76.5 -30t-24.5 -61q-1 -36 37 -81l-66 8q-18 48 -17 78q1 62 44.5 95t102.5 33q67 -1 109 -38t42 -104z" />
    <glyph glyph-name="threesuperior" unicode="&#xb3;" horiz-adv-x="375" 
d="M335 393q0 -20 -6.5 -41.5t-21.5 -43.5t-45.5 -36t-71.5 -15q-113 0 -148 88q-5 13 -12 52l52 17v-11q0 -27 8.5 -47t20.5 -30.5t28.5 -16t28 -6.5t22.5 -1q50 1 71 26t22 58q0 30 -11 48q-14 23 -34.5 30.5t-61.5 7.5h-66v44h57q22 0 36.5 2t34 8.5t29 23t9.5 41.5
q0 39 -26 60t-64 21q-50 0 -72.5 -29.5t-22.5 -58.5q0 -2 0.5 -5t0.5 -4l-55 14q6 24 14 42t24.5 39.5t45.5 33t69 10.5q57 -1 96 -31.5t40 -89.5q2 -76 -68 -97l7 -2q27 -8 48 -33.5t22 -67.5z" />
    <glyph glyph-name="acute" unicode="&#xb4;" horiz-adv-x="271" 
d="M247 698l-170 -140h-53l112 140h111z" />
    <glyph glyph-name="mu" unicode="&#xb5;" horiz-adv-x="536" 
d="M510 -2q-20 -6 -37 -6q-40 0 -59 19t-21 62q-25 -45 -56.5 -65t-78.5 -20q-73 0 -117 59l4 -263h-64v687h61v-246q0 -98 23 -133q14 -22 39.5 -35t53.5 -13q74 0 111 72q20 39 20 128l1 227h60v-357q0 -44 6.5 -58.5t26.5 -14.5q12 0 27 7v-50z" />
    <glyph glyph-name="paragraph" unicode="&#xb6;" horiz-adv-x="643" 
d="M518 662h-33v-829h-46v829h-157v-829h-46v498q-27 3 -47 10q-51 18 -80.5 64.5t-29.5 107.5q0 84 53 137q56 56 165 56h221v-44z" />
    <glyph glyph-name="periodcentered" unicode="&#xb7;" horiz-adv-x="187" 
d="M134 236h-81v108h81v-108z" />
    <glyph glyph-name="cedilla" unicode="&#xb8;" horiz-adv-x="271" 
d="M205 -108q0 -39 -30.5 -60.5t-71.5 -21.5q-1 0 -37 3v27q22 -2 32 -2q28 0 42 11.5t14 28.5q0 14 -12.5 25.5t-37.5 11.5q-18 0 -38 -10v25l41 70h24l-24 -47q12 3 29 3q30 -1 49.5 -17.5t19.5 -46.5z" />
    <glyph glyph-name="onesuperior" unicode="&#xb9;" horiz-adv-x="375" 
d="M228 265h-48v345l-4 -2q-22 -11 -63 -11h-11v44q42 0 60 14t18 43v8h48v-441z" />
    <glyph glyph-name="ordmasculine" unicode="&#xba;" horiz-adv-x="333" 
d="M304 558q0 -38 -11 -67q-17 -48 -52.5 -70.5t-78.5 -21.5q-66 1 -99 46t-34 106q-1 66 34.5 115t105.5 48q67 -1 101 -48t34 -108zM255 554q0 29 -5 49q-16 70 -82 70q-41 0 -65.5 -30t-24.5 -90q0 -57 24 -84t62 -28t64.5 27t26.5 86z" />
    <glyph glyph-name="guillemotright" unicode="&#xbb;" horiz-adv-x="375" 
d="M337 322l-118 -185l-48 30l99 155l-99 141l48 31zM202 322l-119 -185l-47 30l99 155l-99 141l47 31z" />
    <glyph glyph-name="onequarter" unicode="&#xbc;" horiz-adv-x="875" 
d="M845 108h-66v-108h-48v108h-192v38l191 296h49v-290h66v-44zM638 730l-353 -769l-40 18l351 770zM228 265h-48v345l-4 -2q-22 -11 -63 -11h-11v44q42 0 60 14t18 43v8h48v-441zM731 152v206l-135 -206h135z" />
    <glyph glyph-name="onehalf" unicode="&#xbd;" horiz-adv-x="875" 
d="M838 307q0 -63 -50 -124.5t-166 -138.5h202v-44h-283v42q72 45 131.5 94t82.5 79q32 45 32 94q0 45 -27.5 71.5t-72.5 26.5q-53 0 -77 -30.5t-24 -60.5q0 -37 37 -81l-66 8q-18 48 -17 78q1 63 44.5 95.5t102.5 32.5q67 -1 109 -38.5t42 -103.5zM614 730l-353 -769
l-40 18l352 770zM228 265h-48v345l-4 -2q-22 -11 -63 -11h-11v44q42 0 60 14t18 43v8h48v-441z" />
    <glyph glyph-name="threequarters" unicode="&#xbe;" horiz-adv-x="875" 
d="M845 108h-66v-108h-48v108h-192v38l191 296h49v-290h66v-44zM673 730l-353 -769l-40 18l352 770zM335 393q0 -20 -6.5 -41.5t-21.5 -43.5t-45.5 -36t-71.5 -15q-113 0 -148 88q-5 13 -12 52l52 17v-11q0 -27 8.5 -47t20.5 -30.5t28.5 -16t28 -6.5t22.5 -1q50 1 71 26
t22 58q0 30 -11 48q-14 23 -34.5 30.5t-61.5 7.5h-66v44h57q22 0 36.5 2t34 8.5t29 23t9.5 41.5q0 39 -26 60t-64 21q-50 0 -72.5 -29.5t-22.5 -58.5q0 -2 0.5 -5t0.5 -4l-55 14q6 24 14 42t24.5 39.5t45.5 33t69 10.5q57 -1 96 -31.5t40 -89.5q2 -76 -68 -97l7 -2
q27 -8 48 -33.5t22 -67.5zM731 152v206l-135 -206h135z" />
    <glyph glyph-name="questiondown" unicode="&#xbf;" horiz-adv-x="479" 
d="M273 590h-78v116h78v-116zM413 177q0 -49 -18 -88q-15 -33 -41 -55.5t-54.5 -31t-47 -11.5t-34.5 -3q-98 0 -155 67q-46 51 -46 126q0 65 31 113q23 36 95 101q44 42 51 55q10 20 10 68v19h62v-35q0 -56 -18 -84q-5 -9 -25 -31q-11 -12 -34 -33t-33 -31q-74 -70 -74 -142
q0 -23 6 -42q31 -92 132 -92q28 0 53 9q39 14 58.5 48.5t19.5 78.5q0 51 -25 96l75 -22q12 -52 12 -80z" />
    <glyph glyph-name="Agrave" unicode="&#xc0;" horiz-adv-x="646" 
d="M364 770h-57l-147 125h106zM635 0h-73l-81 213h-316l-81 -213h-74l288 706h56zM461 267l-136 361l-138 -361h274z" />
    <glyph glyph-name="Aacute" unicode="&#xc1;" horiz-adv-x="646" 
d="M483 895l-147 -125h-58l99 125h106zM635 0h-73l-81 213h-316l-81 -213h-74l288 706h56zM461 267l-136 361l-138 -361h274z" />
    <glyph glyph-name="Acircumflex" unicode="&#xc2;" horiz-adv-x="646" 
d="M451 772h-49l-78 56l-77 -56h-47l105 123h42zM635 0h-73l-81 213h-316l-81 -213h-74l288 706h56zM461 267l-136 361l-138 -361h274z" />
    <glyph glyph-name="Atilde" unicode="&#xc3;" horiz-adv-x="646" 
d="M494 867q-8 -21 -21 -42q-31 -51 -76 -51q-27 0 -96 36q-36 19 -50 19q-12 0 -23 -8q-17 -12 -30 -47l-40 13q15 46 38 73q15 16 31 23q17 7 31 7q29 0 86 -34q38 -22 53 -22q31 1 54 52zM635 0h-73l-81 213h-316l-81 -213h-74l288 706h56zM461 267l-136 361l-138 -361
h274z" />
    <glyph glyph-name="Adieresis" unicode="&#xc4;" horiz-adv-x="646" 
d="M470 784h-67v97h67v-97zM251 784h-67v97h67v-97zM635 0h-73l-81 213h-316l-81 -213h-74l288 706h56zM461 267l-136 361l-138 -361h274z" />
    <glyph glyph-name="Aring" unicode="&#xc5;" horiz-adv-x="646" 
d="M408 827q-1 -33 -24 -56t-56 -23q-34 0 -57 23.5t-23 56.5t23.5 56t56.5 23t56.5 -23.5t23.5 -56.5zM635 0h-73l-81 213h-316l-81 -213h-74l288 706h56zM369 829q-1 18 -13 30t-30 12q-18 -1 -30 -13.5t-12 -29.5q1 -18 13 -30t30 -12q17 0 29.5 13t12.5 30zM461 267
l-136 361l-138 -361h274z" />
    <glyph glyph-name="AE" unicode="&#xc6;" horiz-adv-x="1000" 
d="M970 0h-496v204h-266l-129 -204h-79l452 706h499v-61h-411v-254h370v-62h-370v-269h430v-60zM474 267v365l-226 -365h226z" />
    <glyph glyph-name="Ccedilla" unicode="&#xc7;" horiz-adv-x="667" 
d="M625 541l-68 -34v4q-13 50 -40 84q-52 69 -160 70q-69 0 -113 -25q-57 -33 -90 -102.5t-34 -168.5q-5 -325 243 -327q101 -1 157 74q31 41 37 76l63 -38q-63 -141 -198 -166q-38 -6 -59 -6l-15 -29q24 3 28 3h2q29 0 48.5 -17t19.5 -47q0 -41 -31.5 -62t-70.5 -20
q-18 0 -36 3v27h7q9 -2 27 -2q25 1 39 12t14 28q0 15 -13 26t-36 11q-21 0 -38 -10v25l30 53q-1 0 -13.5 1t-22.5 2.5t-25 4.5t-31 8.5t-31 12.5q-52 25 -88 70t-51.5 97t-21 97t-4.5 89q0 18 1 33.5t8 55.5t18 71.5t34 71t54 66t81 44.5t112 17q164 -2 239 -128
q7 -11 15.5 -29t12.5 -26z" />
    <glyph glyph-name="Egrave" unicode="&#xc8;" horiz-adv-x="604" 
d="M344 770h-58l-147 125h106zM567 0h-486v706h461v-61h-394v-252h357v-62h-357v-269h419v-62z" />
    <glyph glyph-name="Eacute" unicode="&#xc9;" horiz-adv-x="604" 
d="M462 895l-147 -125h-57l99 125h105zM567 0h-486v706h461v-61h-394v-252h357v-62h-357v-269h419v-62z" />
    <glyph glyph-name="Ecircumflex" unicode="&#xca;" horiz-adv-x="604" 
d="M430 772h-49l-78 56l-77 -56h-47l105 123h42zM567 0h-486v706h461v-61h-394v-252h357v-62h-357v-269h419v-62z" />
    <glyph glyph-name="Edieresis" unicode="&#xcb;" horiz-adv-x="604" 
d="M446 784h-67v97h67v-97zM227 784h-67v97h67v-97zM567 0h-486v706h461v-61h-394v-252h357v-62h-357v-269h419v-62z" />
    <glyph glyph-name="Igrave" unicode="&#xcc;" horiz-adv-x="229" 
d="M156 770h-57l-148 125h106zM148 0h-67v706h67v-706z" />
    <glyph glyph-name="Iacute" unicode="&#xcd;" horiz-adv-x="229" 
d="M275 895l-148 -125h-57l99 125h106zM148 0h-67v706h67v-706z" />
    <glyph glyph-name="Icircumflex" unicode="&#xce;" horiz-adv-x="229" 
d="M243 772h-49l-78 56l-77 -56h-47l104 123h42zM148 0h-67v706h67v-706z" />
    <glyph glyph-name="Idieresis" unicode="&#xcf;" horiz-adv-x="229" 
d="M258 784h-67v97h67v-97zM39 784h-67v97h67v-97zM148 0h-67v706h67v-706z" />
    <glyph glyph-name="Eth" unicode="&#xd0;" horiz-adv-x="688" 
d="M638 356q0 -128 -52.5 -218t-132.5 -119q-50 -19 -188 -19h-184v352h-81v54h81v300h189q141 0 193 -21q76 -32 125.5 -119.5t49.5 -209.5zM570 346q0 34 -5.5 71t-19 80t-42.5 79t-70 53q-18 8 -42.5 11.5t-46.5 4t-71 0.5h-124v-239h221v-54h-221v-292h135q116 0 160 22
q53 27 89 98t37 166z" />
    <glyph glyph-name="Ntilde" unicode="&#xd1;" 
d="M525 867q-8 -21 -21 -42q-31 -51 -75 -51q-25 0 -97 36q-36 19 -50 19q-12 0 -23 -8q-17 -12 -30 -47l-40 13q15 46 39 73q14 17 31 23q14 7 30 7q29 0 86 -34q38 -22 53 -22q14 0 25.5 10t16.5 18t13 24zM627 0h-66l-414 610v-610h-66v706h66l419 -604l-5 604h66v-706z
" />
    <glyph glyph-name="Ograve" unicode="&#xd2;" 
d="M396 770h-58l-147 125h106zM658 357q0 -72 -20 -145t-60 -126q-47 -60 -111 -85q-52 -19 -111 -19q-126 0 -205 82q-101 105 -101 291q0 179 94 281q44 47 97 68q49 20 115 20q156 0 236 -118q67 -97 66 -249zM587 357q1 24 -1.5 55.5t-20 87t-49.5 93.5q-30 34 -62 51
q-42 22 -98 22q-63 0 -110 -28t-73.5 -75t-39 -100t-12.5 -110q0 -29 2.5 -61t24 -94.5t60.5 -99.5q59 -56 145 -56q95 0 152 64q36 39 56 99.5t23 92.5t3 59z" />
    <glyph glyph-name="Oacute" unicode="&#xd3;" 
d="M514 895l-147 -125h-57l99 125h105zM658 357q0 -72 -20 -145t-60 -126q-47 -60 -111 -85q-52 -19 -111 -19q-126 0 -205 82q-101 105 -101 291q0 179 94 281q44 47 97 68q49 20 115 20q156 0 236 -118q67 -97 66 -249zM587 357q1 24 -1.5 55.5t-20 87t-49.5 93.5
q-30 34 -62 51q-42 22 -98 22q-63 0 -110 -28t-73.5 -75t-39 -100t-12.5 -110q0 -29 2.5 -61t24 -94.5t60.5 -99.5q59 -56 145 -56q95 0 152 64q36 39 56 99.5t23 92.5t3 59z" />
    <glyph glyph-name="Ocircumflex" unicode="&#xd4;" 
d="M482 772h-49l-78 56l-76 -56h-48l105 123h42zM658 357q0 -72 -20 -145t-60 -126q-47 -60 -111 -85q-52 -19 -111 -19q-126 0 -205 82q-101 105 -101 291q0 179 94 281q44 47 97 68q49 20 115 20q156 0 236 -118q67 -97 66 -249zM587 357q1 24 -1.5 55.5t-20 87
t-49.5 93.5q-30 34 -62 51q-42 22 -98 22q-63 0 -110 -28t-73.5 -75t-39 -100t-12.5 -110q0 -29 2.5 -61t24 -94.5t60.5 -99.5q59 -56 145 -56q95 0 152 64q36 39 56 99.5t23 92.5t3 59z" />
    <glyph glyph-name="Otilde" unicode="&#xd5;" 
d="M525 867q-8 -21 -21 -42q-31 -51 -75 -51q-25 0 -97 36q-36 19 -50 19q-12 0 -23 -8q-17 -12 -30 -47l-40 13q15 46 39 73q14 17 31 23q14 7 30 7q29 0 86 -34q38 -22 53 -22q14 0 25.5 10t16.5 18t13 24zM658 357q0 -72 -20 -145t-60 -126q-47 -60 -111 -85
q-52 -19 -111 -19q-126 0 -205 82q-101 105 -101 291q0 179 94 281q44 47 97 68q49 20 115 20q156 0 236 -118q67 -97 66 -249zM587 357q1 24 -1.5 55.5t-20 87t-49.5 93.5q-30 34 -62 51q-42 22 -98 22q-63 0 -110 -28t-73.5 -75t-39 -100t-12.5 -110q0 -29 2.5 -61
t24 -94.5t60.5 -99.5q59 -56 145 -56q95 0 152 64q36 39 56 99.5t23 92.5t3 59z" />
    <glyph glyph-name="Odieresis" unicode="&#xd6;" 
d="M499 784h-67v97h67v-97zM280 784h-67v97h67v-97zM658 357q0 -72 -20 -145t-60 -126q-47 -60 -111 -85q-52 -19 -111 -19q-126 0 -205 82q-101 105 -101 291q0 179 94 281q44 47 97 68q49 20 115 20q156 0 236 -118q67 -97 66 -249zM587 357q1 24 -1.5 55.5t-20 87
t-49.5 93.5q-30 34 -62 51q-42 22 -98 22q-63 0 -110 -28t-73.5 -75t-39 -100t-12.5 -110q0 -29 2.5 -61t24 -94.5t60.5 -99.5q59 -56 145 -56q95 0 152 64q36 39 56 99.5t23 92.5t3 59z" />
    <glyph glyph-name="multiply" unicode="&#xd7;" horiz-adv-x="724" 
d="M572 124l-43 -43l-168 169l-169 -168l-42 42l168 168l-168 168l43 43l168 -168l168 168l42 -43l-168 -168z" />
    <glyph glyph-name="Oslash" unicode="&#xd8;" 
d="M666 683l-67 -82q62 -106 62 -240q0 -19 -0.5 -36.5t-7 -58.5t-17.5 -75.5t-35 -75t-57 -68.5q-75 -65 -191 -65q-121 0 -199 78l-59 -70l-37 31l64 78q-8 12 -11 18q-61 101 -61 237q0 231 142 324q71 46 167 46q132 0 208 -84l60 74zM521 586q-14 24 -41 43
q-50 35 -118 35q-102 0 -160 -63q-81 -85 -81 -247q0 -115 46 -201zM589 346q0 82 -19 146q-10 30 -20 50l-354 -430q2 -3 6 -7t6 -7q56 -57 148 -57q95 0 156 63q77 83 77 242z" />
    <glyph glyph-name="Ugrave" unicode="&#xd9;" horiz-adv-x="688" 
d="M385 770h-57l-148 125h106zM608 385q0 -97 -2 -146q-4 -117 -55 -178q-68 -79 -205 -79q-111 0 -181 55q-31 25 -51 58q-24 41 -29 91t-5 162v31v327h66v-458q0 -74 21 -116q19 -38 61 -61q50 -27 117 -27q106 0 156 59q19 22 28 54t10.5 53.5t1.5 60.5v435h67v-321z" />
    <glyph glyph-name="Uacute" unicode="&#xda;" horiz-adv-x="688" 
d="M504 895l-148 -125h-57l99 125h106zM608 385q0 -97 -2 -146q-4 -117 -55 -178q-68 -79 -205 -79q-111 0 -181 55q-31 25 -51 58q-24 41 -29 91t-5 162v31v327h66v-458q0 -74 21 -116q19 -38 61 -61q50 -27 117 -27q106 0 156 59q19 22 28 54t10.5 53.5t1.5 60.5v435h67
v-321z" />
    <glyph glyph-name="Ucircumflex" unicode="&#xdb;" horiz-adv-x="688" 
d="M472 772h-49l-78 56l-77 -56h-47l105 123h42zM608 385q0 -97 -2 -146q-4 -117 -55 -178q-68 -79 -205 -79q-111 0 -181 55q-31 25 -51 58q-24 41 -29 91t-5 162v31v327h66v-458q0 -74 21 -116q19 -38 61 -61q50 -27 117 -27q106 0 156 59q19 22 28 54t10.5 53.5t1.5 60.5
v435h67v-321z" />
    <glyph glyph-name="Udieresis" unicode="&#xdc;" horiz-adv-x="688" 
d="M488 784h-67v97h67v-97zM269 784h-67v97h67v-97zM608 385q0 -97 -2 -146q-4 -117 -55 -178q-68 -79 -205 -79q-111 0 -181 55q-31 25 -51 58q-24 41 -29 91t-5 162v31v327h66v-458q0 -74 21 -116q19 -38 61 -61q50 -27 117 -27q106 0 156 59q19 22 28 54t10.5 53.5
t1.5 60.5v435h67v-321z" />
    <glyph glyph-name="Yacute" unicode="&#xdd;" horiz-adv-x="625" 
d="M473 895l-148 -125h-57l99 125h106zM615 706l-276 -414v-292h-66v292l-263 414h79l218 -351l227 351h81z" />
    <glyph glyph-name="Thorn" unicode="&#xde;" horiz-adv-x="625" 
d="M613 407q1 -79 -39 -129q-15 -20 -36.5 -34t-38 -21t-48.5 -10.5t-45.5 -4t-54.5 0t-50 0.5h-156v-209h-64v706h64v-109h177q128 0 167 -10q52 -13 84 -53q40 -51 40 -127zM548 406q0 58 -29 93q-9 10 -18.5 17.5t-24 12t-23 7.5t-30 4t-30 1.5t-38 0t-39.5 -0.5h-171
v-273h151q16 0 45.5 -0.5t42.5 -0.5t34.5 1.5t33 4.5t26.5 8.5t25.5 15t20.5 22.5q25 34 24 87z" />
    <glyph glyph-name="germandbls" unicode="&#xdf;" horiz-adv-x="925" 
d="M891 139q0 -69 -54.5 -110.5t-144.5 -41.5q-169 0 -201 140l55 25q14 -117 145 -117q65 0 102 25.5t37 70.5q0 36 -23.5 57t-81.5 36l-87 22q-121 31 -121 131q0 64 48.5 101.5t130.5 37.5q70 0 115 -26.5t71 -83.5l-53 -32q-27 94 -139 94q-54 0 -83.5 -23t-29.5 -64
q0 -31 20.5 -50t66.5 -32l104 -28q64 -17 93.5 -49t29.5 -83zM428 139q0 -69 -54 -110.5t-145 -41.5q-168 0 -200 140l55 25q14 -117 145 -117q65 0 101.5 25.5t36.5 70.5q0 36 -23.5 57.5t-80.5 35.5l-88 22q-120 30 -120 131q0 64 48 101.5t130 37.5q137 0 186 -110
l-52 -32q-27 94 -139 94q-54 0 -84 -23t-30 -64q0 -31 20.5 -50t67.5 -32l103 -28q64 -17 93.5 -49t29.5 -83z" />
    <glyph glyph-name="agrave" unicode="&#xe0;" horiz-adv-x="507" 
d="M316 560h-53l-170 140h111zM489 0h-63l-63 149h-222l-63 -149h-60l217 503h42zM343 197l-89 222l-94 -222h183z" />
    <glyph glyph-name="aacute" unicode="&#xe1;" horiz-adv-x="507" 
d="M411 698l-170 -140h-53l112 140h111zM489 0h-63l-63 149h-222l-63 -149h-60l217 503h42zM343 197l-89 222l-94 -222h183z" />
    <glyph glyph-name="acircumflex" unicode="&#xe2;" horiz-adv-x="507" 
d="M403 558h-52l-98 65l-89 -65h-50l128 138h26zM489 0h-63l-63 149h-222l-63 -149h-60l217 503h42zM343 197l-89 222l-94 -222h183z" />
    <glyph glyph-name="atilde" unicode="&#xe3;" horiz-adv-x="507" 
d="M414 666q-24 -50 -44 -69q-21 -21 -51 -21q-26 0 -61 19l-17 9q-39 20 -53 20q-24 0 -44 -42l-42 9q19 46 41 66.5t53 20.5q28 0 74 -25q37 -20 55 -20q29 0 48 43zM489 0h-63l-63 149h-222l-63 -149h-60l217 503h42zM343 197l-89 222l-94 -222h183z" />
    <glyph glyph-name="adieresis" unicode="&#xe4;" horiz-adv-x="507" 
d="M372 582h-61v92h61v-92zM200 582h-61v92h61v-92zM489 0h-63l-63 149h-222l-63 -149h-60l217 503h42zM343 197l-89 222l-94 -222h183z" />
    <glyph glyph-name="aring" unicode="&#xe5;" horiz-adv-x="507" 
d="M336 631q0 -33 -23 -56t-56 -23q-32 0 -55.5 23t-23.5 55q0 34 23 57t58 23q32 0 54.5 -23t22.5 -56zM489 0h-63l-63 149h-222l-63 -149h-60l217 503h42zM298 631q0 17 -12 29.5t-29 12.5q-18 0 -30 -12.5t-12 -29.5q0 -18 11.5 -30t30.5 -12q17 0 29 12t12 30zM343 197
l-89 222l-94 -222h183z" />
    <glyph glyph-name="ae" unicode="&#xe6;" horiz-adv-x="770" 
d="M735 0h-376v146h-192l-96 -146h-66l334 503h376v-53h-297v-164h267v-52h-267v-181h317v-53zM359 196v249l-160 -249h160z" />
    <glyph glyph-name="ccedilla" unicode="&#xe7;" horiz-adv-x="529" 
d="M495 389l-57 -26q-36 107 -151 107q-86 0 -131.5 -57.5t-45.5 -164.5q0 -99 47.5 -156t131.5 -57q112 0 152 101l52 -29q-16 -31 -35 -53q-61 -70 -169 -70h-13l-14 -31q16 3 26 3q33 0 52.5 -17.5t19.5 -46.5q0 -37 -29 -59.5t-75 -22.5q-11 0 -35 3v27q11 -2 24 -2
q62 0 62 41q0 16 -12.5 26t-33.5 10q-23 0 -40 -10v24l32 57q-99 12 -154 80.5t-55 178.5q0 128 65 201t180 73q77 0 126.5 -31t79.5 -99z" />
    <glyph glyph-name="egrave" unicode="&#xe8;" horiz-adv-x="487" 
d="M320 559h-53l-170 140h111zM452 0h-382v503h361v-53h-302v-163h273v-52h-273v-182h323v-53z" />
    <glyph glyph-name="eacute" unicode="&#xe9;" horiz-adv-x="487" 
d="M406 698l-170 -140h-53l112 140h111zM452 0h-382v503h361v-53h-302v-163h273v-52h-273v-182h323v-53z" />
    <glyph glyph-name="ecircumflex" unicode="&#xea;" horiz-adv-x="487" 
d="M397 560h-52l-98 65l-89 -65h-50l128 138h26zM452 0h-382v503h361v-53h-302v-163h273v-52h-273v-182h323v-53z" />
    <glyph glyph-name="edieresis" unicode="&#xeb;" horiz-adv-x="487" 
d="M367 583h-61v92h61v-92zM195 583h-61v92h61v-92zM452 0h-382v503h361v-53h-302v-163h273v-52h-273v-182h323v-53z" />
    <glyph glyph-name="igrave" unicode="&#xec;" horiz-adv-x="200" 
d="M154 559h-53l-170 140h111zM130 0h-60v503h60v-503z" />
    <glyph glyph-name="iacute" unicode="&#xed;" horiz-adv-x="200" 
d="M274 699l-170 -140h-53l112 140h111zM130 0h-60v503h60v-503z" />
    <glyph glyph-name="icircumflex" unicode="&#xee;" horiz-adv-x="200" 
d="M247 559h-52l-98 65l-89 -65h-50l128 138h26zM130 0h-60v503h60v-503z" />
    <glyph glyph-name="idieresis" unicode="&#xef;" horiz-adv-x="200" 
d="M217 583h-61v92h61v-92zM45 583h-61v92h61v-92zM130 0h-60v503h60v-503z" />
    <glyph glyph-name="eth" unicode="&#xf0;" horiz-adv-x="548" 
d="M504 254q0 -168 -118 -226q-28 -15 -62 -21q-48 -7 -126 -7h-128v235h-69v50h69v218h139q94 0 139 -10q73 -17 114.5 -80.5t41.5 -158.5zM441 254q0 103 -59 159q-22 22 -54 31t-68 9h-50h-80v-168h179v-50h-179v-185h67q47 0 64 1q80 6 119 38q61 50 61 165z" />
    <glyph glyph-name="ntilde" unicode="&#xf1;" horiz-adv-x="563" 
d="M446 665q-24 -50 -43 -69q-21 -21 -51 -21q-27 0 -62 19l-17 9q-37 20 -52 20q-25 0 -44 -42l-42 9q19 46 41 66.5t53 20.5q27 0 73 -25q37 -20 56 -20q29 0 47 43zM493 0h-57l-311 441l3 -441h-58v503h76l296 -420l-5 420h56v-503z" />
    <glyph glyph-name="ograve" unicode="&#xf2;" horiz-adv-x="576" 
d="M339 559h-53l-170 140h111zM532 261q0 -125 -66.5 -200.5t-178.5 -75.5q-109 0 -176 73.5t-67 192.5q0 121 67.5 194t179.5 73q110 0 175.5 -70t65.5 -187zM467 251q0 99 -49 159t-129 60q-83 0 -131.5 -58.5t-48.5 -157.5q0 -102 47.5 -161t129.5 -59q83 0 132 58.5
t49 158.5z" />
    <glyph glyph-name="oacute" unicode="&#xf3;" horiz-adv-x="576" 
d="M471 698l-170 -140h-53l112 140h111zM532 261q0 -125 -66.5 -200.5t-178.5 -75.5q-109 0 -176 73.5t-67 192.5q0 121 67.5 194t179.5 73q110 0 175.5 -70t65.5 -187zM467 251q0 99 -49 159t-129 60q-83 0 -131.5 -58.5t-48.5 -157.5q0 -102 47.5 -161t129.5 -59
q83 0 132 58.5t49 158.5z" />
    <glyph glyph-name="ocircumflex" unicode="&#xf4;" horiz-adv-x="576" 
d="M432 559h-52l-98 65l-89 -65h-50l128 138h26zM532 261q0 -125 -66.5 -200.5t-178.5 -75.5q-109 0 -176 73.5t-67 192.5q0 121 67.5 194t179.5 73q110 0 175.5 -70t65.5 -187zM467 251q0 99 -49 159t-129 60q-83 0 -131.5 -58.5t-48.5 -157.5q0 -102 47.5 -161t129.5 -59
q83 0 132 58.5t49 158.5z" />
    <glyph glyph-name="otilde" unicode="&#xf5;" horiz-adv-x="576" 
d="M446 665q-23 -48 -44 -69t-51 -21q-26 0 -61 19l-17 9q-39 20 -53 20q-24 0 -44 -42l-42 9q19 46 41 66.5t53 20.5q28 0 74 -25q36 -20 55 -20q29 0 48 43zM532 261q0 -125 -66.5 -200.5t-178.5 -75.5q-109 0 -176 73.5t-67 192.5q0 121 67.5 194t179.5 73
q110 0 175.5 -70t65.5 -187zM467 251q0 99 -49 159t-129 60q-83 0 -131.5 -58.5t-48.5 -157.5q0 -102 47.5 -161t129.5 -59q83 0 132 58.5t49 158.5z" />
    <glyph glyph-name="odieresis" unicode="&#xf6;" horiz-adv-x="576" 
d="M404 583h-61v92h61v-92zM232 583h-61v92h61v-92zM532 261q0 -125 -66.5 -200.5t-178.5 -75.5q-109 0 -176 73.5t-67 192.5q0 121 67.5 194t179.5 73q110 0 175.5 -70t65.5 -187zM467 251q0 99 -49 159t-129 60q-83 0 -131.5 -58.5t-48.5 -157.5q0 -102 47.5 -161
t129.5 -59q83 0 132 58.5t49 158.5z" />
    <glyph glyph-name="divide" unicode="&#xf7;" horiz-adv-x="724" 
d="M397 396h-68v94h68v-94zM645 262h-566v60h566v-60zM397 95h-68v94h68v-94z" />
    <glyph glyph-name="oslash" unicode="&#xf8;" horiz-adv-x="576" 
d="M532 260q0 -125 -66.5 -200t-178.5 -75q-44 0 -75.5 9.5t-69.5 35.5l-40 -52l-35 27l42 55q-65 76 -65 191q0 121 67.5 194t179.5 73q82 0 138 -38l41 55l35 -28l-42 -54q69 -78 69 -193zM394 435q-42 36 -107 36q-82 0 -131 -58.5t-49 -156.5q0 -89 38 -148zM469 252
q0 86 -43 150l-252 -329q43 -40 114 -40q83 0 132 59t49 160z" />
    <glyph glyph-name="ugrave" unicode="&#xf9;" horiz-adv-x="553" 
d="M326 559h-53l-170 140h111zM484 257q0 -43 -1 -67q-3 -75 -20 -110q-47 -93 -188 -93q-110 0 -164 59q-17 19 -26 41q-16 37 -16 112v304h59v-266q0 -48 1 -68q3 -56 29 -88q39 -45 122 -45q72 0 112 40q20 22 29 58q5 24 5 105v264h58v-246z" />
    <glyph glyph-name="uacute" unicode="&#xfa;" horiz-adv-x="553" 
d="M452 698l-170 -140h-53l112 140h111zM484 257q0 -43 -1 -67q-3 -75 -20 -110q-47 -93 -188 -93q-110 0 -164 59q-17 19 -26 41q-16 37 -16 112v304h59v-266q0 -48 1 -68q3 -56 29 -88q39 -45 122 -45q72 0 112 40q20 22 29 58q5 24 5 105v264h58v-246z" />
    <glyph glyph-name="ucircumflex" unicode="&#xfb;" horiz-adv-x="553" 
d="M424 558h-52l-98 65l-89 -65h-50l128 138h26zM484 257q0 -43 -1 -67q-3 -75 -20 -110q-47 -93 -188 -93q-110 0 -164 59q-17 19 -26 41q-16 37 -16 112v304h59v-266q0 -48 1 -68q3 -56 29 -88q39 -45 122 -45q72 0 112 40q20 22 29 58q5 24 5 105v264h58v-246z" />
    <glyph glyph-name="udieresis" unicode="&#xfc;" horiz-adv-x="553" 
d="M390 583h-61v92h61v-92zM218 583h-61v92h61v-92zM484 257q0 -43 -1 -67q-3 -75 -20 -110q-47 -93 -188 -93q-110 0 -164 59q-17 19 -26 41q-16 37 -16 112v304h59v-266q0 -48 1 -68q3 -56 29 -88q39 -45 122 -45q72 0 112 40q20 22 29 58q5 24 5 105v264h58v-246z" />
    <glyph glyph-name="yacute" unicode="&#xfd;" horiz-adv-x="493" 
d="M413 698l-170 -140h-53l112 140h111zM482 503l-212 -292v-211h-59v211l-200 292h71l161 -243l170 243h69z" />
    <glyph glyph-name="thorn" unicode="&#xfe;" horiz-adv-x="495" 
d="M475 261q0 -88 -60 -122q-21 -13 -50 -19q-49 -10 -163 -10h-72v-110h-60v503h60v-93h123q55 0 70 -1q50 -2 75 -12q77 -32 77 -136zM412 259q0 62 -39 85q-19 10 -44.5 13t-105.5 3h-93v-202h84q120 0 152 15q46 23 46 86z" />
    <glyph glyph-name="ydieresis" unicode="&#xff;" horiz-adv-x="493" 
d="M362 582h-61v92h61v-92zM190 582h-61v92h61v-92zM482 503l-212 -292v-211h-59v211l-200 292h71l161 -243l170 243h69z" />
    <glyph glyph-name="OE" unicode="&#x152;" horiz-adv-x="1062" 
d="M1026 0h-491q-67 -18 -138 -18q-83 0 -148 28q-101 43 -150 135t-49 207q0 73 21 139q19 60 53.5 105t70 68t77.5 37t70.5 17t56.5 3q51 0 126 -15h476v-58h-408v-256h370v-62h-370v-270h433v-60zM525 60v588q-94 11 -116 11q-144 0 -218 -85q-71 -82 -71 -228
q0 -189 133 -265q68 -39 161 -39q57 0 111 18z" />
    <glyph glyph-name="oe" unicode="&#x153;" horiz-adv-x="798" 
d="M763 0h-376q-61 -10 -101 -10q-112 0 -177 68.5t-65 186.5q0 125 67 196.5t183 71.5q39 0 93 -10h356v-53h-297v-164h267v-52h-267v-181h317v-53zM387 50v403q-45 12 -90 12q-94 0 -144 -58q-47 -56 -47 -151q0 -104 49 -161t138 -57q46 0 94 12z" />
    <glyph glyph-name="Scaron" unicode="&#x160;" horiz-adv-x="604" 
d="M428 895l-105 -123h-41l-105 123h49l78 -56l77 56h47zM575 187q-2 -53 -29 -94q-70 -111 -233 -111q-187 0 -248 143q-5 11 -8 21.5t-5 20t-3 11.5l67 35q0 -88 57 -130.5t143 -41.5q92 1 140.5 44.5t50.5 101.5q1 31 -9 55t-29 39t-32.5 22.5t-33.5 14.5q-24 9 -100 28
t-115 38q-106 53 -103 163q1 48 22 84t55.5 55t71 28t77.5 10q103 2 165 -42t85 -113l-62 -34q-14 42 -30 64q-53 70 -153 70q-7 0 -18 -0.5t-39.5 -6.5t-50 -17.5t-39.5 -37.5t-19 -62q-1 -83 97 -118q30 -11 99.5 -27.5t110.5 -35.5q40 -19 66 -44.5t36 -52t13.5 -44.5
t2.5 -36z" />
    <glyph glyph-name="scaron" unicode="&#x161;" horiz-adv-x="463" 
d="M379 695l-127 -138h-27l-134 138h51l98 -65l90 65h49zM428 139q0 -69 -54 -110.5t-145 -41.5q-168 0 -200 140l55 25q14 -117 145 -117q65 0 101.5 25.5t36.5 70.5q0 36 -23.5 57.5t-80.5 35.5l-88 22q-120 30 -120 131q0 64 48 101.5t130 37.5q137 0 186 -110l-52 -32
q-27 94 -139 94q-54 0 -84 -23t-30 -64q0 -31 20.5 -50t67.5 -32l103 -28q64 -17 93.5 -49t29.5 -83z" />
    <glyph glyph-name="Ydieresis" unicode="&#x178;" horiz-adv-x="625" 
d="M456 784h-67v97h67v-97zM237 784h-67v97h67v-97zM615 706l-276 -414v-292h-66v292l-263 414h79l218 -351l227 351h81z" />
    <glyph glyph-name="florin" unicode="&#x192;" horiz-adv-x="333" 
d="M341 704l-14 -57q-1 0 -14 3t-17 3q-10 0 -17.5 -2.5t-13.5 -8.5t-9.5 -10t-7 -14t-5 -14t-4 -16t-2.5 -13l-25 -104h85l-11 -45h-84l-140 -573q-26 -97 -101 -97q-29 0 -53 12l15 55q24 -8 33 -8q6 0 11 1.5t9 3.5t8 6t6.5 7t5 8.5t3.5 8.5t3 9.5t2.5 9t2 8.5t1.5 7
l132 542h-73l11 45h72l33 132q13 53 35.5 82t70.5 29q20 0 52 -10z" />
    <glyph glyph-name="circumflex" unicode="&#x2c6;" horiz-adv-x="271" 
d="M280 558h-51l-98 65l-89 -65h-51l128 138h26z" />
    <glyph glyph-name="tilde" unicode="&#x2dc;" horiz-adv-x="271" 
d="M292 665q-28 -63 -59 -80q-20 -10 -36 -10q-27 1 -87 32q-34 16 -43 16q-10 0 -18 -5q-12 -7 -27 -37l-43 9q14 34 26 50q30 39 68 38q27 0 79 -28q34 -18 50 -18q10 0 20 5q14 7 29 38z" />
    <glyph glyph-name="endash" unicode="&#x2013;" horiz-adv-x="565" 
d="M527 264h-489v60h489v-60z" />
    <glyph glyph-name="emdash" unicode="&#x2014;" horiz-adv-x="843" 
d="M805 264h-767v60h767v-60z" />
    <glyph glyph-name="quoteleft" unicode="&#x2018;" horiz-adv-x="167" 
d="M122 432h-78v80q0 50 1.5 73.5t12 55.5t32.5 65l32 -22q-23 -40 -30.5 -65t-7.5 -70h38v-117z" />
    <glyph glyph-name="quoteright" unicode="&#x2019;" horiz-adv-x="167" 
d="M123 627q0 -53 -1.5 -75t-11.5 -54t-33 -66l-33 23q23 38 30.5 63.5t7.5 71.5h-38v116h79v-79z" />
    <glyph glyph-name="quotesinglbase" unicode="&#x201a;" horiz-adv-x="167" 
d="M123 36q0 -52 -1.5 -74t-11.5 -54t-33 -66l-33 23q23 38 30.5 63.5t7.5 71.5h-38v116h79v-80z" />
    <glyph glyph-name="quotedblleft" unicode="&#x201c;" horiz-adv-x="292" 
d="M248 432h-79v111q0 52 9.5 87.5t36.5 75.5l33 -22q-23 -39 -30.5 -64.5t-7.5 -70.5h38v-117zM123 432h-79v80q0 50 1.5 73.5t12 55.5t32.5 65l33 -22q-39 -48 -39 -135h39v-117z" />
    <glyph glyph-name="quotedblright" unicode="&#x201d;" horiz-adv-x="292" 
d="M248 586q0 -50 -9.5 -81.5t-36.5 -72.5l-33 23q3 3 16 27q22 43 22 108h-38v116h79v-120zM123 627q0 -40 -0.5 -58t-6.5 -48.5t-19 -54.5q-3 -6 -10 -17t-10 -17l-33 23q23 39 30.5 64.5t7.5 70.5h-38v116h79v-79z" />
    <glyph glyph-name="quotedblbase" unicode="&#x201e;" horiz-adv-x="292" 
d="M248 -4q0 -49 -9.5 -81t-36.5 -73l-33 23q7 7 16 27q22 43 22 108h-38v116h79v-120zM123 36q0 -40 -0.5 -58t-6.5 -48t-19 -54q-3 -6 -10 -17t-10 -17l-33 23q23 39 30.5 64.5t7.5 70.5h-38v116h79v-80z" />
    <glyph glyph-name="dagger" unicode="&#x2020;" horiz-adv-x="562" 
d="M474 440h-157v-440h-68v440h-160v59h160v207h68v-207h157v-59z" />
    <glyph glyph-name="daggerdbl" unicode="&#x2021;" horiz-adv-x="562" 
d="M474 213h-157v-213h-68v213h-160v59h160v180h-160v59h160v195h68v-195h157v-59h-157v-180h157v-59z" />
    <glyph glyph-name="bullet" unicode="&#x2022;" horiz-adv-x="333" 
d="M277 247h-221l1 218h220v-218z" />
    <glyph glyph-name="ellipsis" unicode="&#x2026;" horiz-adv-x="1000" 
d="M875 0h-83v82h83v-82zM541 0h-83v82h83v-82zM207 0h-82v82h82v-82z" />
    <glyph glyph-name="perthousand" unicode="&#x2030;" horiz-adv-x="1250" 
d="M1219 222q0 -57 -14 -106q-38 -125 -145 -124q-72 0 -113.5 63t-40.5 173q1 107 44.5 164.5t113.5 56.5q38 0 67 -16.5t45 -40.5t26.5 -56.5t13.5 -59.5t3 -54zM844 222q0 -57 -14 -106q-38 -125 -144 -124q-73 0 -114.5 63t-40.5 173q1 107 44.5 164.5t113.5 56.5
q38 0 67 -16.5t45 -40.5t26.5 -56.5t13.5 -59.5t3 -54zM638 730l-353 -769l-40 18l351 770zM344 487q0 -57 -14 -106q-5 -17 -13 -34t-24.5 -40t-44.5 -36.5t-63 -13.5q-47 0 -80 25.5t-48 65t-21 75t-5 69.5q2 107 45 165t113 57q38 0 67 -16.5t45 -40.5t26.5 -56.5
t13.5 -59.5t3 -54zM1168 213q0 43 -7 81q-9 45 -31.5 78t-64.5 34q-51 1 -78.5 -48.5t-29.5 -129.5q-1 -27 2 -53t12.5 -61t33 -56t59.5 -21q101 1 104 176zM793 213q0 43 -7 81q-9 45 -31.5 78t-64.5 34q-51 1 -78.5 -48.5t-29.5 -129.5q-1 -27 2 -53t12.5 -61t33 -56
t59.5 -21q101 1 104 176zM293 477q0 44 -7 82q-9 44 -31.5 77t-64.5 34q-52 1 -80 -50.5t-28 -133.5q0 -27 3 -52.5t13 -58.5t33 -53t58 -20q100 0 104 175z" />
    <glyph glyph-name="guilsinglleft" unicode="&#x2039;" horiz-adv-x="250" 
d="M209 168l-47 -31l-119 172l119 185l47 -30l-99 -155z" />
    <glyph glyph-name="guilsinglright" unicode="&#x203a;" horiz-adv-x="250" 
d="M207 322l-119 -185l-47 30l99 155l-99 141l47 31z" />
    <glyph glyph-name="Euro" unicode="&#x20ac;" horiz-adv-x="634" 
d="M614 620l-27 -66q-59 96 -196 96q-94 0 -149.5 -58.5t-72.5 -155.5h374l-19 -53h-360q-2 -10 -2 -29q0 -20 1 -30h338l-19 -53h-315q13 -104 73 -167.5t161 -63.5q53 0 106 21t85 59v-77q-47 -34 -92 -47.5t-105 -13.5q-129 0 -205.5 79t-92.5 210h-76l20 53h52
q0 19 2 59h-74l19 53h61q16 124 96 197.5t204 73.5q139 0 213 -87z" />
    <glyph glyph-name="trademark" unicode="&#x2122;" horiz-adv-x="683" 
d="M611 374h-46l2 285l-89 -285h-42l-89 284l4 -284h-46v332h67l86 -272l85 272h68v-332zM268 665h-98v-291h-48v291h-100v41h246v-41z" />
    </font>
</defs>
</svg>
