<?xml version="1.0" standalone="no"?>
<!DOCTYPE svg PUBLIC "-//W3C//DTD SVG 1.1//EN" "http://www.w3.org/Graphics/SVG/1.1/DTD/svg11.dtd" >
<svg xmlns="http://www.w3.org/2000/svg" xmlns:xlink="http://www.w3.org/1999/xlink" version="1.1">
<metadata>
Created by FontForge 20170731 at Thu May 17 20:00:00 2007
 By Aleksey,,,
Copyright  2001, Berthold LLC. All rights reserved. Akzidenz-Grotesk is a trademark of Berthold Types Limited.
</metadata>
<defs>
<font id="AkzidenzGroteskBQ-LigExtIt" horiz-adv-x="708" >
  <font-face 
    font-family="Akzidenz-Grotesk BQ Light Exten"
    font-weight="300"
    font-style="italic"
    font-stretch="normal"
    units-per-em="1000"
    panose-1="0 0 0 0 0 0 0 0 0 0"
    ascent="800"
    descent="-200"
    x-height="489"
    cap-height="706"
    bbox="-206 -228 1523 913"
    underline-thickness="59"
    underline-position="-350"
    slope="-13"
    unicode-range="U+0020-2122"
  />
<missing-glyph horiz-adv-x="500" 
 />
    <glyph glyph-name=".notdef" horiz-adv-x="500" 
 />
    <glyph glyph-name=".null" horiz-adv-x="0" 
 />
    <glyph glyph-name="nonmarkingreturn" horiz-adv-x="333" 
 />
    <glyph glyph-name="space" unicode=" " horiz-adv-x="313" 
 />
    <glyph glyph-name="exclam" unicode="!" horiz-adv-x="313" 
d="M311 706l-67 -291l-63 -215h-46l38 214l67 292h71zM174 99l-23 -99h-77l23 99h77z" />
    <glyph glyph-name="quotedbl" unicode="&#x22;" horiz-adv-x="347" 
d="M400 744l-93 -291h-36l40 291h89zM211 744l-93 -291h-35l40 291h88z" />
    <glyph glyph-name="numbersign" unicode="#" horiz-adv-x="768" 
d="M747 467l-14 -57h-193l-29 -97h191l-13 -54h-193l-76 -259h-62l79 259h-146l-79 -259h-58l77 259h-202l13 54h206l28 97h-202l13 57h205l70 239h63l-72 -239h145l69 239h60l-71 -239h191zM481 410h-145l-29 -97h145z" />
    <glyph glyph-name="dollar" unicode="$" horiz-adv-x="812" 
d="M774 565l-64 -33q-37 57 -93 86q-54 28 -110 38l-59 -254q97 -21 127 -30q46 -13 74 -29q80 -45 80 -132q0 -91 -67 -147q-49 -42 -120 -60.5t-185 -18.5h-5l-14 -62h-64l16 67q-115 19 -182 61q-48 30 -73 63t-45 92l75 22q22 -73 67 -111q29 -23 64 -38q43 -18 109 -29
l69 299q-53 11 -103 23q-62 16 -88 31q-75 43 -75 123q0 93 83.5 144.5t233.5 51.5q20 0 36 -1l14 62h62l-16 -69q53 -7 118 -35q85 -35 135 -114zM448 665q-9 0 -19 0.5t-15 0.5q-107 0 -172 -36.5t-65 -95.5q0 -48 37 -70q19 -12 48 -20q38 -10 127 -29zM658 205
q0 61 -55 85q-22 11 -49 18q-53 16 -121 28l-67 -291q82 1 128 11q59 12 101 37q63 38 63 112z" />
    <glyph glyph-name="percent" unicode="%" horiz-adv-x="1083" 
d="M1034 243q0 -105 -65.5 -176.5t-162.5 -71.5q-83 0 -135.5 53t-52.5 138q0 104 65.5 176.5t159.5 72.5q85 0 138 -53t53 -139zM822 688l-508 -688h-60l508 688h60zM454 499q0 -106 -65.5 -177.5t-162.5 -71.5q-83 0 -135.5 53t-52.5 138q0 104 65.5 176.5t159.5 72.5
q85 0 138 -53t53 -138zM983 245q0 66 -38 106.5t-101 40.5q-75 0 -124.5 -58t-49.5 -146q0 -68 38.5 -109.5t101.5 -41.5q75 0 124 59.5t49 148.5zM403 501q0 66 -38.5 106t-100.5 40q-75 0 -125 -58t-50 -145q0 -67 39 -109t102 -42q74 0 123.5 59t49.5 149z" />
    <glyph glyph-name="ampersand" unicode="&#x26;" horiz-adv-x="771" 
d="M702 58l-11 -60q-27 0 -53 6q-33 9 -65 30q-27 17 -61 47q-120 -99 -276 -99q-106 0 -169 48t-63 130q0 66 37 111q37 47 106 77q42 19 117 43q-52 74 -52 137q0 74 51.5 119.5t133.5 45.5q71 0 116 -37.5t45 -98.5q0 -54 -40 -98q-21 -26 -52 -45q-38 -22 -104 -49
q37 -52 72 -97q38 -48 89 -101l6 7q43 50 64 93q25 48 42 106l64 -1q-20 -75 -59 -143q-37 -64 -74 -102l14 -11q38 -30 62.5 -42t59.5 -16zM494 558q0 35 -28.5 57.5t-74.5 22.5q-52 0 -81.5 -26.5t-29.5 -73.5q0 -27 10 -50q10 -27 41 -75q7 3 17.5 6.5l13.5 4.5
q68 27 99 58q33 35 33 76zM471 121q-46 46 -107 125q-31 40 -68 96q-72 -23 -118 -43q-53 -24 -77 -54.5t-24 -74.5q0 -59 45 -94t121 -35q100 0 188 52q16 10 40 28z" />
    <glyph glyph-name="quotesingle" unicode="'" horiz-adv-x="158" 
d="M211 744l-93 -291h-35l40 291h88z" />
    <glyph glyph-name="parenleft" unicode="(" horiz-adv-x="354" 
d="M427 709q-6 -4 -16 -11.5t-13 -10.5q-127 -96 -193 -211q-89 -157 -89 -347q0 -88 28 -175t74 -143l-31 -27q-70 67 -107.5 164t-37.5 208q0 70 16 142q33 141 125 260q40 51 91 94q54 45 127 85z" />
    <glyph glyph-name="parenright" unicode=")" horiz-adv-x="354" 
d="M265 372q0 -74 -15 -142q-34 -143 -126 -260q-44 -54 -91 -94q-49 -41 -127 -85l-26 29q28 20 30 21q123 92 192 212q90 154 90 347q0 88 -28 175t-74 142l30 27q70 -68 107.5 -164t37.5 -208z" />
    <glyph glyph-name="asterisk" unicode="*" horiz-adv-x="357" 
d="M371 561l-117 -14l45 -103l-42 -18l-46 102l-80 -73l-30 35l81 75l-96 54l22 39l98 -52l25 106l46 -11l-26 -108l114 11z" />
    <glyph glyph-name="plus" unicode="+" horiz-adv-x="772" 
d="M675 323l-14 -59h-262l-55 -239h-60l55 239h-261l14 59h261l55 237h60l-55 -237h262z" />
    <glyph glyph-name="comma" unicode="," horiz-adv-x="271" 
d="M110 99l-28 -119q-12 -53 -43 -76q-20 -15 -52 -20l8 36q14 1 26 13q17 16 29 67h-38l23 99h75z" />
    <glyph glyph-name="hyphen" unicode="-" horiz-adv-x="365" 
d="M320 324l-13 -60h-289l14 60h288z" />
    <glyph glyph-name="period" unicode="." horiz-adv-x="271" 
d="M112 99l-23 -99h-77l23 99h77z" />
    <glyph glyph-name="slash" unicode="/" horiz-adv-x="500" 
d="M538 706l-511 -706h-71l512 706h70z" />
    <glyph glyph-name="zero" unicode="0" horiz-adv-x="729" 
d="M700 391q0 -125 -73 -236q-111 -168 -308 -168q-134 0 -216.5 85t-82.5 222q0 166 109 286t261 120q140 0 225 -84.5t85 -224.5zM628 398q0 110 -63 175.5t-169 65.5q-59 0 -101.5 -15t-82.5 -50q-55 -46 -87.5 -124.5t-32.5 -162.5q0 -107 64 -173.5t166 -66.5
q131 0 218.5 100.5t87.5 250.5z" />
    <glyph glyph-name="one" unicode="1" horiz-adv-x="729" 
d="M494 693l-160 -693h-68l125 543q-72 -47 -177 -47h-17l15 60q59 1 99 13q49 15 79 42t58 82h46z" />
    <glyph glyph-name="two" unicode="2" horiz-adv-x="729" 
d="M669 485q0 -148 -160 -251q-102 -64 -238 -122q-67 -29 -167 -61l498 6l-10 -57h-606l14 66q144 50 240 92q157 69 233 124q125 90 125 200q0 72 -56.5 116.5t-148.5 44.5q-67 0 -123 -24.5t-88 -68.5q-25 -35 -41 -99l-67 15q15 49 30 78q39 75 116.5 116t178.5 41
q122 0 196 -59.5t74 -156.5z" />
    <glyph glyph-name="three" unicode="3" horiz-adv-x="729" 
d="M671 517q0 -61 -41 -103t-114 -56q58 -14 90 -50.5t32 -88.5q0 -102 -86 -165.5t-225 -63.5q-145 0 -230 67q-32 25 -50.5 54.5t-33.5 79.5l-2 7l71 16q10 -38 19.5 -57.5t29.5 -39.5q68 -71 201 -71q107 0 172 46t65 122q0 54 -39 84q-25 19 -57.5 25t-109.5 7l-82 1
l12 58h79q30 0 50 1q52 1 79 7.5t50 22.5q50 34 50 92t-56.5 92.5t-149.5 34.5q-175 0 -237 -140l-62 26q30 48 49 70q88 101 251 101q123 0 199 -49.5t76 -129.5z" />
    <glyph glyph-name="four" unicode="4" horiz-adv-x="729" 
d="M670 244l-14 -59h-149l-43 -185h-67l43 185h-435l14 59l532 451h74l-104 -451h149zM539 613l-431 -369h346z" />
    <glyph glyph-name="five" unicode="5" horiz-adv-x="729" 
d="M709 687l-13 -55h-476l-67 -222q52 37 102.5 53t117.5 16q128 0 202.5 -57.5t74.5 -156.5q0 -123 -93 -199t-244 -76q-156 0 -240 78q-60 56 -68 127l72 14q9 -52 31 -82q29 -38 82.5 -59t121.5 -21q121 0 195 57t74 151q0 76 -60 121t-162 45q-132 0 -230 -94l-63 5
l107 355h536z" />
    <glyph glyph-name="six" unicode="6" horiz-adv-x="729" 
d="M719 523l-69 -24q-24 50 -51 76q-68 65 -179 65q-113 0 -190.5 -74t-112.5 -216q19 29 40 45q84 64 220 64q131 0 214.5 -60t83.5 -153q0 -112 -93.5 -185t-238.5 -73q-139 0 -219.5 72.5t-80.5 197.5q0 186 112 313.5t276 127.5q147 0 234 -92q29 -31 54 -84zM606 234
q0 74 -65 118.5t-173 44.5q-113 0 -180 -48t-67 -130q0 -77 64 -123t171 -46q106 0 178 53t72 131z" />
    <glyph glyph-name="seven" unicode="7" horiz-adv-x="729" 
d="M703 688l-12 -50q-118 -83 -217 -191q-125 -138 -198 -296q-29 -63 -56 -151h-75q22 101 102 237q88 152 212 276q59 59 132 115h-503l13 60h602z" />
    <glyph glyph-name="eight" unicode="8" horiz-adv-x="729" 
d="M684 525q0 -41 -22 -77q-22 -38 -59.5 -59t-103.5 -34q73 -15 113.5 -55.5t40.5 -99.5q0 -95 -93 -155t-239 -60q-137 0 -221.5 52t-84.5 135q0 80 61 130q30 24 58 36q38 16 98 28q-61 12 -94 48t-33 89q0 89 82 143.5t216 54.5q128 0 204.5 -48t76.5 -128zM617 521
q0 56 -58.5 90t-156.5 34q-106 0 -165 -35t-59 -97q0 -58 57 -90t158 -32q105 0 164.5 34.5t59.5 95.5zM584 197q0 58 -67 94t-175 36q-121 0 -188.5 -38t-67.5 -106q0 -64 66 -101.5t177 -37.5q114 0 184.5 42t70.5 111z" />
    <glyph glyph-name="nine" unicode="9" horiz-adv-x="729" 
d="M677 428q0 -118 -52 -227q-30 -64 -73 -108q-100 -107 -267 -107q-153 0 -233 93q-26 31 -52 84l69 23q27 -53 49 -77q60 -63 180 -63q232 0 305 289q-22 -27 -43 -43q-81 -64 -218 -64q-132 0 -215 59t-83 153q0 112 94 184.5t238 72.5q140 0 220.5 -72t80.5 -197z
M598 466q0 77 -64 123t-171 46q-106 0 -178 -53t-72 -131q0 -73 65 -116.5t174 -43.5q113 0 179.5 47.5t66.5 127.5z" />
    <glyph glyph-name="colon" unicode=":" horiz-adv-x="313" 
d="M244 488l-23 -99h-77l23 99h77zM154 99l-23 -99h-77l23 99h77z" />
    <glyph glyph-name="semicolon" unicode=";" horiz-adv-x="313" 
d="M244 488l-23 -99h-77l23 99h77zM151 100l-27 -119q-13 -58 -52 -82q-6 -3 -9 -5t-5.5 -3.5t-5.5 -2t-5 -1t-7.5 -1t-10.5 -1.5l8 36q16 1 26 13q18 18 29 67h-38l22 99h75z" />
    <glyph glyph-name="less" unicode="&#x3c;" horiz-adv-x="772" 
d="M698 570l-16 -69l-526 -209l430 -203l-14 -62l-488 234l16 67z" />
    <glyph glyph-name="equal" unicode="=" horiz-adv-x="772" 
d="M695 408l-14 -58h-583l14 58h583zM653 231l-14 -58h-583l14 58h583z" />
    <glyph glyph-name="greater" unicode="&#x3e;" horiz-adv-x="772" 
d="M670 337l-15 -67l-598 -242l16 69l526 209l-431 203l14 61z" />
    <glyph glyph-name="question" unicode="?" 
d="M690 532q0 -96 -73 -166q-38 -36 -94 -56q-26 -9 -97 -29q-35 -10 -55 -19q-24 -11 -34 -49q0 -1 -1 -4t-1.5 -6t-1.5 -6h-62l4 17q11 47 31 70q25 30 84 45l37 10q95 26 135 58q27 22 43 56.5t16 70.5q0 67 -51.5 104t-146.5 37q-77 0 -132 -35q-38 -23 -65 -55.5
t-58 -91.5l-59 24q60 115 137.5 165t193.5 50q117 0 183.5 -50.5t66.5 -139.5zM316 99l-23 -99h-75l23 99h75z" />
    <glyph glyph-name="at" unicode="@" horiz-adv-x="896" 
d="M839 423q0 -133 -78.5 -242t-174.5 -109q-38 0 -61 21.5t-23 58.5v13q-72 -92 -165 -92q-62 0 -98.5 41.5t-36.5 111.5q0 113 70.5 201t161.5 88q44 0 77 -24q29 -21 50 -71l19 72h61l-38 -147l-11 -47q-3 -14 -7 -30l-6.5 -26t-3.5 -15q-7 -35 -7 -57q0 -50 40 -50
q11 0 26 6q61 27 106.5 116t45.5 181q0 111 -78.5 176.5t-211.5 65.5q-175 0 -299 -126.5t-124 -304.5q0 -142 97 -227t258 -85q134 0 253 68q53 31 110 80l32 -36q-64 -56 -121 -88q-132 -73 -279 -73q-157 0 -274 81q-131 93 -131 278q0 130 65 241t176.5 175t242.5 64
q152 0 244.5 -79.5t92.5 -209.5zM537 347v7q0 48 -27 78t-70 30q-66 0 -117.5 -70t-51.5 -160q0 -49 25 -77t69 -28q67 0 119.5 65.5t52.5 154.5z" />
    <glyph glyph-name="A" unicode="A" horiz-adv-x="792" 
d="M712 0h-69l-56 183h-453l-127 -183h-75l486 706h76zM570 239l-122 406l-275 -406h397z" />
    <glyph glyph-name="B" unicode="B" horiz-adv-x="912" 
d="M858 552q0 -70 -40.5 -116.5t-114.5 -61.5q117 -34 117 -153q0 -101 -68.5 -161t-183.5 -60h-60h-508l163 706h464q94 0 134 -12q45 -13 71 -51t26 -91zM791 546q0 48 -29 74q-12 12 -25 17q-29 12 -95 12h-423l-58 -250h416q121 0 170 43q44 41 44 104zM749 213
q0 47 -25 78q-21 28 -56.5 38t-110.5 10h-410l-64 -280h439q97 0 146 21q36 16 58.5 53t22.5 80z" />
    <glyph glyph-name="C" unicode="C" horiz-adv-x="812" 
d="M807 517l-65 -29q-70 177 -278 177q-152 0 -255 -97.5t-103 -242.5q0 -97 41 -159q38 -59 110 -93t158 -34q136 0 230 80q41 35 78 92l55 -33q-58 -95 -152.5 -145.5t-215.5 -50.5q-169 0 -272 91t-103 239q0 178 123 294.5t312 116.5q241 0 337 -206z" />
    <glyph glyph-name="D" unicode="D" horiz-adv-x="842" 
d="M807 416q0 -161 -97 -276q-62 -75 -152.5 -107.5t-237.5 -32.5h-320l163 706h254q106 0 163 -7q79 -11 130 -52q97 -78 97 -231zM737 415q0 97 -50 157q-44 54 -119 68q-43 8 -148 8h-200l-136 -589h225q201 0 294 67q61 43 97.5 122.5t36.5 166.5z" />
    <glyph glyph-name="E" unicode="E" horiz-adv-x="828" 
d="M839 706l-14 -58h-606l-58 -248h561l-14 -60h-561l-64 -281h635l-13 -59h-705l163 706h676z" />
    <glyph glyph-name="F" unicode="F" horiz-adv-x="750" 
d="M812 706l-13 -58h-581l-58 -251h520l-14 -61h-520l-77 -336h-69l163 706h649z" />
    <glyph glyph-name="G" unicode="G" horiz-adv-x="896" 
d="M832 528l-62 -32q-41 83 -106 125q-83 53 -202 53q-132 0 -223 -74q-61 -49 -96 -127t-35 -162q0 -128 75.5 -200.5t208.5 -72.5q175 0 283 133q34 41 56 93q5 12 15 46h-374l13 60h436l-85 -369h-61l31 134q-113 -154 -319 -154q-160 0 -256.5 87.5t-96.5 232.5
q0 188 123.5 309t314.5 121q254 0 360 -203z" />
    <glyph glyph-name="H" unicode="H" horiz-adv-x="896" 
d="M892 706l-163 -706h-67l79 345h-592l-80 -345h-69l163 706h69l-70 -302h593l70 302h67z" />
    <glyph glyph-name="I" unicode="I" horiz-adv-x="229" 
d="M230 706l-163 -706h-67l163 706h67z" />
    <glyph glyph-name="J" unicode="J" horiz-adv-x="625" 
d="M620 706l-87 -376q-1 -4 -5.5 -24t-9.5 -37q-26 -104 -56 -157q-75 -130 -240 -130q-225 0 -272 206l73 25q11 -63 33 -95q25 -35 69.5 -55.5t96.5 -20.5q80 0 135 43q33 25 51 60q30 58 60 188l86 373h66z" />
    <glyph glyph-name="K" unicode="K" horiz-adv-x="788" 
d="M838 706l-396 -277l255 -429h-77l-231 393l-276 -192l-46 -201h-67l163 706h67l-98 -425l601 425h105z" />
    <glyph glyph-name="L" unicode="L" horiz-adv-x="688" 
d="M597 59l-13 -59h-584l163 706h70l-149 -647h513z" />
    <glyph glyph-name="M" unicode="M" horiz-adv-x="937" 
d="M938 706l-163 -706h-63l145 628l-433 -628h-70l-145 629l-145 -629h-64l163 706h87l151 -646l446 646h91z" />
    <glyph glyph-name="N" unicode="N" horiz-adv-x="896" 
d="M894 706l-163 -706h-63l-463 616l-142 -616h-63l163 706h63l462 -619l143 619h63z" />
    <glyph glyph-name="O" unicode="O" horiz-adv-x="909" 
d="M874 411q0 -49 -15 -106q-34 -127 -128 -210q-124 -111 -326 -111q-169 0 -269.5 87t-100.5 234q0 171 116.5 288t298.5 129q34 2 50 2q169 0 271.5 -85.5t102.5 -227.5zM802 407q0 120 -84 190t-227 70q-170 0 -278 -100.5t-108 -258.5q0 -123 84.5 -195.5t228.5 -72.5
q164 0 274 105t110 262z" />
    <glyph glyph-name="P" unicode="P" horiz-adv-x="812" 
d="M836 539q0 -72 -39 -128q-40 -60 -108 -79q-36 -10 -71 -13t-121 -3h-354l-73 -316h-70l163 706h429q83 0 122.5 -8.5t68.5 -33.5q53 -47 53 -125zM761 529q0 56 -27 86q-17 17 -39 23q-32 10 -116 10h-359l-64 -274h359q48 0 64 1q89 3 129 33q53 39 53 121z" />
    <glyph glyph-name="Q" unicode="Q" horiz-adv-x="909" 
d="M874 411q0 -114 -59 -216q-23 -39 -43 -62t-62 -56l132 -92l-36 -51l-150 107l-16 -8t-13 -6q-94 -43 -222 -43q-169 0 -269.5 87t-100.5 234q0 101 44 188t125 145q122 86 294 86q171 0 273.5 -85.5t102.5 -227.5zM802 407q0 120 -84 190t-227 70q-170 0 -278 -100.5
t-108 -258.5q0 -123 84.5 -195.5t228.5 -72.5q164 0 274 105t110 262z" />
    <glyph glyph-name="R" unicode="R" horiz-adv-x="875" 
d="M852 540q0 -83 -47 -143q-47 -58 -131 -72q-41 -8 -120 -10l211 -315h-95l-206 315h-323l-73 -315h-68l163 706h450q74 0 111.5 -7.5t64.5 -26.5q63 -44 63 -132zM778 535q0 56 -35 85q-32 28 -141 28h-384l-63 -273h405q104 0 155 30q29 17 46 52.5t17 77.5z" />
    <glyph glyph-name="S" unicode="S" horiz-adv-x="812" 
d="M779 565l-64 -33q-38 59 -93 86q-92 47 -192 47q-116 0 -182 -35t-66 -96q0 -48 37 -70q19 -12 48 -20q38 -11 157 -36q126 -28 156 -36q45 -13 75 -29q79 -46 79 -132q0 -106 -92 -166t-256 -60q-120 0 -206 33q-92 35 -140 97q-25 31 -44 91l75 22q12 -42 26.5 -66
t40.5 -45q88 -72 246 -72q132 0 205.5 42t73.5 118q0 35 -18 58q-19 22 -58.5 36t-147.5 37l-126 27q-88 19 -125 40q-75 43 -75 123q0 93 84 144.5t234 51.5q116 0 213 -43q88 -39 135 -114z" />
    <glyph glyph-name="T" unicode="T" horiz-adv-x="688" 
d="M766 706l-13 -58h-303l-150 -648h-67l150 648h-317l13 58h687z" />
    <glyph glyph-name="U" unicode="U" horiz-adv-x="875" 
d="M874 706l-92 -400q-35 -153 -91 -219q-89 -105 -313 -105q-161 0 -243.5 56t-82.5 165q0 45 20 129l87 374h65l-88 -380q-17 -72 -17 -115q0 -85 64 -125q72 -45 202 -45q183 0 259 87q25 28 38 63q23 55 42 142l86 373h64z" />
    <glyph glyph-name="V" unicode="V" 
d="M795 706l-490 -706h-66l-170 706h72l146 -632l429 632h79z" />
    <glyph glyph-name="W" unicode="W" horiz-adv-x="1062" 
d="M1142 706l-386 -706h-82l-71 637l-365 -637h-80l-71 706h68l59 -636l365 636h73l76 -636l345 636h69z" />
    <glyph glyph-name="X" unicode="X" horiz-adv-x="729" 
d="M794 706l-387 -346l247 -360h-80l-217 317l-351 -317h-93l410 369l-231 337h80l201 -293l329 293h92z" />
    <glyph glyph-name="Y" unicode="Y" horiz-adv-x="729" 
d="M800 706l-417 -420l-66 -286h-64l66 286l-235 420h79l197 -363l356 363h84z" />
    <glyph glyph-name="Z" unicode="Z" horiz-adv-x="748" 
d="M811 706l-14 -62l-758 -585h628l-13 -59h-732l13 57l762 591h-594l13 58h695z" />
    <glyph glyph-name="bracketleft" unicode="[" horiz-adv-x="292" 
d="M362 732l-14 -62h-122l-190 -822h122l-14 -63h-187l218 947h187z" />
    <glyph glyph-name="backslash" unicode="\" horiz-adv-x="354" 
d="M261 -17h-58l-113 724h57z" />
    <glyph glyph-name="bracketright" unicode="]" horiz-adv-x="292" 
d="M284 732l-219 -947h-187l15 62h122l189 822h-122l15 63h187z" />
    <glyph glyph-name="asciicircum" unicode="^" horiz-adv-x="772" 
d="M609 286l-63 1l-87 356l-260 -357h-72l310 420h69z" />
    <glyph glyph-name="underscore" unicode="_" horiz-adv-x="500" 
d="M419 -206h-520l13 59h520z" />
    <glyph glyph-name="grave" unicode="`" horiz-adv-x="292" 
d="M232 554h-43l-129 145h109z" />
    <glyph glyph-name="a" unicode="a" horiz-adv-x="667" 
d="M605 51l-11 -50q-1 0 -8.5 -1t-23.5 -2q-18 -2 -22 -2q-72 0 -72 61v15q-83 -85 -273 -85q-92 0 -142.5 37.5t-50.5 105.5q0 50 25 89t70 59t118 30q96 12 282 12h29q6 32 6 42q0 40 -30 57q-54 31 -171 31q-92 0 -138.5 -24.5t-66.5 -83.5l-68 4q21 66 59 100
q66 59 220 59q132 0 194 -32t62 -100q0 -20 -8 -58l-44 -193q-6 -24 -6 -38q0 -19 10.5 -26t37.5 -7h22zM513 266q-17 0 -40.5 0.5t-29.5 0.5q-105 0 -206 -11q-79 -8 -115 -27q-23 -12 -37 -36.5t-14 -53.5q0 -49 36 -72.5t112 -23.5q184 0 249 99q14 19 27 55q9 23 18 69z
" />
    <glyph glyph-name="b" unicode="b" 
d="M642 273q0 -124 -92 -204.5t-235 -80.5q-156 0 -232 109l-22 -97h-66l163 706h66l-64 -276q27 23 44 33.5t42 19.5q57 21 137 21q120 0 189.5 -61.5t69.5 -169.5zM570 276q0 83 -51.5 128.5t-146.5 45.5q-111 0 -179 -55q-35 -29 -56 -79t-21 -104q0 -63 32 -101
q27 -32 74.5 -50.5t100.5 -18.5q109 0 178 65.5t69 168.5z" />
    <glyph glyph-name="c" unicode="c" horiz-adv-x="665" 
d="M613 346l-64 -26q-21 38 -35.5 55t-41.5 33q-59 38 -140 38q-113 0 -181 -60t-68 -161q0 -83 58 -132.5t155 -49.5q113 0 184 66q26 25 60 78l62 -28q-59 -90 -134 -131.5t-179 -41.5q-125 0 -200 63t-75 169q0 124 90.5 204.5t229.5 80.5q98 0 171 -41t108 -116z" />
    <glyph glyph-name="d" unicode="d" 
d="M713 706l-163 -706h-66l15 63q-51 -40 -89 -55q-57 -22 -136 -22q-120 0 -190 61.5t-70 166.5q0 127 92 208t235 81q85 0 138 -24t97 -83l72 310h65zM541 280q0 80 -54 124.5t-150 44.5q-113 0 -182.5 -64.5t-69.5 -169.5q0 -83 53 -128.5t149 -45.5q113 0 178 56
q35 29 55.5 78.5t20.5 104.5z" />
    <glyph glyph-name="e" unicode="e" horiz-adv-x="658" 
d="M587 268q0 -17 -1 -31h-503q-2 -22 -2 -24q0 -74 57 -122t145 -48q143 0 235 126l46 -38q-56 -75 -126 -110t-164 -35q-118 0 -188.5 62.5t-70.5 168.5q0 128 85.5 208t222.5 80q125 0 194.5 -62.5t69.5 -174.5zM516 292q-8 77 -58.5 118t-139.5 41q-84 0 -142.5 -42
t-80.5 -117h421z" />
    <glyph glyph-name="f" unicode="f" horiz-adv-x="354" 
d="M442 713l-15 -58q-45 11 -85 11q-45 0 -66 -19.5t-33 -71.5l-20 -86h167l-12 -51h-167l-101 -438h-66l102 438h-98l11 51h98l24 102q17 72 54 102.5t109 30.5q4 0 34 -2q35 -2 64 -9z" />
    <glyph glyph-name="g" unicode="g" horiz-adv-x="688" 
d="M661 490l-101 -440q-10 -45 -16 -63q-20 -74 -54 -111q-71 -76 -245 -76q-120 0 -184 37.5t-64 108.5q0 10 1 17h69q-2 -12 -2 -15q0 -47 49.5 -69.5t154.5 -22.5q59 0 109 18t72 48q27 34 49 140q-24 -23 -41 -33t-46 -20q-60 -21 -134 -21q-122 0 -193 61t-71 167
q0 62 28 120t77 98q84 69 225 69q118 0 181 -50q29 -22 52 -58l20 95h64zM543 279q0 80 -54.5 125t-151.5 45q-112 0 -181.5 -63.5t-69.5 -167.5q0 -83 53 -128.5t149 -45.5q113 0 179 54q35 29 55.5 78t20.5 103z" />
    <glyph glyph-name="h" unicode="h" 
d="M625 317q0 -42 -13 -98l-50 -219h-66l49 215q12 51 12 89q0 140 -185 140q-119 0 -184 -58q-28 -25 -46 -63q-16 -35 -26 -79l-55 -244h-66l162 706h66l-65 -286q69 82 222 82q119 0 182 -47.5t63 -137.5z" />
    <glyph glyph-name="i" unicode="i" horiz-adv-x="208" 
d="M218 678l-22 -96h-66l22 96h66zM175 489l-114 -489h-66l114 489h66z" />
    <glyph glyph-name="j" unicode="j" horiz-adv-x="208" 
d="M217 678l-23 -97h-64l23 97h64zM173 489l-121 -526q-16 -66 -36 -97q-36 -55 -123 -55q-51 0 -99 12l15 60q40 -13 81 -13q45 0 65 19t33 73l121 527h64z" />
    <glyph glyph-name="k" unicode="k" horiz-adv-x="667" 
d="M637 489l-298 -192l255 -297h-84l-224 262l-194 -125l-31 -137h-65l163 706h65l-114 -489l419 272h108z" />
    <glyph glyph-name="l" unicode="l" horiz-adv-x="208" 
d="M225 706l-163 -706h-66l163 706h66z" />
    <glyph glyph-name="m" unicode="m" horiz-adv-x="1177" 
d="M1094 317q0 -42 -13 -98l-50 -219h-66l49 215q12 51 12 90q0 67 -46 103t-131 36q-110 0 -176 -58q-30 -27 -46 -63q-14 -29 -31 -104l-50 -219h-66l49 215q12 51 12 90q0 67 -46 103t-131 36q-110 0 -176 -58q-28 -25 -46 -63q-16 -35 -26 -79l-55 -244h-66l112 489h66
l-15 -69q69 83 214 83q95 0 158 -37q47 -27 69 -86q41 59 99 89q70 34 161 34q112 0 173.5 -49t61.5 -137z" />
    <glyph glyph-name="n" unicode="n" 
d="M625 317q0 -42 -13 -98l-50 -219h-66l49 215q12 51 12 89q0 140 -185 140q-119 0 -184 -58q-28 -25 -46 -63q-16 -35 -26 -79l-55 -244h-66l112 489h66l-15 -69q69 82 222 82q119 0 182 -47.5t63 -137.5z" />
    <glyph glyph-name="o" unicode="o" horiz-adv-x="700" 
d="M634 272q0 -123 -95.5 -204.5t-238.5 -81.5q-130 0 -208.5 63t-78.5 168q0 122 96 205q92 80 245 80q128 0 204 -62.5t76 -167.5zM563 269q0 78 -54 128.5t-141 50.5h-21q-115 0 -189 -64.5t-74 -164.5q0 -84 58.5 -131.5t160.5 -47.5q114 0 187 64.5t73 164.5z" />
    <glyph glyph-name="p" unicode="p" 
d="M644 273q0 -128 -91.5 -209t-236.5 -81q-160 0 -237 103l-62 -273h-66l156 676h66l-15 -64q43 39 89 55q60 22 136 22q119 0 190 -62t71 -167zM572 270q0 83 -53 128.5t-149 45.5q-113 0 -179 -54q-35 -29 -55.5 -78.5t-20.5 -103.5q0 -79 54.5 -123t151.5 -44
q113 0 182 63t69 166z" />
    <glyph glyph-name="q" unicode="q" 
d="M662 489l-155 -676h-66l55 243q-26 -23 -43 -33t-44 -20q-63 -22 -136 -22q-119 0 -190 62t-71 167q0 129 91.5 210t236.5 81q166 0 235 -102l21 90h66zM541 276q0 78 -54.5 122.5t-151.5 44.5q-113 0 -182 -63t-69 -166q0 -83 53 -129t149 -46q111 0 179 55
q35 29 55.5 78.5t20.5 103.5z" />
    <glyph glyph-name="r" unicode="r" horiz-adv-x="396" 
d="M425 504l-17 -69q-36 4 -59 4q-96 0 -160 -55q-17 -14 -30 -33q-26 -35 -40 -98l-57 -253h-66l112 489h66l-18 -80q36 47 85 69q59 27 146 27q18 0 38 -1z" />
    <glyph glyph-name="s" unicode="s" horiz-adv-x="625" 
d="M584 374l-76 -12q-7 22 -17 33.5t-33 22.5q-68 33 -155 33t-133.5 -24.5t-46.5 -70.5q0 -31 30 -46q22 -11 135 -24q22 -3 49 -6t33 -4q65 -9 92 -18q82 -26 82 -100q0 -60 -44 -104q-67 -67 -223 -67q-130 0 -205.5 37.5t-91.5 109.5l74 12q6 -23 20 -38
q26 -30 82.5 -48t126.5 -18q84 0 138.5 29.5t54.5 74.5q0 28 -25 44q-11 8 -43 14q-72 12 -165 22q-102 12 -143 37q-46 30 -46 85q0 64 48 104q61 51 203 51q125 0 200 -36q46 -21 67 -61q5 -8 12 -32z" />
    <glyph glyph-name="t" unicode="t" horiz-adv-x="310" 
d="M346 489l-12 -51h-135l-59 -256q-12 -50 -12 -78q0 -30 16 -43.5t51 -13.5q23 0 54 5l-12 -55q-32 -7 -64 -7q-54 0 -84.5 26t-30.5 71q0 27 13 83l62 268h-87l12 51h87l40 175l73 31l-47 -206h135z" />
    <glyph glyph-name="u" unicode="u" 
d="M672 489l-111 -489h-66l15 69q-69 -83 -222 -83q-120 0 -182.5 47.5t-62.5 138.5q0 40 13 98l49 219h66l-48 -216q-12 -57 -12 -89q0 -140 185 -140q118 0 184 59q27 23 46 62q13 27 25 80l55 244h66z" />
    <glyph glyph-name="v" unicode="v" horiz-adv-x="562" 
d="M591 489l-362 -489h-60l-135 489h70l108 -416l301 416h78z" />
    <glyph glyph-name="w" unicode="w" horiz-adv-x="854" 
d="M886 489l-312 -489h-63l-68 414l-255 -414h-63l-91 489h68l70 -409l252 409h69l65 -409l258 409h70z" />
    <glyph glyph-name="x" unicode="x" horiz-adv-x="562" 
d="M582 489l-284 -238l184 -251h-81l-149 208l-246 -208h-95l307 258l-172 231h83l137 -190l224 190h92z" />
    <glyph glyph-name="y" unicode="y" horiz-adv-x="562" 
d="M597 489l-356 -528q-8 -12 -16.5 -25t-13.5 -20.5l-7 -10.5q-17 -23 -30 -38q-31 -35 -67 -49.5t-90 -14.5q-47 0 -124 18l15 63q64 -23 111 -23q60 0 96 33q25 22 60 78l-138 517h72l118 -445l292 445h78z" />
    <glyph glyph-name="z" unicode="z" horiz-adv-x="562" 
d="M570 489l-10 -46l-513 -389h439l-13 -54h-535l13 53l504 382h-384l12 54h487z" />
    <glyph glyph-name="braceleft" unicode="{" horiz-adv-x="268" 
d="M356 734l-13 -57h-33q-44 0 -61 -16q-12 -11 -18.5 -27.5t-17.5 -65.5l-41 -179q-15 -65 -39.5 -95t-72.5 -40q58 -20 58 -79q0 -19 -8 -55l-40 -172q-11 -47 -11 -64q0 -24 13 -33.5t46 -10.5l32 -1l-13 -57h-51q-45 0 -70.5 24t-25.5 66q0 24 12 77l41 175q8 34 8 51
q0 29 -18.5 41.5t-62.5 13.5l14 57q46 0 71 12q20 10 30.5 29t20.5 65l39 175q13 58 26 92q17 40 48 58t86 17z" />
    <glyph glyph-name="bar" unicode="|" horiz-adv-x="229" 
d="M228 732l-219 -947h-66l220 947h65z" />
    <glyph glyph-name="braceright" unicode="}" horiz-adv-x="268" 
d="M256 287l-14 -58q-47 0 -71 -12q-20 -10 -30 -29t-21 -65l-39 -175q-13 -56 -27 -91q-16 -40 -47 -57.5t-87 -17.5h-51l13 58h33q43 0 62 16q18 16 35 92l41 179q15 65 39.5 95t72.5 41q-57 19 -57 79q0 24 7 54l40 173q11 47 11 63q0 24 -13.5 34.5t-44.5 10.5h-33
l14 58h50q45 0 71 -24t26 -66q0 -19 -13 -78l-40 -175q-8 -34 -8 -51q0 -29 18.5 -41t62.5 -13z" />
    <glyph glyph-name="asciitilde" unicode="~" horiz-adv-x="772" 
d="M705 318q-54 -49 -98 -71q-57 -29 -108 -29q-54 0 -129 38l-36 18q-60 30 -107 30q-21 0 -40 -6q-23 -7 -45 -22q-19 -15 -48 -40q-2 -1 -8 -6t-10 -8l-40 46q46 43 75 62q56 38 126 38q29 0 45 -5q34 -8 77 -28l64 -29q56 -25 83 -25q38 0 79 23q28 15 80 58z" />
    <glyph glyph-name="exclamdown" unicode="&#xa1;" horiz-adv-x="313" 
d="M243 706l-23 -99h-77l23 99h77zM182 506l-38 -215l-67 -291h-71l67 291l63 215h46z" />
    <glyph glyph-name="cent" unicode="&#xa2;" horiz-adv-x="667" 
d="M620 346l-64 -26q-21 39 -35 55q-46 52 -135 68l-92 -400h8q54 0 102 16q46 16 76.5 43.5t66.5 84.5l62 -28q-41 -63 -86 -99q-92 -74 -219 -74q-13 0 -23 1l-24 -103h-55l25 108q-98 18 -152 77.5t-54 148.5q0 123 90 204t226 81h8l25 107h55l-26 -111q162 -29 221 -153
zM332 446q-113 -5 -176 -63t-63 -158q0 -137 148 -175z" />
    <glyph glyph-name="sterling" unicode="&#xa3;" horiz-adv-x="792" 
d="M758 497l-69 -9v20q0 154 -207 154q-100 0 -154.5 -39.5t-54.5 -112.5q0 -28 10.5 -53.5t38.5 -65.5h238l-13 -56h-196q44 -69 44 -121q0 -42 -26 -86q52 -36 93 -56q36 -18 73 -18q103 0 129 162h64q-17 -109 -71.5 -167t-139.5 -58q-58 0 -106 27q-29 17 -80 60
q-84 -87 -201 -87q-65 0 -101.5 26t-36.5 73q0 55 46.5 90.5t119.5 35.5q34 0 61 -7q36 -9 100 -46q9 28 9 44q0 19 -10 44q-11 25 -42 71l-9 13h-203l13 56h158q-33 58 -33 112q0 100 77.5 158t209.5 58q153 0 222 -75q24 -26 34.5 -58.5t12.5 -88.5zM286 108
q-24 17 -44 28q-40 23 -85 23q-43 0 -71 -17.5t-28 -44.5q0 -23 20 -36.5t56 -13.5q32 0 64 9q46 12 88 52z" />
    <glyph glyph-name="currency" unicode="&#xa4;" horiz-adv-x="715" 
d="M670 560l-80 -66q39 -55 39 -123q0 -117 -81 -201l66 -76l-47 -39l-66 76q-78 -47 -166 -47q-96 0 -164 59l-82 -67l-39 45l81 66q-41 67 -41 132q0 55 23 109q21 48 59 86l-66 76l46 40l65 -75q18 10 20 11q61 33 141 33q106 0 172 -58l79 65zM564 363q0 80 -51.5 129
t-135.5 49q-95 0 -158 -62.5t-63 -157.5q0 -78 51 -129t129 -51q97 0 162.5 64t65.5 158z" />
    <glyph glyph-name="yen" unicode="&#xa5;" horiz-adv-x="729" 
d="M801 695l-328 -326h176l-13 -55h-218l-32 -33l-8 -34h243l-13 -55h-243l-44 -192h-64l44 192h-256l13 55h256l8 34l-20 33h-228l12 55h185l-186 326h79l197 -358l356 358h84z" />
    <glyph glyph-name="brokenbar" unicode="&#xa6;" horiz-adv-x="229" 
d="M228 732l-94 -405h-66l95 405h65zM103 189l-94 -404h-66l95 404h65z" />
    <glyph glyph-name="section" unicode="&#xa7;" horiz-adv-x="688" 
d="M619 262q0 -67 -40 -126q-33 -48 -103 -83q24 -35 24 -78q0 -67 -47 -114q-54 -54 -164 -54q-56 0 -113 16q-90 25 -166 76l-6 4l47 56q127 -90 251 -90q59 0 92.5 26.5t33.5 72.5q0 36 -29 56q-25 19 -131 57q-13 4 -25.5 8.5t-23.5 8.5t-15 6q-46 18 -80 37
q-98 56 -98 154q0 71 41 129q34 50 106 83q-15 25 -15 61q0 69 53.5 111t140.5 42q58 0 112 -18t136 -59l6 -3l-46 -54q-107 74 -215 74q-56 0 -86.5 -22.5t-30.5 -64.5q0 -35 28 -56q24 -17 128 -54q96 -33 139 -58q96 -56 96 -144zM547 248q0 49 -31 77q-21 21 -64 39
q-38 16 -105 40q-2 1 -68 25q-42 17 -69 38q-53 -27 -78 -60q-35 -46 -35 -101q0 -51 31 -82q18 -18 68 -40q36 -16 109 -42q77 -28 124 -52q53 19 85.5 63t32.5 95z" />
    <glyph glyph-name="dieresis" unicode="&#xa8;" horiz-adv-x="292" 
d="M325 659l-22 -95h-70l22 95h70zM59 659l-21 -95h-71l22 95h70z" />
    <glyph glyph-name="copyright" unicode="&#xa9;" horiz-adv-x="833" 
d="M768 351q0 -149 -104.5 -251.5t-252.5 -102.5q-149 0 -252 104t-103 254q0 149 103 251.5t253 102.5q149 0 252.5 -102.5t103.5 -249.5v-6zM736 351q0 137 -94 231.5t-230 94.5q-135 0 -229.5 -94.5t-94.5 -229.5t94.5 -229.5t229.5 -94.5q134 0 229 94.5t95 227.5z
M631 449l-53 -24q-31 95 -154 95q-80 0 -130.5 -50.5t-50.5 -130.5q0 -68 44 -110.5t116 -42.5q76 0 127 43q21 19 38 50l46 -28q-67 -116 -214 -116q-96 0 -156.5 55t-60.5 143q0 102 71.5 170.5t178.5 68.5q47 0 95 -19q67 -28 103 -104z" />
    <glyph glyph-name="ordfeminine" unicode="&#xaa;" horiz-adv-x="437" 
d="M468 403l-8 -40q-24 -4 -40 -4q-28 0 -39 10.5t-13 39.5q-38 -31 -77.5 -43.5t-95.5 -12.5q-71 0 -109.5 26t-38.5 75q0 69 69 104q39 20 111 27q75 7 175 8q3 19 3 24q0 29 -29.5 42t-96.5 13q-68 0 -98 -14.5t-48 -56.5l-53 2q24 64 70.5 89.5t137.5 25.5
q168 0 168 -90q0 -17 -10 -65l-25 -119q-3 -15 -3 -22q0 -19 31 -19h19zM394 548q-15 1 -30 1q-26 0 -77 -3q-91 -5 -129 -18q-55 -19 -55 -67q0 -60 99 -60q116 0 164 65q16 24 25 67z" />
    <glyph glyph-name="guillemotleft" unicode="&#xab;" horiz-adv-x="521" 
d="M487 513l-15 -63l-169 -141l103 -142l-11 -53l-161 173l13 55zM278 513l-15 -63l-169 -141l103 -142l-11 -53l-160 173l12 55z" />
    <glyph glyph-name="logicalnot" unicode="&#xac;" horiz-adv-x="772" 
d="M679 323l-75 -323h-60l60 264h-563l14 59h624z" />
    <glyph glyph-name="registered" unicode="&#xae;" horiz-adv-x="833" 
d="M768 351q0 -149 -104.5 -251.5t-252.5 -102.5q-149 0 -252 104t-103 254q0 149 103 251.5t253 102.5q149 0 252.5 -102.5t103.5 -249.5v-6zM736 351q0 137 -94 231.5t-230 94.5q-135 0 -229.5 -94.5t-94.5 -229.5t94.5 -229.5t229.5 -94.5q134 0 229 94.5t95 227.5z
M613 459q0 -121 -157 -129l108 -183h-63l-104 183h-79l-41 -183h-56l94 416h176q52 0 86 -24q36 -27 36 -80zM560 455q0 28 -19 44q-10 8 -21 11q-15 5 -59 5h-100l-32 -137h112q57 0 88 17q31 19 31 60z" />
    <glyph glyph-name="macron" unicode="&#xaf;" horiz-adv-x="292" 
d="M320 621l-13 -52h-335l13 52h335z" />
    <glyph glyph-name="degree" unicode="&#xb0;" horiz-adv-x="354" 
d="M379 602q0 -61 -43 -104t-104 -43t-104 43t-43 104q0 60 43 103.5t103 43.5q62 0 105 -42.5t43 -104.5zM322 602q0 38 -26 65t-63 27q-38 0 -65 -27t-27 -66q0 -38 27 -65t65 -27q37 0 63 27t26 66z" />
    <glyph glyph-name="plusminus" unicode="&#xb1;" horiz-adv-x="772" 
d="M700 435l-14 -59h-261l-55 -239h-60l55 239h-262l14 59h262l54 237h60l-55 -237h262zM613 58l-13 -58h-583l13 58h583z" />
    <glyph glyph-name="twosuperior" unicode="&#xb2;" horiz-adv-x="476" 
d="M460 558q0 -72 -63 -126q-45 -38 -237 -128l-19 -9l278 2l-8 -42h-375l9 46q89 32 168 72q76 37 112 60q85 55 85 121q0 43 -35 69.5t-93 26.5q-64 0 -100 -30q-27 -23 -48 -87l-45 10q17 54 40 82q52 67 157 67q77 0 125.5 -37t48.5 -97z" />
    <glyph glyph-name="threesuperior" unicode="&#xb3;" horiz-adv-x="476" 
d="M458 585q0 -34 -24 -61.5t-63 -38.5q35 -17 50 -37.5t15 -48.5q0 -64 -55.5 -105t-141.5 -41q-82 0 -132.5 32t-63.5 93l46 12q11 -37 32 -57q41 -39 121 -39q64 0 104.5 27.5t40.5 71.5q0 37 -32 55q-27 15 -111 15h-34l9 40l23 -1h29q50 0 73 5t41 21q25 22 25 53
q0 34 -32.5 53t-90.5 19q-56 0 -90.5 -22t-56.5 -71l-40 17q32 62 76 88.5t114 26.5q79 0 123.5 -28.5t44.5 -78.5z" />
    <glyph glyph-name="acute" unicode="&#xb4;" horiz-adv-x="292" 
d="M250 700l-165 -145h-43l99 145h109z" />
    <glyph glyph-name="mu" unicode="&#xb5;" horiz-adv-x="729" 
d="M673 489l-83 -366q-2 -8 -3 -19q-3 -12 -3 -19q0 -19 10.5 -26.5t37.5 -7.5q2 0 9 0.5t14 0.5l-12 -51l-9 -1q-32 -3 -45 -3q-72 0 -72 62v19q-72 -91 -227 -91q-96 0 -160 43q-32 22 -51 51l-61 -266h-66l156 674h65l-49 -215q-12 -57 -12 -89q0 -140 185 -140
q118 0 184 59q27 23 46 62q13 26 25 80l55 243h66z" />
    <glyph glyph-name="paragraph" unicode="&#xb6;" horiz-adv-x="640" 
d="M640 707l-13 -54h-34l-189 -819h-58l189 819h-162l-189 -819h-58l112 486q-13 0 -44 18q-29 18 -46 43q-26 38 -26 97q0 57 26 108t71 80q61 41 172 41h249z" />
    <glyph glyph-name="periodcentered" unicode="&#xb7;" horiz-adv-x="271" 
d="M167 339l-23 -99h-77l23 99h77z" />
    <glyph glyph-name="cedilla" unicode="&#xb8;" horiz-adv-x="292" 
d="M252 -122q0 -37 -29 -57.5t-81 -20.5q-28 0 -87 12l-15 3l7 33q7 -2 12 -3q11 -2 18.5 -3.5t10.5 -1.5q24 -3 42 -3q58 0 58 36q0 16 -16 24.5t-54 12.5l30 101h43l-20 -69q44 -8 62.5 -22.5t18.5 -41.5z" />
    <glyph glyph-name="onesuperior" unicode="&#xb9;" horiz-adv-x="476" 
d="M354 689l-99 -431h-47l76 331q-38 -25 -104 -25h-15l10 40q49 1 75 12q36 13 71 73h33z" />
    <glyph glyph-name="ordmasculine" unicode="&#xba;" horiz-adv-x="479" 
d="M498 551q0 -88 -65 -144t-167 -56q-89 0 -146 46t-57 118q0 89 64 145t164 56q92 0 149.5 -45.5t57.5 -119.5zM440 548q0 55 -43 89.5t-112 34.5q-73 0 -118.5 -42.5t-45.5 -110.5q0 -56 41 -89.5t108 -33.5t112.5 34t55.5 90q2 9 2 28z" />
    <glyph glyph-name="guillemotright" unicode="&#xbb;" horiz-adv-x="521" 
d="M473 343l-13 -55l-239 -171l15 64l169 141l-104 142l12 52zM264 343l-13 -55l-239 -171l15 64l169 141l-104 142l12 52z" />
    <glyph glyph-name="onequarter" unicode="&#xbc;" horiz-adv-x="1083" 
d="M970 155l-10 -42h-93l-25 -113h-46l25 113h-268l8 39l331 280h48l-63 -277h93zM816 688l-519 -688h-58l521 688h56zM383 689l-100 -431h-47l77 331q-38 -25 -104 -25h-15l9 40q46 1 75 12q38 15 72 73h33zM881 373l-255 -218h205z" />
    <glyph glyph-name="onehalf" unicode="&#xbd;" horiz-adv-x="1083" 
d="M989 303q0 -73 -62 -126q-76 -64 -237 -129l-20 -8l279 2l-8 -42h-375l9 45q89 34 168 72q73 37 112 61q85 55 85 121q0 43 -35 69.5t-93 26.5q-64 0 -100 -30q-27 -23 -48 -87l-46 10q19 55 41 82q51 66 156 66q78 0 126 -37t48 -96zM778 688l-519 -688h-58l521 688h56z
M352 689l-99 -431h-47l76 331q-38 -25 -104 -25h-15l9 40q50 1 76 12q36 13 71 73h33z" />
    <glyph glyph-name="threequarters" unicode="&#xbe;" horiz-adv-x="1083" 
d="M995 155l-10 -42h-93l-26 -113h-46l26 113h-269l9 39l331 280h48l-63 -277h93zM847 688l-520 -688h-57l521 688h56zM453 585q0 -34 -24 -61.5t-62 -38.5q64 -32 64 -86q0 -64 -55 -105t-141 -41q-82 0 -132.5 32t-63.5 93l46 12q11 -37 31 -57q42 -39 122 -39
q64 0 104 27.5t40 71.5q0 38 -31 55q-29 15 -112 15h-33l8 40l24 -1h29q51 0 73.5 5t39.5 21q26 23 26 53q0 34 -32.5 53t-90.5 19q-56 0 -90 -21.5t-57 -71.5l-41 17q31 61 75.5 88t115.5 27q78 0 122.5 -28.5t44.5 -78.5zM906 373l-255 -218h205z" />
    <glyph glyph-name="questiondown" unicode="&#xbf;" 
d="M487 705l-23 -99h-74l22 99h75zM597 199q-61 -115 -138 -165.5t-193 -50.5q-117 0 -183.5 50.5t-66.5 139.5q0 99 73 166q38 36 94 56q25 9 96 29q40 12 56 19q24 12 34 50l4 16h62l-5 -18q-14 -51 -30 -70q-25 -28 -84 -44l-37 -10q-93 -25 -135 -59
q-27 -22 -43.5 -56.5t-16.5 -70.5q0 -67 52 -104t147 -37q76 0 132 35q37 23 64.5 56t58.5 92z" />
    <glyph glyph-name="Agrave" unicode="&#xc0;" horiz-adv-x="792" 
d="M503 774h-48l-135 126h111zM712 0h-69l-56 183h-453l-127 -183h-75l486 706h76zM570 239l-122 406l-275 -406h397z" />
    <glyph glyph-name="Aacute" unicode="&#xc1;" horiz-adv-x="792" 
d="M615 900l-168 -126h-45l102 126h111zM712 0h-69l-56 183h-453l-127 -183h-75l486 706h76zM570 239l-122 406l-275 -406h397z" />
    <glyph glyph-name="Acircumflex" unicode="&#xc2;" horiz-adv-x="792" 
d="M609 774h-61l-64 77l-110 -77h-66l140 126h79zM712 0h-69l-56 183h-453l-127 -183h-75l486 706h76zM570 239l-122 406l-275 -406h397z" />
    <glyph glyph-name="Atilde" unicode="&#xc3;" horiz-adv-x="792" 
d="M667 867q-27 -39 -47 -54q-32 -26 -74 -26q-30 0 -93 24q-58 22 -83 22q-33 0 -73 -43l-25 19q29 33 51 50q34 25 76 25q41 0 120 -29q15 -5 25 -9q15 -5 29 -5q37 0 68 43zM712 0h-69l-56 183h-453l-127 -183h-75l486 706h76zM570 239l-122 406l-275 -406h397z" />
    <glyph glyph-name="Adieresis" unicode="&#xc4;" horiz-adv-x="792" 
d="M684 894l-22 -96h-71l22 96h71zM361 894l-22 -96h-71l22 96h71zM712 0h-69l-56 183h-453l-127 -183h-75l486 706h76zM570 239l-122 406l-275 -406h397z" />
    <glyph glyph-name="Aring" unicode="&#xc5;" horiz-adv-x="792" 
d="M584 830q0 -39 -31.5 -63.5t-81.5 -24.5t-82 23.5t-32 60.5q0 40 31.5 63.5t84.5 23.5q50 0 80.5 -22.5t30.5 -60.5zM712 0h-69l-56 183h-453l-127 -183h-75l486 706h76zM531 828q0 20 -16.5 32t-44.5 12q-27 0 -44 -12.5t-17 -32.5q0 -19 16.5 -30.5t44.5 -11.5
t44.5 11.5t16.5 31.5zM570 239l-122 406l-275 -406h397z" />
    <glyph glyph-name="AE" unicode="&#xc6;" horiz-adv-x="1134" 
d="M1123 706l-13 -58h-447l-59 -254h446l-14 -60h-446l-63 -275h501l-14 -59h-568l40 174h-316l-165 -174h-88l669 706h537zM596 632l-374 -402h277z" />
    <glyph glyph-name="Ccedilla" unicode="&#xc7;" horiz-adv-x="812" 
d="M807 517l-65 -29q-70 177 -278 177q-152 0 -255 -97.5t-103 -242.5q0 -97 41 -159q38 -59 110 -93t158 -34q136 0 230 80q41 35 78 92l55 -33q-56 -94 -150 -145t-210 -51q-13 0 -23 1l-13 -44q44 -8 63 -22.5t19 -41.5q0 -36 -29.5 -56.5t-81.5 -20.5q-33 0 -87 11
l-15 3l7 33q2 0 6 -0.5t6 -1.5q45 -9 71 -9q58 0 58 36q0 16 -16 24.5t-54 12.5l23 79q-145 15 -231 103.5t-86 222.5q0 178 123 294.5t312 116.5q241 0 337 -206z" />
    <glyph glyph-name="Egrave" unicode="&#xc8;" horiz-adv-x="828" 
d="M533 774h-48l-135 126h111zM839 706l-14 -58h-606l-58 -248h561l-14 -60h-561l-64 -281h635l-13 -59h-705l163 706h676z" />
    <glyph glyph-name="Eacute" unicode="&#xc9;" horiz-adv-x="828" 
d="M657 900l-168 -126h-45l102 126h111zM839 706l-14 -58h-606l-58 -248h561l-14 -60h-561l-64 -281h635l-13 -59h-705l163 706h676z" />
    <glyph glyph-name="Ecircumflex" unicode="&#xca;" horiz-adv-x="828" 
d="M651 774h-60l-65 77l-109 -77h-67l141 126h79zM839 706l-14 -58h-606l-58 -248h561l-14 -60h-561l-64 -281h635l-13 -59h-705l163 706h676z" />
    <glyph glyph-name="Edieresis" unicode="&#xcb;" horiz-adv-x="828" 
d="M732 894l-22 -96h-71l22 96h71zM409 894l-22 -96h-71l22 96h71zM839 706l-14 -58h-606l-58 -248h561l-14 -60h-561l-64 -281h635l-13 -59h-705l163 706h676z" />
    <glyph glyph-name="Igrave" unicode="&#xcc;" horiz-adv-x="229" 
d="M255 774h-48l-136 126h111zM230 706l-163 -706h-67l163 706h67z" />
    <glyph glyph-name="Iacute" unicode="&#xcd;" horiz-adv-x="229" 
d="M362 900l-168 -126h-45l102 126h111zM230 706l-163 -706h-67l163 706h67z" />
    <glyph glyph-name="Icircumflex" unicode="&#xce;" horiz-adv-x="229" 
d="M360 774h-61l-64 77l-110 -77h-66l141 126h79zM230 706l-163 -706h-67l163 706h67z" />
    <glyph glyph-name="Idieresis" unicode="&#xcf;" horiz-adv-x="229" 
d="M424 894l-22 -96h-71l22 96h71zM102 894l-23 -96h-71l23 96h71zM230 706l-163 -706h-67l163 706h67z" />
    <glyph glyph-name="Eth" unicode="&#xd0;" horiz-adv-x="842" 
d="M807 416q0 -161 -97 -276q-62 -75 -152.5 -107.5t-237.5 -32.5h-320l82 356h-83l12 52h83l69 298h254q106 0 163 -7q79 -11 130 -52q97 -78 97 -231zM737 415q0 97 -50 157q-44 54 -119 68q-43 8 -148 8h-200l-56 -241h348l-12 -51h-348l-68 -297h225q201 0 294 67
q61 43 97.5 122.5t36.5 166.5z" />
    <glyph glyph-name="Ntilde" unicode="&#xd1;" horiz-adv-x="896" 
d="M743 867q-27 -39 -47 -54q-32 -26 -74 -26q-30 0 -93 24q-58 22 -83 22q-33 0 -73 -43l-25 19q29 33 51 50q34 25 76 25q41 0 120 -29q15 -5 25 -9q15 -5 29 -5q37 0 68 43zM894 706l-163 -706h-63l-463 616l-142 -616h-63l163 706h63l462 -619l143 619h63z" />
    <glyph glyph-name="Ograve" unicode="&#xd2;" horiz-adv-x="909" 
d="M548 774h-48l-135 126h111zM874 411q0 -49 -15 -106q-34 -127 -128 -210q-124 -111 -326 -111q-169 0 -269.5 87t-100.5 234q0 171 116.5 288t298.5 129q34 2 50 2q169 0 271.5 -85.5t102.5 -227.5zM802 407q0 120 -84 190t-227 70q-170 0 -278 -100.5t-108 -258.5
q0 -123 84.5 -195.5t228.5 -72.5q164 0 274 105t110 262z" />
    <glyph glyph-name="Oacute" unicode="&#xd3;" horiz-adv-x="909" 
d="M661 900l-168 -126h-45l102 126h111zM874 411q0 -49 -15 -106q-34 -127 -128 -210q-124 -111 -326 -111q-169 0 -269.5 87t-100.5 234q0 171 116.5 288t298.5 129q34 2 50 2q169 0 271.5 -85.5t102.5 -227.5zM802 407q0 120 -84 190t-227 70q-170 0 -278 -100.5
t-108 -258.5q0 -123 84.5 -195.5t228.5 -72.5q164 0 274 105t110 262z" />
    <glyph glyph-name="Ocircumflex" unicode="&#xd4;" horiz-adv-x="909" 
d="M644 774h-60l-65 77l-109 -77h-67l141 126h79zM874 411q0 -49 -15 -106q-34 -127 -128 -210q-124 -111 -326 -111q-169 0 -269.5 87t-100.5 234q0 171 116.5 288t298.5 129q34 2 50 2q169 0 271.5 -85.5t102.5 -227.5zM802 407q0 120 -84 190t-227 70q-170 0 -278 -100.5
t-108 -258.5q0 -123 84.5 -195.5t228.5 -72.5q164 0 274 105t110 262z" />
    <glyph glyph-name="Otilde" unicode="&#xd5;" horiz-adv-x="909" 
d="M685 867q-27 -39 -47 -54q-32 -26 -74 -26q-30 0 -93 24q-58 22 -83 22q-33 0 -73 -43l-25 19q29 33 51 50q34 25 76 25q41 0 120 -29q15 -5 25 -9q15 -5 29 -5q37 0 68 43zM874 411q0 -49 -15 -106q-34 -127 -128 -210q-124 -111 -326 -111q-169 0 -269.5 87t-100.5 234
q0 171 116.5 288t298.5 129q34 2 50 2q169 0 271.5 -85.5t102.5 -227.5zM802 407q0 120 -84 190t-227 70q-170 0 -278 -100.5t-108 -258.5q0 -123 84.5 -195.5t228.5 -72.5q164 0 274 105t110 262z" />
    <glyph glyph-name="Odieresis" unicode="&#xd6;" horiz-adv-x="909" 
d="M714 894l-22 -96h-71l22 96h71zM391 894l-22 -96h-71l22 96h71zM874 411q0 -49 -15 -106q-34 -127 -128 -210q-124 -111 -326 -111q-169 0 -269.5 87t-100.5 234q0 171 116.5 288t298.5 129q34 2 50 2q169 0 271.5 -85.5t102.5 -227.5zM802 407q0 120 -84 190t-227 70
q-170 0 -278 -100.5t-108 -258.5q0 -123 84.5 -195.5t228.5 -72.5q164 0 274 105t110 262z" />
    <glyph glyph-name="multiply" unicode="&#xd7;" horiz-adv-x="772" 
d="M634 445l-210 -153l187 -163l-52 -37l-187 163l-210 -153l-42 37l210 153l-186 161l52 36l186 -160l210 152z" />
    <glyph glyph-name="Oslash" unicode="&#xd8;" horiz-adv-x="909" 
d="M920 635l-90 -63q44 -75 44 -157q0 -53 -15 -110q-34 -127 -128 -210q-126 -111 -326 -111q-88 0 -163.5 26.5t-120.5 73.5l-100 -67l-30 44l94 66q-51 81 -51 177q0 101 44.5 188t125.5 146q120 86 295 86q75 0 142 -19q89 -25 155 -89l92 64zM738 577q-79 90 -250 90
q-168 0 -275.5 -101t-107.5 -258q0 -78 38 -141zM802 406q0 46 -5.5 69.5t-24.5 57.5l-594 -409q37 -40 101 -62t139 -22q164 0 274 105t110 261z" />
    <glyph glyph-name="Ugrave" unicode="&#xd9;" horiz-adv-x="875" 
d="M554 774h-48l-136 126h111zM874 706l-92 -400q-35 -153 -91 -219q-89 -105 -313 -105q-161 0 -243.5 56t-82.5 165q0 45 20 129l87 374h65l-88 -380q-17 -72 -17 -115q0 -85 64 -125q72 -45 202 -45q183 0 259 87q25 28 38 63q23 55 42 142l86 373h64z" />
    <glyph glyph-name="Uacute" unicode="&#xda;" horiz-adv-x="875" 
d="M669 900l-168 -126h-45l102 126h111zM874 706l-92 -400q-35 -153 -91 -219q-89 -105 -313 -105q-161 0 -243.5 56t-82.5 165q0 45 20 129l87 374h65l-88 -380q-17 -72 -17 -115q0 -85 64 -125q72 -45 202 -45q183 0 259 87q25 28 38 63q23 55 42 142l86 373h64z" />
    <glyph glyph-name="Ucircumflex" unicode="&#xdb;" horiz-adv-x="875" 
d="M655 774h-60l-64 77l-110 -77h-66l140 126h79zM874 706l-92 -400q-35 -153 -91 -219q-89 -105 -313 -105q-161 0 -243.5 56t-82.5 165q0 45 20 129l87 374h65l-88 -380q-17 -72 -17 -115q0 -85 64 -125q72 -45 202 -45q183 0 259 87q25 28 38 63q23 55 42 142l86 373h64z
" />
    <glyph glyph-name="Udieresis" unicode="&#xdc;" horiz-adv-x="875" 
d="M743 894l-23 -96h-71l23 96h71zM420 894l-23 -96h-71l23 96h71zM874 706l-92 -400q-35 -153 -91 -219q-89 -105 -313 -105q-161 0 -243.5 56t-82.5 165q0 45 20 129l87 374h65l-88 -380q-17 -72 -17 -115q0 -85 64 -125q72 -45 202 -45q183 0 259 87q25 28 38 63
q23 55 42 142l86 373h64z" />
    <glyph glyph-name="Yacute" unicode="&#xdd;" horiz-adv-x="729" 
d="M613 900l-168 -126h-45l102 126h111zM800 706l-417 -420l-66 -286h-64l66 286l-235 420h79l197 -363l356 363h84z" />
    <glyph glyph-name="Thorn" unicode="&#xde;" horiz-adv-x="812" 
d="M802 398q0 -71 -38 -128q-39 -58 -109 -78q-36 -11 -72 -14t-119 -3h-354l-40 -175h-70l163 706h70l-33 -141h359q83 0 122.5 -8.5t67.5 -33.5q53 -44 53 -125zM728 389q0 54 -28 85q-15 16 -39 24q-31 9 -115 9h-360l-63 -274h359q48 0 64 1q88 3 129 33q53 39 53 122z
" />
    <glyph glyph-name="germandbls" unicode="&#xdf;" 
d="M670 577q0 -127 -140 -161q112 -37 112 -155q0 -45 -18.5 -99t-47.5 -92q-60 -80 -198 -80q-171 0 -171 133q0 14 4 41h64q-3 -26 -3 -32q0 -46 26 -66.5t83 -20.5q80 0 124 38q31 27 50 76.5t19 103.5q0 61 -40 92q-44 35 -157 35q-29 0 -66 -1l13 54h47q87 0 133 14
q98 29 98 107q0 48 -53.5 77t-141.5 29q-109 0 -163 -40q-48 -34 -78 -163l-108 -467h-63l109 471q19 83 38 124q32 66 96.5 97.5t169.5 31.5q125 0 193.5 -38.5t68.5 -108.5z" />
    <glyph glyph-name="agrave" unicode="&#xe0;" horiz-adv-x="667" 
d="M395 554h-43l-128 145h109zM605 51l-11 -50q-1 0 -8.5 -1t-23.5 -2q-18 -2 -22 -2q-72 0 -72 61v15q-83 -85 -273 -85q-92 0 -142.5 37.5t-50.5 105.5q0 50 25 89t70 59t118 30q96 12 282 12h29q6 32 6 42q0 40 -30 57q-54 31 -171 31q-92 0 -138.5 -24.5t-66.5 -83.5
l-68 4q21 66 59 100q66 59 220 59q132 0 194 -32t62 -100q0 -20 -8 -58l-44 -193q-6 -24 -6 -38q0 -19 10.5 -26t37.5 -7h22zM513 266q-17 0 -40.5 0.5t-29.5 0.5q-105 0 -206 -11q-79 -8 -115 -27q-23 -12 -37 -36.5t-14 -53.5q0 -49 36 -72.5t112 -23.5q184 0 249 99
q14 19 27 55q9 23 18 69z" />
    <glyph glyph-name="aacute" unicode="&#xe1;" horiz-adv-x="667" 
d="M499 700l-165 -145h-43l99 145h109zM605 51l-11 -50q-1 0 -8.5 -1t-23.5 -2q-18 -2 -22 -2q-72 0 -72 61v15q-83 -85 -273 -85q-92 0 -142.5 37.5t-50.5 105.5q0 50 25 89t70 59t118 30q96 12 282 12h29q6 32 6 42q0 40 -30 57q-54 31 -171 31q-92 0 -138.5 -24.5
t-66.5 -83.5l-68 4q21 66 59 100q66 59 220 59q132 0 194 -32t62 -100q0 -20 -8 -58l-44 -193q-6 -24 -6 -38q0 -19 10.5 -26t37.5 -7h22zM513 266q-17 0 -40.5 0.5t-29.5 0.5q-105 0 -206 -11q-79 -8 -115 -27q-23 -12 -37 -36.5t-14 -53.5q0 -49 36 -72.5t112 -23.5
q184 0 249 99q14 19 27 55q9 23 18 69z" />
    <glyph glyph-name="acircumflex" unicode="&#xe2;" horiz-adv-x="667" 
d="M483 549h-49l-60 85l-105 -85h-56l136 132h59zM605 51l-11 -50q-1 0 -8.5 -1t-23.5 -2q-18 -2 -22 -2q-72 0 -72 61v15q-83 -85 -273 -85q-92 0 -142.5 37.5t-50.5 105.5q0 50 25 89t70 59t118 30q96 12 282 12h29q6 32 6 42q0 40 -30 57q-54 31 -171 31
q-92 0 -138.5 -24.5t-66.5 -83.5l-68 4q21 66 59 100q66 59 220 59q132 0 194 -32t62 -100q0 -20 -8 -58l-44 -193q-6 -24 -6 -38q0 -19 10.5 -26t37.5 -7h22zM513 266q-17 0 -40.5 0.5t-29.5 0.5q-105 0 -206 -11q-79 -8 -115 -27q-23 -12 -37 -36.5t-14 -53.5
q0 -49 36 -72.5t112 -23.5q184 0 249 99q14 19 27 55q9 23 18 69z" />
    <glyph glyph-name="atilde" unicode="&#xe3;" horiz-adv-x="667" 
d="M562 672q-26 -35 -47 -51q-37 -29 -77 -29q-30 0 -91 23q-55 21 -80 21q-21 0 -37 -9t-38 -34l-22 20q32 35 51 47q35 25 74 25q32 0 95 -21q8 -3 20 -6.5t14 -4.5q28 -9 44 -9q36 0 68 42zM605 51l-11 -50q-1 0 -8.5 -1t-23.5 -2q-18 -2 -22 -2q-72 0 -72 61v15
q-83 -85 -273 -85q-92 0 -142.5 37.5t-50.5 105.5q0 50 25 89t70 59t118 30q96 12 282 12h29q6 32 6 42q0 40 -30 57q-54 31 -171 31q-92 0 -138.5 -24.5t-66.5 -83.5l-68 4q21 66 59 100q66 59 220 59q132 0 194 -32t62 -100q0 -20 -8 -58l-44 -193q-6 -24 -6 -38
q0 -19 10.5 -26t37.5 -7h22zM513 266q-17 0 -40.5 0.5t-29.5 0.5q-105 0 -206 -11q-79 -8 -115 -27q-23 -12 -37 -36.5t-14 -53.5q0 -49 36 -72.5t112 -23.5q184 0 249 99q14 19 27 55q9 23 18 69z" />
    <glyph glyph-name="adieresis" unicode="&#xe4;" horiz-adv-x="667" 
d="M536 659l-22 -95h-69l22 95h69zM271 659l-22 -95h-70l22 95h70zM605 51l-11 -50q-1 0 -8.5 -1t-23.5 -2q-18 -2 -22 -2q-72 0 -72 61v15q-83 -85 -273 -85q-92 0 -142.5 37.5t-50.5 105.5q0 50 25 89t70 59t118 30q96 12 282 12h29q6 32 6 42q0 40 -30 57q-54 31 -171 31
q-92 0 -138.5 -24.5t-66.5 -83.5l-68 4q21 66 59 100q66 59 220 59q132 0 194 -32t62 -100q0 -20 -8 -58l-44 -193q-6 -24 -6 -38q0 -19 10.5 -26t37.5 -7h22zM513 266q-17 0 -40.5 0.5t-29.5 0.5q-105 0 -206 -11q-79 -8 -115 -27q-23 -12 -37 -36.5t-14 -53.5
q0 -49 36 -72.5t112 -23.5q184 0 249 99q14 19 27 55q9 23 18 69z" />
    <glyph glyph-name="aring" unicode="&#xe5;" horiz-adv-x="667" 
d="M475 633q0 -39 -32 -63.5t-83 -24.5q-50 0 -81.5 24t-31.5 61q0 38 32 62.5t83 24.5q50 0 81.5 -23.5t31.5 -60.5zM605 51l-11 -50q-1 0 -8.5 -1t-23.5 -2q-18 -2 -22 -2q-72 0 -72 61v15q-83 -85 -273 -85q-92 0 -142.5 37.5t-50.5 105.5q0 50 25 89t70 59t118 30
q96 12 282 12h29q6 32 6 42q0 40 -30 57q-54 31 -171 31q-92 0 -138.5 -24.5t-66.5 -83.5l-68 4q21 66 59 100q66 59 220 59q132 0 194 -32t62 -100q0 -20 -8 -58l-44 -193q-6 -24 -6 -38q0 -19 10.5 -26t37.5 -7h22zM422 631q0 19 -17.5 31.5t-45.5 12.5q-26 0 -43 -12.5
t-17 -31.5t16.5 -30.5t44.5 -11.5t45 11.5t17 30.5zM513 266q-17 0 -40.5 0.5t-29.5 0.5q-105 0 -206 -11q-79 -8 -115 -27q-23 -12 -37 -36.5t-14 -53.5q0 -49 36 -72.5t112 -23.5q184 0 249 99q14 19 27 55q9 23 18 69z" />
    <glyph glyph-name="ae" unicode="&#xe6;" horiz-adv-x="1146" 
d="M1075 268q0 -17 -1 -31h-503q-1 -11 -1 -24q0 -74 57 -122t145 -48q144 0 235 126l45 -38q-107 -145 -288 -145q-121 0 -186 58q-28 24 -57 73q-2 -4 -17 -26q-36 -45 -88 -70q-73 -34 -203 -34q-102 0 -156.5 38t-54.5 111q0 68 52 112q30 24 83.5 34.5t150.5 10.5h230
q13 44 13 65q0 40 -29 57q-57 34 -174 34q-110 0 -153 -34q-34 -26 -48 -71l-69 4l2.5 7.5t2.5 7t2 4.5q17 45 54 79q63 59 207 59q109 0 170 -20.5t88 -66.5q49 47 101 67t125 20q127 0 196 -62t69 -175zM1005 292q-7 77 -58 118t-140 41q-85 0 -143.5 -42t-80.5 -117h422z
M506 238l-187 -1q-73 0 -95 -1q-67 -1 -102 -16q-51 -21 -51 -79q0 -98 160 -98q178 0 240 94q13 20 25 60q5 15 10 41z" />
    <glyph glyph-name="ccedilla" unicode="&#xe7;" horiz-adv-x="665" 
d="M613 346l-64 -26q-21 38 -35.5 55t-41.5 33q-59 38 -140 38q-113 0 -181 -60t-68 -161q0 -83 58 -132.5t155 -49.5q113 0 184 66q26 25 60 78l62 -28q-25 -39 -42 -58t-45 -41q-47 -38 -99 -55t-129 -19l-13 -44q44 -8 63 -22.5t19 -41.5q0 -37 -29.5 -57.5t-81.5 -20.5
q-29 0 -87 12l-15 3l7 33q3 -1 7 -2t5 -1q15 -3 29 -5q24 -3 42 -3q58 0 58 36q0 16 -16 24.5t-54 12.5l24 79q-108 11 -169.5 72t-61.5 157q0 124 90.5 204.5t229.5 80.5q98 0 171 -41t108 -116z" />
    <glyph glyph-name="egrave" unicode="&#xe8;" horiz-adv-x="658" 
d="M382 554h-43l-128 145h109zM587 268q0 -17 -1 -31h-503q-2 -22 -2 -24q0 -74 57 -122t145 -48q143 0 235 126l46 -38q-56 -75 -126 -110t-164 -35q-118 0 -188.5 62.5t-70.5 168.5q0 128 85.5 208t222.5 80q125 0 194.5 -62.5t69.5 -174.5zM516 292q-8 77 -58.5 118
t-139.5 41q-84 0 -142.5 -42t-80.5 -117h421z" />
    <glyph glyph-name="eacute" unicode="&#xe9;" horiz-adv-x="658" 
d="M480 700l-165 -145h-43l99 145h109zM587 268q0 -17 -1 -31h-503q-2 -22 -2 -24q0 -74 57 -122t145 -48q143 0 235 126l46 -38q-56 -75 -126 -110t-164 -35q-118 0 -188.5 62.5t-70.5 168.5q0 128 85.5 208t222.5 80q125 0 194.5 -62.5t69.5 -174.5zM516 292
q-8 77 -58.5 118t-139.5 41q-84 0 -142.5 -42t-80.5 -117h421z" />
    <glyph glyph-name="ecircumflex" unicode="&#xea;" horiz-adv-x="658" 
d="M460 550h-49l-60 85l-105 -85h-56l136 132h59zM587 268q0 -17 -1 -31h-503q-2 -22 -2 -24q0 -74 57 -122t145 -48q143 0 235 126l46 -38q-56 -75 -126 -110t-164 -35q-118 0 -188.5 62.5t-70.5 168.5q0 128 85.5 208t222.5 80q125 0 194.5 -62.5t69.5 -174.5zM516 292
q-8 77 -58.5 118t-139.5 41q-84 0 -142.5 -42t-80.5 -117h421z" />
    <glyph glyph-name="edieresis" unicode="&#xeb;" horiz-adv-x="658" 
d="M528 660l-22 -95h-69l22 95h69zM263 660l-22 -95h-70l22 95h70zM587 268q0 -17 -1 -31h-503q-2 -22 -2 -24q0 -74 57 -122t145 -48q143 0 235 126l46 -38q-56 -75 -126 -110t-164 -35q-118 0 -188.5 62.5t-70.5 168.5q0 128 85.5 208t222.5 80q125 0 194.5 -62.5
t69.5 -174.5zM516 292q-8 77 -58.5 118t-139.5 41q-84 0 -142.5 -42t-80.5 -117h421z" />
    <glyph glyph-name="igrave" unicode="&#xec;" horiz-adv-x="208" 
d="M199 554h-43l-128 145h109zM175 489l-114 -489h-66l114 489h66z" />
    <glyph glyph-name="iacute" unicode="&#xed;" horiz-adv-x="208" 
d="M308 700l-165 -145h-43l99 145h109zM175 489l-114 -489h-66l114 489h66z" />
    <glyph glyph-name="icircumflex" unicode="&#xee;" horiz-adv-x="208" 
d="M283 549h-49l-60 85l-105 -85h-56l136 132h59zM175 489l-114 -489h-66l114 489h66z" />
    <glyph glyph-name="idieresis" unicode="&#xef;" horiz-adv-x="208" 
d="M337 659l-22 -95h-69l22 95h69zM72 659l-22 -95h-70l22 95h70zM175 489l-114 -489h-66l114 489h66z" />
    <glyph glyph-name="eth" unicode="&#xf0;" horiz-adv-x="700" 
d="M634 288q0 -135 -92.5 -218.5t-241.5 -83.5q-130 0 -208.5 63t-78.5 168q0 122 96 205q92 80 243 80q44 0 83 -9q44 -11 94 -48q-16 38 -41 74q-27 39 -65 75l-219 -37l-16 50l192 32q-15 15 -36 32q-38 27 -51 37l86 15q5 -4 42 -34q21 -18 40 -37l137 24l16 -51
l-110 -18q25 -29 47 -61q83 -120 83 -258zM563 269q0 78 -54 128.5t-141 50.5h-21q-115 0 -189 -64.5t-74 -164.5q0 -84 58.5 -131.5t160.5 -47.5q114 0 187 64.5t73 164.5z" />
    <glyph glyph-name="ntilde" unicode="&#xf1;" 
d="M598 672q-26 -35 -47 -51q-37 -29 -77 -29q-30 0 -91 23q-55 21 -80 21q-21 0 -37 -9t-38 -34l-22 20q32 35 51 47q35 25 74 25q32 0 95 -21q8 -3 20 -6.5t14 -4.5q28 -9 44 -9q36 0 68 42zM625 317q0 -42 -13 -98l-50 -219h-66l49 215q12 51 12 89q0 140 -185 140
q-119 0 -184 -58q-28 -25 -46 -63q-16 -35 -26 -79l-55 -244h-66l112 489h66l-15 -69q69 82 222 82q119 0 182 -47.5t63 -137.5z" />
    <glyph glyph-name="ograve" unicode="&#xf2;" horiz-adv-x="700" 
d="M416 554h-43l-128 145h109zM634 272q0 -123 -95.5 -204.5t-238.5 -81.5q-130 0 -208.5 63t-78.5 168q0 122 96 205q92 80 245 80q128 0 204 -62.5t76 -167.5zM563 269q0 78 -54 128.5t-141 50.5h-21q-115 0 -189 -64.5t-74 -164.5q0 -84 58.5 -131.5t160.5 -47.5
q114 0 187 64.5t73 164.5z" />
    <glyph glyph-name="oacute" unicode="&#xf3;" horiz-adv-x="700" 
d="M520 700l-165 -145h-43l99 145h109zM634 272q0 -123 -95.5 -204.5t-238.5 -81.5q-130 0 -208.5 63t-78.5 168q0 122 96 205q92 80 245 80q128 0 204 -62.5t76 -167.5zM563 269q0 78 -54 128.5t-141 50.5h-21q-115 0 -189 -64.5t-74 -164.5q0 -84 58.5 -131.5t160.5 -47.5
q114 0 187 64.5t73 164.5z" />
    <glyph glyph-name="ocircumflex" unicode="&#xf4;" horiz-adv-x="700" 
d="M494 549h-49l-60 85l-105 -85h-56l136 132h59zM634 272q0 -123 -95.5 -204.5t-238.5 -81.5q-130 0 -208.5 63t-78.5 168q0 122 96 205q92 80 245 80q128 0 204 -62.5t76 -167.5zM563 269q0 78 -54 128.5t-141 50.5h-21q-115 0 -189 -64.5t-74 -164.5q0 -84 58.5 -131.5
t160.5 -47.5q114 0 187 64.5t73 164.5z" />
    <glyph glyph-name="otilde" unicode="&#xf5;" horiz-adv-x="700" 
d="M564 672q-26 -35 -47 -51q-37 -29 -77 -29q-30 0 -91 23q-55 21 -80 21q-21 0 -37 -9t-38 -34l-22 20q32 35 51 47q35 25 74 25q32 0 95 -21q8 -3 20 -6.5t14 -4.5q28 -9 44 -9q36 0 68 42zM634 272q0 -123 -95.5 -204.5t-238.5 -81.5q-130 0 -208.5 63t-78.5 168
q0 122 96 205q92 80 245 80q128 0 204 -62.5t76 -167.5zM563 269q0 78 -54 128.5t-141 50.5h-21q-115 0 -189 -64.5t-74 -164.5q0 -84 58.5 -131.5t160.5 -47.5q114 0 187 64.5t73 164.5z" />
    <glyph glyph-name="odieresis" unicode="&#xf6;" horiz-adv-x="700" 
d="M559 659l-22 -95h-69l22 95h69zM294 659l-22 -95h-70l22 95h70zM634 272q0 -123 -95.5 -204.5t-238.5 -81.5q-130 0 -208.5 63t-78.5 168q0 122 96 205q92 80 245 80q128 0 204 -62.5t76 -167.5zM563 269q0 78 -54 128.5t-141 50.5h-21q-115 0 -189 -64.5t-74 -164.5
q0 -84 58.5 -131.5t160.5 -47.5q114 0 187 64.5t73 164.5z" />
    <glyph glyph-name="divide" unicode="&#xf7;" horiz-adv-x="772" 
d="M458 477l-18 -82h-83l19 82h82zM702 323l-15 -60h-638l14 60h639zM393 188l-19 -82h-83l19 82h83z" />
    <glyph glyph-name="oslash" unicode="&#xf8;" horiz-adv-x="700" 
d="M655 443l-61 -42q40 -58 40 -130q0 -122 -95.5 -203.5t-239.5 -81.5q-131 0 -217 71l-71 -47l-30 43l67 45q-21 34 -28 56.5t-7 62.5q0 122 96 205q92 80 249 80q134 0 199 -62l67 45zM501 402q-59 46 -154 46q-115 0 -189 -65t-74 -165q0 -49 19 -83zM563 268
q0 56 -26 94l-401 -269q63 -53 168 -53q113 0 186 64t73 164z" />
    <glyph glyph-name="ugrave" unicode="&#xf9;" 
d="M442 554h-43l-128 145h109zM672 489l-111 -489h-66l15 69q-69 -83 -222 -83q-120 0 -182.5 47.5t-62.5 138.5q0 40 13 98l49 219h66l-48 -216q-12 -57 -12 -89q0 -140 185 -140q118 0 184 59q27 23 46 62q13 27 25 80l55 244h66z" />
    <glyph glyph-name="uacute" unicode="&#xfa;" 
d="M543 700l-165 -145h-43l99 145h109zM672 489l-111 -489h-66l15 69q-69 -83 -222 -83q-120 0 -182.5 47.5t-62.5 138.5q0 40 13 98l49 219h66l-48 -216q-12 -57 -12 -89q0 -140 185 -140q118 0 184 59q27 23 46 62q13 27 25 80l55 244h66z" />
    <glyph glyph-name="ucircumflex" unicode="&#xfb;" 
d="M520 549h-49l-60 85l-105 -85h-56l136 132h59zM672 489l-111 -489h-66l15 69q-69 -83 -222 -83q-120 0 -182.5 47.5t-62.5 138.5q0 40 13 98l49 219h66l-48 -216q-12 -57 -12 -89q0 -140 185 -140q118 0 184 59q27 23 46 62q13 27 25 80l55 244h66z" />
    <glyph glyph-name="udieresis" unicode="&#xfc;" 
d="M586 659l-22 -95h-69l22 95h69zM321 659l-22 -95h-70l22 95h70zM672 489l-111 -489h-66l15 69q-69 -83 -222 -83q-120 0 -182.5 47.5t-62.5 138.5q0 40 13 98l49 219h66l-48 -216q-12 -57 -12 -89q0 -140 185 -140q118 0 184 59q27 23 46 62q13 27 25 80l55 244h66z" />
    <glyph glyph-name="yacute" unicode="&#xfd;" horiz-adv-x="562" 
d="M478 700l-165 -145h-43l99 145h109zM597 489l-356 -528q-8 -12 -16.5 -25t-13.5 -20.5l-7 -10.5q-17 -23 -30 -38q-31 -35 -67 -49.5t-90 -14.5q-47 0 -124 18l15 63q64 -23 111 -23q60 0 96 33q25 22 60 78l-138 517h72l118 -445l292 445h78z" />
    <glyph glyph-name="thorn" unicode="&#xfe;" 
d="M644 273q0 -128 -91.5 -209t-236.5 -81q-160 0 -237 103l-62 -273h-66l206 893h66l-65 -281q43 39 89 55q60 22 136 22q119 0 190 -62t71 -167zM572 270q0 83 -53 128.5t-149 45.5q-113 0 -179 -54q-35 -29 -55.5 -78.5t-20.5 -103.5q0 -79 54.5 -123t151.5 -44
q113 0 182 63t69 166z" />
    <glyph glyph-name="ydieresis" unicode="&#xff;" horiz-adv-x="562" 
d="M512 659l-22 -95h-69l22 95h69zM247 659l-22 -95h-70l22 95h70zM597 489l-356 -528q-8 -12 -16.5 -25t-13.5 -20.5l-7 -10.5q-17 -23 -30 -38q-31 -35 -67 -49.5t-90 -14.5q-47 0 -124 18l15 63q64 -23 111 -23q60 0 96 33q25 22 60 78l-138 517h72l118 -445l292 445h78z
" />
    <glyph glyph-name="OE" unicode="&#x152;" horiz-adv-x="1153" 
d="M1185 706l-14 -58h-447l-58 -252h401l-14 -59h-401l-64 -278h446l-14 -59h-515l6 23q-78 -37 -159 -37q-145 0 -232.5 83t-87.5 221q0 87 34.5 170t96.5 144q120 117 303 117q114 0 196 -41l6 26h517zM648 617q-81 46 -190 46q-152 0 -254.5 -106t-102.5 -263
q0 -151 113 -213q70 -39 149 -39q38 0 63 6q31 6 99 35z" />
    <glyph glyph-name="oe" unicode="&#x153;" horiz-adv-x="1200" 
d="M1129 268q0 -18 -1 -32h-503q-2 -20 -2 -23q0 -74 57 -122.5t145 -48.5q144 0 235 127l46 -39q-56 -75 -126 -110t-164 -35q-173 0 -236 131q-30 -40 -60 -62q-87 -68 -219 -68q-130 0 -209 63t-79 167q0 125 95 205.5t243 80.5q92 0 158 -31q34 -16 54.5 -36t42.5 -60
q33 49 67 75q72 54 193 54q125 0 194 -62t69 -174zM1058 292q-7 77 -57.5 117.5t-139.5 40.5q-85 0 -143.5 -41.5t-80.5 -116.5h421zM563 272q0 75 -54.5 125.5t-140.5 50.5h-21q-115 0 -188.5 -65.5t-73.5 -167.5q0 -81 58.5 -128t159.5 -47q114 0 187 65t73 167z" />
    <glyph glyph-name="Scaron" unicode="&#x160;" horiz-adv-x="812" 
d="M635 900l-141 -126h-79l-81 126h61l64 -77l110 77h66zM779 565l-64 -33q-38 59 -93 86q-92 47 -192 47q-116 0 -182 -35t-66 -96q0 -48 37 -70q19 -12 48 -20q38 -11 157 -36q126 -28 156 -36q45 -13 75 -29q79 -46 79 -132q0 -106 -92 -166t-256 -60q-120 0 -206 33
q-92 35 -140 97q-25 31 -44 91l75 22q12 -42 26.5 -66t40.5 -45q88 -72 246 -72q132 0 205.5 42t73.5 118q0 35 -18 58q-19 22 -58.5 36t-147.5 37l-126 27q-88 19 -125 40q-75 43 -75 123q0 93 84 144.5t234 51.5q116 0 213 -43q88 -39 135 -114z" />
    <glyph glyph-name="scaron" unicode="&#x161;" horiz-adv-x="625" 
d="M487 680l-136 -132h-59l-75 132h49l60 -85l105 85h56zM584 374l-76 -12q-7 22 -17 33.5t-33 22.5q-68 33 -155 33t-133.5 -24.5t-46.5 -70.5q0 -31 30 -46q22 -11 135 -24q22 -3 49 -6t33 -4q65 -9 92 -18q82 -26 82 -100q0 -60 -44 -104q-67 -67 -223 -67
q-130 0 -205.5 37.5t-91.5 109.5l74 12q6 -23 20 -38q26 -30 82.5 -48t126.5 -18q84 0 138.5 29.5t54.5 74.5q0 28 -25 44q-11 8 -43 14q-72 12 -165 22q-102 12 -143 37q-46 30 -46 85q0 64 48 104q61 51 203 51q125 0 200 -36q46 -21 67 -61q5 -8 12 -32z" />
    <glyph glyph-name="Ydieresis" unicode="&#x178;" horiz-adv-x="729" 
d="M668 895l-22 -96h-71l22 96h71zM346 895l-23 -96h-71l23 96h71zM800 706l-417 -420l-66 -286h-64l66 286l-235 420h79l197 -363l356 363h84z" />
    <glyph glyph-name="florin" unicode="&#x192;" horiz-adv-x="354" 
d="M427 696l-13 -58q-53 10 -85 10q-49 0 -71 -22q-16 -17 -32 -80l-17 -69h167l-12 -51h-167l-117 -501q-21 -88 -62 -121q-39 -32 -116 -32q-5 0 -15.5 0.5t-16.5 0.5q-31 3 -56 9l14 58q43 -10 79 -10q49 0 71.5 19.5t34.5 70.5l118 506h-98l12 51h98l16 72q17 78 50 113
q40 44 123 44q45 0 95 -10z" />
    <glyph glyph-name="circumflex" unicode="&#x2c6;" horiz-adv-x="292" 
d="M281 549h-49l-60 85l-105 -85h-56l136 132h59z" />
    <glyph glyph-name="tilde" unicode="&#x2dc;" horiz-adv-x="292" 
d="M342 672q-26 -35 -47 -51q-37 -29 -77 -29q-30 0 -91 23q-55 21 -80 21q-21 0 -37 -9t-38 -34l-22 20q32 35 51 47q35 25 74 25q32 0 95 -21q8 -3 20 -6.5t14 -4.5q28 -9 44 -9q36 0 68 42z" />
    <glyph glyph-name="endash" unicode="&#x2013;" horiz-adv-x="610" 
d="M566 324l-14 -60h-534l14 60h534z" />
    <glyph glyph-name="emdash" unicode="&#x2014;" horiz-adv-x="911" 
d="M867 324l-14 -60h-835l14 60h835z" />
    <glyph glyph-name="quoteleft" unicode="&#x2018;" horiz-adv-x="278" 
d="M258 714l-9 -40q-24 -4 -34.5 -15.5t-16.5 -40.5l-4 -20h44l-24 -104h-85l27 119q13 61 44 83q24 18 57 18h1z" />
    <glyph glyph-name="quoteright" unicode="&#x2019;" horiz-adv-x="278" 
d="M262 706l-28 -119q-15 -64 -43 -83q-25 -18 -58 -18h-1l9 40q24 4 33.5 15t17.5 41l5 20h-44l24 104h85z" />
    <glyph glyph-name="quotesinglbase" unicode="&#x201a;" horiz-adv-x="278" 
d="M123 104l-28 -119q-15 -64 -43 -84q-24 -17 -58 -17h-1l9 40q24 3 33.5 14t17.5 42l5 20h-44l24 104h85z" />
    <glyph glyph-name="quotedblleft" unicode="&#x201c;" horiz-adv-x="417" 
d="M397 714l-9 -40q-23 -4 -33 -15t-18 -41l-5 -20h44l-24 -104h-85l28 119q15 62 44 83q24 18 57 18h1zM258 714l-9 -40q-24 -4 -34.5 -15.5t-16.5 -40.5l-4 -20h44l-24 -104h-85l27 119q13 61 44 83q24 18 57 18h1z" />
    <glyph glyph-name="quotedblright" unicode="&#x201d;" horiz-adv-x="417" 
d="M401 706l-28 -119q-15 -64 -43 -83q-25 -18 -58 -18h-1l9 40q24 4 33.5 15t17.5 41l5 20h-44l24 104h85zM262 706l-28 -119q-15 -64 -43 -83q-25 -18 -58 -18h-1l9 40q24 4 33.5 15t17.5 41l5 20h-44l24 104h85z" />
    <glyph glyph-name="quotedblbase" unicode="&#x201e;" horiz-adv-x="417" 
d="M262 104l-28 -119q-15 -64 -43 -84q-24 -17 -58 -17h-1l9 40q24 3 33.5 14t17.5 42l5 20h-44l24 104h85zM123 104l-28 -119q-15 -64 -43 -84q-24 -17 -58 -17h-1l9 40q24 3 33.5 14t17.5 42l5 20h-44l24 104h85z" />
    <glyph glyph-name="dagger" unicode="&#x2020;" horiz-adv-x="542" 
d="M539 496l-12 -52h-204l-102 -444h-60l102 444h-204l12 52h204l49 210h60l-49 -210h204z" />
    <glyph glyph-name="daggerdbl" unicode="&#x2021;" horiz-adv-x="542" 
d="M541 503l-12 -52h-204l-40 -175h203l-12 -52h-203l-52 -224h-60l52 224h-205l12 52h205l40 175h-205l12 52h205l47 203h60l-47 -203h204z" />
    <glyph glyph-name="bullet" unicode="&#x2022;" horiz-adv-x="333" 
d="M297 462l-48 -218h-221l50 218h219z" />
    <glyph glyph-name="ellipsis" unicode="&#x2026;" horiz-adv-x="1000" 
d="M807 80l-19 -80h-77l19 80h77zM473 80l-18 -80h-77l18 80h77zM141 80l-19 -80h-77l19 80h77z" />
    <glyph glyph-name="perthousand" unicode="&#x2030;" horiz-adv-x="1571" 
d="M1523 243q0 -105 -66 -176.5t-162 -71.5q-84 0 -136 53t-52 138q0 104 65.5 176.5t159.5 72.5q85 0 138 -53.5t53 -138.5zM1034 243q0 -105 -65.5 -176.5t-162.5 -71.5q-83 0 -135.5 53t-52.5 138q0 104 65.5 176.5t159.5 72.5q85 0 138 -53t53 -139zM822 688l-508 -688
h-60l508 688h60zM454 499q0 -106 -65.5 -177.5t-162.5 -71.5q-83 0 -135.5 53t-52.5 138q0 104 65.5 176.5t159.5 72.5q85 0 138 -53t53 -138zM1472 245q0 66 -38.5 106.5t-100.5 40.5q-75 0 -125 -58t-50 -146q0 -67 39 -109t102 -42q74 0 123.5 59.5t49.5 148.5zM983 245
q0 66 -38 106.5t-101 40.5q-75 0 -124.5 -58t-49.5 -146q0 -68 38.5 -109.5t101.5 -41.5q75 0 124 59.5t49 148.5zM403 501q0 66 -38.5 106t-100.5 40q-75 0 -125 -58t-50 -145q0 -67 39 -109t102 -42q74 0 123.5 59t49.5 149z" />
    <glyph glyph-name="guilsinglleft" unicode="&#x2039;" horiz-adv-x="312" 
d="M278 513l-15 -63l-169 -141l103 -142l-11 -53l-160 173l12 55z" />
    <glyph glyph-name="guilsinglright" unicode="&#x203a;" horiz-adv-x="312" 
d="M264 343l-13 -55l-239 -171l15 64l169 141l-104 142l12 52z" />
    <glyph glyph-name="Euro" unicode="&#x20ac;" horiz-adv-x="840" 
d="M834 598l-47 -66q-33 44 -57 64.5t-62 36.5q-69 30 -153 30q-226 0 -305 -227h508l-29 -53h-497q-8 -30 -9 -59h470l-30 -53h-441q9 -109 79.5 -168t191.5 -59q73 0 138 22q42 13 70.5 29.5t75.5 52.5l-15 -88q-124 -78 -267 -78q-154 0 -246 76.5t-101 212.5h-84l32 53
h53l1 8q5 38 8 51h-74l31 53h57q25 73 47 109.5t69 79.5q105 99 279 99q89 0 159 -25q41 -14 71 -34.5t77 -66.5z" />
    <glyph glyph-name="trademark" unicode="&#x2122;" horiz-adv-x="687" 
d="M675 706l-76 -332h-45l68 285l-155 -285h-42l-23 284l-62 -284h-47l76 332h67l24 -272l147 272h68zM341 706l-9 -41h-106l-67 -291h-48l67 291h-108l10 41h261z" />
    </font>
</defs>
</svg>
