<?xml version="1.0" standalone="no"?>
<!DOCTYPE svg PUBLIC "-//W3C//DTD SVG 1.1//EN" "http://www.w3.org/Graphics/SVG/1.1/DTD/svg11.dtd" >
<svg xmlns="http://www.w3.org/2000/svg" xmlns:xlink="http://www.w3.org/1999/xlink" version="1.1">
<metadata>
Created by FontForge 20170731 at Thu May 17 19:59:59 2007
 By Aleksey,,,
Copyright  2001, Berthold LLC. All rights reserved. Akzidenz-Grotesk is a trademark of Berthold Types Limited.
</metadata>
<defs>
<font id="AkzidenzGroteskBQ-LigExt" horiz-adv-x="708" >
  <font-face 
    font-family="Akzidenz-Grotesk BQ Light Exten"
    font-weight="300"
    font-stretch="normal"
    units-per-em="1000"
    panose-1="0 0 0 0 0 0 0 0 0 0"
    ascent="800"
    descent="-200"
    x-height="494"
    cap-height="706"
    bbox="-114 -228 1529.07 913.316"
    underline-thickness="59"
    underline-position="-350"
    unicode-range="U+0020-2122"
  />
<missing-glyph horiz-adv-x="500" 
 />
    <glyph glyph-name=".notdef" horiz-adv-x="500" 
 />
    <glyph glyph-name=".null" horiz-adv-x="0" 
 />
    <glyph glyph-name="nonmarkingreturn" horiz-adv-x="333" 
 />
    <glyph glyph-name="space" unicode=" " horiz-adv-x="313" 
 />
    <glyph glyph-name="exclam" unicode="!" horiz-adv-x="313" 
d="M211 402l-13 -202h-46l-12 223v283h71v-304zM214 0h-77v99h77v-99z" />
    <glyph glyph-name="quotedbl" unicode="&#x22;" horiz-adv-x="348" 
d="M313 744l-26 -291h-36l-27 291h89zM124 744l-26 -291h-36l-27 291h89z" />
    <glyph glyph-name="numbersign" unicode="#" horiz-adv-x="768" 
d="M721 410h-193l-10 -97h191v-54h-196l-25 -259h-62l28 259h-145l-28 -259h-58l26 259h-200v54h206l9 97h-202v57h207l23 239h63l-25 -239h145l22 239h60l-24 -239h188v-57zM469 410h-145l-10 -97h145z" />
    <glyph glyph-name="dollar" unicode="$" horiz-adv-x="812" 
d="M763 210q0 -102 -98 -167q-15 -10 -32.5 -18.5t-33.5 -14.5t-34.5 -10.5t-32 -7t-30.5 -4.5t-25.5 -2.5t-21 -1.5t-13.5 -1v-67h-60l-1 67q-51 4 -73 7q-156 21 -231 114q-18 22 -45 73l74 28q8 -20 13 -30q24 -49 73 -81q65 -42 190 -49l-1 300q-97 13 -117 16
q-70 11 -112 38q-66 43 -66 121q0 48 33 97.5t109 78.5q61 23 154 28v64h60v-64q46 -4 71 -8q112 -22 183 -83q9 -8 19.5 -18.5t18.5 -20.5l9 -9l-65 -34q-10 15 -25 30q-72 71 -211 81v-257q184 -22 243 -59q15 -9 30.5 -23t31.5 -45.5t16 -67.5zM382 414l-1 249
q-143 -11 -196 -72q-27 -30 -27 -66q0 -15 4 -28q14 -40 65 -56t155 -27zM690 207q0 43 -32 71q-25 22 -73.5 34t-142.5 25v-291q103 7 163 39q85 45 85 122z" />
    <glyph glyph-name="percent" unicode="%" horiz-adv-x="1083" 
d="M1050 215q0 -95 -60 -158t-151 -63q-54 0 -99 25q-40 22 -74 71.5t-34 127.5q0 121 94 186q51 33 107 35q89 5 152 -58q65 -64 65 -166zM765 688l-399 -688h-53l399 688h53zM448 469q0 -96 -60 -159t-151 -63q-54 0 -99 25q-40 23 -74 72.5t-34 126.5q0 71 29.5 117
t64.5 70q46 32 107 34q90 3 153 -58q64 -63 64 -165zM998 213q0 44 -13 81q-6 15 -15.5 30t-27 32.5t-45.5 28t-63 9.5q-74 -3 -113.5 -53t-39.5 -124q0 -65 29 -110q10 -14 23.5 -27.5t43 -27.5t63.5 -14q37 0 65 14q36 16 64.5 55t28.5 106zM397 467q0 43 -14 81
q-5 15 -14.5 30t-27 32.5t-45.5 28t-63 9.5q-74 -2 -113.5 -52.5t-39.5 -125.5q0 -66 29 -109q45 -70 129 -70q35 0 66 14q37 17 65 56t28 106z" />
    <glyph glyph-name="ampersand" unicode="&#x26;" horiz-adv-x="771" 
d="M755 0q-22 0 -45 4q-27 6 -57 20.5t-47 26.5t-49 35q-31 -29 -50 -42q-87 -60 -208 -60q-155 0 -226 99q-35 48 -35 103q0 47 24 85q15 24 37 43t53.5 35t49.5 23t56 21q-3 4 -10.5 13t-11.5 14q-53 68 -53 125q0 47 32 89q48 60 147 60q32 0 59 -9q48 -15 76 -54t28 -89
q0 -46 -24 -81q-16 -23 -41.5 -42t-44.5 -28t-54 -24q62 -70 120 -128q37 -35 76 -70q11 15 23 34q39 68 53 172h65q0 -2 -2.5 -15.5t-4.5 -24t-6 -28.5t-9.5 -34.5t-12.5 -35.5t-16.5 -37.5t-20.5 -35.5q-10 -16 -23 -32q54 -41 82 -53.5t70 -18.5v-60zM463 548
q0 23 -12 44q-28 47 -92 47q-24 0 -47 -8q-29 -11 -45 -33.5t-16 -52.5q0 -27 16 -55.5t55 -74.5q6 2 19 7t19 8q43 19 64 37.5t31 43.5q8 19 8 37zM513 123q-9 8 -26.5 24t-25.5 24q-67 64 -112 115q-34 38 -50 58q-1 0 -14 -4.5t-28 -10t-35 -13.5t-33 -15
q-80 -40 -80 -112q0 -34 19 -66t62.5 -56t110.5 -24q101 0 177 52q16 11 35 28z" />
    <glyph glyph-name="quotesingle" unicode="'" horiz-adv-x="159" 
d="M124 744l-26 -291h-36l-27 291h89z" />
    <glyph glyph-name="parenleft" unicode="(" horiz-adv-x="354" 
d="M337 -189l-25 -29q-114 88 -174.5 212.5t-60.5 269.5q0 257 181 425q8 7 17 14.5t20 16.5t17 14l25 -26q-51 -51 -82 -96q-104 -151 -104 -361q0 -257 186 -440z" />
    <glyph glyph-name="parenright" unicode=")" horiz-adv-x="354" 
d="M278 255q0 -259 -182 -428q-23 -22 -53 -45l-25 26q51 51 82 96q50 73 76.5 167.5t26.5 187.5q0 264 -185 446l25 29q113 -88 174 -212.5t61 -266.5z" />
    <glyph glyph-name="asterisk" unicode="*" horiz-adv-x="357" 
d="M324 595l-110 -39l67 -91l-37 -27l-68 90l-61 -90l-38 27l62 92l-106 30l14 43l106 -28v109h48v-111l108 36z" />
    <glyph glyph-name="plus" unicode="+" horiz-adv-x="772" 
d="M678 264h-262v-239h-60v239h-261v59h261v237h60v-237h262v-59z" />
    <glyph glyph-name="comma" unicode="," horiz-adv-x="271" 
d="M172 -26q0 -37 -18.5 -61.5t-54.5 -28.5v36q13 2 21.5 9.5t11 23t3 22.5t0.5 25h-38v99h75v-125z" />
    <glyph glyph-name="hyphen" unicode="-" horiz-adv-x="365" 
d="M326 264h-288v60h288v-60z" />
    <glyph glyph-name="period" unicode="." horiz-adv-x="271" 
d="M173 0h-77v99h77v-99z" />
    <glyph glyph-name="slash" unicode="/" horiz-adv-x="500" 
d="M475 706l-398 -706h-60l399 706h59z" />
    <glyph glyph-name="zero" unicode="0" horiz-adv-x="729" 
d="M697 344q0 -87 -36 -164.5t-103 -126.5q-86 -64 -199 -64q-138 0 -234 100q-74 80 -91 194q-4 22 -4 62q0 122 62 215q67 101 186 130q43 11 83 11q24 0 51.5 -4t66 -16t78.5 -40.5t70 -70.5q70 -95 70 -226zM624 348q0 108 -51 185q-17 24 -40 44q-29 25 -51 35
q-54 28 -124 27q-69 -3 -122 -32q-69 -37 -101.5 -108t-32.5 -157q0 -65 17 -114q27 -81 92.5 -129t150.5 -48q57 0 104 21q63 27 110.5 94t47.5 182z" />
    <glyph glyph-name="one" unicode="1" horiz-adv-x="729" 
d="M417 0h-68l-1 543q-17 -13 -34 -21q-53 -26 -149 -26v57q26 0 49 3q94 12 133 75q13 22 24 62h46v-693z" />
    <glyph glyph-name="two" unicode="2" horiz-adv-x="729" 
d="M670 0h-597v64q182 84 272.5 131.5t147.5 95.5q97 79 97 178q0 32 -12 60q-19 46 -69 79.5t-135 33.5q-70 0 -129 -28t-85 -85q-18 -39 -18 -93l-69 11q6 50 17 79q17 48 49 83.5t63 52.5t70.5 27t60.5 11.5t44 1.5q120 0 199 -63q85 -67 85 -170q0 -48 -21 -97
q-23 -51 -71.5 -97t-142.5 -100q-87 -51 -246 -116h490v-59z" />
    <glyph glyph-name="three" unicode="3" horiz-adv-x="729" 
d="M676 204q0 -100 -87 -160q-81 -56 -218 -56q-119 0 -201 51q-34 22 -64 55q-18 22 -49 79l67 21q27 -61 67 -92q69 -56 186 -56q99 0 163 41q32 20 49 50q19 28 19 67t-25 70q-28 35 -71 45.5t-101 10.5h-113v59h121q44 0 75 11q11 4 22.5 10t28 19t26.5 34t10 47
q0 32 -18 59q-47 71 -190 71q-140 0 -200 -85q-20 -27 -30 -71l-66 22q24 63 54 99q15 19 34 34q81 61 209 61q41 0 90 -9q97 -19 141 -71.5t44 -111.5q0 -38 -19.5 -70t-52.5 -51q-23 -11 -53 -19q32 -6 55 -16q97 -47 97 -148z" />
    <glyph glyph-name="four" unicode="4" horiz-adv-x="729" 
d="M685 185h-149v-185h-67v185h-435v59l428 451h74v-451h149v-59zM469 244v376l-355 -376h355z" />
    <glyph glyph-name="five" unicode="5" horiz-adv-x="729" 
d="M672 241q0 -64 -34 -120q-32 -53 -101 -92.5t-177 -39.5q-130 0 -217 59q-55 38 -86 99q-6 11 -11 26l68 19q15 -41 33 -66q21 -27 54 -45t67.5 -24t52 -8t32.5 -2q17 0 38 2.5t57 11t70.5 31t56.5 55.5q30 42 30 95q0 47 -24 85q-20 34 -53.5 56t-69.5 30t-56 10.5
t-37 2.5q-114 0 -187 -66q-16 -14 -41 -46h-63l22 374h528v-56h-468l-14 -234q23 23 42 36q73 50 193 50q99 0 162.5 -35t95.5 -83q37 -53 37 -125z" />
    <glyph glyph-name="six" unicode="6" horiz-adv-x="729" 
d="M692 231q0 -64 -37 -119q-42 -62 -116.5 -92.5t-157.5 -30.5q-69 0 -132 22q-44 16 -78.5 41t-55 55t-34 59t-19 61t-7.5 52t-2 40q0 38 6 80q27 186 162 259q73 40 167 40q132 0 218 -72q31 -26 69 -78l-63 -29q-23 32 -44 51q-72 67 -187 67q-48 0 -87.5 -13
t-65.5 -34.5t-41.5 -40.5t-26.5 -40q-20 -37 -27 -73q-7 -28 -12 -57q-2 -17 -4 -51q9 22 30 47q26 26 54 42q76 41 185 41q21 0 44.5 -2.5t66.5 -11t84 -33t69 -60.5q42 -54 42 -120zM624 228q0 41 -22 77q-56 91 -228 91q-134 -8 -191 -68q-38 -41 -38 -98q0 -36 15 -67.5
t29.5 -46t29.5 -24.5q59 -41 159 -41q145 0 211 81q35 44 35 96z" />
    <glyph glyph-name="seven" unicode="7" horiz-adv-x="729" 
d="M674 638q-4 -3 -13.5 -10t-13.5 -10q-77 -65 -149 -171q-115 -171 -148 -337q-9 -46 -12 -110h-75q0 38 6 75q29 180 145 358q60 90 161 195h-503v60h602v-50z" />
    <glyph glyph-name="eight" unicode="8" horiz-adv-x="729" 
d="M679 190q0 -49 -27 -90q-72 -111 -280 -111q-140 0 -221 45q-46 25 -74 65.5t-28 90.5q0 28 8 50q15 40 52.5 69.5t82.5 43.5q18 5 39 8q-92 14 -131 77q-20 32 -20 73q0 49 27 88q25 36 66.5 59t87.5 30.5t66.5 9.5t40.5 2q117 0 194 -45q40 -24 65 -61t25 -82
q0 -55 -38 -96q-40 -42 -117 -55q36 -6 64 -17q52 -21 85 -61t33 -93zM585 516q0 30 -19 59q-48 69 -211 69q-100 -3 -153 -38q-51 -35 -51 -91q0 -42 29 -70q25 -24 75.5 -37t74.5 -14.5t40 -1.5q63 0 111.5 14.5t70.5 33.5q34 31 33 76zM610 192q0 37 -23 64
q-58 71 -239 71q-100 0 -166 -37q-64 -38 -64 -99q0 -57 61 -98q72 -46 188 -46q105 0 172 36q72 41 71 109z" />
    <glyph glyph-name="nine" unicode="9" horiz-adv-x="729" 
d="M686 363q0 -117 -39 -200q-15 -32 -38 -60q-93 -113 -256 -113q-126 0 -213 68q-31 24 -67 72l62 30q26 -30 31 -35q78 -75 193 -75q70 0 128 32.5t91 92.5q19 35 32 87q12 49 13 110q-14 -34 -41 -61q-46 -47 -133 -68q-62 -13 -110 -13q-22 0 -45 2.5t-66.5 12t-84 35
t-66.5 64.5q-33 51 -33 110t33 112t104 93.5t181 40.5q186 0 271 -133q53 -81 53 -204zM591 461q0 46 -19 76q-21 42 -63 67q-52 33 -140 34q-147 2 -218 -80q-38 -44 -38 -100q0 -40 19 -74q50 -92 210 -92q140 0 209 71q40 40 40 98z" />
    <glyph glyph-name="colon" unicode=":" horiz-adv-x="313" 
d="M217 391h-79v98h79v-98zM217 0h-79v99h79v-99z" />
    <glyph glyph-name="semicolon" unicode=";" horiz-adv-x="313" 
d="M217 391h-79v98h79v-98zM213 -26q0 -37 -18.5 -61.5t-54.5 -28.5v36q36 6 36 63q0 11 -1 17h-37v99h75v-125z" />
    <glyph glyph-name="less" unicode="&#x3c;" horiz-adv-x="772" 
d="M641 27l-542 234v67l542 242v-64l-478 -208l478 -204v-67z" />
    <glyph glyph-name="equal" unicode="=" horiz-adv-x="772" 
d="M678 350h-584v58h584v-58zM678 173h-584v58h584v-58z" />
    <glyph glyph-name="greater" unicode="&#x3e;" horiz-adv-x="772" 
d="M673 269l-542 -242v64l478 209l-478 203v67l542 -234v-67z" />
    <glyph glyph-name="question" unicode="?" 
d="M657 499q0 -79 -49 -137q-42 -47 -135 -75q-72 -20 -85 -34q-12 -13 -13 -56h-62q1 47 5 61q2 12 6.5 21t13.5 16.5t14 12.5t18.5 10t18 6.5t22 6.5t19.5 6q68 23 87 33q74 40 74 126q0 79 -60 123q-61 44 -154 44q-72 0 -121.5 -28t-73.5 -61q-22 -29 -43 -91l-59 22
q19 52 33 77q80 140 266 140q157 0 232 -91q46 -56 46 -132zM381 0h-75v99h75v-99z" />
    <glyph glyph-name="at" unicode="@" horiz-adv-x="931" 
d="M858 412q0 -105 -55 -203q-78 -137 -182 -137q-41 0 -61 22t-21 71q-29 -38 -56 -57q-45 -35 -102 -35q-61 0 -96 43t-35 117q0 112 66 197t152 85q51 0 85 -34q19 -19 38 -61l17 72h61l-33 -146q-1 -5 -4 -17t-5 -19q-5 -20 -15 -70q-8 -43 -8 -69q0 -22 10.5 -36.5
t27.5 -14.5q28 0 60 30q50 47 80.5 118.5t30.5 144.5q0 119 -77 188t-209 69q-174 0 -291.5 -119t-117.5 -296q0 -153 94 -243.5t254 -90.5q94 0 185 36q50 19 83 40.5t86 68.5l29 -32q-67 -55 -107 -80.5t-93 -45.5q-87 -32 -178 -32q-179 0 -290.5 105t-111.5 274
q0 193 133.5 325t329.5 132q150 0 238 -81t88 -219zM569 349q0 52 -26 82.5t-70 30.5q-61 0 -108.5 -69t-47.5 -158q0 -52 24.5 -81.5t66.5 -29.5q48 0 84 36q32 32 54.5 87t22.5 102z" />
    <glyph glyph-name="A" unicode="A" horiz-adv-x="792" 
d="M786 0h-73l-91 183h-455l-90 -183h-71l348 706h76zM594 239l-202 404l-198 -404h400z" />
    <glyph glyph-name="B" unicode="B" horiz-adv-x="917" 
d="M858 192q0 -102 -71 -153q-54 -39 -155 -39h-550v706h553q99 0 154 -75q33 -48 33 -102q0 -27 -7 -50q-14 -51 -59 -82q-19 -13 -57 -23q30 -3 51 -11q52 -20 80 -66.5t28 -104.5zM749 525q0 39 -19 70q-22 34 -55 44t-83 10h-441v-250h431q48 0 81.5 9t58.5 39
q27 29 27 78zM788 192q0 51 -27 87q-19 27 -54.5 41t-62.5 16.5t-68 2.5h-425v-280h482q102 0 137 64q18 33 18 69z" />
    <glyph glyph-name="C" unicode="C" horiz-adv-x="827" 
d="M807 190q-47 -81 -111 -128q-109 -80 -258 -80q-148 0 -247 72q-72 53 -111 132t-39 170q0 133 82 231q38 45 85.5 76t94 43.5t77 17t59.5 4.5q165 0 276 -101q35 -31 74 -93l-60 -33q-30 50 -55 75q-87 89 -233 89q-147 0 -240 -95q-85 -87 -85 -219q0 -129 88 -216
q91 -91 238 -91q160 0 258 111q22 25 46 64z" />
    <glyph glyph-name="D" unicode="D" horiz-adv-x="854" 
d="M805 351q0 -58 -14 -110q-40 -147 -166 -205q-79 -36 -222 -36h-320v706h353q42 0 63 -2q109 -8 186 -71q120 -99 120 -282zM734 347q0 96 -42 173t-127 108q-54 20 -129 20h-283v-589h225q62 0 100 3t90 19.5t86 49.5q80 76 80 216z" />
    <glyph glyph-name="E" unicode="E" horiz-adv-x="833" 
d="M788 0h-705v706h676v-58h-607v-248h561v-60h-561v-281h636v-59z" />
    <glyph glyph-name="F" unicode="F" horiz-adv-x="750" 
d="M733 648h-581v-251h520v-61h-520v-336h-69v706h650v-58z" />
    <glyph glyph-name="G" unicode="G" horiz-adv-x="896" 
d="M822 0h-61v144q-24 -42 -55 -71q-38 -35 -106 -64t-158 -29q-61 0 -121 16q-156 40 -230 171q-47 83 -47 184q0 143 86 243q114 134 316 134q31 0 66 -3.5t98.5 -25t109.5 -58.5q45 -36 85 -100l-66 -38q-15 29 -32 49q-90 112 -267 112q-70 0 -130 -23
q-91 -35 -142 -112t-51 -176q0 -119 68 -200q93 -110 263 -110q54 0 104 14q66 20 118.5 64t74.5 105q12 34 16 83h-375v60h436v-369z" />
    <glyph glyph-name="H" unicode="H" horiz-adv-x="896" 
d="M812 0h-67v345h-593v-345h-69v706h69v-302h593v302h67v-706z" />
    <glyph glyph-name="I" unicode="I" horiz-adv-x="229" 
d="M149 0h-67v706h67v-706z" />
    <glyph glyph-name="J" unicode="J" horiz-adv-x="625" 
d="M558 270q0 -91 -26 -155.5t-97 -100.5q-64 -32 -146 -32q-104 0 -176 47q-64 41 -107 144l70 26q8 -32 22 -57q57 -97 196 -97q108 0 155 62q21 27 31 73.5t11 73t1 79.5v373h66v-436z" />
    <glyph glyph-name="K" unicode="K" horiz-adv-x="792" 
d="M788 0h-89l-315 391l-234 -190v-201h-67v706h67v-429l528 429h93l-334 -272z" />
    <glyph glyph-name="L" unicode="L" horiz-adv-x="688" 
d="M667 0h-584v706h70v-647h514v-59z" />
    <glyph glyph-name="M" unicode="M" horiz-adv-x="938" 
d="M857 0h-63v629q-3 -6 -9.5 -22t-11.5 -26l-267 -581h-70l-270 576q-10 19 -20 53v-629h-64v706h90l268 -572q22 -45 32 -75l297 647h88v-706z" />
    <glyph glyph-name="N" unicode="N" horiz-adv-x="896" 
d="M814 0h-63l-605 616v-616h-63v706h63l605 -619v619h63v-706z" />
    <glyph glyph-name="O" unicode="O" horiz-adv-x="917" 
d="M876 355q0 -131 -81 -229q-40 -48 -91.5 -80t-102.5 -44.5t-83 -16.5t-62 -4q-25 0 -51 2t-73.5 13t-87.5 30t-83.5 57t-72.5 89q-46 82 -46 182q0 77 29 145q47 113 154 171.5t236 57.5q25 0 50 -2t70 -12t83.5 -27.5t81.5 -52.5t73 -83q57 -91 57 -196zM799 359
q0 44 -8 76q-29 127 -139 186q-96 51 -213 46q-119 -4 -201 -65q-45 -33 -83.5 -95.5t-38.5 -155.5q0 -64 23 -121q20 -51 56.5 -88.5t72 -56t78.5 -29.5t67.5 -13t46.5 -2q132 0 223 68q116 88 116 250z" />
    <glyph glyph-name="P" unicode="P" horiz-adv-x="812" 
d="M794 513q0 -96 -72 -151q-59 -46 -187 -46h-383v-316h-70v706h469q57 0 97.5 -8t75.5 -34q23 -18 33 -34q37 -48 37 -117zM721 513q0 73 -51 109q-37 26 -112 26h-406v-274h359q40 0 62.5 1.5t55.5 12t54 30.5q38 36 38 95z" />
    <glyph glyph-name="Q" unicode="Q" horiz-adv-x="917" 
d="M889 5l-30 -54l-165 91q-37 -20 -56.5 -29t-69.5 -21t-106 -12q-143 0 -247 61q-52 30 -89 73q-86 101 -86 240q0 155 111 260q117 111 304 111q168 0 280 -87q67 -52 103 -127t36 -160q0 -125 -75 -218q-17 -22 -49 -52zM798 355q0 33 -5.5 66.5t-34.5 88t-80 90.5
q-90 64 -231 64q-118 -4 -195 -55q-37 -24 -67 -60q-70 -83 -70 -196q0 -138 90 -223q96 -90 254 -90q83 0 158 31t121 94q60 83 60 190z" />
    <glyph glyph-name="R" unicode="R" horiz-adv-x="875" 
d="M848 0h-95l-279 315h-323v-315h-68v706h488q34 0 51 -1q111 -4 162 -81q31 -47 31 -112q0 -98 -72 -152q-25 -18 -58.5 -28t-56 -12.5t-64.5 -4.5zM741 516q0 13 -2.5 29t-16 40.5t-35.5 39.5q-35 23 -114 23h-422v-273h379q31 0 47 1q54 3 91 17.5t57 54.5q16 32 16 68z
" />
    <glyph glyph-name="S" unicode="S" horiz-adv-x="812" 
d="M764 210q0 -56 -33 -105q-85 -123 -312 -123q-19 0 -61 2q-181 12 -266 103q-25 26 -60 90l74 28q28 -71 84 -109q79 -52 224 -52q124 0 202 46q75 45 75 116q0 46 -33 74q-7 6 -17 11.5t-23 10t-24.5 8t-28 7t-27 6t-28.5 5t-25 3.5l-24.5 3.5t-19.5 2.5q-20 3 -63 8.5
t-65 8.5q-106 16 -142 35q-84 42 -84 131q0 49 28 90.5t73 66.5q86 48 224 48q173 0 283 -90q27 -23 48 -49l-64 -34q-11 14 -21 26q-85 86 -251 86q-113 0 -183 -41q-36 -21 -52 -50q-13 -23 -13 -50q0 -49 55 -76q31 -15 131 -28q25 -4 71 -10t66 -9t53 -8.5t50.5 -9.5
t38 -9.5t35.5 -12.5q49 -21 77 -60t28 -90z" />
    <glyph glyph-name="T" unicode="T" horiz-adv-x="688" 
d="M686 648h-303v-648h-67v648h-317v58h687v-58z" />
    <glyph glyph-name="U" unicode="U" horiz-adv-x="875" 
d="M794 283q0 -107 -42 -174q-52 -85 -177 -114q-60 -13 -131 -13q-101 0 -174 21q-131 37 -173 152q-18 49 -18 143v408h65v-380q0 -97 11 -135q10 -32 27 -56q64 -89 239 -89q118 0 182.5 24.5t96.5 79.5q18 31 24 70.5t6 112.5v373h64v-423z" />
    <glyph glyph-name="V" unicode="V" 
d="M726 706l-327 -706h-66l-333 706h76l292 -632l283 632h75z" />
    <glyph glyph-name="W" unicode="W" horiz-adv-x="1062" 
d="M1059 706l-224 -706h-82l-219 635l-217 -635h-80l-234 706h71l206 -634l218 634h73l223 -634l198 634h67z" />
    <glyph glyph-name="X" unicode="X" horiz-adv-x="729" 
d="M740 0h-87l-293 315l-272 -315h-84l313 362l-321 344h87l277 -296l257 296h84l-299 -344z" />
    <glyph glyph-name="Y" unicode="Y" horiz-adv-x="729" 
d="M723 706l-320 -420v-286h-64v286l-333 420h84l281 -363l272 363h80z" />
    <glyph glyph-name="Z" unicode="Z" horiz-adv-x="750" 
d="M750 644l-653 -585h635v-59h-732v57l659 591h-604v58h695v-62z" />
    <glyph glyph-name="bracketleft" unicode="[" horiz-adv-x="292" 
d="M268 -212h-187v942h187v-62h-122v-818h122v-62z" />
    <glyph glyph-name="backslash" unicode="\" horiz-adv-x="500" 
d="M475 0h-59l-399 706h60z" />
    <glyph glyph-name="bracketright" unicode="]" horiz-adv-x="292" 
d="M211 -212h-187v61h122v818h-122v63h187v-942z" />
    <glyph glyph-name="asciicircum" unicode="^" horiz-adv-x="772" 
d="M627 286l-67 1l-169 356l-178 -357h-68l213 420h69z" />
    <glyph glyph-name="underscore" unicode="_" horiz-adv-x="500" 
d="M510 -206h-520v59h520v-59z" />
    <glyph glyph-name="grave" unicode="`" horiz-adv-x="375" 
d="M280 554h-43l-142 145h110z" />
    <glyph glyph-name="a" unicode="a" horiz-adv-x="667" 
d="M666 0q-40 -4 -60 -4q-26 0 -42 8q-8 4 -15 10.5t-10.5 13t-6.5 14t-4.5 13t-2.5 11t-1 6.5q-31 -23 -54 -36q-90 -49 -208 -49q-136 0 -188 65q-33 39 -33 96q0 77 62 122q48 33 143 42.5t278 11.5q0 51 -17 75q-36 49 -187 49q-102 0 -145 -23q-15 -8 -30 -24t-28 -55
l-70 4q24 88 90 123q65 35 180 35q177 0 235 -64q33 -38 33 -109v-213q0 -33 7 -47q13 -27 74 -24v-51zM524 268q-187 -1 -267 -13q-99 -15 -130 -59q-15 -24 -15 -50q0 -37 26 -62q42 -38 132 -38q99 0 179 45q40 22 57 53q20 36 18 124z" />
    <glyph glyph-name="b" unicode="b" 
d="M660 246q0 -40 -10 -74q-27 -90 -107.5 -136.5t-178.5 -46.5q-102 0 -182 49q-22 14 -33 26q-3 3 -11 13v-77h-66v706h66l1 -292q8 12 21 25q73 68 209 68q134 0 215 -75q76 -71 76 -186zM588 247q0 54 -27 99q-21 35 -53.5 58t-68 30.5t-56 9.5t-39.5 1
q-105 -4 -161 -61q-46 -48 -46 -140q0 -93 54 -143q59 -54 171 -54q65 0 111.5 22t70.5 50q19 20 33 60q11 37 11 68z" />
    <glyph glyph-name="c" unicode="c" horiz-adv-x="667" 
d="M648 168q-40 -65 -75 -98q-87 -81 -236 -81q-61 0 -111 15q-27 8 -53 22.5t-59 42t-53.5 74.5t-20.5 107q0 101 65 170q43 46 109 70t134 24q158 0 253 -107q18 -20 37 -51l-66 -27q-23 40 -57 70q-10 10 -31 23q-57 35 -138 35q-23 0 -52 -5q-104 -17 -151 -96
q-29 -45 -29 -105q0 -53 25 -98q19 -35 50 -58.5t64 -32.5t53 -12t38 -3q50 0 101.5 18t84.5 50q26 26 52 78z" />
    <glyph glyph-name="d" unicode="d" 
d="M635 0h-66v75q-18 -20 -35 -33q-73 -56 -190 -56q-77 0 -147.5 31t-110.5 90q-42 60 -42 143q1 121 90.5 190t213.5 69q102 0 173 -46q31 -20 48 -48v291h66v-706zM569 252q0 72 -31 118q-9 14 -24 26q-70 61 -177 57q-44 -3 -85 -17q-34 -12 -59.5 -32t-39.5 -40
t-22 -43.5t-10.5 -40t-2.5 -33.5q0 -50 22 -92q19 -38 50.5 -63t67 -34.5t55.5 -12t40 -2.5q54 0 104.5 19.5t78.5 58.5q33 47 33 131z" />
    <glyph glyph-name="e" unicode="e" horiz-adv-x="667" 
d="M627 135q-48 -65 -99 -98q-81 -50 -184 -50q-102 0 -180 52q-55 36 -86 94t-31 125q0 114 79 182q29 26 81.5 48t121.5 22q137 0 222 -87q34 -34 53 -77q17 -38 23 -106h-511q6 -92 73 -143.5t162 -51.5q129 0 204 97q7 10 20 30zM547 296q-16 77 -84 121q-60 37 -139 37
q-90 0 -146 -52q-26 -24 -44 -57q-11 -24 -16 -49h429z" />
    <glyph glyph-name="f" unicode="f" horiz-adv-x="354" 
d="M341 443h-167v-443h-66v443h-98v51h98v97q0 62 28 94q33 38 111 38q50 0 94 -10l-1 -58q-42 10 -85 10q-34 0 -51 -11q-30 -19 -30 -79v-81h167v-51z" />
    <glyph glyph-name="g" unicode="g" horiz-adv-x="688" 
d="M617 51q0 -74 -13 -115q-32 -103 -172 -128q-48 -8 -94 -8q-126 0 -190 40q-53 33 -69 97q-2 9 -4 27h69q2 -17 5 -27.5t16.5 -27t37.5 -27.5q51 -23 130 -23q59 0 111 13q62 16 86 52q16 24 20.5 57.5t2.5 96.5q-19 -24 -34 -35q-75 -58 -196 -57q-69 0 -128 24
q-25 11 -48 26.5t-49 43t-42 71.5t-16 99q0 95 58 162q65 75 172 92q25 5 66 5q114 0 189 -59q10 -8 30 -28l-2 72h64v-443zM555 250q-1 110 -60 156q-64 52 -165 48q-94 -3 -156.5 -58t-61.5 -147q0 -46 19 -89q18 -38 47.5 -63.5t62.5 -35.5t53.5 -13t40.5 -3
q111 0 171 61q49 49 49 144z" />
    <glyph glyph-name="h" unicode="h" 
d="M634 0h-65v260q0 30 -4 53q-8 57 -46 89q-52 45 -162 45q-107 0 -170 -54q-27 -24 -40 -52q-11 -26 -11 -68v-273h-66v706h66v-292q8 13 19 24q28 28 84.5 48.5t131.5 20.5q129 0 198 -57q27 -22 43 -56q22 -45 22 -124v-270z" />
    <glyph glyph-name="i" unicode="i" horiz-adv-x="208" 
d="M137 582h-66v96h66v-96zM137 0h-66v494h66v-494z" />
    <glyph glyph-name="j" unicode="j" horiz-adv-x="208" 
d="M136 580h-64v97h64v-97zM136 -54q0 -21 -1 -34.5t-8 -35t-20 -34t-39.5 -22.5t-63.5 -10q-45 0 -93 12l1 60q42 -13 77 -13q27 0 44.5 6.5t25.5 18.5t10.5 23.5t2.5 27.5v549h64v-548z" />
    <glyph glyph-name="k" unicode="k" horiz-adv-x="667" 
d="M671 0h-98l-271 262l-165 -127v-135h-65v706h65v-493l370 281h100l-250 -191z" />
    <glyph glyph-name="l" unicode="l" horiz-adv-x="208" 
d="M138 0h-66v706h66v-706z" />
    <glyph glyph-name="m" unicode="m" horiz-adv-x="1167" 
d="M1093 0h-65v276q0 45 -15 77t-44 52.5t-64 28t-51 9t-32 1.5q-13 0 -29.5 -1.5t-50 -8t-63.5 -25t-46 -46.5q-17 -28 -17 -69v-294h-66v273q0 45 -13 79q-38 92 -188 92q-59 0 -115 -20t-81 -64q-15 -26 -15 -71v-289h-67v494h67v-63q29 23 34 27q70 50 183 50
q117 0 191 -59q25 -20 39 -43q16 23 44 43q80 57 199 57q106 0 177 -46q55 -35 77 -92q11 -29 11 -76v-292z" />
    <glyph glyph-name="n" unicode="n" 
d="M638 0h-66v287q0 69 -40 108q-52 50 -172 50q-91 0 -152 -36q-36 -22 -53 -50q-18 -29 -18 -72v-287h-66v494h66l1 -69q14 18 41 36q74 47 190 47q52 0 100 -11q112 -27 149 -106q20 -43 20 -118v-273z" />
    <glyph glyph-name="o" unicode="o" 
d="M664 243q0 -73 -41 -134q-34 -49 -101 -86t-170 -37q-42 0 -78 7q-126 23 -188 113q-43 63 -43 141q0 45 16 90q34 92 129 138q73 36 178 35q129 -4 206 -67q53 -44 72.5 -100t19.5 -100zM590 247q0 50 -19 89q-19 40 -52 67t-69 37t-59 13.5t-42 2.5q-81 0 -145 -42
q-86 -57 -86 -168q0 -73 40 -124q31 -41 83.5 -60.5t109.5 -19.5q127 0 193 75q46 53 46 130z" />
    <glyph glyph-name="p" unicode="p" 
d="M660 248q0 -105 -72 -175q-88 -85 -226 -85q-66 0 -126 21q-29 12 -51 26q-26 18 -47 41v-263h-64v681h64v-77q12 14 21 22q79 69 218 69q81 0 148 -33.5t103 -100.5q32 -58 32 -126zM586 249q0 46 -20 89q-53 111 -205 111q-72 0 -129 -29.5t-80 -91.5q-13 -34 -13 -83
q0 -90 48 -137q61 -59 171 -59q129 0 191 83q37 48 37 117z" />
    <glyph glyph-name="q" unicode="q" 
d="M634 -180h-65v248q-25 -23 -42 -34q-72 -48 -181 -48q-55 0 -106 15q-90 27 -142.5 92t-52.5 157q0 105 64 174q81 88 227 88q115 0 191 -50q16 -10 42 -36v68h65v-674zM570 249q0 74 -33 122q-23 35 -73.5 59t-126.5 23q-131 -1 -187 -90q-31 -48 -31 -108
q0 -91 64 -150q65 -58 168 -58q63 0 114 24q29 14 49 30t38 55t18 93z" />
    <glyph glyph-name="r" unicode="r" horiz-adv-x="396" 
d="M384 509l-1 -69q-34 4 -51 4q-99 0 -154 -57q-20 -22 -34 -63q-7 -25 -7 -48v-276h-66v494h66v-80q21 28 38 41q74 59 209 54z" />
    <glyph glyph-name="s" unicode="s" horiz-adv-x="625" 
d="M588 148q0 -71 -66 -115q-68 -45 -194 -45q-204 0 -272 87q-12 14 -18 27q-5 7 -8 20l72 16q5 -11 11 -20q20 -29 60 -46q60 -24 151 -24q106 0 160 36q37 28 37 63q0 20 -14 36q-15 17 -41.5 24t-80.5 10q-36 3 -82.5 5t-72 3.5t-53 5t-45.5 10.5q-11 4 -22 11
t-25.5 19.5t-23.5 34t-9 47.5q0 83 76 123q60 32 177 32q105 0 173 -26q32 -13 53 -30q28 -23 46 -60l-73 -15q-13 22 -21 29q-27 23 -80 33.5t-102 10.5q-118 0 -160 -43q-21 -21 -21 -48q3 -43 46 -57q25 -7 97 -10q18 -1 57.5 -3t54 -3t42 -3.5t41.5 -5t31 -7.5t29 -11
q70 -35 70 -111z" />
    <glyph glyph-name="t" unicode="t" horiz-adv-x="313" 
d="M309 -4q-45 -7 -66 -7q-84 0 -117 53q-15 23 -19 55.5t-4 98.5v247h-94v51h94v169l66 31v-200h140v-51h-140v-235q0 -63 5 -92.5t24 -48.5q22 -20 67 -20q2 0 44 3v-54z" />
    <glyph glyph-name="u" unicode="u" 
d="M637 0h-65v71q-30 -25 -46 -35q-82 -49 -198 -49q-189 0 -238 113q-19 42 -19 118v276h66v-270q0 -87 31 -123q46 -53 161 -53q64 0 130 19.5t95 62.5q18 27 18 70v294h65v-494z" />
    <glyph glyph-name="v" unicode="v" horiz-adv-x="562" 
d="M563 494l-250 -494h-61l-250 494h75l206 -421l205 421h75z" />
    <glyph glyph-name="w" unicode="w" horiz-adv-x="854" 
d="M853 494l-200 -494h-63l-163 418l-160 -418h-63l-204 494h71l164 -413l158 413h69l160 -413l163 413h68z" />
    <glyph glyph-name="x" unicode="x" horiz-adv-x="562" 
d="M566 0h-87l-198 211l-198 -211h-87l244 257l-229 237h89l181 -192l181 192h85l-226 -237z" />
    <glyph glyph-name="y" unicode="y" horiz-adv-x="562" 
d="M560 494l-233 -532q-41 -97 -76 -123q-42 -33 -138 -33q-42 0 -102 12v62q54 -18 100 -18q42 0 69 10q34 12 51 35.5t34 65.5l-265 521h79l221 -448l189 448h71z" />
    <glyph glyph-name="z" unicode="z" horiz-adv-x="562" 
d="M546 0h-535v54l440 386h-408v54h503v-46l-443 -393h443v-55z" />
    <glyph glyph-name="braceleft" unicode="{" horiz-adv-x="314" 
d="M290 -217q-24 0 -32 1q-57 3 -92 33q-33 27 -38 79q-2 32 -2 74v119q0 82 -14.5 107.5t-67.5 34.5v55q53 10 67.5 35t14.5 107v155q0 52 14 83q20 42 71 59q31 9 79 9v-55h-8q-48 0 -68 -20q-13 -13 -18 -31q-5 -21 -5 -78v-135q0 -62 -9 -92q-11 -41 -66 -64
q33 -12 50 -34q11 -12 16 -31q9 -28 9 -91v-177q0 -44 23 -67q21 -21 73 -21h3v-55z" />
    <glyph glyph-name="bar" unicode="|" horiz-adv-x="230" 
d="M148 -212h-66v942h66v-942z" />
    <glyph glyph-name="braceright" unicode="}" horiz-adv-x="314" 
d="M272 232q-53 -10 -67.5 -35.5t-14.5 -107.5v-155q0 -50 -13 -82q-20 -44 -72 -59q-29 -9 -79 -10v55h9q47 0 68 21q12 12 17 31q5 21 5 78l1 135q0 66 8 92q12 41 66 64q-33 12 -50 33q-12 18 -16 31q-8 26 -8 92l-1 177q0 44 -22 67q-21 21 -73 21h-4v54q25 0 33 -1
q57 -3 92 -32q32 -29 37 -79q2 -16 2 -74v-120q0 -82 14.5 -107t67.5 -35v-54z" />
    <glyph glyph-name="asciitilde" unicode="~" horiz-adv-x="827" 
d="M747 318q-43 -48 -83 -71q-52 -29 -108 -29q-35 0 -76 14q-6 2 -62 24l-42 17q-74 30 -121 30q-31 0 -54.5 -14t-62.5 -53l-11 -11l-47 40q32 40 61 62q55 40 122 40q20 0 48 -5q34 -8 112 -38l47 -18q64 -25 92 -25q39 0 77 23q25 16 62 54z" />
    <glyph glyph-name="exclamdown" unicode="&#xa1;" horiz-adv-x="313" 
d="M176 608h-77v98h77v-98zM173 0h-71v304l13 203h46l12 -224v-283z" />
    <glyph glyph-name="cent" unicode="&#xa2;" horiz-adv-x="667" 
d="M650 166q-43 -77 -105.5 -123.5t-173.5 -54.5v-104h-55v104q-56 4 -93 16q-28 9 -55.5 25.5t-56.5 44t-47.5 70.5t-20.5 96q-2 86 45.5 156t143.5 98q28 8 84 13v103h55v-104q181 -6 269 -157l-61 -26q-13 25 -31 46q-67 78 -177 84v-408q46 6 62 10q46 12 79.5 38
t46.5 46t28 51zM316 44v409q-86 -6 -143 -62t-58 -142q0 -45 15.5 -82t40.5 -59.5t48.5 -35.5t46.5 -19q30 -9 50 -9z" />
    <glyph glyph-name="sterling" unicode="&#xa3;" horiz-adv-x="792" 
d="M745 170q-5 -100 -63 -147q-41 -32 -101 -32q-37 0 -76.5 15t-65 31t-63.5 44q-19 -23 -28 -31q-61 -58 -157 -59q-96 0 -136 58q-18 27 -18 59q0 28 14 48q36 56 129 56q30 0 61 -7.5t51.5 -16t55.5 -25.5q3 29 0 44q-2 12 -7 24.5t-11 23t-14 21t-15 18t-15.5 15.5
t-13.5 12.5t-10 8.5l-6 5h-209v56h158q-63 71 -63 142q0 34 17 66t31.5 46t28.5 23q72 51 196 51q108 0 172.5 -37.5t93.5 -92.5q17 -31 30 -101h-67q-4 30 -6 38q-13 49 -46 79q-58 56 -175 56q-46 0 -86 -10q-65 -15 -93 -49t-28 -74q0 -54 55 -108q6 -6 17.5 -15.5
t15.5 -13.5h232v-56h-182q18 -20 26 -31q42 -59 42 -119q0 -15 -10 -57q1 0 15 -8.5t17 -10t16.5 -9.5t19 -10.5t18.5 -9t20 -9t18.5 -6.5t20 -6t18 -3.5t18.5 -1.5q58 0 83 51q18 35 13 111h62q2 -23 0 -46zM328 108q-30 18 -35 20q-54 29 -106 29q-42 0 -65 -17
q-20 -17 -20 -37q1 -24 23.5 -39t64.5 -15q66 0 114 37q7 5 24 22z" />
    <glyph glyph-name="currency" unicode="&#xa4;" horiz-adv-x="690" 
d="M631 569l-76 -74q56 -71 56 -156q0 -83 -57 -157l76 -75l-47 -45l-77 75q-73 -54 -162 -54q-48 0 -83 11.5t-78 42.5l-78 -73l-47 45l78 73q-57 76 -57 159t57 155l-76 73l47 45l76 -72q77 54 161 54q98 0 163 -54l77 73zM543 339q0 85 -56 141.5t-141 56.5t-142.5 -57
t-57.5 -140q0 -85 58 -141.5t145 -56.5q83 0 138.5 56.5t55.5 140.5z" />
    <glyph glyph-name="yen" unicode="&#xa5;" horiz-adv-x="729" 
d="M723 695l-253 -326h176v-55h-218l-25 -33v-34h243v-55h-243v-192h-64v192h-256v55h256v34l-27 33h-229v55h185l-262 326h84l280 -358l273 358h80z" />
    <glyph glyph-name="brokenbar" unicode="&#xa6;" horiz-adv-x="230" 
d="M148 327h-66v403h66v-403zM148 -212h-66v403h66v-403z" />
    <glyph glyph-name="section" unicode="&#xa7;" horiz-adv-x="688" 
d="M650 247q0 -89 -56 -144q-15 -15 -47 -34q31 -46 31 -93q0 -54 -34 -100q-60 -81 -193 -81q-113 0 -271 67l42 52q145 -59 238 -59q58 0 102.5 30t44.5 85q0 13 -3 24t-10 20t-13 15.5t-18.5 13t-20 10.5t-23 8.5t-21.5 6.5t-22.5 6t-20.5 5q-21 6 -62.5 16.5t-62.5 15.5
q-30 7 -61 18q-133 50 -133 168q0 63 32.5 113t89.5 78q-27 33 -27 77q0 37 19 70q51 89 182 89q90 0 231 -60l-38 -52q-113 52 -199 52q-50 0 -88 -22.5t-38 -68.5q0 -50 58 -70q29 -11 78 -23t87.5 -21t83 -26.5t74 -39t49.5 -59.5t20 -87zM581 243q0 23 -7 42t-15 32.5
t-27 25.5t-29.5 18.5t-37 14.5t-36 10.5t-38.5 9.5q-142 36 -188 56q-44 -24 -71.5 -63.5t-27.5 -86.5q0 -85 108 -115q24 -7 90 -23t112 -29.5t87 -30.5q80 57 80 139z" />
    <glyph glyph-name="dieresis" unicode="&#xa8;" horiz-adv-x="375" 
d="M355 569h-70v96h70v-96zM90 569h-70v96h70v-96z" />
    <glyph glyph-name="copyright" unicode="&#xa9;" horiz-adv-x="833" 
d="M772 351q0 -147 -104.5 -250.5t-252.5 -103.5t-251 104t-103 254q0 149 103 251.5t253 102.5q65 0 127 -24t113.5 -67.5t83 -113t31.5 -153.5zM740 351q0 137 -93.5 231.5t-229.5 94.5t-230.5 -94.5t-94.5 -230.5q0 -134 94.5 -228.5t229.5 -94.5q134 0 229 94.5
t95 227.5zM645 280q-20 -37 -29.5 -51t-26.5 -32q-61 -67 -168 -67q-99 0 -160 60.5t-61 158.5q0 97 63.5 160t161.5 63q100 0 167 -67q22 -23 46 -66l-53 -27q-54 105 -158 105q-74 0 -119.5 -47t-45.5 -123q0 -71 45.5 -116.5t115.5 -45.5q67 0 115 40q29 23 54 79z" />
    <glyph glyph-name="ordfeminine" unicode="&#xaa;" horiz-adv-x="437" 
d="M452 361q-26 -4 -44 -4q-22 0 -35 8.5t-17 18t-6 23.5q-23 -16 -37 -24q-59 -32 -139 -32q-100 0 -137 52q-19 26 -19 63q0 59 50 91q30 20 95.5 26t183.5 8q-1 39 -25 57q-28 21 -108 21q-92 0 -123 -38q-7 -10 -16 -32l-54 2q9 35 21 53q42 62 167 62q44 0 75 -4
t62.5 -21.5t42.5 -49.5q7 -19 7 -47v-152q0 -13 2 -20.5t12 -14t29 -6.5h13v-40zM347 545q-71 0 -107 -1q-39 -2 -64 -5t-51.5 -11t-39 -24t-12.5 -40q0 -30 28 -47.5t75 -17.5q43 0 91.5 15t68.5 50q11 20 11 81z" />
    <glyph glyph-name="guillemotleft" unicode="&#xab;" horiz-adv-x="521" 
d="M467 110l-203 175v55l203 173v-56l-138 -145l138 -145v-57zM255 112l-200 173v55l200 171v-58l-136 -141l136 -142v-58z" />
    <glyph glyph-name="logicalnot" unicode="&#xac;" horiz-adv-x="772" 
d="M683 0h-62l1 264h-564v59h625v-323z" />
    <glyph glyph-name="registered" unicode="&#xae;" horiz-adv-x="833" 
d="M772 351q0 -147 -104.5 -250.5t-252.5 -103.5t-251 104t-103 254q0 149 103 251.5t253 102.5q65 0 127 -24t113.5 -67.5t83 -113t31.5 -153.5zM740 351q0 137 -93.5 231.5t-229.5 94.5t-230.5 -94.5t-94.5 -230.5q0 -134 94.5 -228.5t229.5 -94.5q134 0 229 94.5
t95 227.5zM587 453q0 -43 -21 -73q-21 -29 -62 -42q-14 -4 -45 -7l127 -184h-69l-123 183h-73v-183h-57v416h177q65 0 97 -16q49 -26 49 -94zM530 451q0 36 -23 52q-12 8 -25 9q-19 3 -63 3h-98v-137h109q53 0 77 17q23 15 23 56z" />
    <glyph glyph-name="macron" unicode="&#xaf;" horiz-adv-x="375" 
d="M355 569h-335v52h335v-52z" />
    <glyph glyph-name="degree" unicode="&#xb0;" horiz-adv-x="354" 
d="M324 601q0 -61 -43 -104t-104 -43t-104 43t-43 104t43 104t104 43t104 -43.5t43 -103.5zM263 601q0 36 -25 61.5t-61 25.5t-61.5 -25.5t-25.5 -61.5t25.5 -61.5t61.5 -25.5t61 25.5t25 61.5z" />
    <glyph glyph-name="plusminus" unicode="&#xb1;" horiz-adv-x="772" 
d="M678 377h-262v-240h-60v240h-262v58h262v238h60v-238h262v-58zM678 0h-584v58h584v-58z" />
    <glyph glyph-name="twosuperior" unicode="&#xb2;" horiz-adv-x="479" 
d="M423 258h-370v46q197 89 253 135q63 52 63 110q0 41 -32.5 73t-96.5 32q-61 0 -101.5 -31.5t-40.5 -95.5l-47 7q11 59 25 82q46 78 159 80q89 1 136.5 -44.5t46.5 -102.5q-1 -78 -67 -130t-218 -121h290v-40z" />
    <glyph glyph-name="threesuperior" unicode="&#xb3;" horiz-adv-x="479" 
d="M434 389q0 -60 -50.5 -99.5t-141.5 -39.5q-120 0 -177 83q-13 19 -18 35l43 14q0 -1 3 -7t7.5 -14t9.5 -14q42 -55 135 -55q66 0 103 27t37 68q0 25 -14 41q-27 34 -98 34h-79v40h60q73 0 99 31q15 19 15 41q0 43 -39.5 60.5t-81.5 17.5q-86 0 -121 -45
q-7 -9 -12.5 -21.5t-7.5 -21t-2 -10.5l-44 15q12 36 26 56q49 67 161 67q109 0 151 -62q17 -26 17 -57q0 -58 -66 -85q28 -9 37 -15q48 -32 48 -84z" />
    <glyph glyph-name="acute" unicode="&#xb4;" horiz-adv-x="375" 
d="M281 700l-144 -145h-43l78 145h109z" />
    <glyph glyph-name="mu" unicode="&#xb5;" horiz-adv-x="721" 
d="M718 -1q-43 -4 -58 -4q-41 0 -59.5 18.5t-23.5 63.5q-97 -90 -250 -90q-79 0 -135 24q-26 11 -55 40v-238h-66v681h66v-281q0 -74 29 -110q44 -55 162 -55q133 0 204 58q40 33 40 94v294h65v-386q0 -28 15 -43.5t41 -15.5q15 0 25 1v-51z" />
    <glyph glyph-name="paragraph" unicode="&#xb6;" horiz-adv-x="640" 
d="M542 652h-33v-818h-58v818h-162v-818h-59v495q-75 13 -115.5 60.5t-40.5 122.5q0 83 52 137q57 57 169 57h247v-54z" />
    <glyph glyph-name="periodcentered" unicode="&#xb7;" horiz-adv-x="271" 
d="M173 291h-77v99h77v-99z" />
    <glyph glyph-name="cedilla" unicode="&#xb8;" horiz-adv-x="375" 
d="M286 -130q0 -23 -15 -41q-29 -34 -104 -34q-28 0 -78 6v33q42 -4 62 -4q28 0 39 4q33 8 33 31q0 7 -3 14q-12 24 -75 24v116h45v-79q1 0 7.5 -0.5t12 -1t14.5 -2.5t17 -5t16.5 -8.5t14.5 -12.5q14 -17 14 -40z" />
    <glyph glyph-name="onesuperior" unicode="&#xb9;" horiz-adv-x="479" 
d="M290 258h-47v331q-43 -26 -96 -26q-3 0 -9 0.5t-8 0.5v40q62 0 87.5 19.5t39.5 65.5h33v-431z" />
    <glyph glyph-name="ordmasculine" unicode="&#xba;" horiz-adv-x="479" 
d="M455 527q-1 -61 -38 -103.5t-85 -59t-100 -15.5q-57 1 -100 19.5t-65 47.5t-32.5 58t-10.5 58q0 89 63.5 136t150.5 49q37 1 79 -10q45 -13 75.5 -38t42.5 -54t16.5 -49.5t3.5 -38.5zM398 531q0 68 -47 104.5t-111 36.5q-24 0 -49 -6q-41 -10 -75 -42.5t-34 -93.5
q0 -54 37 -94.5t120 -40.5q81 0 120 42.5t39 93.5z" />
    <glyph glyph-name="guillemotright" unicode="&#xbb;" horiz-adv-x="521" 
d="M465 286l-200 -173v58l135 141l-135 142v58l200 -173v-53zM255 285l-202 -173v56l137 144l-137 145v57l202 -173v-56z" />
    <glyph glyph-name="onequarter" unicode="&#xbc;" horiz-adv-x="1083" 
d="M1028 113h-93v-113h-46v113h-269v39l267 280h48v-277h93v-42zM750 688l-399 -688h-53l400 688h52zM290 258h-47v331q-43 -26 -96 -26q-3 0 -9 0.5t-8 0.5v40q62 0 87.5 19.5t39.5 65.5h33v-431zM889 155v222l-211 -222h211z" />
    <glyph glyph-name="onehalf" unicode="&#xbd;" horiz-adv-x="1083" 
d="M1027 0h-370v46q197 89 253 136q63 52 63 109q0 41 -32.5 73t-96.5 32q-61 0 -101.5 -31.5t-40.5 -95.5l-47 7q10 57 25 82q47 78 159 80q89 1 136.5 -44.5t46.5 -102.5q0 -33 -14.5 -62t-35.5 -51.5t-61 -47.5t-77 -43t-97 -46h290v-41zM730 688l-399 -688h-54l400 688
h53zM290 258h-47v331q-43 -26 -96 -26q-3 0 -9 0.5t-8 0.5v40q62 0 87.5 19.5t39.5 65.5h33v-431z" />
    <glyph glyph-name="threequarters" unicode="&#xbe;" horiz-adv-x="1083" 
d="M1028 113h-93v-113h-46v113h-269v39l267 280h48v-277h93v-42zM794 688l-398 -688h-54l400 688h52zM434 389q0 -60 -50.5 -99.5t-141.5 -39.5q-120 0 -177 83q-13 19 -18 35l43 14q0 -1 3 -7t7.5 -14t9.5 -14q42 -55 135 -55q66 0 103 27t37 68q0 25 -14 41q-27 34 -98 34
h-79v40h60q73 0 99 31q15 19 15 41q0 43 -39.5 60.5t-81.5 17.5q-86 0 -121 -45q-7 -9 -12.5 -21.5t-7.5 -21t-2 -10.5l-44 15q12 36 26 56q49 67 161 67q109 0 151 -62q17 -26 17 -57q0 -58 -66 -85q28 -9 37 -15q48 -32 48 -84zM889 155v222l-211 -222h211z" />
    <glyph glyph-name="questiondown" unicode="&#xbf;" 
d="M402 608h-76v98h76v-98zM628 201q-18 -49 -33 -76q-80 -141 -266 -141q-157 0 -232 91q-46 56 -46 132q0 81 48 138q42 47 136 74q71 19 85 35q12 13 13 56h62q-1 -48 -5 -62q-5 -24 -22.5 -40t-36 -23t-44.5 -14q-6 -1 -9 -2q-71 -24 -87 -32q-74 -40 -74 -127
q0 -49 23 -85q22 -33 70.5 -57.5t120.5 -24.5q71 0 120.5 28t74.5 61q19 26 43 91z" />
    <glyph glyph-name="Agrave" unicode="&#xc0;" horiz-adv-x="792" 
d="M433 774h-48l-149 126h111zM786 0h-73l-91 183h-455l-90 -183h-71l348 706h76zM594 239l-202 404l-198 -404h400z" />
    <glyph glyph-name="Aacute" unicode="&#xc1;" horiz-adv-x="792" 
d="M554 900l-151 -126h-45l84 126h112zM786 0h-73l-91 183h-455l-90 -183h-71l348 706h76zM594 239l-202 404l-198 -404h400z" />
    <glyph glyph-name="Acircumflex" unicode="&#xc2;" horiz-adv-x="792" 
d="M546 774h-64l-85 77l-89 -77h-63l114 126h79zM786 0h-73l-91 183h-455l-90 -183h-71l348 706h76zM594 239l-202 404l-198 -404h400z" />
    <glyph glyph-name="Atilde" unicode="&#xc3;" horiz-adv-x="792" 
d="M604 873q-26 -41 -54 -61.5t-71 -20.5q-15 0 -32.5 3t-29.5 6.5t-33.5 10t-30.5 9.5q-48 12 -63 12q-23 0 -38 -9.5t-35 -31.5l-27 18q4 4 11 12.5t10 12.5q48 48 105 48q33 0 109 -19q58 -18 79 -18q45 0 68 40zM786 0h-73l-91 183h-455l-90 -183h-71l348 706h76z
M594 239l-202 404l-198 -404h400z" />
    <glyph glyph-name="Adieresis" unicode="&#xc4;" horiz-adv-x="792" 
d="M589 798h-71v96h71v-96zM266 798h-71v96h71v-96zM786 0h-73l-91 183h-455l-90 -183h-70l347 706h76zM593 239l-201 406l-197 -406h398z" />
    <glyph glyph-name="Aring" unicode="&#xc5;" horiz-adv-x="792" 
d="M504 831q0 -20 -10 -40q-27 -49 -102 -49q-31 0 -56 9q-59 22 -59 77q0 19 10 36q12 20 36.5 32t39 14.5t24.5 2.5q58 3 87.5 -22.5t29.5 -59.5zM786 0h-73l-91 183h-455l-90 -183h-70l347 706h76zM451 828q0 18 -15.5 31.5t-47.5 12.5q-30 -1 -44.5 -14t-14.5 -31
q0 -17 15.5 -29t45.5 -12q23 0 42 10t19 32zM593 239l-201 406l-198 -406h399z" />
    <glyph glyph-name="AE" unicode="&#xc6;" horiz-adv-x="1125" 
d="M1085 0h-568v174h-329l-124 -174h-76l506 706h577v-58h-487v-254h446v-60h-446v-275h501v-59zM518 642l-290 -412h290v412z" />
    <glyph glyph-name="Ccedilla" unicode="&#xc7;" horiz-adv-x="827" 
d="M807 191q-120 -209 -367 -209h-9v-42q94 -5 96 -67q3 -17 -10 -38q-28 -40 -108 -40q-25 0 -79 6v33q42 -4 61 -4q73 0 73 35q0 38 -70 38h-8v81q-86 9 -151 43q-96 51 -143.5 137t-50.5 176q-4 112 50 202t145.5 138t201.5 48q29 0 61 -3t102 -29t120 -74q25 -24 68 -88
l-60 -34q-26 44 -46 66q-86 99 -241 99q-143 0 -236.5 -90.5t-89.5 -233.5q3 -86 50.5 -160.5t138.5 -111.5q63 -25 134 -25q168 0 268 118q8 10 17.5 23.5t15 23t6.5 10.5z" />
    <glyph glyph-name="Egrave" unicode="&#xc8;" horiz-adv-x="833" 
d="M454 774h-48l-149 126h111zM788 0h-705v706h676v-58h-607v-248h561v-60h-561v-281h636v-59z" />
    <glyph glyph-name="Eacute" unicode="&#xc9;" horiz-adv-x="833" 
d="M574 900l-150 -126h-45l84 126h111zM788 0h-705v706h676v-58h-607v-248h561v-60h-561v-281h636v-59z" />
    <glyph glyph-name="Ecircumflex" unicode="&#xca;" horiz-adv-x="833" 
d="M567 774h-64l-85 77l-89 -77h-63l114 126h79zM788 0h-705v706h676v-58h-607v-248h561v-60h-561v-281h636v-59z" />
    <glyph glyph-name="Edieresis" unicode="&#xcb;" horiz-adv-x="833" 
d="M617 804h-73v96h73v-96zM294 804h-73v96h73v-96zM788 0h-705v706h676v-58h-607v-248h561v-60h-561v-281h636v-59z" />
    <glyph glyph-name="Igrave" unicode="&#xcc;" horiz-adv-x="229" 
d="M152 774h-48l-149 126h111zM149 0h-67v706h67v-706z" />
    <glyph glyph-name="Iacute" unicode="&#xcd;" horiz-adv-x="229" 
d="M272 900l-150 -126h-45l84 126h111zM149 0h-67v706h67v-706z" />
    <glyph glyph-name="Icircumflex" unicode="&#xce;" horiz-adv-x="229" 
d="M265 774h-64l-85 77l-89 -77h-63l114 126h79zM149 0h-67v706h67v-706z" />
    <glyph glyph-name="Idieresis" unicode="&#xcf;" horiz-adv-x="229" 
d="M315 804h-73v96h73v-96zM-8 804h-73v96h73v-96zM149 0h-67v706h67v-706z" />
    <glyph glyph-name="Eth" unicode="&#xd0;" horiz-adv-x="854" 
d="M805 351q0 -120 -56 -206q-22 -34 -48.5 -59.5t-57.5 -40.5t-58.5 -25t-63 -14t-59.5 -5t-59 -1h-320v356h-83v52h83v298h353q97 0 149 -18q60 -20 104.5 -58.5t69 -86.5t35.5 -95.5t11 -96.5zM734 347q0 17 -1 32.5t-10 57.5t-25.5 74.5t-53.5 67.5t-88 52t-120 17h-283
v-241h348v-51h-348v-297h225q142 0 208 28q148 64 148 260z" />
    <glyph glyph-name="Ntilde" unicode="&#xd1;" horiz-adv-x="896" 
d="M656 873q-26 -41 -54 -61.5t-71 -20.5q-15 0 -32.5 3t-29.5 6.5t-33.5 10t-30.5 9.5q-48 12 -63 12q-23 0 -38 -9.5t-35 -31.5l-27 18q4 4 11 12.5t10 12.5q48 48 105 48q33 0 109 -19q61 -18 80 -18q42 0 68 40zM814 0h-63l-605 616v-616h-63v706h63l605 -619v619h63
v-706z" />
    <glyph glyph-name="Ograve" unicode="&#xd2;" horiz-adv-x="917" 
d="M496 774h-48l-149 126h110zM876 355q0 -131 -81 -229q-40 -48 -91.5 -80t-102.5 -44.5t-83 -16.5t-62 -4q-25 0 -51 2t-73.5 13t-87.5 30t-83.5 57t-72.5 89q-46 82 -46 182q0 77 29 145q47 113 154 171.5t236 57.5q25 0 50 -2t70 -12t83.5 -27.5t81.5 -52.5t73 -83
q57 -91 57 -196zM799 359q0 44 -8 76q-29 127 -139 186q-96 51 -213 46q-119 -4 -201 -65q-45 -33 -83.5 -95.5t-38.5 -155.5q0 -64 23 -121q20 -51 56.5 -88.5t72 -56t78.5 -29.5t67.5 -13t46.5 -2q132 0 223 68q116 88 116 250z" />
    <glyph glyph-name="Oacute" unicode="&#xd3;" horiz-adv-x="917" 
d="M616 900l-150 -126h-46l85 126h111zM876 355q0 -131 -81 -229q-40 -48 -91.5 -80t-102.5 -44.5t-83 -16.5t-62 -4q-25 0 -51 2t-73.5 13t-87.5 30t-83.5 57t-72.5 89q-46 82 -46 182q0 77 29 145q47 113 154 171.5t236 57.5q25 0 50 -2t70 -12t83.5 -27.5t81.5 -52.5
t73 -83q57 -91 57 -196zM799 359q0 44 -8 76q-29 127 -139 186q-96 51 -213 46q-119 -4 -201 -65q-45 -33 -83.5 -95.5t-38.5 -155.5q0 -64 23 -121q20 -51 56.5 -88.5t72 -56t78.5 -29.5t67.5 -13t46.5 -2q132 0 223 68q116 88 116 250z" />
    <glyph glyph-name="Ocircumflex" unicode="&#xd4;" horiz-adv-x="917" 
d="M609 774h-65l-84 77l-89 -77h-64l115 126h79zM876 355q0 -131 -81 -229q-40 -48 -91.5 -80t-102.5 -44.5t-83 -16.5t-62 -4q-25 0 -51 2t-73.5 13t-87.5 30t-83.5 57t-72.5 89q-46 82 -46 182q0 77 29 145q47 113 154 171.5t236 57.5q25 0 50 -2t70 -12t83.5 -27.5
t81.5 -52.5t73 -83q57 -91 57 -196zM799 359q0 44 -8 76q-29 127 -139 186q-96 51 -213 46q-119 -4 -201 -65q-45 -33 -83.5 -95.5t-38.5 -155.5q0 -64 23 -121q20 -51 56.5 -88.5t72 -56t78.5 -29.5t67.5 -13t46.5 -2q132 0 223 68q116 88 116 250z" />
    <glyph glyph-name="Otilde" unicode="&#xd5;" horiz-adv-x="917" 
d="M667 873q-26 -41 -54.5 -61.5t-71.5 -20.5q-14 0 -32 3t-30 6.5t-33.5 10t-30.5 9.5q-48 12 -62 12q-23 0 -38 -9.5t-35 -31.5l-27 18q2 2 9 11t12 14q48 48 105 48q32 0 108 -19q61 -18 80 -18q42 0 68 40zM876 355q0 -131 -81 -229q-40 -48 -91.5 -80t-102.5 -44.5
t-83 -16.5t-62 -4q-25 0 -51 2t-73.5 13t-87.5 30t-83.5 57t-72.5 89q-46 82 -46 182q0 77 29 145q47 113 154 171.5t236 57.5q25 0 50 -2t70 -12t83.5 -27.5t81.5 -52.5t73 -83q57 -91 57 -196zM799 359q0 44 -8 76q-29 127 -139 186q-96 51 -213 46q-119 -4 -201 -65
q-45 -33 -83.5 -95.5t-38.5 -155.5q0 -64 23 -121q20 -51 56.5 -88.5t72 -56t78.5 -29.5t67.5 -13t46.5 -2q132 0 223 68q116 88 116 250z" />
    <glyph glyph-name="Odieresis" unicode="&#xd6;" horiz-adv-x="917" 
d="M657 798h-73v97h73v-97zM333 798h-72v97h72v-97zM876 355q0 -131 -81 -229q-40 -48 -91.5 -80t-102.5 -44.5t-83 -16.5t-62 -4q-25 0 -51 2t-73.5 13t-87.5 30t-83.5 57t-72.5 89q-46 82 -46 182q0 77 29 145q47 113 154 171.5t236 57.5q25 0 50 -2t70 -12t83.5 -27.5
t81.5 -52.5t73 -83q57 -91 57 -196zM799 359q0 44 -8 76q-29 127 -139 186q-96 51 -213 46q-119 -4 -201 -65q-45 -33 -83.5 -95.5t-38.5 -155.5q0 -64 23 -121q20 -51 56.5 -88.5t72 -56t78.5 -29.5t67.5 -13t46.5 -2q132 0 223 68q116 88 116 250z" />
    <glyph glyph-name="multiply" unicode="&#xd7;" horiz-adv-x="772" 
d="M621 471l-191 -177l188 -177l-46 -42l-188 177l-190 -174l-43 41l190 175l-186 176l46 42l186 -176l191 176z" />
    <glyph glyph-name="Oslash" unicode="&#xd8;" horiz-adv-x="917" 
d="M877 657l-89 -73q27 -29 46 -67q41 -77 41 -167q0 -142 -94 -244q-120 -130 -327 -130q-143 0 -251 68q-17 11 -39 30l-94 -76l-34 42l89 74q-19 22 -30 41q-54 87 -54 193q0 29 5.5 61.5t21 77t51 89t87.5 77.5q108 68 256 68q109 0 198 -40q33 -16 51 -28
q19 -13 38 -29l92 75zM699 583q-11 11 -37 26q-89 53 -208 53q-22 0 -44.5 -2t-61 -12t-71 -26.5t-68 -49.5t-58.5 -77q-37 -68 -37 -146q0 -88 39 -157q10 -18 24 -37zM799 352q0 74 -27 134q-12 25 -35 57l-522 -427q20 -16 39 -28q86 -52 208 -52q106 0 177 41t106 91
q54 78 54 184z" />
    <glyph glyph-name="Ugrave" unicode="&#xd9;" horiz-adv-x="875" 
d="M475 774h-48l-149 126h111zM794 283q0 -107 -42 -174q-52 -85 -177 -114q-60 -13 -131 -13q-101 0 -174 21q-131 37 -173 152q-18 49 -18 143v408h65v-380q0 -97 11 -135q10 -32 27 -56q64 -89 239 -89q118 0 182.5 24.5t96.5 79.5q18 31 24 70.5t6 112.5v373h64v-423z
" />
    <glyph glyph-name="Uacute" unicode="&#xda;" horiz-adv-x="875" 
d="M595 900l-150 -126h-45l84 126h111zM794 283q0 -107 -42 -174q-52 -85 -177 -114q-60 -13 -131 -13q-101 0 -174 21q-131 37 -173 152q-18 49 -18 143v408h65v-380q0 -97 11 -135q10 -32 27 -56q64 -89 239 -89q118 0 182.5 24.5t96.5 79.5q18 31 24 70.5t6 112.5v373h64
v-423z" />
    <glyph glyph-name="Ucircumflex" unicode="&#xdb;" horiz-adv-x="875" 
d="M588 774h-65l-84 77l-89 -77h-63l114 126h79zM794 283q0 -107 -42 -174q-52 -85 -177 -114q-60 -13 -131 -13q-101 0 -174 21q-131 37 -173 152q-18 49 -18 143v408h65v-380q0 -97 11 -135q10 -32 27 -56q64 -89 239 -89q118 0 182.5 24.5t96.5 79.5q18 31 24 70.5
t6 112.5v373h64v-423z" />
    <glyph glyph-name="Udieresis" unicode="&#xdc;" horiz-adv-x="875" 
d="M636 800h-72v96h72v-96zM313 800h-72v96h72v-96zM794 283q0 -107 -42 -174q-52 -85 -177 -114q-60 -13 -131 -13q-101 0 -174 21q-131 37 -173 152q-18 49 -18 143v408h65v-380q0 -97 11 -135q10 -32 27 -56q64 -89 239 -89q118 0 182.5 24.5t96.5 79.5q18 31 24 70.5
t6 112.5v373h64v-423z" />
    <glyph glyph-name="Yacute" unicode="&#xdd;" horiz-adv-x="729" 
d="M522 900l-150 -126h-45l84 126h111zM723 706l-320 -420v-286h-64v286l-333 420h84l281 -363l272 363h80z" />
    <glyph glyph-name="Thorn" unicode="&#xde;" horiz-adv-x="812" 
d="M794 368q0 -64 -33 -112q-27 -39 -72 -60t-76 -24t-78 -3h-383v-169h-70v706h70v-147h399q33 0 53.5 -1.5t52.5 -8.5t58 -25t46 -47q33 -47 33 -109zM721 366q0 43 -17 70q-21 37 -53.5 50.5t-92.5 13.5h-406v-273h358h36t37 3t43 8t35.5 17t34.5 29q25 32 25 82z" />
    <glyph glyph-name="germandbls" unicode="&#xdf;" 
d="M664 218q0 -82 -38 -141q-57 -88 -189 -88q-139 0 -177 104q-10 29 -10 71h64q6 -68 39 -94q32 -25 88 -25q74 0 114 46.5t40 121.5q0 103 -65 145q-29 19 -63 25q-48 9 -169 6v54q135 0 176 14q33 11 54.5 36t21.5 59q0 36 -26 62q-52 51 -176 51q-99 0 -153 -33
q-28 -18 -41 -42q-19 -36 -19 -91v-499h-63v503q0 48 8 79t34 61q53 60 161 76q50 5 74 5q95 0 161 -28q108 -45 108 -141q0 -77 -67 -115q-17 -9 -41 -16q41 -11 67 -27q87 -54 87 -179z" />
    <glyph glyph-name="agrave" unicode="&#xe0;" horiz-adv-x="667" 
d="M370 554h-43l-141 145h109zM666 0q-40 -4 -60 -4q-26 0 -42 8q-8 4 -15 10.5t-10.5 13t-6.5 14t-4.5 13t-2.5 11t-1 6.5q-31 -23 -54 -36q-90 -49 -208 -49q-136 0 -188 65q-33 39 -33 96q0 77 62 122q48 33 143 42.5t278 11.5q0 51 -17 75q-36 49 -187 49
q-102 0 -145 -23q-15 -8 -30 -24t-28 -55l-70 4q24 88 90 123q65 35 180 35q177 0 235 -64q33 -38 33 -109v-213q0 -33 7 -47q13 -27 74 -24v-51zM524 268q-187 -1 -267 -13q-99 -15 -130 -59q-15 -24 -15 -50q0 -37 26 -62q42 -38 132 -38q99 0 179 45q40 22 57 53
q20 36 18 124z" />
    <glyph glyph-name="aacute" unicode="&#xe1;" horiz-adv-x="667" 
d="M483 700l-144 -145h-43l78 145h109zM666 0q-40 -4 -60 -4q-26 0 -42 8q-8 4 -15 10.5t-10.5 13t-6.5 14t-4.5 13t-2.5 11t-1 6.5q-31 -23 -54 -36q-90 -49 -208 -49q-136 0 -188 65q-33 39 -33 96q0 77 62 122q48 33 143 42.5t278 11.5q0 51 -17 75q-36 49 -187 49
q-102 0 -145 -23q-15 -8 -30 -24t-28 -55l-70 4q24 88 90 123q65 35 180 35q177 0 235 -64q33 -38 33 -109v-213q0 -33 7 -47q13 -27 74 -24v-51zM524 268q-187 -1 -267 -13q-99 -15 -130 -59q-15 -24 -15 -50q0 -37 26 -62q42 -38 132 -38q99 0 179 45q40 22 57 53
q20 36 18 124z" />
    <glyph glyph-name="acircumflex" unicode="&#xe2;" horiz-adv-x="667" 
d="M467 549h-51l-82 85l-83 -85h-54l108 132h59zM666 0q-40 -4 -60 -4q-26 0 -42 8q-8 4 -15 10.5t-10.5 13t-6.5 14t-4.5 13t-2.5 11t-1 6.5q-31 -23 -54 -36q-90 -49 -208 -49q-136 0 -188 65q-33 39 -33 96q0 77 62 122q48 33 143 42.5t278 11.5q0 51 -17 75
q-36 49 -187 49q-102 0 -145 -23q-15 -8 -30 -24t-28 -55l-70 4q24 88 90 123q65 35 180 35q177 0 235 -64q33 -38 33 -109v-213q0 -33 7 -47q13 -27 74 -24v-51zM524 268q-187 -1 -267 -13q-99 -15 -130 -59q-15 -24 -15 -50q0 -37 26 -62q42 -38 132 -38q99 0 179 45
q40 22 57 53q20 36 18 124z" />
    <glyph glyph-name="atilde" unicode="&#xe3;" horiz-adv-x="667" 
d="M542 678q-52 -82 -125 -82q-12 0 -24 1.5t-26 5t-22.5 6t-25 8l-22.5 7.5q-42 14 -69 14q-39 0 -73 -41l-28 18q10 12 15 17q49 57 113 57q29 0 126 -27q52 -13 64 -13q37 0 66 41zM666 0q-40 -4 -60 -4q-26 0 -42 8q-8 4 -15 10.5t-10.5 13t-6.5 14t-4.5 13t-2.5 11
t-1 6.5q-31 -23 -54 -36q-90 -49 -208 -49q-136 0 -188 65q-33 39 -33 96q0 77 62 122q48 33 143 42.5t278 11.5q0 51 -17 75q-36 49 -187 49q-102 0 -145 -23q-15 -8 -30 -24t-28 -55l-70 4q24 88 90 123q65 35 180 35q177 0 235 -64q33 -38 33 -109v-213q0 -33 7 -47
q13 -27 74 -24v-51zM524 268q-187 -1 -267 -13q-99 -15 -130 -59q-15 -24 -15 -50q0 -37 26 -62q42 -38 132 -38q99 0 179 45q40 22 57 53q20 36 18 124z" />
    <glyph glyph-name="adieresis" unicode="&#xe4;" horiz-adv-x="667" 
d="M497 564h-69v95h69v-95zM232 564h-70v95h70v-95zM666 0q-40 -4 -60 -4q-26 0 -42 8q-8 4 -15 10.5t-10.5 13t-6.5 14t-4.5 13t-2.5 11t-1 6.5q-31 -23 -54 -36q-90 -49 -208 -49q-136 0 -188 65q-33 39 -33 96q0 77 62 122q48 33 143 42.5t278 11.5q0 51 -17 75
q-36 49 -187 49q-102 0 -145 -23q-15 -8 -30 -24t-28 -55l-70 4q24 88 90 123q65 35 180 35q177 0 235 -64q33 -38 33 -109v-213q0 -33 7 -47q13 -27 74 -24v-51zM524 268q-187 -1 -267 -13q-99 -15 -130 -59q-15 -24 -15 -50q0 -37 26 -62q42 -38 132 -38q99 0 179 45
q40 22 57 53q20 36 18 124z" />
    <glyph glyph-name="aring" unicode="&#xe5;" horiz-adv-x="667" 
d="M444 630q0 -44 -37 -65t-78 -21q-42 1 -77.5 21.5t-35.5 63.5t35 65t79 22q55 0 84.5 -25t29.5 -61zM666 0q-40 -4 -60 -4q-26 0 -42 8q-8 4 -15 10.5t-10.5 13t-6.5 14t-4.5 13t-2.5 11t-1 6.5q-31 -23 -54 -36q-90 -49 -208 -49q-136 0 -188 65q-33 39 -33 96
q0 77 62 122q48 33 143 42.5t278 11.5q0 51 -17 75q-36 49 -187 49q-102 0 -145 -23q-15 -8 -30 -24t-28 -55l-70 4q24 88 90 123q65 35 180 35q177 0 235 -64q33 -38 33 -109v-213q0 -33 7 -47q13 -27 74 -24v-51zM391 630q0 18 -16 31t-43 13q-12 0 -22 -2
q-23 -5 -33 -17.5t-9 -25.5q2 -41 61 -41q29 0 46 12t16 30zM524 268q-187 -1 -267 -13q-99 -15 -130 -59q-15 -24 -15 -50q0 -37 26 -62q42 -38 132 -38q99 0 179 45q40 22 57 53q20 36 18 124z" />
    <glyph glyph-name="ae" unicode="&#xe6;" horiz-adv-x="1146" 
d="M1103 136q-17 -35 -32 -52q-26 -33 -63.5 -54.5t-75 -30t-60 -11t-41.5 -2.5q-27 0 -57 3t-86.5 24t-90.5 59q-11 12 -26 39q-14 -36 -51 -64q-80 -61 -232 -61q-170 0 -223 81q-25 36 -25 85q0 65 44 101q27 22 76.5 33.5t77.5 12.5t83 1h219q-1 69 -19 95
q-39 58 -191 58q-92 0 -140 -26q-19 -9 -32 -24q-16 -18 -27 -54l-71 7q15 61 57 96q67 57 218 57q158 0 221 -52q21 -17 35 -48q10 15 15 20q28 31 83 55.5t131 24.5q86 0 157.5 -38.5t102.5 -112.5q19 -45 23 -113h-497q0 -54 19 -94q18 -37 49 -61t67 -32.5t55 -11
t38 -2.5q126 0 189 77q17 21 28 49zM1028 300q-6 38 -22 64q-23 38 -67 60t-69.5 25t-48.5 3q-57 0 -109 -22.5t-79 -65.5q-14 -23 -24 -64h419zM540 245h-254q-101 0 -140 -30q-31 -24 -31 -66q0 -51 39 -76q47 -31 144 -31q67 0 130 23t90 73q20 36 22 107z" />
    <glyph glyph-name="ccedilla" unicode="&#xe7;" horiz-adv-x="667" 
d="M648 168q-20 -34 -37 -55.5t-46 -49t-69.5 -45t-92.5 -25.5q-8 -1 -22.5 -2t-22.5 -2v-49q94 -5 97 -67q1 -37 -30.5 -57.5t-88.5 -20.5q-26 0 -78 6v33q40 -4 61 -4q72 0 72 35q0 38 -70 38h-7v86q-55 4 -94 17q-32 11 -60.5 28.5t-57 45.5t-45.5 72t-17 98
q0 66 28 118.5t73.5 83t98.5 46.5t108 16q163 0 257 -111q20 -23 33 -47l-66 -28q-37 60 -89 94.5t-136 34.5q-65 0 -113.5 -21.5t-73.5 -55.5t-36 -68t-10 -67q3 -97 71 -147.5t159 -50.5q18 0 40.5 2t72 21t80.5 52q12 13 22 28.5t16.5 28.5t6.5 14z" />
    <glyph glyph-name="egrave" unicode="&#xe8;" horiz-adv-x="667" 
d="M370 554h-43l-141 145h109zM627 135q-48 -65 -99 -98q-81 -50 -184 -50q-102 0 -180 52q-55 36 -86 94t-31 125q0 114 79 182q29 26 81.5 48t121.5 22q137 0 222 -87q34 -34 53 -77q17 -38 23 -106h-511q6 -92 73 -143.5t162 -51.5q129 0 204 97q7 10 20 30zM547 296
q-16 77 -84 121q-60 37 -139 37q-90 0 -146 -52q-26 -24 -44 -57q-11 -24 -16 -49h429z" />
    <glyph glyph-name="eacute" unicode="&#xe9;" horiz-adv-x="667" 
d="M483 700l-144 -145h-43l78 145h109zM627 135q-48 -65 -99 -98q-81 -50 -184 -50q-102 0 -180 52q-55 36 -86 94t-31 125q0 114 79 182q29 26 81.5 48t121.5 22q137 0 222 -87q34 -34 53 -77q17 -38 23 -106h-511q6 -92 73 -143.5t162 -51.5q129 0 204 97q7 10 20 30z
M547 296q-16 77 -84 121q-60 37 -139 37q-90 0 -146 -52q-26 -24 -44 -57q-11 -24 -16 -49h429z" />
    <glyph glyph-name="ecircumflex" unicode="&#xea;" horiz-adv-x="667" 
d="M467 549h-51l-82 85l-83 -85h-54l108 132h59zM627 135q-48 -65 -99 -98q-81 -50 -184 -50q-102 0 -180 52q-55 36 -86 94t-31 125q0 114 79 182q29 26 81.5 48t121.5 22q137 0 222 -87q34 -34 53 -77q17 -38 23 -106h-511q6 -92 73 -143.5t162 -51.5q129 0 204 97
q7 10 20 30zM547 296q-16 77 -84 121q-60 37 -139 37q-90 0 -146 -52q-26 -24 -44 -57q-11 -24 -16 -49h429z" />
    <glyph glyph-name="edieresis" unicode="&#xeb;" horiz-adv-x="667" 
d="M502 569h-69v96h69v-96zM237 569h-70v96h70v-96zM627 135q-48 -65 -99 -98q-81 -50 -184 -50q-102 0 -180 52q-55 36 -86 94t-31 125q0 114 79 182q29 26 81.5 48t121.5 22q137 0 222 -87q34 -34 53 -77q17 -38 23 -106h-511q6 -92 73 -143.5t162 -51.5q129 0 204 97
q7 10 20 30zM547 296q-16 77 -84 121q-60 37 -139 37q-90 0 -146 -52q-26 -24 -44 -57q-11 -24 -16 -49h429z" />
    <glyph glyph-name="igrave" unicode="&#xec;" horiz-adv-x="208" 
d="M141 554h-43l-142 145h110zM137 0h-66v494h66v-494z" />
    <glyph glyph-name="iacute" unicode="&#xed;" horiz-adv-x="208" 
d="M254 700l-144 -145h-43l78 145h109zM137 0h-66v494h66v-494z" />
    <glyph glyph-name="icircumflex" unicode="&#xee;" horiz-adv-x="208" 
d="M238 549h-51l-82 85l-83 -85h-54l108 132h59zM137 0h-66v494h66v-494z" />
    <glyph glyph-name="idieresis" unicode="&#xef;" horiz-adv-x="208" 
d="M273 569h-70v96h70v-96zM8 569h-70v96h70v-96zM137 0h-66v494h66v-494z" />
    <glyph glyph-name="eth" unicode="&#xf0;" 
d="M670 277q0 -137 -96 -219q-85 -73 -231 -71q-83 2 -145 27q-63 27 -108.5 86t-45.5 150q0 65 28 116.5t74 82t98.5 46t106.5 15.5q130 0 209 -79q-14 30 -22.5 47t-38 51.5t-70.5 66.5l-223 -47l-24 46l197 44q-41 30 -88 56l84 24q23 -15 50 -34q26 -20 38 -29l138 30
l25 -47l-115 -25q10 -8 46 -47q113 -128 113 -290zM590 246q0 70 -35.5 119t-89 70.5t-116.5 20.5q-40 -2 -77 -12q-79 -22 -117.5 -77t-36.5 -128q1 -35 13.5 -67t37.5 -62.5t72.5 -49t110.5 -18.5q97 0 167 51t71 153z" />
    <glyph glyph-name="ntilde" unicode="&#xf1;" 
d="M563 678q-52 -82 -125 -82q-15 0 -33 3t-27 5.5t-33 10.5t-28 9q-42 14 -68 14q-43 0 -73 -41l-28 18q10 12 15 17q49 57 113 57q29 0 126 -27q49 -13 64 -13q37 0 66 41zM638 0h-66v287q0 69 -40 108q-52 50 -172 50q-91 0 -152 -36q-36 -22 -53 -50q-18 -29 -18 -72
v-287h-66v494h66l1 -69q14 18 41 36q74 47 190 47q52 0 100 -11q112 -27 149 -106q20 -43 20 -118v-273z" />
    <glyph glyph-name="ograve" unicode="&#xf2;" 
d="M391 554h-43l-142 145h110zM664 243q0 -73 -41 -134q-34 -49 -101 -86t-170 -37q-42 0 -78 7q-126 23 -188 113q-43 63 -43 141q0 45 16 90q34 92 129 138q73 36 178 35q129 -4 206 -67q53 -44 72.5 -100t19.5 -100zM590 247q0 50 -19 89q-19 40 -52 67t-69 37t-59 13.5
t-42 2.5q-81 0 -145 -42q-86 -57 -86 -168q0 -73 40 -124q31 -41 83.5 -60.5t109.5 -19.5q127 0 193 75q46 53 46 130z" />
    <glyph glyph-name="oacute" unicode="&#xf3;" 
d="M504 700l-144 -145h-43l78 145h109zM664 243q0 -73 -41 -134q-34 -49 -101 -86t-170 -37q-42 0 -78 7q-126 23 -188 113q-43 63 -43 141q0 45 16 90q34 92 129 138q73 36 178 35q129 -4 206 -67q53 -44 72.5 -100t19.5 -100zM590 247q0 50 -19 89q-19 40 -52 67t-69 37
t-59 13.5t-42 2.5q-81 0 -145 -42q-86 -57 -86 -168q0 -73 40 -124q31 -41 83.5 -60.5t109.5 -19.5q127 0 193 75q46 53 46 130z" />
    <glyph glyph-name="ocircumflex" unicode="&#xf4;" 
d="M488 549h-51l-82 85l-83 -85h-54l108 132h59zM664 243q0 -73 -41 -134q-34 -49 -101 -86t-170 -37q-42 0 -78 7q-126 23 -188 113q-43 63 -43 141q0 45 16 90q34 92 129 138q73 36 178 35q129 -4 206 -67q53 -44 72.5 -100t19.5 -100zM590 247q0 50 -19 89q-19 40 -52 67
t-69 37t-59 13.5t-42 2.5q-81 0 -145 -42q-86 -57 -86 -168q0 -73 40 -124q31 -41 83.5 -60.5t109.5 -19.5q127 0 193 75q46 53 46 130z" />
    <glyph glyph-name="otilde" unicode="&#xf5;" 
d="M563 678q-52 -82 -125 -82q-15 0 -33 3t-27 5.5t-33 10.5t-28 9q-42 14 -68 14q-43 0 -73 -41l-28 18q10 12 15 17q49 57 113 57q29 0 126 -27q49 -13 64 -13q37 0 66 41zM664 243q0 -73 -41 -134q-34 -49 -101 -86t-170 -37q-42 0 -78 7q-126 23 -188 113
q-43 63 -43 141q0 45 16 90q34 92 129 138q73 36 178 35q129 -4 206 -67q53 -44 72.5 -100t19.5 -100zM590 247q0 50 -19 89q-19 40 -52 67t-69 37t-59 13.5t-42 2.5q-81 0 -145 -42q-86 -57 -86 -168q0 -73 40 -124q31 -41 83.5 -60.5t109.5 -19.5q127 0 193 75
q46 53 46 130z" />
    <glyph glyph-name="odieresis" unicode="&#xf6;" 
d="M520 563h-69v96h69v-96zM255 563h-70v96h70v-96zM664 243q0 -73 -41 -134q-34 -49 -101 -86t-170 -37q-42 0 -78 7q-126 23 -188 113q-43 63 -43 141q0 45 16 90q34 92 129 138q73 36 178 35q129 -4 206 -67q53 -44 72.5 -100t19.5 -100zM590 247q0 50 -19 89
q-19 40 -52 67t-69 37t-59 13.5t-42 2.5q-81 0 -145 -42q-86 -57 -86 -168q0 -73 40 -124q31 -41 83.5 -60.5t109.5 -19.5q127 0 193 75q46 53 46 130z" />
    <glyph glyph-name="divide" unicode="&#xf7;" horiz-adv-x="772" 
d="M427 395h-83v82h83v-82zM706 263h-640v60h640v-60zM428 106h-83v82h83v-82z" />
    <glyph glyph-name="oslash" unicode="&#xf8;" 
d="M660 247q0 -101 -76 -177q-34 -32 -93 -57.5t-140 -25.5q-85 0 -155 33q-20 9 -52 29l-77 -63l-34 40l71 60q-5 6 -13 18q-50 70 -49 147q0 62 30 118q39 72 114.5 107t164.5 35q90 0 156 -32q19 -9 41 -24l71 59l35 -39l-65 -55q9 -9 16 -19q18 -21 36.5 -62.5
t18.5 -91.5zM591 254q0 69 -48 128l-351 -293q14 -10 26 -16q58 -29 133 -29q102 0 169 56q71 59 71 154zM501 416q-12 8 -23 14q-50 25 -124 25q-45 0 -88 -13q-70 -21 -113 -72t-44 -123q0 -51 23 -93q7 -13 20 -28z" />
    <glyph glyph-name="ugrave" unicode="&#xf9;" 
d="M391 554h-43l-142 145h110zM637 0h-65v71q-30 -25 -46 -35q-82 -49 -198 -49q-189 0 -238 113q-19 42 -19 118v276h66v-270q0 -87 31 -123q46 -53 161 -53q64 0 130 19.5t95 62.5q18 27 18 70v294h65v-494z" />
    <glyph glyph-name="uacute" unicode="&#xfa;" 
d="M504 700l-144 -145h-43l78 145h109zM637 0h-65v71q-30 -25 -46 -35q-82 -49 -198 -49q-189 0 -238 113q-19 42 -19 118v276h66v-270q0 -87 31 -123q46 -53 161 -53q64 0 130 19.5t95 62.5q18 27 18 70v294h65v-494z" />
    <glyph glyph-name="ucircumflex" unicode="&#xfb;" 
d="M488 549h-51l-82 85l-83 -85h-54l108 132h59zM637 0h-65v71q-30 -25 -46 -35q-82 -49 -198 -49q-189 0 -238 113q-19 42 -19 118v276h66v-270q0 -87 31 -123q46 -53 161 -53q64 0 130 19.5t95 62.5q18 27 18 70v294h65v-494z" />
    <glyph glyph-name="udieresis" unicode="&#xfc;" 
d="M521 563h-69v96h69v-96zM256 563h-69v96h69v-96zM637 0h-65v71q-30 -25 -46 -35q-82 -49 -198 -49q-189 0 -238 113q-19 42 -19 118v276h66v-270q0 -87 31 -123q46 -53 161 -53q64 0 130 19.5t95 62.5q18 27 18 70v294h65v-494z" />
    <glyph glyph-name="yacute" unicode="&#xfd;" horiz-adv-x="562" 
d="M431 700l-144 -145h-43l78 145h109zM560 494l-233 -532q-16 -38 -24.5 -55t-21.5 -36t-29 -31q-43 -34 -139 -34q-49 0 -102 12v62q49 -17 97 -18q40 0 67.5 8t45 26.5t25.5 34t19 42.5l-265 521h79l221 -448l189 448h71z" />
    <glyph glyph-name="thorn" unicode="&#xfe;" 
d="M660 251q1 -125 -90 -194t-208 -69q-143 0 -224 88v-263h-64v893h64v-290q75 92 239 92q64 0 115 -18.5t81.5 -46t50.5 -63.5t28 -67.5t8 -61.5zM586 249q0 25 -6 50t-22.5 53t-40.5 49t-64.5 35t-91.5 13q-54 0 -102 -18q-120 -46 -120 -184q0 -65 21 -103
q20 -37 60.5 -60t76.5 -29.5t70 -5.5q92 2 155.5 54t63.5 146z" />
    <glyph glyph-name="ydieresis" unicode="&#xff;" horiz-adv-x="562" 
d="M450 569h-70v96h70v-96zM185 569h-70v96h70v-96zM560 494l-233 -532q-41 -97 -76 -123q-42 -33 -138 -33q-42 0 -102 12v62q54 -18 100 -18q42 0 69 10q34 12 51 35.5t34 65.5l-265 521h79l221 -448l189 448h71z" />
    <glyph glyph-name="OE" unicode="&#x152;" horiz-adv-x="1146" 
d="M1111 0h-515v23q-4 -2 -17 -7.5t-20 -8.5q-60 -23 -140 -23q-162 0 -267 100q-72 69 -98 167q-15 54 -15 105q0 118 64 211q17 25 40.5 48t61 49t91.5 41.5t116 15.5q54 0 91.5 -9t92.5 -32v26h500v-58h-431v-252h401v-59h-401v-278h446v-59zM596 83v534q-3 1 -13 7
t-16 8q-69 30 -149 30q-117 0 -199 -70q-43 -37 -68.5 -89.5t-31 -86t-5.5 -61.5q0 -41 11 -83q21 -88 86 -148q86 -79 222 -79q75 0 163 38z" />
    <glyph glyph-name="oe" unicode="&#x153;" horiz-adv-x="1188" 
d="M1146 135q-27 -36 -46 -55q-95 -92 -236 -92q-31 0 -64 5t-88.5 32t-91.5 74q-8 9 -19 29q-17 -27 -29 -40q-31 -37 -91.5 -68t-145.5 -31q-22 0 -47 3.5t-65 14t-79 37.5t-65 68q-39 60 -39 136q0 113 77 183q87 80 224 80q142 0 219 -85q17 -18 36 -48q13 23 22 33
q78 99 230 99q49 0 94 -12q124 -35 175 -141q17 -35 29 -116h-511q3 -32 6 -41q21 -75 85 -114.5t145 -39.5q83 0 145 43q34 22 59 55q10 13 18 29zM1066 296q-6 27 -15 45q-21 45 -72 79.5t-135 34.5q-122 0 -179 -89q-21 -33 -29 -70h430zM559 248q0 93 -64 150t-157 57
q-94 0 -158.5 -57t-64.5 -150q0 -91 59 -146q62 -57 163 -57q48 0 91 16q19 7 38 19t42 33.5t37 56.5t14 78z" />
    <glyph glyph-name="Scaron" unicode="&#x160;" horiz-adv-x="812" 
d="M560 900l-115 -126h-81l-107 126h65l85 -76l88 76h65zM764 210q0 -56 -33 -105q-85 -123 -312 -123q-19 0 -61 2q-181 12 -266 103q-25 26 -60 90l74 28q28 -71 84 -109q79 -52 224 -52q124 0 202 46q75 45 75 116q0 46 -33 74q-7 6 -17 11.5t-23 10t-24.5 8t-28 7t-27 6
t-28.5 5t-25 3.5l-24.5 3.5t-19.5 2.5q-20 3 -63 8.5t-65 8.5q-106 16 -142 35q-84 42 -84 131q0 49 28 90.5t73 66.5q86 48 224 48q173 0 283 -90q27 -23 48 -49l-64 -34q-11 14 -21 26q-85 86 -251 86q-113 0 -183 -41q-36 -21 -52 -50q-13 -23 -13 -50q0 -49 55 -76
q31 -15 131 -28q25 -4 71 -10t66 -9t53 -8.5t50.5 -9.5t38 -9.5t35.5 -12.5q49 -21 77 -60t28 -90z" />
    <glyph glyph-name="scaron" unicode="&#x161;" horiz-adv-x="625" 
d="M452 681l-108 -132h-60l-104 132h54l81 -85l82 85h55zM588 148q0 -71 -66 -115q-68 -45 -194 -45q-204 0 -272 87q-12 14 -18 27q-5 7 -8 20l72 16q5 -11 11 -20q20 -29 60 -46q60 -24 151 -24q106 0 160 36q37 28 37 63q0 20 -14 36q-15 17 -41.5 24t-80.5 10
q-36 3 -82.5 5t-72 3.5t-53 5t-45.5 10.5q-11 4 -22 11t-25.5 19.5t-23.5 34t-9 47.5q0 83 76 123q60 32 177 32q105 0 173 -26q32 -13 53 -30q28 -23 46 -60l-73 -15q-13 22 -21 29q-27 23 -80 33.5t-102 10.5q-118 0 -160 -43q-21 -21 -21 -48q3 -43 46 -57q25 -7 97 -10
q18 -1 57.5 -3t54 -3t42 -3.5t41.5 -5t31 -7.5t29 -11q70 -35 70 -111z" />
    <glyph glyph-name="Ydieresis" unicode="&#x178;" horiz-adv-x="729" 
d="M565 804h-73v96h73v-96zM242 804h-73v96h73v-96zM723 706l-320 -420v-286h-64v286l-333 420h84l281 -363l272 363h80z" />
    <glyph glyph-name="florin" unicode="&#x192;" horiz-adv-x="354" 
d="M387 696l-6 -58q-44 10 -84 10q-47 0 -66.5 -21.5t-25.5 -68.5l-9 -81h167l-6 -51h-167l-58 -521q-12 -93 -80 -122q-26 -11 -72 -11q-54 0 -94 10l6 58q42 -10 84 -10q48 0 67 21.5t25 68.5l56 506h-98l6 51h98l11 96q3 20 6.5 36t14 35t26 31.5t42.5 21.5t63 9
q54 0 94 -10z" />
    <glyph glyph-name="circumflex" unicode="&#x2c6;" horiz-adv-x="375" 
d="M323 549h-51l-82 85l-83 -85h-55l108 132h59z" />
    <glyph glyph-name="tilde" unicode="&#x2dc;" horiz-adv-x="375" 
d="M395 678q-52 -82 -125 -82q-15 0 -33 3t-27 5.5t-33 10.5t-28 9q-42 14 -68 14q-40 0 -74 -41l-27 18q10 12 15 17q49 57 113 57q29 0 126 -27q49 -13 64 -13q37 0 66 41z" />
    <glyph glyph-name="endash" unicode="&#x2013;" horiz-adv-x="610" 
d="M572 264h-534v60h534v-60z" />
    <glyph glyph-name="emdash" unicode="&#x2014;" horiz-adv-x="911" 
d="M873 264h-835v60h835v-60z" />
    <glyph glyph-name="quoteleft" unicode="&#x2018;" horiz-adv-x="271" 
d="M180 491h-84v127q0 89 79 94v-37q-42 -4 -42 -54v-25h47v-105z" />
    <glyph glyph-name="quoteright" unicode="&#x2019;" horiz-adv-x="271" 
d="M177 580q0 -88 -79 -93v36q42 4 42 54v25h-48v104h85v-126z" />
    <glyph glyph-name="quotesinglbase" unicode="&#x201a;" horiz-adv-x="271" 
d="M177 -22q0 -89 -79 -94v37q42 4 42 54v25h-48v104h85v-126z" />
    <glyph glyph-name="quotedblleft" unicode="&#x201c;" horiz-adv-x="417" 
d="M321 494h-85v119q0 101 80 101v-40q-14 0 -23 -6.5t-12 -21.5t-3.5 -22.5t-0.5 -25.5h44v-104zM182 494h-85v119q0 101 79 101v-40q-18 0 -27 -13t-10 -24t-1 -30v-9h44v-104z" />
    <glyph glyph-name="quotedblright" unicode="&#x201d;" horiz-adv-x="417" 
d="M320 588q0 -101 -80 -101v39q17 0 26.5 13t10.5 24.5t1 30.5v8h-43v104h85v-118zM180 588q0 -101 -79 -101v39q18 0 27 13t10 24t1 31v8h-44v104h85v-118z" />
    <glyph glyph-name="quotedblbase" unicode="&#x201e;" horiz-adv-x="417" 
d="M320 -14q0 -102 -80 -102v40q38 0 38 67v9h-43v104h85v-118zM180 -14q0 -102 -79 -102v40q38 1 38 67v9h-44v104h85v-118z" />
    <glyph glyph-name="dagger" unicode="&#x2020;" horiz-adv-x="542" 
d="M505 444h-204v-444h-60v444h-205v52h205v210h60v-210h204v-52z" />
    <glyph glyph-name="daggerdbl" unicode="&#x2021;" horiz-adv-x="542" 
d="M509 220h-208v-220h-60v220h-205v53h205v192h-208v53h208v188h60v-188h208v-53h-208v-192h208v-53z" />
    <glyph glyph-name="bullet" unicode="&#x2022;" horiz-adv-x="334" 
d="M278 244h-222v218h222v-218z" />
    <glyph glyph-name="ellipsis" unicode="&#x2026;" horiz-adv-x="1000" 
d="M872 80l-1 -80h-77l1 80h77zM538 0h-77v80h77v-80zM205 0h-77v80h77v-80z" />
    <glyph glyph-name="perthousand" unicode="&#x2030;" horiz-adv-x="1563" 
d="M1529 222q2 -93 -56 -160.5t-155 -67.5q-66 0 -111.5 32.5t-69.5 79.5q-26 48 -26 112q0 88 55 152.5t146 68.5q47 2 90 -17q64 -27 94.5 -82.5t32.5 -117.5zM1050 222q2 -93 -56.5 -160.5t-154.5 -67.5q-75 0 -123 41t-68 93q-16 39 -16 90q0 88 55 152.5t146 68.5
q45 1 90 -17q42 -18 70.5 -49.5t39 -65t14 -52.5t3.5 -33zM765 688l-399 -688h-53l399 688h53zM448 476q2 -94 -56.5 -161.5t-154.5 -67.5q-75 0 -123 41t-68 93q-16 41 -16 90q0 88 55 152.5t146 68.5q49 2 90 -16q42 -18 70.5 -49.5t39 -65t14 -52.5t3.5 -33zM1477 213
q0 55 -17 91q-41 90 -140 90q-43 0 -78 -18q-82 -42 -82 -159q0 -49 16 -86t41.5 -56t51 -28t50.5 -9q40 0 70 16q88 46 88 159zM998 213q0 73 -40 127t-117 54q-45 0 -78 -18q-82 -42 -82 -159q0 -49 16 -86t41.5 -56t51 -28t49.5 -9q37 0 66 14q93 44 93 161zM397 467
q0 75 -42.5 129.5t-121.5 51.5q-40 -2 -71 -18q-82 -44 -82 -160q0 -92 51 -135.5t107 -43.5q33 0 66 15q93 44 93 161z" />
    <glyph glyph-name="guilsinglleft" unicode="&#x2039;" horiz-adv-x="250" 
d="M225 110l-202 175v55l202 173v-56l-137 -145l137 -145v-57z" />
    <glyph glyph-name="guilsinglright" unicode="&#x203a;" horiz-adv-x="250" 
d="M224 286l-200 -173v58l135 141l-135 142v58l200 -173v-53z" />
    <glyph glyph-name="Euro" unicode="&#x20ac;" horiz-adv-x="840" 
d="M797 606l-37 -69q-84 124 -258 124q-129 0 -210.5 -59t-101.5 -166h521l-26 -53h-504q-1 -15 -1 -35v-24h475l-26 -53h-442q26 -109 108 -168t208 -59q82 0 155 29.5t117 79.5v-87q-114 -84 -279 -84q-197 0 -301 116q-65 72 -83 173h-82l29 53h46v24q0 1 0.5 13.5
t0.5 21.5h-76l28 53h54q27 134 130.5 210.5t257.5 76.5q192 0 297 -117z" />
    <glyph glyph-name="trademark" unicode="&#x2122;" horiz-adv-x="687" 
d="M615 374h-44l2 285l-89 -285h-42l-89 284l4 -284h-48v332h67l86 -272l85 272h68v-332zM281 665h-106v-291h-48v291h-108v41h262v-41z" />
    </font>
</defs>
</svg>
