<?xml version="1.0" standalone="no"?>
<!DOCTYPE svg PUBLIC "-//W3C//DTD SVG 1.1//EN" "http://www.w3.org/Graphics/SVG/1.1/DTD/svg11.dtd" >
<svg xmlns="http://www.w3.org/2000/svg" xmlns:xlink="http://www.w3.org/1999/xlink" version="1.1">
<metadata>
Created by FontForge 20170731 at Thu May 17 19:59:59 2007
 By Aleksey,,,
Copyright  2001, Berthold LLC. All rights reserved. Akzidenz-Grotesk is a trademark of Berthold Types Limited.
</metadata>
<defs>
<font id="AkzidenzGroteskBQ-LigCndIt" horiz-adv-x="229" >
  <font-face 
    font-family="Akzidenz-Grotesk BQ Light Conde"
    font-weight="300"
    font-style="italic"
    font-stretch="condensed"
    units-per-em="1000"
    panose-1="0 0 0 0 0 0 0 0 0 0"
    ascent="800"
    descent="-200"
    x-height="498"
    cap-height="706"
    bbox="-110 -250 834 881"
    underline-thickness="43"
    underline-position="-302"
    slope="-13"
    unicode-range="U+0020-2122"
  />
<missing-glyph horiz-adv-x="500" 
 />
    <glyph glyph-name=".notdef" horiz-adv-x="500" 
 />
    <glyph glyph-name=".null" horiz-adv-x="0" 
 />
    <glyph glyph-name="nonmarkingreturn" horiz-adv-x="333" 
 />
    <glyph glyph-name="space" unicode=" " horiz-adv-x="186" 
 />
    <glyph glyph-name="exclam" unicode="!" horiz-adv-x="184" 
d="M242 706l-92 -383l-44 -136h-28l26 143l90 376h48zM91 90l-21 -90h-45l21 90h45z" />
    <glyph glyph-name="quotedbl" unicode="&#x22;" horiz-adv-x="272" 
d="M346 740l-85 -288h-21l48 288h58zM211 740l-85 -288h-21l48 288h58z" />
    <glyph glyph-name="numbersign" unicode="#" horiz-adv-x="514" 
d="M542 456l-9 -41h-141l-35 -112h137l-9 -40h-141l-85 -263h-42l85 263h-100l-84 -263h-42l83 263h-134l9 40h138l35 112h-133l10 41h136l78 250h43l-77 -250h99l80 250h40l-77 -250h136zM349 415h-98l-36 -112h99z" />
    <glyph glyph-name="dollar" unicode="$" horiz-adv-x="391" 
d="M330 752l-11 -49q87 -17 87 -95q0 -26 -14 -81h-49l9 35q5 20 5 37q0 64 -74 64q-50 0 -76 -36q-14 -18 -23.5 -50.5t-9.5 -60.5q0 -20 7 -41q7 -17 16 -30q16 -21 49 -59q38 -42 52 -62q34 -50 34 -102q0 -35 -14 -81t-34 -76q-41 -63 -136 -63l-17 -71h-34l17 72
q-106 22 -106 118q0 18 14 81l5 23h48l-7 -30q-12 -49 -12 -73q0 -37 25.5 -58t71.5 -21q62 0 89 38q16 23 28.5 64t12.5 71q0 28 -11 52q-15 29 -70 90q-38 42 -52 62q-27 40 -27 85q0 25 9 59q16 68 53 104q38 36 101 37l11 47h33z" />
    <glyph glyph-name="percent" unicode="%" horiz-adv-x="583" 
d="M584 374q0 -17 -8 -52l-48 -200q-16 -64 -34 -90q-24 -35 -75 -35q-39 0 -61.5 19.5t-22.5 52.5q0 19 8 52l48 200q1 5 4.5 18.5t5.5 19.5q10 33 24 53q25 34 75 34q39 0 61.5 -19t22.5 -53zM614 771l-567 -841l-25 14l568 843zM296 637q0 -19 -8 -52l-48 -200
q-14 -61 -34 -90q-24 -35 -75 -35q-38 0 -60.5 19.5t-22.5 52.5q0 19 8 52l48 199q7 31 10 39q7 30 24 53q23 34 74 34q39 0 61.5 -19t22.5 -53zM546 367q0 20 -13.5 31.5t-36.5 11.5q-22 0 -35 -12q-15 -12 -29 -71l-52 -206q-7 -28 -7 -44q0 -44 50 -44q21 0 35 12
q15 14 29 71l51 206q8 32 8 45zM259 629q0 44 -50 44q-23 0 -35 -12q-16 -14 -30 -71l-51 -206q-7 -28 -7 -45q0 -43 49 -43q23 0 35 12q16 13 30 71l51 206q8 34 8 44z" />
    <glyph glyph-name="ampersand" unicode="&#x26;" horiz-adv-x="432" 
d="M434 342q-2 -8 -4.5 -19t-4 -18t-2.5 -12q-19 -79 -48 -133q-31 -61 -70 -98q23 -24 62 -24q13 0 22 1l-10 -41h-12q-38 0 -56.5 6.5t-40.5 27.5q-54 -41 -121 -41q-60 0 -94.5 34.5t-34.5 93.5q0 51 28 95q13 23 30 40q32 35 88 78q-7 45 -7 77q0 93 34 147t93 54
q35 0 55 -19.5t20 -53.5q0 -31 -21 -72q-19 -34 -53 -72q-39 -41 -74 -70q10 -62 28 -121q20 -70 42 -108q37 36 66 99q5 11 17 48q10 28 24 101h44zM318 533q0 18 -10.5 29t-29.5 11q-35 0 -54.5 -43t-19.5 -120q0 -23 2 -40q18 16 20 18q46 43 65 74q27 43 27 71zM249 65
q-46 73 -75 222q-32 -27 -56 -52q-52 -55 -52 -110q0 -44 23.5 -68.5t65.5 -24.5t94 33z" />
    <glyph glyph-name="quotesingle" unicode="'" horiz-adv-x="137" 
d="M211 740l-85 -288h-21l48 288h58z" />
    <glyph glyph-name="parenleft" unicode="(" 
d="M328 711l-13 -57q-51 -48 -80.5 -87.5t-62.5 -104.5q-43 -84 -63 -164q-17 -74 -17 -162q0 -122 51 -224l-15 -57q-44 72 -60 127q-23 77 -23 171q0 176 93 340q52 90 120 158q19 19 70 60z" />
    <glyph glyph-name="parenright" unicode=")" 
d="M204 412q0 -177 -94 -340q-51 -90 -120 -158q-20 -20 -70 -60l14 57q51 48 80.5 87.5t62.5 104.5q41 80 62 164q18 79 18 162q0 121 -51 224l14 57q44 -71 61 -127q23 -77 23 -171z" />
    <glyph glyph-name="asterisk" unicode="*" horiz-adv-x="305" 
d="M357 581l-100 -14l39 -91l-36 -16l-40 90l-68 -66l-26 30l69 68l-82 46l19 34l84 -44l21 94l39 -9l-21 -96l97 11z" />
    <glyph glyph-name="plus" unicode="+" horiz-adv-x="558" 
d="M496 316l-11 -41h-172l-42 -184h-44l41 184h-173l10 41h173l41 184h45l-41 -184h173z" />
    <glyph glyph-name="comma" unicode="," horiz-adv-x="146" 
d="M62 91l-21 -90q-10 -42 -23 -60.5t-43 -30.5l5 23q12 6 20 16q10 13 20 51h-24l21 91h45z" />
    <glyph glyph-name="hyphen" unicode="-" horiz-adv-x="248" 
d="M232 313l-10 -42h-177l10 42h177z" />
    <glyph glyph-name="period" unicode="." horiz-adv-x="146" 
d="M61 90l-21 -90h-44l21 90h44z" />
    <glyph glyph-name="slash" unicode="/" horiz-adv-x="313" 
d="M390 706l-361 -706h-46l362 706h45z" />
    <glyph glyph-name="zero" unicode="0" horiz-adv-x="354" 
d="M398 593q0 -28 -11 -74l-84 -362q-19 -82 -52 -115q-42 -45 -112 -45q-59 0 -94.5 31.5t-35.5 83.5q0 27 11 74l84 362q19 82 52 115q41 44 112 44q59 0 94.5 -31t35.5 -83zM349 584q0 38 -23 59t-64 21q-42 0 -69 -27q-14 -14 -20 -26q-11 -23 -23 -74l-77 -328
q-15 -64 -15 -88q0 -38 23 -59.5t64 -21.5q40 0 69 27q13 13 20 27q11 23 23 74l77 327q15 65 15 89z" />
    <glyph glyph-name="one" unicode="1" horiz-adv-x="354" 
d="M319 702l-162 -702h-47l141 613q-46 -44 -128 -52l11 44q46 8 84.5 34t57.5 63h43z" />
    <glyph glyph-name="two" unicode="2" horiz-adv-x="354" 
d="M377 607q0 -51 -26 -137q-16 -52 -34 -87q-36 -68 -135 -175l-43 -46q-12 -14 -34 -38.5t-23 -25.5q-33 -43 -41 -56h217l-10 -42h-263l12 52q5 10 14 25q25 39 85 103l22 23q65 69 105 120q31 40 49 74q23 42 40 104t17 101q0 30 -18 47t-49 17q-39 0 -59.5 -29
t-39.5 -111l-11 -48h-47l16 67q21 89 53.5 125.5t91.5 36.5q52 0 81.5 -26.5t29.5 -73.5z" />
    <glyph glyph-name="three" unicode="3" horiz-adv-x="354" 
d="M373 616q0 -64 -27 -137q-16 -41 -45 -64.5t-78 -35.5q47 -10 67 -35t20 -74q0 -27 -6 -60q-2 -14 -11 -47q-11 -43 -25 -77q-18 -44 -48 -65q-36 -27 -87 -27q-60 0 -93 29t-33 81q0 19 9 67q5 25 9 44h45q-19 -85 -19 -109q0 -33 21.5 -52.5t58.5 -19.5q75 0 102 81
q31 90 31 152q0 46 -27 65.5t-96 22.5l12 46h4q46 0 85 20.5t55 54.5q12 24 21 71q8 36 8 60q0 56 -64 56q-38 0 -57.5 -20t-31.5 -71l-17 -74h-45l18 77q14 58 32 83q35 49 109 49q49 0 76 -24t27 -67z" />
    <glyph glyph-name="four" unicode="4" horiz-adv-x="354" 
d="M370 701l-98 -434h82l-10 -42h-82l-52 -225h-48l52 225h-198l11 46l281 430h62zM309 636l-238 -369h153z" />
    <glyph glyph-name="five" unicode="5" horiz-adv-x="354" 
d="M405 703l-10 -43h-187l-49 -210q33 27 79 27q44 0 70 -25.5t26 -68.5q0 -23 -14 -89q-26 -114 -37 -156q-14 -52 -33 -82q-35 -60 -116 -60q-49 0 -80.5 25.5t-31.5 66.5q0 24 9 63l17 71h44l-13 -55q-11 -49 -11 -66q0 -63 68 -63q38 0 60.5 21t36.5 70q16 55 39 159
q15 65 15 87q0 59 -63 59q-40 0 -62 -21.5t-35 -74.5h-39l85 365h232z" />
    <glyph glyph-name="six" unicode="6" horiz-adv-x="354" 
d="M402 609q0 -20 -9 -63l-7 -31l-45 1l6 34q8 43 8 50q0 31 -21 48t-57 17q-48 0 -73 -28q-22 -26 -39 -103l-35 -153q40 43 104 43q45 0 73.5 -27t28.5 -70q0 -27 -9 -64l-26 -112q-13 -55 -25.5 -82t-35.5 -45q-41 -33 -100 -33q-119 0 -119 105q0 19 12 70l88 380
q16 70 35 101q39 61 124 61q58 0 90 -26t32 -73zM287 317q0 29 -18.5 46t-49.5 17q-43 0 -73.5 -30t-43.5 -85l-24 -104q-9 -37 -9 -59q0 -66 76 -66q45 0 69.5 25.5t38.5 86.5l27 118q7 28 7 51z" />
    <glyph glyph-name="seven" unicode="7" horiz-adv-x="354" 
d="M409 703l-11 -44q-113 -166 -180 -308q-49 -106 -72 -171q-11 -35 -13 -44q-16 -55 -34 -136h-52q10 42 11 47q38 158 105 297q53 108 112 201q25 40 76 114h-223l10 44h271z" />
    <glyph glyph-name="eight" unicode="8" horiz-adv-x="354" 
d="M393 622q0 -27 -7 -55l-15 -64q-6 -27 -6 -28q-9 -32 -28 -54q-24 -27 -65 -34q58 -19 58 -80q0 -20 -8 -55l-29 -125q-31 -135 -158 -135q-54 0 -86.5 26.5t-32.5 71.5q0 22 12 74l23 101q14 60 37 89t69 39q-4 3 -10 7l-9 6q-26 23 -26 63q0 14 5 36l18 78q14 62 40 89
q36 37 104 37q55 0 84.5 -22.5t29.5 -64.5zM346 610q0 27 -20 42t-57 15q-33 0 -55 -17t-35 -72l-17 -76q-5 -22 -5 -32q0 -27 19.5 -42.5t52.5 -15.5t58 18q15 11 23 27t16 51l15 64q5 20 5 38zM282 301q0 67 -81 67q-44 0 -67.5 -23.5t-36.5 -80.5l-25 -109q-9 -43 -9 -55
q0 -66 83 -66q41 0 65.5 25t37.5 81l28 120q5 19 5 41z" />
    <glyph glyph-name="nine" unicode="9" horiz-adv-x="354" 
d="M391 603q0 -18 -12 -70l-88 -380q-16 -70 -35 -100q-38 -61 -124 -61q-58 0 -90 25.5t-32 72.5q0 20 9 63l7 31h45q-13 -61 -13 -86q0 -30 20.5 -47t56.5 -17q49 0 73 29q21 24 39 102l35 153q-40 -43 -104 -43q-45 0 -73.5 27t-28.5 70q0 27 9 64l26 112q13 55 25.5 82
t35.5 46q40 32 100 32q119 0 119 -105zM343 597q0 66 -76 66q-45 0 -69.5 -25t-38.5 -86l-28 -119q-6 -24 -6 -51q0 -28 18.5 -45.5t49.5 -17.5q43 0 73.5 30.5t43.5 84.5l24 104q9 38 9 59z" />
    <glyph glyph-name="colon" unicode=":" horiz-adv-x="186" 
d="M185 454l-21 -90h-44l21 90h44zM101 90l-21 -90h-44l21 90h44z" />
    <glyph glyph-name="semicolon" unicode=";" horiz-adv-x="186" 
d="M185 454l-21 -90h-44l21 90h44zM102 91l-20 -90q-9 -42 -22.5 -60.5t-43.5 -30.5l5 23q13 8 20 16q11 13 19 51h-24l21 91h45z" />
    <glyph glyph-name="less" unicode="&#x3c;" horiz-adv-x="559" 
d="M499 509l-12 -54l-349 -165l274 -170l-9 -45l-317 194l11 45z" />
    <glyph glyph-name="equal" unicode="=" horiz-adv-x="559" 
d="M515 389l-9 -42h-390l10 42h389zM482 245l-10 -42h-389l9 42h390z" />
    <glyph glyph-name="greater" unicode="&#x3e;" horiz-adv-x="559" 
d="M495 315l-10 -46l-403 -194l13 54l348 165l-274 170l10 44z" />
    <glyph glyph-name="question" unicode="?" horiz-adv-x="347" 
d="M389 617q0 -67 -29 -151q-13 -36 -41 -70q-21 -27 -46 -52l-16 -16q-4 -4 -25 -28q-14 -16 -23 -52l-18 -74h-48l20 83q8 30 18 48.5t35 44.5q11 12 23.5 25t23.5 25q6 7 13.5 16t9.5 11q17 21 26 42q7 15 15 49q15 69 15 96q0 63 -63 63q-41 0 -63 -34q-15 -25 -47 -149
l-3 -12h-47q22 130 58.5 183.5t103.5 53.5q49 0 78.5 -27.5t29.5 -74.5zM171 90l-21 -90h-48l21 90h48z" />
    <glyph glyph-name="at" unicode="@" horiz-adv-x="878" 
d="M830 439q0 -107 -51 -209q-37 -71 -88.5 -114t-100.5 -43q-34 0 -54 21.5t-20 56.5q0 9 1 20q-66 -96 -153 -96q-56 0 -89 39.5t-33 106.5q0 113 66.5 203t149.5 90q84 0 114 -96q0 -1 1 -2.5t1 -2.5l20 78h46l-37 -144q-29 -109 -33 -145q-4 -22 -4 -34q0 -52 44 -52
q27 0 54 24q57 49 92 131t35 166q0 110 -67.5 174.5t-183.5 64.5q-176 0 -306.5 -136.5t-130.5 -320.5q0 -137 91.5 -221t239.5 -84q125 0 241 66q54 31 107 80l22 -26q-162 -156 -370 -156q-164 0 -266.5 94t-102.5 245q0 133 65 247.5t176 181.5t239 67q131 0 208 -73.5
t77 -200.5zM553 350v13q0 50 -25 82t-65 32q-67 0 -119.5 -77.5t-52.5 -175.5q0 -51 24 -81t65 -30q67 0 120 70t53 167z" />
    <glyph glyph-name="A" unicode="A" horiz-adv-x="375" 
d="M332 710l-39 -710h-48l13 215h-150l-88 -215h-52l296 710h68zM288 656l-161 -395h133z" />
    <glyph glyph-name="B" unicode="B" horiz-adv-x="371" 
d="M380 608q0 -23 -4 -42l-15 -71q-1 -11 -6 -24q-13 -43 -32 -62q-24 -22 -71 -26q37 -4 59 -30t22 -66q0 -28 -7 -56l-20 -84q-20 -86 -55 -116q-15 -12 -37 -20q-29 -11 -100 -11h-113l163 706h86q34 0 57 -3q37 -5 58 -36q15 -21 15 -59zM332 598q0 37 -18.5 51.5
t-64.5 14.5h-47l-61 -262h46q55 0 84 18q28 17 40 70l18 77q3 15 3 31zM284 279q0 80 -103 80h-49l-73 -316h65q64 0 92 19q15 11 24 29.5t19 61.5l19 84q6 24 6 42z" />
    <glyph glyph-name="C" unicode="C" horiz-adv-x="373" 
d="M409 611q0 -29 -11 -79l-14 -58h-48l13 58q11 50 11 71q0 31 -21.5 48.5t-59.5 17.5q-42 0 -65.5 -23.5t-36.5 -77.5l-82 -350l-8 -34q-9 -38 -9 -65q0 -39 22.5 -60.5t62.5 -21.5t62 19q16 13 25.5 35t20.5 73l14 65h48l-13 -59q-17 -78 -32 -108q-17 -32 -50 -50.5
t-76 -18.5q-62 0 -98 31.5t-36 84.5q0 33 17 104l81 346q19 82 50 115q38 39 103 39q62 0 96 -26.5t34 -75.5z" />
    <glyph glyph-name="D" unicode="D" horiz-adv-x="391" 
d="M398 561q0 -60 -20 -144l-33 -142q-28 -125 -50 -170q-27 -58 -72.5 -81.5t-128.5 -23.5h-93l163 706h58q53 0 87 -10q42 -12 65.5 -47.5t23.5 -87.5zM350 552q0 57 -31 83t-98 26h-21l-142 -617h42q53 0 84.5 11.5t50.5 39.5q16 24 29 59q13 34 35 129l31 135
q20 85 20 134z" />
    <glyph glyph-name="E" unicode="E" horiz-adv-x="330" 
d="M405 706l-10 -44h-195l-63 -272h163l-10 -43h-163l-70 -303h201l-10 -44h-249l163 706h243z" />
    <glyph glyph-name="F" unicode="F" horiz-adv-x="310" 
d="M407 706l-10 -44h-197l-63 -272h177l-10 -43h-177l-80 -347h-48l163 706h245z" />
    <glyph glyph-name="G" unicode="G" horiz-adv-x="392" 
d="M414 608q0 -26 -6 -50l-18 -79h-47l17 73q7 32 7 50q0 33 -22.5 52t-62.5 19q-37 0 -61 -19q-18 -13 -27 -35q-13 -27 -27 -89l-81 -353q-11 -45 -11 -67q0 -36 20 -56.5t54 -20.5q44 0 77.5 36t47.5 97l26 113h-104l10 43h153l-75 -322h-37l13 56q-25 -35 -51 -49.5
t-63 -14.5q-54 0 -86 30t-32 80q0 36 10 80l83 357q24 105 63 141q38 34 104 34q59 0 92.5 -28t33.5 -78z" />
    <glyph glyph-name="H" unicode="H" horiz-adv-x="396" 
d="M444 706l-162 -706h-48l80 350h-185l-80 -350h-48l163 706h48l-74 -314h185l73 314h48z" />
    <glyph glyph-name="I" unicode="I" horiz-adv-x="164" 
d="M212 706l-163 -706h-48l163 706h48z" />
    <glyph glyph-name="J" unicode="J" horiz-adv-x="328" 
d="M376 706l-131 -571q-17 -72 -39 -102q-30 -42 -98 -42q-47 0 -76 24.5t-29 65.5q0 19 8 56l20 86h48l-21 -92q-6 -25 -6 -41q0 -57 61 -57q37 0 56 24q14 17 29 84l130 565h48z" />
    <glyph glyph-name="K" unicode="K" horiz-adv-x="346" 
d="M437 706l-214 -284l65 -422h-49l-56 367l-74 -99l-62 -268h-48l163 706h49l-81 -347l249 347h58z" />
    <glyph glyph-name="L" unicode="L" horiz-adv-x="309" 
d="M242 44l-10 -44h-233l163 706h48l-152 -662h184z" />
    <glyph glyph-name="M" unicode="M" horiz-adv-x="494" 
d="M544 706l-156 -706h-47l154 663l-280 -663h-45l25 666l-149 -666h-49l169 706h72l-26 -621l260 621h72z" />
    <glyph glyph-name="N" unicode="N" horiz-adv-x="391" 
d="M444 706l-163 -706h-75l-13 655l-147 -655h-47l163 706h72l14 -675l148 675h48z" />
    <glyph glyph-name="O" unicode="O" horiz-adv-x="396" 
d="M418 601q0 -32 -10 -75l-88 -376q-19 -82 -51 -115q-43 -44 -113 -44q-59 0 -94 31t-35 83q0 32 10 75l88 376q19 83 51 115q41 44 113 44q59 0 94 -31t35 -83zM369 592q0 38 -22.5 59t-64.5 21q-41 0 -68 -27q-13 -13 -20 -27q-9 -17 -23 -74l-81 -341q-14 -61 -14 -89
q0 -38 23 -59t64 -21t68 27q13 13 20 26q9 17 23 74l81 342q14 61 14 89z" />
    <glyph glyph-name="P" unicode="P" horiz-adv-x="371" 
d="M406 595q0 -27 -5 -46l-19 -80q-19 -78 -47 -106q-19 -20 -48 -30q-33 -11 -64 -11h-101l-74 -322h-49l163 706h93q28 0 56 -2q45 -3 70 -30q25 -28 25 -79zM356 590q0 44 -20 59.5t-77 15.5h-58l-70 -302h67q70 0 96 21q10 9 19 23q13 27 21 62l17 73q5 22 5 48z" />
    <glyph glyph-name="Q" unicode="Q" horiz-adv-x="396" 
d="M418 601q0 -32 -10 -75l-88 -376q-13 -55 -27.5 -82.5t-42.5 -49.5l87 -90l-31 -29l-98 99q-27 -7 -53 -7q-59 0 -93.5 31t-34.5 83q0 32 10 75l88 376q19 83 51 115q41 44 113 44q59 0 94 -31t35 -83zM369 592q0 38 -22.5 59t-64.5 21q-41 0 -68 -27q-13 -13 -20 -27
q-9 -17 -23 -74l-81 -341q-14 -61 -14 -89q0 -38 23 -59t64 -21t68 27q13 13 20 26q9 17 23 74l81 342q14 61 14 89z" />
    <glyph glyph-name="R" unicode="R" horiz-adv-x="372" 
d="M409 608q0 -24 -6 -50l-16 -72q-11 -49 -21.5 -71.5t-29.5 -37.5q-33 -26 -83 -30l56 -347h-49l-56 344h-77l-79 -344h-49l163 706h111q49 0 72 -6.5t40 -23.5q24 -26 24 -68zM358 602q0 34 -21 49q-4 4 -14 8q-16 5 -56 5h-66l-64 -278h57q47 0 66.5 3.5t35.5 14.5
q26 18 41 88l16 73q5 20 5 37z" />
    <glyph glyph-name="S" unicode="S" horiz-adv-x="371" 
d="M401 623q0 -22 -11 -70l-12 -51h-48l15 63q7 28 7 44q0 34 -18 50t-57 16q-51 0 -76 -43q-13 -22 -22.5 -57t-9.5 -61q0 -43 35 -92l57 -80q33 -47 42 -74q10 -32 10 -64q0 -53 -17 -102t-44 -74q-44 -39 -110 -39q-62 0 -97 30t-35 82q0 27 13 82l11 48h49l-13 -57
q-1 -5 -2.5 -11t-2 -9.5t-1.5 -6t-1 -3.5q-5 -22 -5 -38q0 -36 23 -55.5t64 -19.5q53 0 80 31q17 20 28.5 59.5t11.5 79.5q0 53 -43 112l-59 80q-42 57 -42 122q0 49 19 98q20 54 55 78.5t89 24.5q56 0 86.5 -24.5t30.5 -68.5z" />
    <glyph glyph-name="T" unicode="T" horiz-adv-x="304" 
d="M400 706l-10 -44h-118l-153 -662h-50l153 662h-120l10 44h288z" />
    <glyph glyph-name="U" unicode="U" horiz-adv-x="390" 
d="M440 706l-129 -557q-16 -69 -35 -99q-34 -60 -123 -60q-61 0 -95 26.5t-34 74.5q0 27 11 76l125 539h48l-126 -547q-9 -38 -9 -62q0 -30 22 -46.5t62 -16.5q37 0 58 15q17 12 28 36t23 76l126 545h48z" />
    <glyph glyph-name="V" unicode="V" horiz-adv-x="350" 
d="M430 706l-291 -706h-51l43 706h51l-44 -602l242 602h50z" />
    <glyph glyph-name="W" unicode="W" horiz-adv-x="562" 
d="M652 706l-278 -706h-53l51 607l-233 -607h-51l43 706h50l-49 -616l235 616h52l-52 -611l232 611h53z" />
    <glyph glyph-name="X" unicode="X" horiz-adv-x="349" 
d="M416 706l-179 -319l39 -387h-48l-29 329l-177 -329h-52l215 391l-29 315h49l18 -260l139 260h54z" />
    <glyph glyph-name="Y" unicode="Y" horiz-adv-x="350" 
d="M448 706l-235 -394l-72 -312h-48l72 312l-48 394h51l36 -332l190 332h54z" />
    <glyph glyph-name="Z" unicode="Z" horiz-adv-x="349" 
d="M421 706l-8 -33l-370 -629h231l-10 -44h-290l7 32l372 631h-191l10 43h249z" />
    <glyph glyph-name="bracketleft" unicode="[" 
d="M326 706l-9 -36h-99l-178 -773h99l-9 -38h-142l196 847h142z" />
    <glyph glyph-name="backslash" unicode="\" horiz-adv-x="313" 
d="M234 0h-41l-63 706h40z" />
    <glyph glyph-name="bracketright" unicode="]" 
d="M264 707l-196 -846h-141l8 36h99l178 772h-99l9 38h142z" />
    <glyph glyph-name="asciicircum" unicode="^" horiz-adv-x="559" 
d="M518 354l-47 1l-93 306l-228 -304h-55l268 349h46z" />
    <glyph glyph-name="underscore" unicode="_" horiz-adv-x="500" 
d="M410 -198h-520l10 43h520z" />
    <glyph glyph-name="grave" unicode="`" 
d="M198 570h-33l-134 109h95z" />
    <glyph glyph-name="a" unicode="a" horiz-adv-x="311" 
d="M304 432q0 -23 -12 -73l-67 -286q-2 -16 -2 -17q0 -16 23 -16h7l-9 -40h-10q-41 0 -48 38q-39 -39 -93 -39q-44 0 -69.5 26.5t-25.5 72.5q0 65 34 108q14 17 25 26q27 21 85 45q10 4 20 8.5t14.5 6.5t5.5 2l20 10q24 12 39 23l10 41q9 36 9 55q0 43 -58 43
q-37 0 -55 -24.5t-31 -93.5h-43l3 11q3 11 6.5 29.5t5.5 24.5q12 44 38 68q28 25 86 25q42 0 67 -20t25 -54zM231 279q-16 -11 -64 -34l-30 -14q-58 -26 -77 -58q-19 -33 -19 -68q0 -66 57 -66q50 0 89 48z" />
    <glyph glyph-name="b" unicode="b" horiz-adv-x="327" 
d="M320 420q0 -19 -10 -65l-55 -239q-27 -120 -118 -120q-57 0 -86 46l-10 -42h-45l163 706h42l-56 -241q36 42 90 42q39 0 62 -23.5t23 -63.5zM277 411q0 28 -15 43t-42 15q-34 0 -59 -22q-15 -12 -21.5 -29t-18.5 -66l-47 -201q-8 -37 -8 -48q0 -31 20.5 -50t52.5 -19
q54 0 77 97l54 232q7 32 7 48z" />
    <glyph glyph-name="c" unicode="c" horiz-adv-x="307" 
d="M304 415q0 -29 -7 -55l-9 -35h-42l9 39q5 25 5 42q0 61 -64 61q-27 0 -45 -15q-11 -8 -20 -22q-10 -17 -19 -56l-50 -216q-9 -41 -9 -58q0 -63 66 -63q45 0 65 34q8 16 11 25q2 7 6 19l5 22l13 56h43l-14 -61q-18 -77 -47 -103q-33 -31 -87 -31q-49 0 -77 25t-28 69
q0 24 9 64l48 207q19 79 47.5 110t84.5 31q51 0 78.5 -23t27.5 -66z" />
    <glyph glyph-name="d" unicode="d" horiz-adv-x="330" 
d="M381 706l-163 -706h-40l7 31q-34 -35 -82 -35q-43 0 -68.5 23t-25.5 62q0 17 9 58l51 219q8 36 18 65q17 43 50 63q28 17 61 17q55 0 83 -47l58 250h42zM263 394q0 31 -18 50.5t-46 19.5q-30 0 -52 -20q-11 -11 -18 -25q-8 -17 -18 -61l-52 -227q-7 -30 -7 -42
q0 -56 65 -56q30 0 53.5 20t30.5 54l58 250q4 16 4 37z" />
    <glyph glyph-name="e" unicode="e" horiz-adv-x="311" 
d="M310 414q0 -24 -10 -67l-23 -101h-188l-26 -113q-6 -27 -6 -43q0 -27 17 -42.5t47 -15.5q39 0 59 26q13 16 27 73l9 39h43l-11 -47q-16 -70 -42 -97q-33 -33 -87 -33q-50 0 -77.5 23.5t-27.5 67.5q0 22 7 50l58 251q12 53 30 78q34 43 97 43q49 0 76.5 -24t27.5 -68z
M267 408q0 60 -65 60q-38 0 -58 -25q-14 -18 -27 -73l-20 -88h145l19 82q6 24 6 44z" />
    <glyph glyph-name="f" unicode="f" horiz-adv-x="179" 
d="M285 706l-9 -40q-20 3 -26 3q-27 0 -42 -18q-8 -11 -12 -21q-5 -15 -13 -51l-19 -81h65l-10 -41h-64l-105 -457h-43l105 457h-56l10 41h56l19 89q15 70 44 98q25 24 68 24q8 0 32 -3z" />
    <glyph glyph-name="g" unicode="g" horiz-adv-x="330" 
d="M333 498l-118 -509l-4 -18l-8 -29q-28 -100 -127 -100q-50 0 -78 23.5t-28 65.5q0 9 1 18h43q-1 -8 -1 -16q0 -51 67 -51q35 0 57 17q22 19 37 90l8 39q-32 -32 -82 -32q-41 0 -66 23.5t-25 61.5q0 17 9 58l51 220q10 41 18 64q17 43 50 63q28 17 61 17q30 0 49 -10.5
t34 -36.5l11 42h41zM263 395q0 30 -18 49.5t-46 19.5q-32 0 -52 -20q-10 -8 -18 -25q-7 -14 -18 -60l-52 -228q-7 -30 -7 -42q0 -56 65 -56q30 0 53.5 20t30.5 54l58 250q4 16 4 38z" />
    <glyph glyph-name="h" unicode="h" horiz-adv-x="333" 
d="M320 420q0 -28 -10 -69l-82 -351h-42l81 349q10 45 10 64q0 25 -16 40.5t-42 15.5q-33 0 -59 -28t-37 -77l-84 -364h-43l162 706h42l-59 -257q39 56 93 56q39 0 62.5 -23.5t23.5 -61.5z" />
    <glyph glyph-name="i" unicode="i" horiz-adv-x="143" 
d="M186 637l-18 -78h-43l18 78h43zM153 498l-114 -498h-43l114 498h43z" />
    <glyph glyph-name="j" unicode="j" horiz-adv-x="151" 
d="M193 637l-18 -78h-43l18 78h43zM161 498l-119 -515q-17 -75 -49 -104q-35 -33 -90 -42l10 43q38 9 56.5 31.5t29.5 72.5l119 514h43z" />
    <glyph glyph-name="k" unicode="k" horiz-adv-x="305" 
d="M339 499l-157 -195l62 -304h-44l-53 263l-65 -76l-43 -187h-43l163 706h42l-104 -448l193 241h49z" />
    <glyph glyph-name="l" unicode="l" horiz-adv-x="143" 
d="M201 706l-162 -706h-43l162 706h43z" />
    <glyph glyph-name="m" unicode="m" horiz-adv-x="522" 
d="M509 420q0 -28 -10 -69l-82 -351h-42l81 349q10 45 10 64q0 25 -16 40.5t-42 15.5q-32 0 -56 -24q-14 -14 -20 -26q-9 -16 -17 -48l-5 -20l-82 -351h-42l81 349q10 45 10 64q0 25 -16 40.5t-42 15.5q-33 0 -59 -28t-37 -77l-84 -364h-43l114 498h43l-11 -50q36 57 92 57
q62 0 83 -61q43 61 105 61q39 0 63 -23.5t24 -61.5z" />
    <glyph glyph-name="n" unicode="n" horiz-adv-x="333" 
d="M319 420q0 -31 -9 -68l-82 -352h-42l80 349q10 45 10 64q0 26 -15.5 41.5t-42.5 15.5q-33 0 -59 -28.5t-37 -76.5l-84 -365h-42l114 498h42l-11 -49q36 56 93 56q38 0 61.5 -23.5t23.5 -61.5z" />
    <glyph glyph-name="o" unicode="o" horiz-adv-x="313" 
d="M310 412q0 -21 -10 -67l-47 -212q-8 -36 -10 -41q-12 -42 -34 -65q-31 -34 -88 -34q-51 0 -81 25t-30 68q0 24 10 67l47 212q17 77 44 105q33 35 90 35q49 0 79 -25.5t30 -67.5zM265 403q0 29 -18.5 45t-51.5 16q-34 0 -54 -22q-19 -22 -34 -92l-44 -199q-8 -34 -8 -57
q0 -28 18.5 -44t51.5 -16q35 0 54 22q18 19 34 92l44 199q8 35 8 56z" />
    <glyph glyph-name="p" unicode="p" horiz-adv-x="330" 
d="M319 417q0 -17 -9 -58l-50 -219q-7 -29 -19 -64q-15 -41 -50 -63q-29 -18 -61 -18q-30 0 -48.5 10.5t-34.5 36.5l-47 -205h-42l152 661h40l-7 -31q33 36 83 36q43 0 68 -23t25 -63zM276 409q0 27 -17 42t-47 15q-31 0 -54.5 -20.5t-30.5 -54.5l-57 -250q-5 -18 -5 -37
q0 -31 18 -50t47 -19q30 0 51 19q10 10 18 26q8 15 18 60l53 227q6 27 6 42z" />
    <glyph glyph-name="q" unicode="q" horiz-adv-x="327" 
d="M333 498l-153 -661h-42l47 199q-38 -42 -90 -42q-39 0 -62 24t-23 64q0 23 10 64l54 237q27 120 118 120q58 0 86 -46l10 41h45zM262 396q0 31 -19.5 50t-50.5 19q-30 0 -49 -23.5t-30 -73.5l-53 -230q-7 -32 -7 -48q0 -58 57 -58q33 0 58 22q15 13 23 31t18 64l46 199
q7 32 7 48z" />
    <glyph glyph-name="r" unicode="r" horiz-adv-x="204" 
d="M259 510l-12 -54q-49 -4 -85.5 -42t-51.5 -102l-72 -312h-42l115 498h41l-20 -85q16 30 42 56q33 34 85 41z" />
    <glyph glyph-name="s" unicode="s" horiz-adv-x="288" 
d="M294 418q0 -15 -7 -45l-7 -32h-43l8 38q4 16 4 36q0 23 -15.5 36.5t-43.5 13.5q-33 0 -53 -23t-20 -62q0 -25 11 -45q1 -2 3.5 -6.5t4.5 -7.5q12 -17 59 -72q46 -54 46 -107q0 -67 -36.5 -107.5t-97.5 -40.5q-51 0 -81.5 27t-30.5 71q0 22 7 51l9 41h42l-6 -31
q-8 -44 -8 -53q0 -66 72 -66q41 0 63.5 28t22.5 78q0 37 -27 69l-66 80q-30 37 -30 83q0 60 33 96.5t88 36.5q47 0 73 -23t26 -64z" />
    <glyph glyph-name="t" unicode="t" horiz-adv-x="182" 
d="M232 498l-9 -40h-70l-88 -377q-3 -11 -3 -21q0 -22 36 -22q8 0 34 2l-9 -38q-28 -4 -43 -4q-64 0 -64 47q0 5 2 15l5 22l87 376h-56l10 40h55l31 135h43l-31 -135h70z" />
    <glyph glyph-name="u" unicode="u" horiz-adv-x="333" 
d="M342 498l-114 -498h-43l11 50q-36 -57 -93 -57q-38 0 -61.5 23.5t-23.5 61.5q0 28 10 69l81 351h43l-81 -349q-10 -44 -10 -64q0 -25 16 -40.5t42 -15.5q33 0 59 28.5t37 76.5l84 364h43z" />
    <glyph glyph-name="v" unicode="v" horiz-adv-x="269" 
d="M317 498l-211 -498h-49l20 498h44l-25 -432l175 432h46z" />
    <glyph glyph-name="w" unicode="w" horiz-adv-x="436" 
d="M489 498l-212 -498h-43l29 404l-167 -404h-44l26 498h43l-29 -421l176 421h35l-27 -416l169 416h44z" />
    <glyph glyph-name="x" unicode="x" horiz-adv-x="306" 
d="M335 498l-156 -238l49 -260h-46l-35 221l-135 -221h-49l168 261l-47 237h44l35 -199l123 199h49z" />
    <glyph glyph-name="y" unicode="y" horiz-adv-x="288" 
d="M341 498l-263 -556q-32 -68 -58 -86t-60 -18q-16 0 -47 5l9 38q25 -5 42 -5q25 0 43.5 19t40.5 66l19 42l9 495h42l-12 -414l190 414h45z" />
    <glyph glyph-name="z" unicode="z" horiz-adv-x="286" 
d="M305 498l-8 -34l-269 -422h173l-10 -42h-222l9 38l266 419h-159l10 41h210z" />
    <glyph glyph-name="braceleft" unicode="{" horiz-adv-x="212" 
d="M323 715l-8 -35h-22q-41 0 -58 -16q-13 -12 -19 -26q-9 -25 -18 -63l-37 -163q-14 -62 -34.5 -87.5t-65.5 -35.5q50 -22 50 -76q0 -21 -6 -47l-39 -169q-7 -31 -7 -34q-3 -14 -3 -26q0 -26 16.5 -36.5t60.5 -11.5l-8 -35h-9q-54 0 -79 19t-25 60q0 20 13 75l38 167
q6 24 6 42q0 26 -11 39.5t-38 20.5l7 29q32 5 44 14q30 20 43 80l34 147q18 76 28 101.5t31 42.5q31 25 89 25q14 0 27 -1z" />
    <glyph glyph-name="bar" unicode="|" 
d="M246 748l-230 -998h-42l229 998h43z" />
    <glyph glyph-name="braceright" unicode="}" horiz-adv-x="212" 
d="M217 638q0 -21 -13 -76l-38 -166q-5 -21 -5 -42q0 -26 11 -39.5t38 -21.5l-7 -29q-31 -4 -45 -14q-29 -21 -43 -80l-34 -147q-18 -75 -28 -101t-31 -43q-28 -24 -89 -24h-26l7 36q10 -1 23 -1q40 0 57 16q13 12 19 26q9 25 18 63l38 163q15 63 35 88t64 35q-50 22 -50 77
q0 16 7 46l38 169q3 14 8 34q3 13 3 26q0 26 -17 36.5t-61 11.5l8 35h9q54 0 79 -19t25 -59z" />
    <glyph glyph-name="asciitilde" unicode="~" horiz-adv-x="559" 
d="M515 312q-39 -35 -64 -49q-37 -20 -71 -20q-29 0 -83 27l-24 12q-41 21 -70 21q-22 0 -40 -9.5t-46 -37.5l-9 -9l-29 31q29 29 49 43q38 27 82 27q18 0 29 -4q16 -4 50 -20l42 -20q36 -17 53 -17q26 0 52 16q20 11 50 39z" />
    <glyph glyph-name="exclamdown" unicode="&#xa1;" horiz-adv-x="184" 
d="M213 706l-22 -90h-45l22 90h45zM159 519l-26 -143l-90 -376h-48l92 383l44 136h28z" />
    <glyph glyph-name="cent" unicode="&#xa2;" horiz-adv-x="330" 
d="M324 418q0 -26 -7 -58l-8 -35h-45l9 39q5 25 5 42q0 61 -64 61q-27 0 -46 -15q-24 -17 -38 -78l-50 -213q-9 -41 -9 -58q0 -62 66 -62q46 0 65 34q4 5 12 24q1 4 3 10t3 10v3q1 2 2.5 7.5t2.5 10.5l12 53h45l-14 -61q-18 -77 -47 -103q-33 -30 -88 -31l-17 -68h-30l16 71
q-79 18 -79 91q0 20 10 64l48 207q12 56 30 87q32 57 105 57h2l10 41h30l-10 -43q76 -13 76 -87z" />
    <glyph glyph-name="sterling" unicode="&#xa3;" horiz-adv-x="403" 
d="M417 486h-49l19 79q7 29 7 51q0 27 -17.5 42t-49.5 15q-59 0 -86 -56q-42 -86 -42 -171q0 -39 20 -90h130l-9 -37h-105q9 -32 9 -61q0 -52 -26 -102q-20 -36 -48.5 -61t-78.5 -48q6 -1 13 -1q2 0 25 -4q42 -7 98 -7q63 0 123 22l-12 -48q-47 -16 -117 -16q-26 0 -66 4
l-73 8q-14 2 -36 2q-31 0 -74 -7l12 50q69 11 108 34q47 27 75 72t28 94q0 31 -16 69h-116l9 37h91q-15 46 -15 89q0 51 21 118.5t48 101.5q39 48 114 48q53 0 82.5 -25t29.5 -69q0 -11 -10 -60z" />
    <glyph glyph-name="currency" unicode="&#xa4;" horiz-adv-x="619" 
d="M615 563l-73 -65q39 -58 39 -127q0 -118 -78 -205l60 -75l-37 -32l-59 74q-73 -49 -158 -49q-91 0 -156 61l-75 -67l-31 39l75 66q-3 4 -5.5 8t-4.5 8l-3 6q-28 52 -28 113q0 55 22 110q17 44 57 88l-61 77l38 30l59 -73q14 11 20 14q56 34 134 34q101 0 162 -61l73 64z
M534 366q0 85 -52 137.5t-135 52.5q-94 0 -155.5 -67t-61.5 -169q0 -85 50.5 -139.5t127.5 -54.5q96 0 161 69t65 171z" />
    <glyph glyph-name="yen" unicode="&#xa5;" horiz-adv-x="404" 
d="M118 0l66 280h-118l9 37h117l-5 45h-102l9 38h89l-36 306h50l32 -328l190 328h52l-182 -306h90l-9 -38h-102l-27 -45h118l-8 -37h-119l-65 -280h-49z" />
    <glyph glyph-name="brokenbar" unicode="&#xa6;" 
d="M246 748l-99 -432h-43l99 432h43zM116 182l-100 -432h-42l99 432h43z" />
    <glyph glyph-name="section" unicode="&#xa7;" horiz-adv-x="375" 
d="M412 625q0 -14 -8 -51l-11 -52h-44l12 56q4 22 4 31q0 65 -77 65q-63 0 -91 -52q-23 -46 -23 -93q0 -28 13.5 -48t51.5 -46q6 -5 21 -15t21 -15q23 -16 35 -31q28 -32 28 -73q0 -71 -69 -140q19 -30 19 -64q0 -27 -11 -64.5t-25 -61.5q-40 -66 -130 -66q-61 0 -96.5 27
t-35.5 74q0 22 8 55l10 44h45l-9 -39q-8 -34 -8 -58q0 -29 22.5 -45.5t63.5 -16.5q70 0 94 48q25 48 25 99q0 30 -17 51q-4 6 -15 15q-25 19 -52 37q-19 13 -36 25q-28 20 -41 41q-15 25 -15 56q0 71 83 126l3 2q-31 37 -31 77q0 74 44 135q40 57 122 57q120 0 120 -90z
M299 293q0 32 -17 52q-15 20 -75 59q-11 8 -29 22l-5 -4q-56 -44 -56 -96q0 -43 45 -74l59 -41l14 -11q2 -2 4 -3.5t3 -2.5t2 -1.5t2 -1.5l3.5 -3.5t4.5 -3.5q19 23 25 33q20 34 20 76z" />
    <glyph glyph-name="dieresis" unicode="&#xa8;" 
d="M197 662l-18 -77h-48l18 77h48zM98 662l-18 -77h-48l18 77h48z" />
    <glyph glyph-name="copyright" unicode="&#xa9;" horiz-adv-x="799" 
d="M791 351q0 -149 -104 -251.5t-253 -102.5t-252 104t-103 254q0 148 103.5 251t252.5 103t252.5 -102.5t103.5 -250.5v-5zM759 351q0 137 -93.5 231.5t-229.5 94.5t-230.5 -94.5t-94.5 -230.5q0 -134 95 -228.5t229 -94.5t229 94.5t95 227.5zM561 495q0 -23 -5 -46l-7 -35
h-45l9 41q4 20 4 41q0 46 -50 46q-33 0 -50 -24q-5 -8 -10 -19q-8 -25 -14 -51l-35 -155q-12 -51 -12 -75q0 -51 54 -51q32 0 47 26t31 104h46q-7 -28 -9 -40q-18 -74 -43 -102q-25 -30 -73 -30t-75.5 24t-27.5 66q0 29 14 88l32 132q3 15 9 36q11 41 22 60q31 52 99 52
q42 0 65.5 -23.5t23.5 -64.5z" />
    <glyph glyph-name="ordfeminine" unicode="&#xaa;" horiz-adv-x="275" 
d="M316 667q0 -15 -8 -49l-48 -206q-1 -5 -1 -12q0 -12 18 -12h7l-8 -32h-7q-37 0 -44 28q-32 -29 -73 -29q-36 0 -57 21.5t-21 58.5q0 43 24 73q23 29 87 52q30 11 33 13l6 3l10 4q14 7 31 17l7 28q5 21 5 33q0 35 -43 35q-28 0 -43 -19t-23 -64h-37l2 7q1 5 4 13
q15 57 28 70q3 3 7 6q25 19 65 19q79 0 79 -58zM257 560q-5 -3 -21 -11q-15 -8 -30 -14l-25 -10q-40 -16 -54 -34t-14 -53q0 -51 46 -51q36 0 66 33z" />
    <glyph glyph-name="guillemotleft" unicode="&#xab;" horiz-adv-x="375" 
d="M383 393l-146 -104l92 -96h-59l-96 100l145 100h64zM247 393l-146 -104l92 -96h-59l-96 100l145 100h64z" />
    <glyph glyph-name="logicalnot" unicode="&#xac;" horiz-adv-x="559" 
d="M502 315l-51 -226h-45l41 185h-365l11 41h409z" />
    <glyph glyph-name="registered" unicode="&#xae;" horiz-adv-x="799" 
d="M791 351q0 -149 -104 -251.5t-253 -102.5t-252 104t-103 254q0 148 103.5 251t252.5 103t252.5 -102.5t103.5 -250.5v-5zM759 351q0 137 -93.5 231.5t-229.5 94.5t-230.5 -94.5t-94.5 -230.5q0 -134 95 -228.5t229 -94.5t229 94.5t95 227.5zM572 472q0 -56 -27.5 -92.5
t-75.5 -43.5l54 -205h-53l-49 200h-39l-45 -200h-51l102 449h55q21 0 45 -2q33 -3 54 -21q30 -25 30 -85zM522 479q0 28 -12 40q-14 15 -61 15h-22l-35 -159h23q54 0 75 14q32 22 32 90z" />
    <glyph glyph-name="macron" unicode="&#xaf;" 
d="M221 632l-10 -42h-203l9 42h204z" />
    <glyph glyph-name="degree" unicode="&#xb0;" horiz-adv-x="354" 
d="M401 601q0 -59 -41.5 -100t-100.5 -41t-100.5 41.5t-41.5 100.5t41 100.5t99 41.5q61 0 102.5 -41.5t41.5 -101.5zM357 602q0 40 -28.5 68.5t-68.5 28.5q-41 0 -69.5 -28.5t-28.5 -69.5q0 -40 28.5 -68.5t69.5 -28.5q40 0 68.5 29t28.5 69z" />
    <glyph glyph-name="plusminus" unicode="&#xb1;" horiz-adv-x="559" 
d="M496 316l-11 -41h-173l-42 -183h-42l41 183h-174l10 41h174l41 184h43l-41 -184h174zM433 42l-10 -42h-390l9 42h391z" />
    <glyph glyph-name="twosuperior" unicode="&#xb2;" horiz-adv-x="241" 
d="M304 631q0 -54 -32 -112q-19 -35 -52 -72q-38 -42 -72 -75l-25 -23q-32 -29 -46 -50h148l-9 -35h-198l9 33q7 12 21 28q18 22 70 70q24 23 50 49q46 44 70 91q26 50 26 94q0 21 -12 33t-33 12q-27 0 -43 -21q-4 -7 -9 -18q-3 -6 -7 -20q0 -1 -1 -5t-3 -10.5t-4 -13.5
l-6 -21h-39l12 42q17 58 36 77q27 25 67 25q38 0 60 -21t22 -57z" />
    <glyph glyph-name="threesuperior" unicode="&#xb3;" horiz-adv-x="241" 
d="M289 637q0 -50 -25 -91q-24 -38 -75 -44q60 -11 60 -69q0 -52 -29 -115q-27 -58 -91 -58q-40 0 -62.5 20t-22.5 55q0 11 5 36q3 11 6 28h38q-11 -51 -11 -63q0 -40 48 -40q38 0 55 35q25 50 25 97q0 28 -18.5 41t-59.5 14l10 35h3q49 0 77.5 30.5t28.5 82.5q0 41 -39 41
q-21 0 -33 -13t-20 -44l-10 -38h-37l12 48q20 82 90 82q35 0 55 -18.5t20 -51.5z" />
    <glyph glyph-name="acute" unicode="&#xb4;" 
d="M209 676l-152 -109h-37l94 109h95z" />
    <glyph glyph-name="mu" unicode="&#xb5;" horiz-adv-x="343" 
d="M349 498l-93 -404q-6 -25 -6 -38q0 -18 21 -18h8l-9 -40h-10q-52 0 -52 52v1q-40 -58 -90 -58q-48 0 -67 42l-56 -250h-43l165 713h43l-80 -348q-10 -45 -10 -63q0 -25 16.5 -40t43.5 -15q32 0 56.5 27t35.5 75l84 364h43z" />
    <glyph glyph-name="paragraph" unicode="&#xb6;" horiz-adv-x="635" 
d="M615 706l-10 -43h-34l-192 -830h-46l192 830h-140l-191 -830h-46l112 486q-87 53 -87 163q0 82 46 143q36 47 101 68q42 13 112 13h183z" />
    <glyph glyph-name="periodcentered" unicode="&#xb7;" horiz-adv-x="146" 
d="M115 338l-21 -90h-44l21 90h44z" />
    <glyph glyph-name="cedilla" unicode="&#xb8;" 
d="M196 -88q0 -30 -20.5 -49.5t-52.5 -19.5q-40 0 -90 43l24 19q31 -26 56 -26q17 0 27 9t10 24q0 14 -9.5 23t-35.5 20l19 59h35l-12 -38q49 -24 49 -64z" />
    <glyph glyph-name="onesuperior" unicode="&#xb9;" horiz-adv-x="241" 
d="M256 706l-102 -441h-39l87 379q-28 -27 -80 -33l9 35q61 10 89 60h36z" />
    <glyph glyph-name="ordmasculine" unicode="&#xba;" horiz-adv-x="275" 
d="M315 659q0 -16 -7 -48l-37 -155q-13 -56 -34 -77q-28 -26 -74 -26q-41 0 -65.5 18.5t-24.5 49.5q0 15 8 47l36 155q13 55 35 76q27 27 75 27q40 0 64 -18.5t24 -48.5zM273 649q0 20 -14 31t-39 11q-27 0 -42 -15q-13 -15 -25 -66l-32 -141q-6 -30 -6 -39q0 -43 54 -43
q26 0 42 16q13 13 25 66l32 140q5 25 5 40z" />
    <glyph glyph-name="guillemotright" unicode="&#xbb;" horiz-adv-x="375" 
d="M357 292l-145 -99h-64l146 103l-92 96h59zM221 292l-145 -99h-64l146 103l-92 96h59z" />
    <glyph glyph-name="onequarter" unicode="&#xbc;" horiz-adv-x="583" 
d="M604 771l-568 -841l-24 14l568 843zM251 706l-102 -441h-39l87 379q-28 -27 -80 -33l9 35q61 10 89 60h36zM554 440l-63 -272h52l-8 -35h-53l-30 -133h-38l30 133h-135l9 37l178 270h58zM511 407l-156 -239h99z" />
    <glyph glyph-name="onehalf" unicode="&#xbd;" horiz-adv-x="583" 
d="M241 706l-102 -441h-39l87 379q-28 -27 -80 -33l9 35q62 10 88 60h37zM593 771l-567 -841l-25 14l568 843zM568 366q0 -52 -32 -111q-18 -35 -51 -73q-17 -19 -72 -74l-25 -24q-38 -38 -46 -49h147l-9 -35h-198l9 33q7 11 21 28q43 43 70 69q9 9 21 20.5t19 18t11 10.5
q46 46 69 92q27 51 27 93q0 22 -12 34t-33 12q-28 0 -43 -21q-5 -6 -10 -18q-1 -4 -3.5 -11t-3.5 -10q0 -1 -1 -4.5l-3 -10.5l-4 -14l-6 -20h-38l11 42q15 54 37 76q26 26 67 26q37 0 59 -21.5t22 -57.5z" />
    <glyph glyph-name="threequarters" unicode="&#xbe;" horiz-adv-x="583" 
d="M614 771l-567 -841l-25 14l568 843zM560 440l-62 -272h52l-8 -35h-53l-30 -133h-38l30 133h-135l9 37l178 270h57zM285 637q0 -50 -25 -91q-24 -38 -76 -44q60 -11 60 -69q0 -54 -28 -115q-27 -58 -92 -58q-40 0 -62.5 20t-22.5 55q0 6 6 36q3 11 6 28h38
q-11 -51 -11 -63q0 -40 48 -40q38 0 55 35q25 50 25 97q0 28 -18.5 41t-59.5 14l9 35h4q48 0 77 30.5t29 82.5q0 41 -39 41q-22 0 -33.5 -12.5t-19.5 -44.5l-10 -38h-37l12 48q20 82 90 82q35 0 55 -18.5t20 -51.5zM517 407l-155 -239h98z" />
    <glyph glyph-name="questiondown" unicode="&#xbf;" horiz-adv-x="347" 
d="M301 705l-22 -90h-48l22 90h48zM283 223q-22 -130 -58 -183t-103 -53q-50 0 -79.5 27t-29.5 74q0 65 30 151q14 37 40 71q25 30 46 51l16 16q2 2 11.5 13t13.5 15q15 19 23 52l18 74h48l-20 -83q-8 -30 -18 -48.5t-35 -44.5q-4 -4 -46 -50q-21 -23 -23 -26
q-17 -22 -27 -43q-7 -14 -15 -48q-15 -63 -15 -97q0 -63 64 -63q40 0 62 34q31 49 48 149l2 12h47z" />
    <glyph glyph-name="Agrave" unicode="&#xc0;" horiz-adv-x="375" 
d="M346 772h-33l-128 109h95zM332 710l-39 -710h-48l13 215h-150l-88 -215h-52l296 710h68zM288 656l-161 -395h133z" />
    <glyph glyph-name="Aacute" unicode="&#xc1;" horiz-adv-x="375" 
d="M451 878l-157 -109h-37l100 109h94zM332 710l-39 -710h-48l13 215h-150l-88 -215h-52l296 710h68zM288 656l-161 -395h133z" />
    <glyph glyph-name="Acircumflex" unicode="&#xc2;" horiz-adv-x="375" 
d="M400 770h-38l-38 68l-83 -69h-42l106 109h50zM332 710l-39 -710h-48l13 215h-150l-88 -215h-52l296 710h68zM288 656l-161 -395h133z" />
    <glyph glyph-name="Atilde" unicode="&#xc3;" horiz-adv-x="375" 
d="M417 835q-34 -58 -79 -58q-14 0 -43 14q-36 18 -48 18q-14 0 -34 -17l-9 -8l-13 15q24 28 41 39t37 11q19 0 49 -16q25 -14 40 -14q20 0 46 30zM332 710l-39 -710h-48l13 215h-150l-88 -215h-52l296 710h68zM288 656l-161 -395h133z" />
    <glyph glyph-name="Adieresis" unicode="&#xc4;" horiz-adv-x="375" 
d="M421 865l-18 -76h-52l18 76h52zM281 865l-18 -76h-52l18 76h52zM332 710l-39 -710h-48l13 215h-150l-88 -215h-52l296 710h68zM288 656l-161 -395h133z" />
    <glyph glyph-name="Aring" unicode="&#xc5;" horiz-adv-x="375" 
d="M377 814q0 -27 -19.5 -46.5t-45.5 -19.5q-29 0 -48 19t-19 47q0 27 19 46.5t47 19.5q27 0 46.5 -19.5t19.5 -46.5zM332 710l-39 -710h-48l13 215h-150l-88 -215h-52l296 710h68zM355 814q0 18 -13 31t-31 13t-31 -13t-13 -31q0 -19 12.5 -31.5t31.5 -12.5q18 0 31 12.5
t13 31.5zM288 656l-161 -395h133z" />
    <glyph glyph-name="AE" unicode="&#xc6;" horiz-adv-x="518" 
d="M579 706l-10 -44h-171l-62 -272h160l-10 -43h-160l-70 -303h208l-10 -44h-256l71 306h-108l-146 -306h-52l346 706h270zM352 663h-18l-153 -316h97z" />
    <glyph glyph-name="Ccedilla" unicode="&#xc7;" horiz-adv-x="373" 
d="M409 611q0 -29 -11 -79l-14 -58h-48l13 58q11 50 11 71q0 31 -21.5 48.5t-59.5 17.5q-42 0 -65.5 -23.5t-36.5 -77.5l-82 -350l-8 -34q-9 -38 -9 -65q0 -39 22.5 -60.5t62.5 -21.5t62 19q16 13 25.5 35t20.5 73l14 65h48l-13 -59q-17 -78 -32 -108q-17 -32 -50 -50.5
t-76 -18.5q-62 0 -98 31.5t-36 84.5q0 33 17 104l81 346q19 82 50 115q38 39 103 39q62 0 96 -26.5t34 -75.5zM200 -92q0 -29 -20.5 -48t-52.5 -19q-45 0 -95 43l24 19q31 -26 56 -26q16 0 26.5 9.5t10.5 23.5t-9.5 23t-35.5 20l19 59h35l-12 -38q54 -26 54 -66z" />
    <glyph glyph-name="Egrave" unicode="&#xc8;" horiz-adv-x="330" 
d="M322 772h-33l-127 109h94zM405 706l-10 -44h-195l-63 -272h163l-10 -43h-163l-70 -303h201l-10 -44h-249l163 706h243z" />
    <glyph glyph-name="Eacute" unicode="&#xc9;" horiz-adv-x="330" 
d="M445 878l-157 -109h-37l100 109h94zM405 706l-10 -44h-195l-63 -272h163l-10 -43h-163l-70 -303h201l-10 -44h-249l163 706h243z" />
    <glyph glyph-name="Ecircumflex" unicode="&#xca;" horiz-adv-x="330" 
d="M389 770h-38l-38 68l-84 -69h-42l107 109h50zM405 706l-10 -44h-195l-63 -272h163l-10 -43h-163l-70 -303h201l-10 -44h-249l163 706h243z" />
    <glyph glyph-name="Edieresis" unicode="&#xcb;" horiz-adv-x="330" 
d="M409 865l-18 -76h-52l18 76h52zM268 865l-17 -76h-52l17 76h52zM405 706l-10 -44h-195l-63 -272h163l-10 -43h-163l-70 -303h201l-10 -44h-249l163 706h243z" />
    <glyph glyph-name="Igrave" unicode="&#xcc;" horiz-adv-x="164" 
d="M244 772h-33l-127 109h94zM212 706l-163 -706h-48l163 706h48z" />
    <glyph glyph-name="Iacute" unicode="&#xcd;" horiz-adv-x="164" 
d="M347 878l-156 -109h-37l99 109h94zM212 706l-163 -706h-48l163 706h48z" />
    <glyph glyph-name="Icircumflex" unicode="&#xce;" horiz-adv-x="164" 
d="M290 770h-37l-39 68l-83 -69h-42l106 109h50zM212 706l-163 -706h-48l163 706h48z" />
    <glyph glyph-name="Idieresis" unicode="&#xcf;" horiz-adv-x="164" 
d="M317 865l-17 -76h-52l17 76h52zM177 865l-18 -76h-52l18 76h52zM212 706l-163 -706h-48l163 706h48z" />
    <glyph glyph-name="Eth" unicode="&#xd0;" horiz-adv-x="391" 
d="M398 561q0 -60 -20 -144l-33 -142q-28 -125 -50 -170q-27 -58 -72.5 -81.5t-128.5 -23.5h-93l85 369h-53l9 42h54l68 295h58q53 0 87 -10q42 -12 65.5 -47.5t23.5 -87.5zM350 552q0 57 -31 83t-98 26h-21l-58 -250h116l-9 -42h-116l-75 -325h42q53 0 84.5 11.5t50.5 39.5
q16 24 29 59q13 34 35 129l31 135q20 85 20 134z" />
    <glyph glyph-name="Ntilde" unicode="&#xd1;" horiz-adv-x="391" 
d="M440 835q-34 -58 -79 -58q-14 0 -42 14q-37 18 -49 18q-17 0 -34 -17l-8 -8l-14 15q25 29 41.5 39.5t36.5 10.5q21 0 49 -16q26 -14 40 -14q20 0 47 30zM444 706l-163 -706h-75l-13 655l-147 -655h-47l163 706h72l14 -675l148 675h48z" />
    <glyph glyph-name="Ograve" unicode="&#xd2;" horiz-adv-x="396" 
d="M350 772h-33l-128 109h95zM418 601q0 -32 -10 -75l-88 -376q-19 -82 -51 -115q-43 -44 -113 -44q-59 0 -94 31t-35 83q0 32 10 75l88 376q19 83 51 115q41 44 113 44q59 0 94 -31t35 -83zM369 592q0 38 -22.5 59t-64.5 21q-41 0 -68 -27q-13 -13 -20 -27q-9 -17 -23 -74
l-81 -341q-14 -61 -14 -89q0 -38 23 -59t64 -21t68 27q13 13 20 26q9 17 23 74l81 342q14 61 14 89z" />
    <glyph glyph-name="Oacute" unicode="&#xd3;" horiz-adv-x="396" 
d="M453 878l-157 -109h-37l100 109h94zM418 601q0 -32 -10 -75l-88 -376q-19 -82 -51 -115q-43 -44 -113 -44q-59 0 -94 31t-35 83q0 32 10 75l88 376q19 83 51 115q41 44 113 44q59 0 94 -31t35 -83zM369 592q0 38 -22.5 59t-64.5 21q-41 0 -68 -27q-13 -13 -20 -27
q-9 -17 -23 -74l-81 -341q-14 -61 -14 -89q0 -38 23 -59t64 -21t68 27q13 13 20 26q9 17 23 74l81 342q14 61 14 89z" />
    <glyph glyph-name="Ocircumflex" unicode="&#xd4;" horiz-adv-x="396" 
d="M404 770h-37l-38 68l-84 -69h-42l107 109h50zM418 601q0 -32 -10 -75l-88 -376q-19 -82 -51 -115q-43 -44 -113 -44q-59 0 -94 31t-35 83q0 32 10 75l88 376q19 83 51 115q41 44 113 44q59 0 94 -31t35 -83zM369 592q0 38 -22.5 59t-64.5 21q-41 0 -68 -27
q-13 -13 -20 -27q-9 -17 -23 -74l-81 -341q-14 -61 -14 -89q0 -38 23 -59t64 -21t68 27q13 13 20 26q9 17 23 74l81 342q14 61 14 89z" />
    <glyph glyph-name="Otilde" unicode="&#xd5;" horiz-adv-x="396" 
d="M429 835q-34 -58 -79 -58q-14 0 -43 14q-36 18 -48 18q-14 0 -34 -17l-9 -8l-13 15q24 28 41 39t37 11q19 0 49 -16q25 -14 40 -14q20 0 46 30zM418 601q0 -32 -10 -75l-88 -376q-19 -82 -51 -115q-43 -44 -113 -44q-59 0 -94 31t-35 83q0 32 10 75l88 376q19 83 51 115
q41 44 113 44q59 0 94 -31t35 -83zM369 592q0 38 -22.5 59t-64.5 21q-41 0 -68 -27q-13 -13 -20 -27q-9 -17 -23 -74l-81 -341q-14 -61 -14 -89q0 -38 23 -59t64 -21t68 27q13 13 20 26q9 17 23 74l81 342q14 61 14 89z" />
    <glyph glyph-name="Odieresis" unicode="&#xd6;" horiz-adv-x="396" 
d="M424 866l-17 -76h-52l17 76h52zM284 866l-17 -76h-52l17 76h52zM418 601q0 -32 -10 -75l-88 -376q-19 -82 -51 -115q-43 -44 -113 -44q-59 0 -94 31t-35 83q0 32 10 75l88 376q19 83 51 115q41 44 113 44q59 0 94 -31t35 -83zM369 592q0 38 -22.5 59t-64.5 21
q-41 0 -68 -27q-13 -13 -20 -27q-9 -17 -23 -74l-81 -341q-14 -61 -14 -89q0 -38 23 -59t64 -21t68 27q13 13 20 26q9 17 23 74l81 342q14 61 14 89z" />
    <glyph glyph-name="multiply" unicode="&#xd7;" horiz-adv-x="558" 
d="M473 430l-153 -139l87 -152l-36 -25l-84 147l-148 -136l-26 34l153 139l-82 144l35 26l80 -139l148 134z" />
    <glyph glyph-name="Oslash" unicode="&#xd8;" horiz-adv-x="396" 
d="M469 675l-51 -71v-8q0 -25 -10 -70l-88 -376q-19 -82 -51 -115q-43 -44 -113 -44q-96 0 -123 74l-37 -54l-24 16l54 77q1 33 11 76l88 376q19 83 51 115q41 44 113 44q94 0 121 -70l35 48zM369 587q0 41 -20 61q-23 24 -67 24q-41 0 -68 -27q-13 -13 -20 -27
q-10 -19 -23 -74l-85 -356zM361 522l-285 -397v-12q0 -37 23 -58t64 -21t68 27q13 13 20 26q11 21 23 74z" />
    <glyph glyph-name="Ugrave" unicode="&#xd9;" horiz-adv-x="390" 
d="M346 772h-33l-128 109h95zM440 706l-129 -557q-16 -69 -35 -99q-34 -60 -123 -60q-61 0 -95 26.5t-34 74.5q0 27 11 76l125 539h48l-126 -547q-9 -38 -9 -62q0 -30 22 -46.5t62 -16.5q37 0 58 15q17 12 28 36t23 76l126 545h48z" />
    <glyph glyph-name="Uacute" unicode="&#xda;" horiz-adv-x="390" 
d="M460 878l-157 -109h-37l100 109h94zM440 706l-129 -557q-16 -69 -35 -99q-34 -60 -123 -60q-61 0 -95 26.5t-34 74.5q0 27 11 76l125 539h48l-126 -547q-9 -38 -9 -62q0 -30 22 -46.5t62 -16.5q37 0 58 15q17 12 28 36t23 76l126 545h48z" />
    <glyph glyph-name="Ucircumflex" unicode="&#xdb;" horiz-adv-x="390" 
d="M403 770h-37l-39 68l-83 -69h-42l106 109h50zM440 706l-129 -557q-16 -69 -35 -99q-34 -60 -123 -60q-61 0 -95 26.5t-34 74.5q0 27 11 76l125 539h48l-126 -547q-9 -38 -9 -62q0 -30 22 -46.5t62 -16.5q37 0 58 15q17 12 28 36t23 76l126 545h48z" />
    <glyph glyph-name="Udieresis" unicode="&#xdc;" horiz-adv-x="390" 
d="M423 865l-17 -76h-52l17 76h52zM283 865l-18 -76h-51l17 76h52zM440 706l-129 -557q-16 -69 -35 -99q-34 -60 -123 -60q-61 0 -95 26.5t-34 74.5q0 27 11 76l125 539h48l-126 -547q-9 -38 -9 -62q0 -30 22 -46.5t62 -16.5q37 0 58 15q17 12 28 36t23 76l126 545h48z" />
    <glyph glyph-name="Yacute" unicode="&#xdd;" horiz-adv-x="350" 
d="M435 878l-157 -109h-37l100 109h94zM448 706l-235 -394l-72 -312h-48l72 312l-48 394h51l36 -332l190 332h54z" />
    <glyph glyph-name="Thorn" unicode="&#xde;" horiz-adv-x="371" 
d="M371 445q0 -27 -5 -47l-19 -80q-19 -78 -47 -106q-19 -20 -48 -30q-33 -10 -64 -10q-3 0 -16.5 -0.5t-24.5 -0.5h-59l-40 -171h-49l163 706h49l-34 -150h44q25 0 55 -2q45 -5 70 -31t25 -78zM321 439q0 44 -20 59.5t-77 15.5h-58l-70 -302h68q68 0 95 22q14 12 19 22
q13 24 21 62l17 73q5 23 5 48z" />
    <glyph glyph-name="germandbls" unicode="&#xdf;" horiz-adv-x="354" 
d="M373 634q0 -18 -5 -41l-12 -51q-11 -50 -31 -71q-23 -26 -66 -38q63 -19 63 -87q0 -27 -10 -70l-40 -171q-4 -20 -8 -32q-6 -23 -16 -42q-20 -39 -75 -39q-32 0 -50 14.5t-18 40.5q0 16 6 41l12 52h29l-13 -57q-3 -13 -3 -20q0 -33 38 -33q21 0 32.5 14t19.5 48l43 184
q9 36 9 61q0 29 -14 47q-16 20 -60 25l-9 1l10 43q42 1 67 19q18 13 26.5 27.5t15.5 46.5l10 45q4 20 4 30q0 53 -67 53q-38 0 -57.5 -22.5t-33.5 -83.5l-131 -568h-43l133 577q20 88 59 116q29 22 83 22q49 0 75.5 -21.5t26.5 -59.5z" />
    <glyph glyph-name="agrave" unicode="&#xe0;" horiz-adv-x="311" 
d="M264 569h-33l-134 109h95zM304 432q0 -23 -12 -73l-67 -286q-2 -16 -2 -17q0 -16 23 -16h7l-9 -40h-10q-41 0 -48 38q-39 -39 -93 -39q-44 0 -69.5 26.5t-25.5 72.5q0 65 34 108q14 17 25 26q27 21 85 45q10 4 20 8.5t14.5 6.5t5.5 2l20 10q24 12 39 23l10 41q9 36 9 55
q0 43 -58 43q-37 0 -55 -24.5t-31 -93.5h-43l3 11q3 11 6.5 29.5t5.5 24.5q12 44 38 68q28 25 86 25q42 0 67 -20t25 -54zM231 279q-16 -11 -64 -34l-30 -14q-58 -26 -77 -58q-19 -33 -19 -68q0 -66 57 -66q50 0 89 48z" />
    <glyph glyph-name="aacute" unicode="&#xe1;" horiz-adv-x="311" 
d="M372 676l-152 -109h-36l94 109h94zM304 432q0 -23 -12 -73l-67 -286q-2 -16 -2 -17q0 -16 23 -16h7l-9 -40h-10q-41 0 -48 38q-39 -39 -93 -39q-44 0 -69.5 26.5t-25.5 72.5q0 65 34 108q14 17 25 26q27 21 85 45q10 4 20 8.5t14.5 6.5t5.5 2l20 10q24 12 39 23l10 41
q9 36 9 55q0 43 -58 43q-37 0 -55 -24.5t-31 -93.5h-43l3 11q3 11 6.5 29.5t5.5 24.5q12 44 38 68q28 25 86 25q42 0 67 -20t25 -54zM231 279q-16 -11 -64 -34l-30 -14q-58 -26 -77 -58q-19 -33 -19 -68q0 -66 57 -66q50 0 89 48z" />
    <glyph glyph-name="acircumflex" unicode="&#xe2;" horiz-adv-x="311" 
d="M317 568h-39l-40 71l-79 -71h-40l99 109h51zM304 432q0 -23 -12 -73l-67 -286q-2 -16 -2 -17q0 -16 23 -16h7l-9 -40h-10q-41 0 -48 38q-39 -39 -93 -39q-44 0 -69.5 26.5t-25.5 72.5q0 65 34 108q14 17 25 26q27 21 85 45q10 4 20 8.5t14.5 6.5t5.5 2l20 10q24 12 39 23
l10 41q9 36 9 55q0 43 -58 43q-37 0 -55 -24.5t-31 -93.5h-43l3 11q3 11 6.5 29.5t5.5 24.5q12 44 38 68q28 25 86 25q42 0 67 -20t25 -54zM231 279q-16 -11 -64 -34l-30 -14q-58 -26 -77 -58q-19 -33 -19 -68q0 -66 57 -66q50 0 89 48z" />
    <glyph glyph-name="atilde" unicode="&#xe3;" horiz-adv-x="311" 
d="M337 634q-37 -58 -76 -58q-15 0 -43 15q-29 15 -44 15q-19 0 -41 -23l-12 13q37 51 75 51q19 0 41 -13q7 -3 9 -5l11 -5q12 -6 21 -6q23 0 46 30zM304 432q0 -23 -12 -73l-67 -286q-2 -16 -2 -17q0 -16 23 -16h7l-9 -40h-10q-41 0 -48 38q-39 -39 -93 -39
q-44 0 -69.5 26.5t-25.5 72.5q0 65 34 108q14 17 25 26q27 21 85 45q10 4 20 8.5t14.5 6.5t5.5 2l20 10q24 12 39 23l10 41q9 36 9 55q0 43 -58 43q-37 0 -55 -24.5t-31 -93.5h-43l3 11q3 11 6.5 29.5t5.5 24.5q12 44 38 68q28 25 86 25q42 0 67 -20t25 -54zM231 279
q-16 -11 -64 -34l-30 -14q-58 -26 -77 -58q-19 -33 -19 -68q0 -66 57 -66q50 0 89 48z" />
    <glyph glyph-name="adieresis" unicode="&#xe4;" horiz-adv-x="311" 
d="M313 662l-18 -77h-48l18 77h48zM214 662l-18 -77h-48l18 77h48zM304 432q0 -23 -12 -73l-67 -286q-2 -16 -2 -17q0 -16 23 -16h7l-9 -40h-10q-41 0 -48 38q-39 -39 -93 -39q-44 0 -69.5 26.5t-25.5 72.5q0 65 34 108q14 17 25 26q27 21 85 45q10 4 20 8.5t14.5 6.5t5.5 2
l20 10q24 12 39 23l10 41q9 36 9 55q0 43 -58 43q-37 0 -55 -24.5t-31 -93.5h-43l3 11q3 11 6.5 29.5t5.5 24.5q12 44 38 68q28 25 86 25q42 0 67 -20t25 -54zM231 279q-16 -11 -64 -34l-30 -14q-58 -26 -77 -58q-19 -33 -19 -68q0 -66 57 -66q50 0 89 48z" />
    <glyph glyph-name="aring" unicode="&#xe5;" horiz-adv-x="311" 
d="M292 616q0 -27 -19.5 -46.5t-45.5 -19.5q-28 0 -47.5 19.5t-19.5 47.5q0 27 19 46.5t47 19.5q27 0 46.5 -20t19.5 -47zM304 432q0 -23 -12 -73l-67 -286q-2 -16 -2 -17q0 -16 23 -16h7l-9 -40h-10q-41 0 -48 38q-39 -39 -93 -39q-44 0 -69.5 26.5t-25.5 72.5q0 65 34 108
q14 17 25 26q27 21 85 45q10 4 20 8.5t14.5 6.5t5.5 2l20 10q24 12 39 23l10 41q9 36 9 55q0 43 -58 43q-37 0 -55 -24.5t-31 -93.5h-43l3 11q3 11 6.5 29.5t5.5 24.5q12 44 38 68q28 25 86 25q42 0 67 -20t25 -54zM270 616q0 18 -13 31.5t-31 13.5t-31 -13.5t-13 -31.5
q0 -19 12.5 -31.5t31.5 -12.5q18 0 31 13t13 31zM231 279q-16 -11 -64 -34l-30 -14q-58 -26 -77 -58q-19 -33 -19 -68q0 -66 57 -66q50 0 89 48z" />
    <glyph glyph-name="ae" unicode="&#xe6;" horiz-adv-x="489" 
d="M486 414q0 -28 -9 -67l-24 -101h-188l-25 -113q-7 -32 -7 -43q0 -27 17 -42.5t47 -15.5q40 0 60 26q14 18 27 73l9 39h43l-11 -47q-17 -71 -42 -97q-30 -33 -87 -33q-75 0 -99 53q-47 -50 -104 -50q-44 0 -69.5 26t-25.5 72q0 67 35 112q29 38 110 71q39 16 40 17l20 10
q24 12 39 23l10 41q9 36 9 55q0 43 -58 43q-37 0 -55 -24.5t-31 -93.5h-43l3 11q3 12 6.5 30t5.5 24q12 44 38 68q28 25 86 25q52 0 79 -38q38 38 92 38q49 0 75.5 -24t26.5 -68zM444 408q0 60 -65 60q-38 0 -58 -25q-14 -18 -27 -73l-20 -88h145l19 82q6 24 6 44zM232 279
q-16 -11 -64 -34l-30 -14q-60 -27 -77 -58q-20 -33 -20 -72q0 -32 15 -49t43 -17q26 0 51 15t41 40q1 20 7 44z" />
    <glyph glyph-name="ccedilla" unicode="&#xe7;" horiz-adv-x="307" 
d="M304 415q0 -29 -7 -55l-9 -35h-42l9 39q5 25 5 42q0 61 -64 61q-27 0 -45 -15q-11 -8 -20 -22q-10 -17 -19 -56l-50 -216q-9 -41 -9 -58q0 -63 66 -63q45 0 65 34q8 16 11 25q2 7 6 19l5 22l13 56h43l-14 -61q-18 -77 -47 -103q-33 -31 -87 -31q-49 0 -77 25t-28 69
q0 24 9 64l48 207q19 79 47.5 110t84.5 31q51 0 78.5 -23t27.5 -66zM163 -90q0 -30 -20.5 -49.5t-52.5 -19.5q-40 0 -90 43l24 19q31 -26 56 -26q17 0 27 9t10 24q0 14 -9.5 23t-35.5 20l19 59h35l-12 -38q49 -24 49 -64z" />
    <glyph glyph-name="egrave" unicode="&#xe8;" horiz-adv-x="311" 
d="M259 569h-33l-134 109h95zM310 414q0 -24 -10 -67l-23 -101h-188l-26 -113q-6 -27 -6 -43q0 -27 17 -42.5t47 -15.5q39 0 59 26q13 16 27 73l9 39h43l-11 -47q-16 -70 -42 -97q-33 -33 -87 -33q-50 0 -77.5 23.5t-27.5 67.5q0 22 7 50l58 251q12 53 30 78q34 43 97 43
q49 0 76.5 -24t27.5 -68zM267 408q0 60 -65 60q-38 0 -58 -25q-14 -18 -27 -73l-20 -88h145l19 82q6 24 6 44z" />
    <glyph glyph-name="eacute" unicode="&#xe9;" horiz-adv-x="311" 
d="M374 676l-152 -109h-36l94 109h94zM310 414q0 -24 -10 -67l-23 -101h-188l-26 -113q-6 -27 -6 -43q0 -27 17 -42.5t47 -15.5q39 0 59 26q13 16 27 73l9 39h43l-11 -47q-16 -70 -42 -97q-33 -33 -87 -33q-50 0 -77.5 23.5t-27.5 67.5q0 22 7 50l58 251q12 53 30 78
q34 43 97 43q49 0 76.5 -24t27.5 -68zM267 408q0 60 -65 60q-38 0 -58 -25q-14 -18 -27 -73l-20 -88h145l19 82q6 24 6 44z" />
    <glyph glyph-name="ecircumflex" unicode="&#xea;" horiz-adv-x="311" 
d="M315 568h-39l-40 71l-79 -71h-40l99 109h51zM310 414q0 -24 -10 -67l-23 -101h-188l-26 -113q-6 -27 -6 -43q0 -27 17 -42.5t47 -15.5q39 0 59 26q13 16 27 73l9 39h43l-11 -47q-16 -70 -42 -97q-33 -33 -87 -33q-50 0 -77.5 23.5t-27.5 67.5q0 22 7 50l58 251
q12 53 30 78q34 43 97 43q49 0 76.5 -24t27.5 -68zM267 408q0 60 -65 60q-38 0 -58 -25q-14 -18 -27 -73l-20 -88h145l19 82q6 24 6 44z" />
    <glyph glyph-name="edieresis" unicode="&#xeb;" horiz-adv-x="311" 
d="M312 662l-18 -77h-48l18 77h48zM213 662l-18 -77h-48l18 77h48zM310 414q0 -24 -10 -67l-23 -101h-188l-26 -113q-6 -27 -6 -43q0 -27 17 -42.5t47 -15.5q39 0 59 26q13 16 27 73l9 39h43l-11 -47q-16 -70 -42 -97q-33 -33 -87 -33q-50 0 -77.5 23.5t-27.5 67.5
q0 22 7 50l58 251q12 53 30 78q34 43 97 43q49 0 76.5 -24t27.5 -68zM267 408q0 60 -65 60q-38 0 -58 -25q-14 -18 -27 -73l-20 -88h145l19 82q6 24 6 44z" />
    <glyph glyph-name="igrave" unicode="&#xec;" horiz-adv-x="143" 
d="M186 569h-33l-134 109h95zM153 498l-114 -498h-43l114 498h43z" />
    <glyph glyph-name="iacute" unicode="&#xed;" horiz-adv-x="143" 
d="M286 677l-152 -109h-36l94 109h94zM153 498l-114 -498h-43l114 498h43z" />
    <glyph glyph-name="icircumflex" unicode="&#xee;" horiz-adv-x="143" 
d="M241 568h-39l-40 71l-79 -71h-40l99 109h51zM153 498l-114 -498h-43l114 498h43z" />
    <glyph glyph-name="idieresis" unicode="&#xef;" horiz-adv-x="143" 
d="M236 662l-18 -77h-48l18 77h48zM137 662l-18 -77h-48l18 77h48zM153 498l-114 -498h-43l114 498h43z" />
    <glyph glyph-name="eth" unicode="&#xf0;" horiz-adv-x="313" 
d="M324 643l-61 -27q46 -83 46 -178q0 -55 -19 -141l-37 -164q-7 -30 -10 -41q-12 -42 -34 -65q-31 -34 -88 -34q-51 0 -81 25t-30 68q0 18 10 67l43 196q17 76 44 104q33 35 85 35q45 0 75 -36q-1 40 -11 74q-8 30 -30 74l-86 -37l-14 28l83 37l-3 5q-15 25 -60 70l34 18
l9 -9q31 -31 57 -68l65 28zM262 387q0 28 -19.5 44.5t-52.5 16.5t-52 -22q-17 -20 -34 -93l-41 -182q-8 -34 -8 -57q0 -28 18.5 -44t51.5 -16q35 0 54 22q18 19 34 92l40 182q9 41 9 57z" />
    <glyph glyph-name="ntilde" unicode="&#xf1;" horiz-adv-x="333" 
d="M341 634q-37 -58 -76 -58q-15 0 -43 15q-29 15 -44 15q-19 0 -41 -23l-12 13q37 51 75 51q15 0 41 -13l20 -10q12 -6 21 -6q23 0 46 30zM319 420q0 -31 -9 -68l-82 -352h-42l80 349q10 45 10 64q0 26 -15.5 41.5t-42.5 15.5q-33 0 -59 -28.5t-37 -76.5l-84 -365h-42
l114 498h42l-11 -49q36 56 93 56q38 0 61.5 -23.5t23.5 -61.5z" />
    <glyph glyph-name="ograve" unicode="&#xf2;" horiz-adv-x="313" 
d="M262 569h-33l-134 109h95zM310 412q0 -21 -10 -67l-47 -212q-8 -36 -10 -41q-12 -42 -34 -65q-31 -34 -88 -34q-51 0 -81 25t-30 68q0 24 10 67l47 212q17 77 44 105q33 35 90 35q49 0 79 -25.5t30 -67.5zM265 403q0 29 -18.5 45t-51.5 16q-34 0 -54 -22q-19 -22 -34 -92
l-44 -199q-8 -34 -8 -57q0 -28 18.5 -44t51.5 -16q35 0 54 22q18 19 34 92l44 199q8 35 8 56z" />
    <glyph glyph-name="oacute" unicode="&#xf3;" horiz-adv-x="313" 
d="M367 676l-152 -109h-36l94 109h94zM310 412q0 -21 -10 -67l-47 -212q-8 -36 -10 -41q-12 -42 -34 -65q-31 -34 -88 -34q-51 0 -81 25t-30 68q0 24 10 67l47 212q17 77 44 105q33 35 90 35q49 0 79 -25.5t30 -67.5zM265 403q0 29 -18.5 45t-51.5 16q-34 0 -54 -22
q-19 -22 -34 -92l-44 -199q-8 -34 -8 -57q0 -28 18.5 -44t51.5 -16q35 0 54 22q18 19 34 92l44 199q8 35 8 56z" />
    <glyph glyph-name="ocircumflex" unicode="&#xf4;" horiz-adv-x="313" 
d="M313 568h-39l-40 71l-79 -71h-40l99 109h51zM310 412q0 -21 -10 -67l-47 -212q-8 -36 -10 -41q-12 -42 -34 -65q-31 -34 -88 -34q-51 0 -81 25t-30 68q0 24 10 67l47 212q17 77 44 105q33 35 90 35q49 0 79 -25.5t30 -67.5zM265 403q0 29 -18.5 45t-51.5 16
q-34 0 -54 -22q-19 -22 -34 -92l-44 -199q-8 -34 -8 -57q0 -28 18.5 -44t51.5 -16q35 0 54 22q18 19 34 92l44 199q8 35 8 56z" />
    <glyph glyph-name="otilde" unicode="&#xf5;" horiz-adv-x="313" 
d="M330 634q-37 -58 -76 -58q-15 0 -43 15q-29 15 -44 15q-19 0 -41 -23l-12 13q37 51 75 51q19 0 41 -13q7 -3 9 -5l11 -5q12 -6 21 -6q23 0 46 30zM310 412q0 -21 -10 -67l-47 -212q-8 -36 -10 -41q-12 -42 -34 -65q-31 -34 -88 -34q-51 0 -81 25t-30 68q0 24 10 67
l47 212q17 77 44 105q33 35 90 35q49 0 79 -25.5t30 -67.5zM265 403q0 29 -18.5 45t-51.5 16q-34 0 -54 -22q-19 -22 -34 -92l-44 -199q-8 -34 -8 -57q0 -28 18.5 -44t51.5 -16q35 0 54 22q18 19 34 92l44 199q8 35 8 56z" />
    <glyph glyph-name="odieresis" unicode="&#xf6;" horiz-adv-x="313" 
d="M316 662l-18 -77h-48l18 77h48zM217 662l-18 -77h-48l18 77h48zM310 412q0 -21 -10 -67l-47 -212q-8 -36 -10 -41q-12 -42 -34 -65q-31 -34 -88 -34q-51 0 -81 25t-30 68q0 24 10 67l47 212q17 77 44 105q33 35 90 35q49 0 79 -25.5t30 -67.5zM265 403q0 29 -18.5 45
t-51.5 16q-34 0 -54 -22q-19 -22 -34 -92l-44 -199q-8 -34 -8 -57q0 -28 18.5 -44t51.5 -16q35 0 54 22q18 19 34 92l44 199q8 35 8 56z" />
    <glyph glyph-name="divide" unicode="&#xf7;" horiz-adv-x="559" 
d="M360 452l-17 -74h-49l17 74h49zM499 317l-10 -42h-390l10 42h390zM305 213l-17 -74h-48l16 74h49z" />
    <glyph glyph-name="oslash" unicode="&#xf8;" horiz-adv-x="313" 
d="M346 482l-38 -50q2 -8 2 -18q0 -25 -10 -69l-47 -212q-8 -36 -10 -41q-12 -42 -34 -65q-31 -34 -88 -34q-72 0 -100 47l-26 -34l-15 12l32 44q-2 10 -2 24q0 24 10 67l47 212q17 75 44 105q33 35 90 35q71 0 99 -49l30 39zM265 408q-2 26 -20.5 41t-49.5 15
q-34 0 -54 -22q-19 -22 -34 -92l-44 -199l-5 -25zM261 366l-206 -280q2 -23 21 -37.5t49 -14.5q35 0 54 22q18 19 34 92l44 199l1 1q0 2 0.5 5t0.5 5z" />
    <glyph glyph-name="ugrave" unicode="&#xf9;" horiz-adv-x="333" 
d="M274 569h-33l-134 109h95zM342 498l-114 -498h-43l11 50q-36 -57 -93 -57q-38 0 -61.5 23.5t-23.5 61.5q0 28 10 69l81 351h43l-81 -349q-10 -44 -10 -64q0 -25 16 -40.5t42 -15.5q33 0 59 28.5t37 76.5l84 364h43z" />
    <glyph glyph-name="uacute" unicode="&#xfa;" horiz-adv-x="333" 
d="M379 676l-152 -109h-36l94 109h94zM342 498l-114 -498h-43l11 50q-36 -57 -93 -57q-38 0 -61.5 23.5t-23.5 61.5q0 28 10 69l81 351h43l-81 -349q-10 -44 -10 -64q0 -25 16 -40.5t42 -15.5q33 0 59 28.5t37 76.5l84 364h43z" />
    <glyph glyph-name="ucircumflex" unicode="&#xfb;" horiz-adv-x="333" 
d="M331 568h-39l-40 71l-79 -71h-40l99 109h51zM342 498l-114 -498h-43l11 50q-36 -57 -93 -57q-38 0 -61.5 23.5t-23.5 61.5q0 28 10 69l81 351h43l-81 -349q-10 -44 -10 -64q0 -25 16 -40.5t42 -15.5q33 0 59 28.5t37 76.5l84 364h43z" />
    <glyph glyph-name="udieresis" unicode="&#xfc;" horiz-adv-x="333" 
d="M327 662l-18 -77h-48l18 77h48zM228 662l-18 -77h-48l18 77h48zM342 498l-114 -498h-43l11 50q-36 -57 -93 -57q-38 0 -61.5 23.5t-23.5 61.5q0 28 10 69l81 351h43l-81 -349q-10 -44 -10 -64q0 -25 16 -40.5t42 -15.5q33 0 59 28.5t37 76.5l84 364h43z" />
    <glyph glyph-name="yacute" unicode="&#xfd;" horiz-adv-x="288" 
d="M369 676l-151 -109h-36l93 109h94zM341 498l-263 -556q-32 -68 -58 -86t-60 -18q-16 0 -47 5l9 38q25 -5 42 -5q25 0 43.5 19t40.5 66l19 42l9 495h42l-12 -414l190 414h45z" />
    <glyph glyph-name="thorn" unicode="&#xfe;" horiz-adv-x="330" 
d="M319 417q0 -17 -9 -58l-50 -219q-7 -29 -19 -64q-15 -41 -50 -63q-29 -18 -61 -18q-30 0 -48.5 10.5t-34.5 36.5l-47 -205h-42l200 869h43l-55 -235q32 32 81 32q42 0 67 -23.5t25 -62.5zM276 409q0 27 -17 42t-47 15q-31 0 -54.5 -20.5t-30.5 -54.5l-57 -250
q-5 -18 -5 -37q0 -31 18 -50t47 -19q30 0 51 19q10 10 18 26q8 15 18 60l53 227q6 27 6 42z" />
    <glyph glyph-name="ydieresis" unicode="&#xff;" horiz-adv-x="288" 
d="M310 662l-18 -77h-48l18 77h48zM211 662l-18 -77h-48l18 77h48zM341 498l-263 -556q-32 -68 -58 -86t-60 -18q-16 0 -47 5l9 38q25 -5 42 -5q25 0 43.5 19t40.5 66l19 42l9 495h42l-12 -414l190 414h45z" />
    <glyph glyph-name="OE" unicode="&#x152;" horiz-adv-x="559" 
d="M620 706l-10 -44h-171l-63 -272h160l-10 -43h-160l-70 -303h208l-10 -44h-254l8 36q-39 -43 -104 -43q-53 0 -85 31t-32 81q0 31 10 75l88 376q19 83 51 115q41 44 113 44q71 0 102 -50l9 41h220zM370 597q0 76 -81 76q-45 0 -75 -28q-13 -13 -20 -27q-10 -20 -23 -74
l-81 -341q-14 -61 -14 -89q0 -38 22.5 -59t62.5 -21q44 0 72 30q11 12 18 27q17 39 23 70l81 342q15 61 15 94z" />
    <glyph glyph-name="oe" unicode="&#x153;" horiz-adv-x="499" 
d="M497 414q0 -24 -10 -67l-23 -101h-188l-26 -113q-6 -27 -6 -43q0 -27 17 -42.5t47 -15.5q39 0 60 26q12 16 26 73l10 39h43l-11 -47q-16 -71 -42 -97q-30 -33 -87 -33q-68 0 -92 43q-34 -43 -94 -43q-51 0 -81 25t-30 68q0 24 10 67l47 212q17 77 44 105q33 35 91 35
q59 0 94 -45q20 25 42 35.5t56 10.5q49 0 76 -24t27 -68zM454 408q0 60 -64 60q-39 0 -58 -25q-14 -18 -27 -73l-21 -88h145l19 82q6 24 6 44zM265 403q0 29 -18.5 45t-51.5 16q-34 0 -54 -22q-19 -22 -34 -92l-44 -199q-8 -34 -8 -57q0 -28 18.5 -44t51.5 -16q35 0 54 22
q18 19 34 92l44 199q8 35 8 56z" />
    <glyph glyph-name="Scaron" unicode="&#x160;" horiz-adv-x="371" 
d="M430 878l-106 -109h-50l-45 108h37l39 -68l83 69h42zM401 623q0 -22 -11 -70l-12 -51h-48l15 63q7 28 7 44q0 34 -18 50t-57 16q-51 0 -76 -43q-13 -22 -22.5 -57t-9.5 -61q0 -43 35 -92l57 -80q33 -47 42 -74q10 -32 10 -64q0 -53 -17 -102t-44 -74q-44 -39 -110 -39
q-62 0 -97 30t-35 82q0 27 13 82l11 48h49l-13 -57q-1 -5 -2.5 -11t-2 -9.5t-1.5 -6t-1 -3.5q-5 -22 -5 -38q0 -36 23 -55.5t64 -19.5q53 0 80 31q17 20 28.5 59.5t11.5 79.5q0 53 -43 112l-59 80q-42 57 -42 122q0 49 19 98q20 54 55 78.5t89 24.5q56 0 86.5 -24.5
t30.5 -68.5z" />
    <glyph glyph-name="scaron" unicode="&#x161;" horiz-adv-x="288" 
d="M327 677l-99 -109h-51l-49 109h39l41 -71l79 71h40zM294 418q0 -15 -7 -45l-7 -32h-43l8 38q4 16 4 36q0 23 -15.5 36.5t-43.5 13.5q-33 0 -53 -23t-20 -62q0 -25 11 -45q1 -2 3.5 -6.5t4.5 -7.5q12 -17 59 -72q46 -54 46 -107q0 -67 -36.5 -107.5t-97.5 -40.5
q-51 0 -81.5 27t-30.5 71q0 22 7 51l9 41h42l-6 -31q-8 -44 -8 -53q0 -66 72 -66q41 0 63.5 28t22.5 78q0 37 -27 69l-66 80q-30 37 -30 83q0 60 33 96.5t88 36.5q47 0 73 -23t26 -64z" />
    <glyph glyph-name="Ydieresis" unicode="&#x178;" horiz-adv-x="350" 
d="M405 865l-17 -76h-52l17 76h52zM265 865l-18 -76h-52l18 76h52zM448 706l-235 -394l-72 -312h-48l72 312l-48 394h51l36 -332l190 332h54z" />
    <glyph glyph-name="florin" unicode="&#x192;" horiz-adv-x="236" 
d="M322 711l-10 -41q-18 3 -26 3q-31 0 -45 -19q-10 -15 -19 -56l-23 -98h65l-10 -40h-64l-115 -495q-9 -39 -18.5 -58t-26.5 -32q-27 -21 -66 -21q-14 0 -34 2l10 42q14 -2 25 -2q28 0 41.5 14t22.5 53l115 497h-57l10 40h56l26 112q14 57 38 79.5t73 22.5q18 0 32 -3z" />
    <glyph glyph-name="circumflex" unicode="&#x2c6;" 
d="M214 568h-39l-40 71l-79 -71h-41l99 109h51z" />
    <glyph glyph-name="tilde" unicode="&#x2dc;" 
d="M223 634q-37 -58 -76 -58q-15 0 -43 15q-29 15 -44 15q-19 0 -41 -23l-13 13q37 51 75 51q16 0 41 -13l20 -10q12 -6 21 -6q23 0 46 30z" />
    <glyph glyph-name="endash" unicode="&#x2013;" horiz-adv-x="355" 
d="M338 313l-9 -42h-284l9 42h284z" />
    <glyph glyph-name="emdash" unicode="&#x2014;" horiz-adv-x="492" 
d="M475 315l-9 -42h-421l9 42h421z" />
    <glyph glyph-name="quoteleft" unicode="&#x2018;" horiz-adv-x="145" 
d="M209 708l-5 -22q-14 -7 -21 -16q-11 -15 -19 -52h24l-21 -91h-45l21 91q10 42 23 60t43 30z" />
    <glyph glyph-name="quoteright" unicode="&#x2019;" horiz-adv-x="145" 
d="M203 706l-21 -91q-10 -42 -23 -60t-42 -30l5 22q11 7 20 17q10 12 19 51h-24l21 91h45z" />
    <glyph glyph-name="quotesinglbase" unicode="&#x201a;" horiz-adv-x="145" 
d="M62 91l-21 -90q-10 -42 -23 -60.5t-43 -30.5l5 23q14 8 20 16q10 13 20 51h-24l21 91h45z" />
    <glyph glyph-name="quotedblleft" unicode="&#x201c;" horiz-adv-x="246" 
d="M310 708l-5 -22q-14 -7 -21 -16q-9 -13 -19 -52h24l-21 -91h-45l21 91q10 42 23 60t43 30zM209 708l-5 -22q-14 -7 -21 -16q-11 -15 -19 -52h24l-21 -91h-45l21 91q10 42 23 60t43 30z" />
    <glyph glyph-name="quotedblright" unicode="&#x201d;" horiz-adv-x="246" 
d="M304 706l-20 -91q-9 -41 -22.5 -59.5t-43.5 -30.5l5 22q11 7 20 17q10 12 19 51h-24l21 91h45zM203 706l-21 -91q-10 -42 -23 -60t-42 -30l5 22q11 7 20 17q10 12 19 51h-24l21 91h45z" />
    <glyph glyph-name="quotedblbase" unicode="&#x201e;" horiz-adv-x="246" 
d="M163 91l-21 -90q-10 -42 -23 -60.5t-43 -30.5l5 23q14 8 20 16q10 13 20 51h-24l21 91h45zM62 91l-21 -90q-10 -42 -23 -60.5t-43 -30.5l5 23q14 8 20 16q10 13 20 51h-24l21 91h45z" />
    <glyph glyph-name="dagger" unicode="&#x2020;" horiz-adv-x="313" 
d="M367 500l-10 -44h-124l-105 -456h-47l105 456h-123l10 44h123l48 206h47l-48 -206h124z" />
    <glyph glyph-name="daggerdbl" unicode="&#x2021;" horiz-adv-x="313" 
d="M373 521l-11 -44h-124l-45 -199h124l-11 -44h-124l-54 -234h-45l54 234h-125l11 44h124l46 199h-125l11 44h124l43 185h45l-42 -185h124z" />
    <glyph glyph-name="bullet" unicode="&#x2022;" horiz-adv-x="333" 
d="M285 455l-47 -199h-142l47 199h142z" />
    <glyph glyph-name="ellipsis" unicode="&#x2026;" horiz-adv-x="1000" 
d="M811 65l-14 -65h-52l14 65h52zM479 65l-14 -65h-52l14 65h52zM146 65l-15 -65h-51l14 65h52z" />
    <glyph glyph-name="perthousand" unicode="&#x2030;" horiz-adv-x="803" 
d="M834 374q0 -19 -8 -52l-48 -201q-15 -62 -34 -90q-25 -34 -75 -34q-39 0 -61.5 19t-22.5 53q0 15 9 51l48 200q8 34 10 39q7 29 23 52q24 35 75 35q39 0 61.5 -19.5t22.5 -52.5zM584 374q0 -17 -8 -52l-48 -200q-16 -64 -34 -90q-24 -35 -75 -35q-39 0 -61.5 19.5
t-22.5 52.5q0 19 8 52l48 200q1 5 4.5 18.5t5.5 19.5q10 33 24 53q25 34 75 34q39 0 61.5 -19t22.5 -53zM614 771l-567 -841l-25 14l568 843zM296 637q0 -19 -8 -52l-48 -200q-14 -61 -34 -90q-24 -35 -75 -35q-38 0 -60.5 19.5t-22.5 52.5q0 19 8 52l48 199q7 31 10 39
q7 30 24 53q23 34 74 34q39 0 61.5 -19t22.5 -53zM796 366q0 44 -50 44q-22 0 -35 -12q-15 -14 -29 -71l-51 -206q-8 -32 -8 -45q0 -20 13.5 -31.5t36.5 -11.5q21 0 35 11q13 12 29 72l52 206q7 28 7 44zM546 367q0 20 -13.5 31.5t-36.5 11.5q-22 0 -35 -12q-15 -12 -29 -71
l-52 -206q-7 -28 -7 -44q0 -44 50 -44q21 0 35 12q15 14 29 71l51 206q8 32 8 45zM259 629q0 44 -50 44q-23 0 -35 -12q-16 -14 -30 -71l-51 -206q-7 -28 -7 -45q0 -43 49 -43q23 0 35 12q16 13 30 71l51 206q8 34 8 44z" />
    <glyph glyph-name="guilsinglleft" unicode="&#x2039;" horiz-adv-x="239" 
d="M247 393l-146 -104l92 -96h-59l-96 100l145 100h64z" />
    <glyph glyph-name="guilsinglright" unicode="&#x203a;" horiz-adv-x="239" 
d="M221 292l-145 -99h-64l146 103l-92 96h59z" />
    <glyph glyph-name="Euro" unicode="&#x20ac;" horiz-adv-x="374" 
d="M435 660l-25 -41q-42 55 -106 55q-39 0 -58 -19q-16 -13 -24 -36q-15 -44 -27 -103l-18 -84h164l-17 -38h-156l-11 -45h151l-16 -37h-143l-18 -81l-11 -51q-10 -48 -10 -71q0 -36 22 -55.5t62 -19.5q56 0 118 47l-14 -63q-52 -28 -107 -28q-63 0 -96 30.5t-33 88.5
q0 35 12 81l13 52l16 70h-57l17 37h48l11 45h-56l15 38h49l20 92q10 46 15 64q17 69 52 98q35 30 92 30q70 0 126 -56z" />
    <glyph glyph-name="trademark" unicode="&#x2122;" horiz-adv-x="514" 
d="M556 706l-78 -332h-39l77 300l-133 -300h-44l9 300l-64 -300h-39l78 332h55l-9 -295l129 295h58zM286 706l-8 -36h-56l-68 -296h-39l68 296h-69l8 36h164z" />
    </font>
</defs>
</svg>
