<?xml version="1.0" standalone="no"?>
<!DOCTYPE svg PUBLIC "-//W3C//DTD SVG 1.1//EN" "http://www.w3.org/Graphics/SVG/1.1/DTD/svg11.dtd" >
<svg xmlns="http://www.w3.org/2000/svg" xmlns:xlink="http://www.w3.org/1999/xlink" version="1.1">
<metadata>
Created by FontForge 20170731 at Thu May 17 19:59:59 2007
 By Aleksey,,,
Copyright  1997, 2001, Berthold LLC. All rights reserved. Akzidenz-Grotesk is a trademark of Berthold Types Limited.
</metadata>
<defs>
<font id="AkzidenzGroteskBQ-LigCnd" horiz-adv-x="313" >
  <font-face 
    font-family="Akzidenz-Grotesk BQ Light Conde"
    font-weight="300"
    font-stretch="condensed"
    units-per-em="1000"
    panose-1="0 0 0 0 0 0 0 0 0 0"
    ascent="800"
    descent="-200"
    x-height="503"
    cap-height="706"
    bbox="-54 -250 858 880"
    underline-thickness="43"
    underline-position="-302"
    unicode-range="U+0020-2122"
  />
<missing-glyph horiz-adv-x="500" 
 />
    <glyph glyph-name=".notdef" horiz-adv-x="500" 
 />
    <glyph glyph-name=".null" horiz-adv-x="0" 
 />
    <glyph glyph-name="nonmarkingreturn" horiz-adv-x="333" 
 />
    <glyph glyph-name="space" unicode=" " horiz-adv-x="187" 
 />
    <glyph glyph-name="exclam" unicode="!" horiz-adv-x="187" 
d="M140 323l-11 -136h-28l-9 143v376h48v-383zM137 0h-45v90h45v-90z" />
    <glyph glyph-name="quotedbl" unicode="&#x22;" horiz-adv-x="272" 
d="M233 740l-19 -288h-21l-18 288h58zM97 740l-18 -288h-21l-19 288h58z" />
    <glyph glyph-name="numbersign" unicode="#" horiz-adv-x="514" 
d="M493 415h-140l-9 -112h137v-40h-141l-21 -263h-43l23 263h-100l-22 -263h-44l22 263h-135v40h138l10 112h-132v41h136l21 250h44l-21 -250h99l21 250h42l-21 -250h136v-41zM311 415h-99l-9 -112h99z" />
    <glyph glyph-name="dollar" unicode="$" horiz-adv-x="358" 
d="M260 526v21q0 47 -9 72q-17 43 -74 43q-43 0 -62 -23.5t-19 -76.5q0 -39 9 -61q6 -16 17 -32q23 -30 88 -90q68 -64 91 -106.5t23 -104.5q0 -154 -130 -167v-72h-31v72q-66 6 -98 47q-20 26 -27.5 60t-7.5 103v13h44v-38q0 -54 13 -88q22 -54 92 -54q99 0 99 119
q0 51 -17 83t-72 84q-82 78 -106 109q-34 44 -34 126q0 131 113 140v50h31v-50q58 -7 83 -39q17 -20 23 -47t6 -79v-14h-45z" />
    <glyph glyph-name="percent" unicode="%" horiz-adv-x="583" 
d="M558 101q0 -29 -4 -45q-16 -61 -87 -61q-67 0 -86 56q-7 21 -7 51v232q0 19 1 28q8 52 40 69q22 12 54 12t54 -13q17 -11 25.5 -30t9 -30.5t0.5 -39.5v-229zM483 774l-367 -844l-25 11l367 845zM204 366q0 -30 -7 -51q-20 -55 -84 -55q-70 0 -88 62q-5 16 -5 45v232
q0 35 6 54q7 22 28.5 39t59.5 16q35 0 56 -14q17 -11 25 -30t8.5 -30.5t0.5 -38.5v-229zM521 101v233q0 26 -4 39q-11 32 -49 32q-32 0 -46 -20q-9 -12 -9 -44v-235q0 -48 22 -64q14 -10 32 -10t30 8q24 16 24 61zM167 366v233v6v8.5t-0.5 10t-2 11l-3.5 10.5t-6.5 10
t-9.5 8t-13 5.5t-18 1.5q-20 0 -32.5 -6.5t-17 -19.5t-5 -19t-0.5 -19v-235q0 -53 28 -68q11 -6 26 -6q23 0 39 16q15 17 15 53z" />
    <glyph glyph-name="ampersand" unicode="&#x26;" horiz-adv-x="437" 
d="M419 -2q-52 0 -75 6.5t-48 25.5q-8 -8 -21 -16q-40 -23 -95 -23q-64 0 -102 33q-46 41 -46 108q0 39 15 76.5t31.5 60.5t49.5 62q-35 99 -35 161q0 55 27 87q10 14 25 21q18 10 44 10q39 0 62 -23.5t23 -62.5q0 -24 -10 -54q-16 -44 -87 -143q51 -118 124 -233
q29 43 40 100q9 53 7 148h44q0 -54 -1.5 -87t-11.5 -80t-30 -81q-3 -5 -21 -32q22 -17 41.5 -21t49.5 -2v-41zM231 522q0 21 -11.5 35.5t-32.5 14.5q-24 0 -38.5 -21.5t-13.5 -62.5q0 -37 13 -83q5 -17 12 -31q44 61 57 92q14 30 14 56zM269 61q-3 4 -15.5 23t-18.5 29
q-5 9 -42 77q-4 8 -12.5 23.5t-12.5 23.5q-1 2 -22 47q-16 -20 -25 -33q-44 -63 -44 -114q0 -38 17.5 -62t37.5 -33q22 -10 53 -10q51 0 84 29z" />
    <glyph glyph-name="quotesingle" unicode="'" horiz-adv-x="137" 
d="M97 740l-18 -288h-21l-19 288h58z" />
    <glyph glyph-name="parenleft" unicode="(" horiz-adv-x="229" 
d="M192 -140q-43 47 -57 68q-49 72 -77.5 171.5t-28.5 191.5q0 91 28.5 185.5t80.5 166.5q16 22 52 64v-56q-22 -32 -32 -48q-39 -64 -61.5 -152t-22.5 -166q0 -98 30.5 -196.5t87.5 -170.5v-58z" />
    <glyph glyph-name="parenright" unicode=")" horiz-adv-x="229" 
d="M200 278q0 -88 -27 -180.5t-76 -162.5q-9 -13 -59 -73v56q56 70 86.5 170t30.5 195q0 158 -66 288q-17 35 -52 79v58q29 -29 56 -67q50 -72 78.5 -171t28.5 -192z" />
    <glyph glyph-name="asterisk" unicode="*" horiz-adv-x="305" 
d="M278 608l-94 -35l57 -80l-31 -24l-59 79l-52 -79l-32 24l53 81l-91 27l12 38l91 -25v96h40v-98l93 32z" />
    <glyph glyph-name="plus" unicode="+" horiz-adv-x="558" 
d="M474 276h-172v-184h-45v184h-173v41h173v184h45v-184h172v-41z" />
    <glyph glyph-name="comma" unicode="," horiz-adv-x="146" 
d="M96 0q0 -36 -8.5 -56t-36.5 -34v22q12 8 17.5 20.5t6 20.5t0.5 27h-24v91h45v-91z" />
    <glyph glyph-name="hyphen" unicode="-" horiz-adv-x="248" 
d="M212 271h-177v42h177v-42z" />
    <glyph glyph-name="period" unicode="." horiz-adv-x="146" 
d="M96 0h-44v90h44v-90z" />
    <glyph glyph-name="slash" unicode="/" 
d="M279 706l-199 -706h-46l200 706h45z" />
    <glyph glyph-name="zero" unicode="0" horiz-adv-x="354" 
d="M320 150q0 -34 -6 -53q-13 -47 -50 -72t-87 -25q-46 0 -81 22.5t-50 64.5q-10 30 -10 72v393q0 42 7 66q27 91 140 91q77 0 112 -49q25 -35 25 -118v-392zM274 150v410q0 51 -21.5 77.5t-72.5 26.5q-74 0 -92 -57q-6 -21 -6 -55v-383q0 -27 1.5 -42.5t11 -34.5t28.5 -32
q23 -16 54 -16q14 0 29 3.5t34 18.5t28 41q6 20 6 43z" />
    <glyph glyph-name="one" unicode="1" horiz-adv-x="354" 
d="M216 0h-50v615q-14 -12 -22 -17q-35 -25 -94 -34v39q79 11 112 75q2 4 9 24h45v-702z" />
    <glyph glyph-name="two" unicode="2" horiz-adv-x="354" 
d="M305 0h-264v52l9 27q16 38 61 101q8 11 31.5 44t35 50.5t27.5 45.5t26 53q24 60 24 155v17q0 78 -33 105q-17 15 -45 15q-45 0 -65 -39q-14 -27 -14 -100v-48h-44v67q0 51 6 75q8 32 35 59.5t82 27.5q43 0 73 -22q32 -23 41 -57.5t9 -83.5v-39q0 -59 -9 -98
q-8 -37 -31.5 -82t-38 -66t-51.5 -72q-48 -67 -60 -88q-12 -20 -27 -57h222v-42z" />
    <glyph glyph-name="three" unicode="3" horiz-adv-x="354" 
d="M313 151q0 -39 -7 -65q-27 -94 -134 -94q-80 0 -115 63q-10 17 -14.5 43t-5.5 43t-3 74h45q0 -21 2 -65q4 -78 39 -101q21 -15 56 -15q20 0 32 5q41 14 55 58q7 20 7 48v39q0 42 -4 75q-7 50 -43 71q-35 21 -105 25l1 46q59 0 95 28q22 22 27 32q9 18 9 43v59q0 18 -2 38
q-9 62 -76 62q-28 0 -44 -11q-30 -19 -30 -80v-74h-43v77q0 43 10 69q24 62 110 62q46 0 73 -19.5t37 -44.5q10 -26 10 -67v-67q0 -26 -5 -43q-3 -10 -7 -19t-10 -16.5t-11.5 -13.5t-13 -11t-13 -8.5t-13 -6.5t-11.5 -4.5t-10 -4t-7 -2.5q9 -1 22 -5q60 -16 83 -67
q14 -31 14 -81v-75z" />
    <glyph glyph-name="four" unicode="4" horiz-adv-x="354" 
d="M347 225h-84v-225h-46v225h-198v46l182 430h62v-434h84v-42zM217 267v369l-153 -369h153z" />
    <glyph glyph-name="five" unicode="5" horiz-adv-x="354" 
d="M302 185q0 -72 -9 -105q-23 -83 -119 -84q-48 0 -79 21q-22 15 -33.5 39.5t-13.5 43t-2 51.5v71h44v-55q0 -63 9 -85q15 -43 70 -43q40 0 60 20q18 17 23 44t5 83v146q0 58 -24 82q-19 20 -53 20q-46 0 -68 -31q-15 -21 -15 -65h-37v365h232v-43h-187v-210q39 27 80 27
q56 0 88 -41q29 -37 29 -118v-133z" />
    <glyph glyph-name="six" unicode="6" horiz-adv-x="354" 
d="M321 518l-46 1q0 52 -4 80q-4 41 -37 58q-18 10 -44 10q-30 0 -54 -14q-42 -26 -42 -98v-169q11 10 23 18q37 25 83 25q66 -1 99 -50q21 -33 21 -124v-130q-6 -44 -9 -51q-9 -25 -27.5 -42.5t-40 -24t-35 -9t-25.5 -2.5q-72 0 -108 46q-27 34 -27 118v404q0 39 10 67
q31 81 135 81q65 0 99 -39q29 -32 29 -122v-33zM274 137v147q0 62 -29 85q-19 16 -48 16q-48 0 -79 -33q-25 -26 -25 -82v-104q0 -27 1 -42t10 -36t26 -33q23 -14 52 -14q35 0 56 15t28 34q8 20 8 47z" />
    <glyph glyph-name="seven" unicode="7" horiz-adv-x="354" 
d="M318 659q-34 -75 -56 -133q-67 -177 -88 -346q-6 -50 -6 -100v-80h-49v47q0 72 7 132.5t32 164.5q18 76 41.5 143.5t33.5 89.5t38 82h-224v44h271v-44z" />
    <glyph glyph-name="eight" unicode="8" horiz-adv-x="354" 
d="M315 128q0 -26 -6 -48q-8 -29 -26 -48.5t-40.5 -26.5t-36.5 -9.5t-27 -2.5q-77 0 -113 49q-25 33 -25 107v121q0 23 5 48q6 25 21.5 43t25 22.5t25.5 11.5q-21 10 -36 22q-31 26 -31 81v98q0 32 8 53q10 26 39.5 45t79.5 19q58 0 90 -24q18 -12 27 -33q11 -27 11 -73v-82
q0 -28 -5 -44q-7 -25 -23 -37.5t-45 -23.5q43 -17 60 -43q22 -32 22 -96v-129zM260 505v72q0 37 -6 53q-15 41 -79 41q-25 0 -43 -9q-35 -17 -35 -69v-97q0 -22 5 -34q19 -45 76 -45q27 0 48.5 13.5t29.5 38.5q4 12 4 36zM268 141v124q0 15 -1 23q-3 45 -34 68
q-22 17 -53 17q-29 0 -48 -11q-45 -21 -45 -93v-113q0 -46 9 -69.5t31 -36.5q25 -14 52 -14q29 1 51 15q38 22 38 90z" />
    <glyph glyph-name="nine" unicode="9" horiz-adv-x="354" 
d="M308 147q0 -43 -9 -69q-9 -28 -27.5 -47t-41 -26t-37 -9.5t-27.5 -2.5q-99 0 -124 77q-9 26 -9 77v43h46v-55q0 -18 4 -34q13 -62 82 -62q30 0 53 12q27 14 35.5 36t8.5 56v180q-12 -13 -25 -20q-35 -23 -81 -23q-62 0 -94 38q-28 32 -28 98v125q0 38 2 59t15 48t39 43
q34 22 83 22q75 0 109 -46q13 -16 19 -39.5t6.5 -37.5t0.5 -43v-400zM263 455v95q0 50 -10 74q-21 44 -83 44q-11 0 -24.5 -2.5t-32.5 -15.5t-27 -36q-5 -16 -5 -37v-171q0 -17 6 -35q17 -47 68 -47q45 0 69 22t33 48q6 19 6 61z" />
    <glyph glyph-name="colon" unicode=":" horiz-adv-x="187" 
d="M136 364h-44v91h44v-91zM136 0h-44v90h44v-90z" />
    <glyph glyph-name="semicolon" unicode=";" horiz-adv-x="187" 
d="M137 364h-46v91h46v-91zM136 0q0 -36 -8.5 -56t-36.5 -34v22q12 8 18 20t6.5 20t0.5 28h-25v91h45v-91z" />
    <glyph glyph-name="less" unicode="&#x3c;" horiz-adv-x="559" 
d="M446 76l-357 194v45l357 195v-49l-312 -166l312 -167v-52z" />
    <glyph glyph-name="equal" unicode="=" horiz-adv-x="559" 
d="M474 347h-389v42h389v-42zM474 203h-389v42h389v-42z" />
    <glyph glyph-name="greater" unicode="&#x3e;" horiz-adv-x="559" 
d="M470 271l-357 -195v48l312 167l-312 167v51l357 -193v-45z" />
    <glyph glyph-name="question" unicode="?" horiz-adv-x="354" 
d="M318 516q0 -50 -8.5 -80t-34.5 -69q-5 -8 -15 -21t-17.5 -24.5t-13.5 -21.5q-11 -21 -11 -48v-78h-48v83v6v6.5v6t0.5 6.5l1.5 6t2 6.5t2.5 7t3.5 8t5 8.5l6 10l24 35q4 5 11.5 16t11.5 17q12 18 17 27.5t10.5 32.5t5.5 52q0 34 -1 51q-2 89 -45 110q-15 7 -33 7
q-22 0 -39 -13q-36 -28 -36 -120q0 -21 2 -61h-47q-4 35 -1 91.5t20 87.5q33 57 103 57q76 0 106 -65q18 -38 18 -137zM218 0h-48v90h48v-90z" />
    <glyph glyph-name="at" unicode="@" horiz-adv-x="878" 
d="M815 425q0 -102 -44 -195q-34 -71 -84 -114t-99 -43q-35 0 -56.5 22.5t-21.5 58.5q0 2 0.5 7t0.5 10q-64 -96 -149 -96q-59 0 -93 42t-34 114q0 112 62 197.5t143 85.5q49 0 78.5 -31.5t40.5 -69.5l18 78h46l-32 -144q-15 -65 -25 -117q-5 -32 -5 -58q0 -56 45 -56
q26 0 53 24q54 48 85.5 125.5t31.5 161.5q0 115 -70.5 182.5t-189.5 67.5q-112 0 -208.5 -60t-152.5 -162t-56 -221q0 -143 93.5 -231.5t244.5 -88.5q41 0 77 7q84 14 161 59q55 33 105 80l23 -26q-156 -156 -365 -156q-169 0 -275 98.5t-106 255.5q0 199 135.5 340
t327.5 141q136 0 215.5 -78t79.5 -210zM541 357q0 53 -27 86.5t-69 33.5q-64 0 -113 -74.5t-49 -172.5q0 -53 25.5 -85t68.5 -32q52 0 91.5 43t56 97t16.5 104z" />
    <glyph glyph-name="A" unicode="A" horiz-adv-x="375" 
d="M349 0h-52l-36 215h-148l-37 -215h-52l129 710h68zM252 261l-55 328q-4 22 -10 66q-2 -21 -8 -61l-58 -333h131z" />
    <glyph glyph-name="B" unicode="B" horiz-adv-x="375" 
d="M333 131q0 -69 -35 -101q-35 -30 -98 -30h-141v706h134q65 0 91 -30q24 -28 24 -81v-105q0 -33 -5 -48q-7 -23 -25.5 -37t-27 -16.5t-25.5 -5.5q49 -5 75 -27q33 -28 33 -104v-121zM260 501v85q0 28 -5 41q-13 37 -85 37h-62v-262h48q27 0 48 6q56 17 56 93zM284 153v100
q0 30 -6 48q-21 58 -119 58h-50v-316h83q43 0 65 16q17 13 22 33t5 61z" />
    <glyph glyph-name="C" unicode="C" horiz-adv-x="375" 
d="M334 134q0 -40 -9 -66q-28 -79 -135 -79q-56 0 -86.5 27t-41.5 59q-10 30 -10 85v383q0 30 0.5 43.5t6.5 35t19 38.5q38 53 114 53q96 0 124 -73q10 -25 10 -63v-99h-48v47q0 80 -13 105q-7 15 -26 26q-22 12 -46 12q-28 0 -51 -14q-42 -25 -42 -97v-348v-17v-20
t0.5 -19.5t1.5 -22t3 -19t5.5 -19.5t7.5 -16q9 -18 29 -29q23 -12 51 -12q24 0 44 10q42 22 42 85v113h50v-109z" />
    <glyph glyph-name="D" unicode="D" horiz-adv-x="396" 
d="M342 260q0 -41 -1 -63q-7 -108 -62 -155q-34 -28 -70 -36q-23 -6 -56 -6h-93v706h61q59 0 101 -11t72 -47q28 -34 38 -85.5t10 -145.5v-157zM294 256v162q0 132 -25 179q-23 43 -73 57q-28 7 -50 7h-37v-617h40q52 0 87 24q33 24 45.5 66t12.5 122z" />
    <glyph glyph-name="E" unicode="E" horiz-adv-x="333" 
d="M309 662h-202v-272h166v-43h-166v-303h201v-44h-249v706h250v-44z" />
    <glyph glyph-name="F" unicode="F" 
d="M308 662h-201v-272h177v-43h-177v-347h-48v706h249v-44z" />
    <glyph glyph-name="G" unicode="G" horiz-adv-x="396" 
d="M343 0h-37v56q-11 -16 -18 -23q-40 -43 -100 -43q-72 0 -106 54q-16 24 -21.5 52.5t-5.5 85.5v371q0 86 34 120q10 11 23 19q33 22 90 22q105 0 131 -85q5 -19 5 -52v-98h-47v73q0 52 -10 75q-20 45 -82 45q-38 0 -62 -19q-7 -6 -12.5 -13t-9 -13t-6 -16t-4 -14.5
t-2 -17.5t-0.5 -15.5v-17.5v-16v-334q0 -87 14 -115q8 -17 27 -32.5t50 -15.5q28 0 54 21q46 38 46 112v113h-104v43h153v-322z" />
    <glyph glyph-name="H" unicode="H" horiz-adv-x="396" 
d="M338 0h-49v349h-182v-349h-48v706h48v-314h182v314h49v-706z" />
    <glyph glyph-name="I" unicode="I" horiz-adv-x="167" 
d="M109 0h-51v706h51v-706z" />
    <glyph glyph-name="J" unicode="J" horiz-adv-x="333" 
d="M276 129q0 -18 -1 -27q-4 -62 -48 -92q-29 -20 -70 -20q-33 0 -59 14q-56 30 -56 117v102h48v-92q0 -21 1 -32.5t7.5 -26.5t20.5 -25q17 -13 40 -13q21 0 38 11q31 20 31 71v590h48v-577z" />
    <glyph glyph-name="K" unicode="K" horiz-adv-x="354" 
d="M340 0h-53l-129 366l-52 -98v-268h-48v706h49v-346l176 346h55l-150 -281z" />
    <glyph glyph-name="L" unicode="L" 
d="M291 0h-233v706h49v-662h184v-44z" />
    <glyph glyph-name="M" unicode="M" horiz-adv-x="500" 
d="M445 0h-47l-1 653l-125 -653h-45l-125 653l1 -653h-49l6 706h72l117 -609l117 609h72z" />
    <glyph glyph-name="N" unicode="N" horiz-adv-x="396" 
d="M337 0h-75l-164 667l4 -667h-47v706h72l169 -679l-7 679h48v-706z" />
    <glyph glyph-name="O" unicode="O" horiz-adv-x="396" 
d="M340 144q0 -58 -21 -92q-35 -61 -124 -61q-74 0 -110 43q-31 39 -31 117v398q0 48 11 80q14 43 51 64.5t84 20.5q54 0 90 -26q23 -18 35 -47t13.5 -49.5t1.5 -57.5v-390zM293 163v344q0 86 -17 119q-11 23 -32 33q-19 11 -47 11q-30 0 -54 -15q-41 -27 -41 -96v-389
q0 -56 8 -80q7 -20 29 -37.5t59 -17.5q32 0 55 17q18 13 27 33t11 36t2 42z" />
    <glyph glyph-name="P" unicode="P" horiz-adv-x="375" 
d="M333 469q0 -69 -28 -102q-38 -45 -126 -45h-72v-322h-49v706h110q33 0 46.5 -0.5t38.5 -7t42 -20.5q18 -15 26.5 -37.5t10 -40t1.5 -51.5v-80zM285 469v61q0 54 -5 79t-24 39q-22 17 -75 17h-75v-302h80q52 0 76 25q23 23 23 81z" />
    <glyph glyph-name="Q" unicode="Q" horiz-adv-x="396" 
d="M370 -67l-29 -31l-107 95q-25 -5 -40 -5q-52 0 -87 26q-15 12 -26 29q-18 27 -22.5 64.5t-4.5 117.5v319q0 46 8 73q28 95 139 95q92 0 124 -70q15 -31 15 -86v-391q0 -84 -35 -127q-9 -11 -27 -25zM292 168v393q0 32 -7 51q-10 27 -33.5 43t-53.5 16q-96 0 -96 -128
v-336q0 -99 20 -132q22 -39 73 -39q32 0 55 18q42 32 42 114z" />
    <glyph glyph-name="R" unicode="R" horiz-adv-x="375" 
d="M366 0h-52l-129 344h-77v-344h-49v706h137q67 0 100 -25q39 -30 39 -98v-110q0 -29 -4 -45q-13 -49 -68 -73q-16 -6 -26 -8zM283 461v109q0 66 -32 84q-19 10 -51 10h-92v-278h90q25 0 42 6q43 15 43 69z" />
    <glyph glyph-name="S" unicode="S" horiz-adv-x="375" 
d="M334 156q0 -78 -25 -115q-35 -52 -120 -52q-50 0 -81 17q-12 7 -23 17q-23 20 -35 51q-8 23 -8 57v100h49v-57v-44q6 -98 104 -98q30 0 51 13q39 23 39 103q0 61 -25 101q-17 26 -43 53.5t-37 37.5q-57 56 -81 89q-40 54 -40 131q0 33 4 53q18 103 129 103q51 0 83 -20
q23 -15 34.5 -42t13 -46.5t1.5 -54.5v-51h-48v63q0 33 -3 47q-10 62 -80 62q-30 0 -50 -12q-35 -22 -35 -94q0 -47 13 -75t48 -68q15 -19 48 -53q54 -54 72 -77q45 -57 45 -139z" />
    <glyph glyph-name="T" unicode="T" 
d="M305 662h-125v-662h-50v662h-123v44h298v-44z" />
    <glyph glyph-name="U" unicode="U" horiz-adv-x="396" 
d="M338 140q0 -44 -10 -71q-30 -81 -132 -81q-55 0 -89 26q-12 8 -22 23q-14 19 -20.5 44t-7 38.5t-0.5 47.5v539h48v-547q0 -64 16 -89q23 -36 78 -36q37 0 58 17q23 17 27.5 43.5t4.5 92.5v519h49v-566z" />
    <glyph glyph-name="V" unicode="V" horiz-adv-x="354" 
d="M326 706l-128 -706h-51l-120 706h51l95 -602l103 602h50z" />
    <glyph glyph-name="W" unicode="W" horiz-adv-x="562" 
d="M542 706l-115 -706h-53l-91 607l-91 -607h-51l-120 706h50l95 -600l91 600h52l92 -600l92 600h49z" />
    <glyph glyph-name="X" unicode="X" horiz-adv-x="354" 
d="M330 0h-51l-102 335l-103 -335h-50l128 389l-99 317h51l76 -268l82 268h51l-107 -318z" />
    <glyph glyph-name="Y" unicode="Y" horiz-adv-x="354" 
d="M345 706l-144 -394v-312h-48v312l-139 394h52l113 -332l112 332h54z" />
    <glyph glyph-name="Z" unicode="Z" horiz-adv-x="354" 
d="M318 673l-236 -629h235v-44h-290v32l234 631h-192v43h249v-33z" />
    <glyph glyph-name="bracketleft" unicode="[" horiz-adv-x="229" 
d="M195 -141h-142v847h142v-36h-99v-773h99v-38z" />
    <glyph glyph-name="backslash" unicode="\" 
d="M281 0h-47l-200 706h44z" />
    <glyph glyph-name="bracketright" unicode="]" horiz-adv-x="229" 
d="M176 -141h-141v38h98v773h-101v36h144v-847z" />
    <glyph glyph-name="asciicircum" unicode="^" horiz-adv-x="559" 
d="M483 357h-51l-154 304l-151 -304h-52l180 349h47z" />
    <glyph glyph-name="underscore" unicode="_" horiz-adv-x="500" 
d="M510 -198h-520v43h520v-43z" />
    <glyph glyph-name="grave" unicode="`" horiz-adv-x="229" 
d="M207 569h-32l-153 109h97z" />
    <glyph glyph-name="a" unicode="a" 
d="M296 0q-44 0 -59 14q-10 8 -14 25q-50 -39 -97 -39q-49 0 -73.5 33.5t-24.5 84.5q0 45 18 79q10 19 28 35.5t29 23.5t40 22.5t35 18.5q26 15 44 29v57q0 57 -24 73q-12 9 -40 9q-43 0 -57 -32q-11 -25 -9 -85h-43q0 77 12 103q25 55 103 55q32 0 59 -14q27 -15 35 -38
t8 -59v-338q1 -8 6.5 -12t9.5 -4.5t14 -0.5v-40zM223 87v192q-14 -11 -32 -21q-9 -6 -26 -14.5t-24 -12.5q-36 -22 -53 -48t-17 -66q0 -10 1.5 -19.5t7.5 -24.5t20.5 -24t36.5 -9q43 0 86 47z" />
    <glyph glyph-name="b" unicode="b" horiz-adv-x="333" 
d="M284 116q0 -42 -19 -71q-30 -48 -87 -48q-30 0 -52 14q-12 9 -19 16q-4 5 -10 15v-42h-45v706h42v-246l6 8l11 11q29 30 76 30q26 0 47 -11q50 -25 50 -122v-260zM242 131v248q0 90 -67 90q-57 0 -75 -55q-5 -18 -5 -36v-243q0 -35 17 -63q24 -37 63 -37q32 0 51 28
q16 23 16 68z" />
    <glyph glyph-name="c" unicode="c" 
d="M275 127q0 -39 -6 -57q-22 -73 -116 -73q-37 0 -66 19q-21 14 -32 37t-13 42t-2 49v232q0 33 8 57q23 70 108 70q115 0 115 -135v-44h-42v39q0 24 -4 44q-13 59 -68 59q-53 0 -68 -48q-6 -17 -6 -45v-216q0 -51 7 -73q16 -47 72 -47q51 0 65 44q5 15 5 38v73h43v-65z" />
    <glyph glyph-name="d" unicode="d" horiz-adv-x="333" 
d="M280 0h-40v53q-4 -9 -16 -23q-28 -34 -76 -34q-52 0 -79 39q-21 30 -21 88v253q0 78 44 109q23 18 57 18q9 0 17 -1t15 -3.5t12.5 -4.5t11 -6t9 -6.5t8 -7.5t6.5 -6.5t6 -6.5l4 -5v250h42v-706zM238 107v267l-2 7q-1 7 -2 12.5t-4 15t-7 16.5t-11 15t-15 13
q-17 10 -38 10q-23 0 -40.5 -14t-24.5 -37q-4 -12 -4 -37v-244q0 -59 26 -82q18 -15 43 -15q31 0 52 21.5t27 51.5z" />
    <glyph glyph-name="e" unicode="e" 
d="M273 118q0 -49 -22 -78q-31 -41 -94 -41q-23 0 -43 6q-9 3 -19.5 8.5t-24 20t-19.5 32.5q-8 20 -8 56v264q0 26 6 47q23 73 108 73q65 0 96 -44q20 -30 20 -114v-101h-188v-124q0 -21 4 -36q15 -49 71 -49q31 0 50 18q10 10 14 22q7 19 7 97h42v-57zM230 283v92
q0 58 -28 79q-20 14 -44 14q-26 0 -44 -14q-29 -23 -29 -83v-88h145z" />
    <glyph glyph-name="f" unicode="f" horiz-adv-x="187" 
d="M191 665q-59 7 -71 -36q-2 -9 -2 -26v-100h62v-40h-64v-463h-42v463h-57v40h60v119q0 52 41 73q20 11 48 11q9 0 25 -2v-39z" />
    <glyph glyph-name="g" unicode="g" horiz-adv-x="333" 
d="M281 -24q0 -39 -7 -59q-26 -75 -117 -75q-31 0 -59.5 12.5t-40.5 38.5q-8 17 -11 56h43q0 -1 0.5 -7.5t2 -14.5t4.5 -15q15 -29 62 -29q56 0 74 42q6 14 6 37v83l-5 -5l-7 -7t-8 -7t-10 -7.5t-11 -6.5t-14 -6t-15.5 -3.5t-17.5 -1.5q-30 0 -54 15q-21 13 -31.5 36t-12 40
t-1.5 48v254q0 30 7 52q21 62 96 62q51 0 84 -46v41h43v-527zM239 117v282q-6 30 -27 50.5t-51 19.5q-21 0 -37 -10q-14 -10 -21.5 -26.5t-8.5 -28.5t-1 -34v-232q0 -64 26 -84q17 -12 41 -12q42 0 66 40q7 13 13 35z" />
    <glyph glyph-name="h" unicode="h" horiz-adv-x="333" 
d="M286 0h-43v373q0 18 -1 28.5t-5 25t-13.5 24t-24.5 13.5q-9 3 -22 3q-48 0 -71 -42q-9 -15 -9 -25v-400h-43v706h43l1 -242q25 28 51 38q20 7 39 7q15 0 36 -6q44 -17 57 -61q5 -16 5 -43v-399z" />
    <glyph glyph-name="i" unicode="i" horiz-adv-x="146" 
d="M94 562h-43v78h43v-78zM93 0h-42v503h42v-503z" />
    <glyph glyph-name="j" unicode="j" horiz-adv-x="167" 
d="M112 561h-42v78h42v-78zM112 -31q0 -70 -37 -102q-8 -8 -32 -20q-15 -7 -36 -10v43q25 6 39 20q9 9 14.5 19t7.5 26t2 21v26v511h42v-534z" />
    <glyph glyph-name="k" unicode="k" 
d="M300 0h-47l-110 265l-48 -78v-187h-43v706h42v-439l145 236h49l-117 -192z" />
    <glyph glyph-name="l" unicode="l" horiz-adv-x="146" 
d="M94 0h-42v706h42v-706z" />
    <glyph glyph-name="m" unicode="m" horiz-adv-x="521" 
d="M471 0h-43v360q0 49 -4.5 69.5t-23.5 31.5q-13 8 -35 8q-42 -1 -66 -33q-9 -12 -16 -29v-407h-43v397q0 20 -4 31q-6 20 -22.5 31t-37.5 11q-35 0 -61 -26q-10 -10 -20 -29v-415h-42v503h43v-42q4 5 16 17q34 31 78 31q26 0 46 -13t26 -22.5t14 -24.5q42 61 101 61
t82 -50q12 -25 12 -104v-356z" />
    <glyph glyph-name="n" unicode="n" horiz-adv-x="333" 
d="M285 0h-42v403l-1 11q-2 12 -4 20q-15 39 -57 38q-45 0 -71 -38q-6 -8 -13 -25v-409h-42v503h42v-48q8 13 19 24q30 30 74 30q73 -2 90 -64q5 -18 5 -41v-404z" />
    <glyph glyph-name="o" unicode="o" 
d="M274 142q0 -42 -7 -65q-7 -25 -22.5 -42.5t-34 -24.5t-31 -9.5t-24.5 -2.5q-35 0 -65 16t-42 46q-9 21 -9 61v264q0 48 21 76q32 45 100 45q54 0 84 -29q14 -14 23 -37q7 -20 7 -58v-240zM231 126v252q0 54 -29 74q-16 12 -42 12q-30 0 -48 -14q-14 -10 -21 -25.5t-8 -27
t-1 -32.5v-243q0 -20 3 -33q13 -50 70 -50q51 0 69 43q7 18 7 44z" />
    <glyph glyph-name="p" unicode="p" horiz-adv-x="333" 
d="M285 113q0 -25 -8 -49q-10 -31 -35.5 -49t-58.5 -18q-38 0 -66 23q-9 7 -20 21v-204h-43v666h43v-44q2 2 4.5 5.5t5 6.5t5.5 6q34 31 78 31q33 0 56 -19q19 -15 28 -40t10 -42t1 -50v-244zM242 135v256q0 13 -3 28q-13 50 -62 50q-49 -1 -71 -42q-7 -11 -9 -23v-310
q4 -13 10 -22q24 -35 68 -35q20 0 37 10q30 19 30 88z" />
    <glyph glyph-name="q" unicode="q" horiz-adv-x="333" 
d="M278 -163h-42v209q-30 -49 -91 -49q-48 0 -75 37q-21 29 -21 91v247q0 20 1 31q4 51 34 80q26 26 69 26q45 0 70 -28q4 -4 6.5 -7.5t4.5 -7t3 -4.5v41h41v-666zM237 125v240l-1 7q0 6 -0.5 11t-2 13.5t-4.5 16t-7 16t-10.5 15.5t-14.5 13q-18 12 -38 12q-28 0 -48 -22
q-20 -24 -20 -80v-204q0 -69 9 -90q17 -38 57 -38q25 0 44.5 15.5t28.5 39.5q3 10 7 35z" />
    <glyph glyph-name="r" unicode="r" horiz-adv-x="208" 
d="M199 459q-30 -9 -39 -15q-38 -22 -65 -89v-355h-42v503h41v-88q11 24 30 47q30 31 75 54v-57z" />
    <glyph glyph-name="s" unicode="s" horiz-adv-x="292" 
d="M265 123q0 -84 -57 -112q-29 -13 -60 -13q-43 0 -73 18q-12 8 -22 18q-6 8 -10 17q-15 30 -15 83v43h42v-29q0 -60 14 -81q7 -12 20 -18q19 -10 44 -10q23 0 36 6q38 16 38 78q0 27 -9.5 47.5t-19.5 29.5t-37 32q-40 32 -72 64q-37 42 -37 101q0 108 106 108
q30 0 51.5 -10t31.5 -22t15.5 -32.5t6 -30t0.5 -26.5v-34h-43v36q0 62 -35 75q-11 4 -28 4q-62 0 -62 -64q0 -44 21 -68q17 -22 75 -70q30 -24 44 -38q35 -37 35 -102z" />
    <glyph glyph-name="t" unicode="t" horiz-adv-x="187" 
d="M181 0q-40 -4 -67 -1t-40 17q-12 14 -12 41v406h-53v40h53v130h43v-130h76v-40h-76v-396q0 -29 38 -29q12 0 38 2v-40z" />
    <glyph glyph-name="u" unicode="u" horiz-adv-x="333" 
d="M279 0h-43v47q-12 -15 -16 -19q-33 -31 -75 -31q-49 0 -75 37q-20 27 -20 81v388h42v-372q0 -73 38 -91q10 -6 28 -6q39 0 61 31q10 14 17 34v404h43v-503z" />
    <glyph glyph-name="v" unicode="v" horiz-adv-x="271" 
d="M254 503l-96 -503h-49l-95 503h44l76 -437l74 437h46z" />
    <glyph glyph-name="w" unicode="w" horiz-adv-x="437" 
d="M425 503l-97 -503h-43l-66 411l-72 -411h-44l-89 503h43l69 -431l76 431h35l68 -431l76 431h44z" />
    <glyph glyph-name="x" unicode="x" 
d="M277 0h-47l-85 226l-86 -226h-47l109 262l-100 241h46l78 -198l80 198h46l-101 -236z" />
    <glyph glyph-name="y" unicode="y" horiz-adv-x="292" 
d="M280 503l-129 -560q-12 -51 -35 -75q-31 -32 -107 -32l1 42q69 -9 93 40q6 11 9 28l13 58l-110 499h43l88 -418l89 418h45z" />
    <glyph glyph-name="z" unicode="z" horiz-adv-x="292" 
d="M260 468l-175 -426h174v-42h-223v38l173 423h-159v42h210v-35z" />
    <glyph glyph-name="braceleft" unicode="{" horiz-adv-x="354" 
d="M277 -140q-64 6 -96 43t-36 89.5t-1.5 106t-4.5 99t-34 60.5q-16 8 -28 9v33q25 5 35 13q30 22 30 120v88q0 82 29 131t106 54v-31q-43 -11 -63 -31.5t-26 -64.5q-6 -39 -3.5 -87.5t-2.5 -104t-23 -77.5q-14 -16 -35 -25v-3q24 -10 38 -31q22 -31 22.5 -141.5t3.5 -127.5
q8 -41 28 -61t61 -29v-32z" />
    <glyph glyph-name="bar" unicode="|" horiz-adv-x="229" 
d="M136 -250h-43v998h43v-998z" />
    <glyph glyph-name="braceright" unicode="}" horiz-adv-x="354" 
d="M277 267q-24 -4 -34 -12q-33 -22 -33 -121q0 -10 0.5 -42.5t0.5 -46.5t-2.5 -43t-7.5 -43.5t-15 -35.5t-24 -31.5t-35.5 -20t-49.5 -11.5v32q56 11 74.5 48t18.5 101v41q0 134 19 166q15 25 41 34v3q-19 7 -34 25q-18 21 -23.5 78t-2.5 107.5t-4 88.5q-8 42 -27.5 61
t-61.5 30v31q22 -1 40 -6.5t31 -12.5t23 -20t16.5 -23t11.5 -29t7 -30t3 -34t1 -33.5v-35v-32.5q0 -116 32 -138q12 -8 35 -12v-33z" />
    <glyph glyph-name="asciitilde" unicode="~" horiz-adv-x="568" 
d="M501 315q-28 -34 -55 -51q-31 -20 -67 -20t-93 26l-26 12q-48 22 -78 22q-38 0 -77 -47l-6 -6l-33 26q25 30 42 44q32 27 78 27q34 0 76 -18l58 -25q41 -18 61 -18q39 0 87 55z" />
    <glyph glyph-name="exclamdown" unicode="&#xa1;" horiz-adv-x="187" 
d="M92 618h-45v88h45v-88zM97 0h-49v385l9 136h26l14 -146v-375z" />
    <glyph glyph-name="cent" unicode="&#xa2;" 
d="M275 127v-3q1 -115 -102 -126v-69h-29v68q-40 5 -61 22q-25 20 -34 47.5t-9 77.5v232q0 64 26.5 91.5t71.5 34.5v62h29v-61q42 -4 66 -25t31 -46.5t7 -63.5v-44h-42v38q0 64 -27 88q-18 16 -45 16q-74 0 -74 -93v-224q0 -24 2 -39.5t9 -34.5t24 -28.5t44 -9.5q70 0 70 82
v73h43v-65z" />
    <glyph glyph-name="sterling" unicode="&#xa3;" horiz-adv-x="399" 
d="M376 7q-50 -11 -97 -11h-7t-5 0.5t-10 1t-20 1.5l-88 5q-27 2 -46 2q-36 0 -73 -6v49q41 8 68 19q90 38 90 144q0 33 -11 61q-7 17 -28 46h-113v37h89q-22 37 -28 70.5t-6 108.5q0 65 11.5 100.5t40.5 55.5q31 22 78 22q81 0 107 -65q9 -22 12 -45q3 -27 3 -58v-59h-46
v14q0 90 -7 119q-12 52 -73 52q-53 0 -70 -41q-10 -24 -10 -92q0 -98 15 -135q6 -16 27 -47h121v-37h-97q33 -50 33 -104q0 -112 -101 -166q28 -1 44 -3q16 -1 38.5 -3t36 -3t20.5 -1q6 0 51 3q18 2 51 9v-44z" />
    <glyph glyph-name="currency" unicode="&#xa4;" horiz-adv-x="619" 
d="M562 102l-35 -35l-66 74q-70 -58 -153 -58q-82 0 -150 57l-68 -70l-34 36l69 71q-55 70 -55 163q0 89 54 162l-68 74l36 33l66 -71q68 58 153 58q81 0 150 -57l68 70l33 -35l-67 -72q54 -74 54 -164q0 -84 -55 -161zM499 339q0 93 -53.5 154t-135.5 61q-81 0 -136 -61.5
t-55 -152.5q0 -92 55.5 -153.5t138.5 -61.5q80 0 133 61.5t53 152.5z" />
    <glyph glyph-name="yen" unicode="&#xa5;" horiz-adv-x="354" 
d="M345 706l-109 -298h86v-43h-101l-16 -43v-17h117v-43h-121v-262h-48v262h-121v43h118v17l-15 43h-103v43h87l-105 298h52l114 -333l118 333h47z" />
    <glyph glyph-name="brokenbar" unicode="&#xa6;" horiz-adv-x="229" 
d="M136 308h-43v439h43v-439zM136 -250h-43v440h43v-440z" />
    <glyph glyph-name="section" unicode="&#xa7;" horiz-adv-x="375" 
d="M343 284q0 -59 -48 -119q33 -33 33 -102q0 -77 -32 -117.5t-109 -40.5q-80 0 -111 38t-31 118v53h45v-54q0 -30 1 -41.5t9.5 -29.5t27.5 -30q22 -14 57 -14q54 0 76 26.5t22 80.5q0 34 -6 51.5t-18 28t-44 29.5q-9 5 -41.5 23t-48 28.5t-38 29t-32.5 40.5t-10 48
q0 70 64 114q-30 24 -41.5 50.5t-11.5 66.5q0 77 33.5 115.5t108.5 38.5q89 0 118 -57q11 -22 11 -62v-81h-44v73q0 45 -20.5 64.5t-66.5 19.5q-53 0 -74.5 -28t-21.5 -83q0 -34 13 -54.5t43 -40.5q17 -11 47 -27t51 -28t43.5 -30t34 -42.5t11.5 -54.5zM299 264
q0 17 -2.5 30.5t-9.5 25t-11.5 18.5t-18 16t-19 13t-24 14t-24.5 13q-42 24 -55 33q-47 -24 -47 -89q0 -30 17 -51q8 -10 32.5 -27t44 -28t53 -29.5t36.5 -20.5q28 35 28 82z" />
    <glyph glyph-name="dieresis" unicode="&#xa8;" horiz-adv-x="229" 
d="M188 585h-48v77h48v-77zM89 585h-48v77h48v-77z" />
    <glyph glyph-name="copyright" unicode="&#xa9;" horiz-adv-x="833" 
d="M773 351q0 -149 -104.5 -251.5t-252.5 -102.5q-149 0 -252 104t-103 254q0 149 103 251.5t253 102.5q149 0 252.5 -102.5t103.5 -250.5v-5zM741 351q0 137 -93.5 231.5t-229.5 94.5t-230.5 -94.5t-94.5 -230.5q0 -134 95 -228.5t229 -94.5t229 94.5t95 227.5zM526 247
q0 -48 -6.5 -68.5t-25.5 -36.5q-30 -23 -82 -23q-54 0 -84 27q-19 16 -25.5 38.5t-6.5 73.5v183q0 51 6 73t26 39q32 27 84 27q53 0 82 -24q19 -16 25.5 -36.5t6.5 -67.5v-35h-49v34q0 49 -11 62q-14 19 -55 19q-36 0 -51 -17q-14 -14 -14 -65v-202q0 -50 14 -65
q15 -16 51 -16q41 0 55 19q11 12 11 61v39h49v-39z" />
    <glyph glyph-name="ordfeminine" unicode="&#xaa;" horiz-adv-x="187" 
d="M176 421q-2 0 -6 -0.5t-6 -0.5q-24 0 -37 18q-27 -18 -51 -18q-29 0 -44.5 21.5t-15.5 48.5q0 10 1 19t4.5 16.5t6 13t8.5 11.5t8.5 9t11 8t10 6.5t10.5 6.5l10 5q30 17 41 25v26q0 15 -1 23t-9 16t-23 8q-23 0 -29 -15.5t-6 -50.5h-31v20q0 75 67 76q29 0 41 -10
q5 -4 9 -8t6.5 -7.5t4 -9t2.5 -8t1.5 -9t0.5 -8.5v-9v-8v-173q0 -14 16 -14v-28zM127 474v98q-45 -20 -61 -37t-16 -43q0 -20 9.5 -30t23.5 -10q18 -1 44 22z" />
    <glyph glyph-name="guillemotleft" unicode="&#xab;" horiz-adv-x="375" 
d="M352 393l-122 -100l117 -100h-56l-123 100l125 100h59zM213 393l-126 -99l122 -101h-60l-122 100l125 100h61z" />
    <glyph glyph-name="logicalnot" unicode="&#xac;" horiz-adv-x="559" 
d="M475 89h-45v185h-364v41h409v-226z" />
    <glyph glyph-name="registered" unicode="&#xae;" horiz-adv-x="833" 
d="M773 351q0 -149 -104.5 -251.5t-252.5 -102.5q-149 0 -252 104t-103 254q0 149 103 251.5t253 102.5q149 0 252.5 -102.5t103.5 -250.5v-5zM741 351q0 137 -93.5 231.5t-229.5 94.5t-230.5 -94.5t-94.5 -230.5q0 -134 95 -228.5t229 -94.5t229 94.5t95 227.5zM554 126
h-56l-94 200h-36v-200h-51v449h70q34 0 47 -1q42 -1 65 -19q39 -30 39 -101q0 -50 -24 -85q-19 -26 -58 -37zM486 452q0 46 -21 64q-16 13 -66 13h-31v-159h23q53 0 71 14q24 19 24 68z" />
    <glyph glyph-name="macron" unicode="&#xaf;" horiz-adv-x="229" 
d="M209 585h-189v42h189v-42z" />
    <glyph glyph-name="degree" unicode="&#xb0;" horiz-adv-x="354" 
d="M319 602q0 -59 -41.5 -100.5t-100.5 -41.5t-100.5 41.5t-41.5 100.5q0 58 41.5 100t100.5 42t100.5 -41.5t41.5 -100.5zM275 602q0 40 -28.5 68.5t-69.5 28.5q-40 0 -68.5 -28.5t-28.5 -68.5t28.5 -69t68.5 -29q41 0 69.5 29t28.5 69z" />
    <glyph glyph-name="plusminus" unicode="&#xb1;" horiz-adv-x="559" 
d="M474 274h-173v-183h-42v183h-174v42h174v184l42 -1v-183h173v-42zM474 0h-389v42h389v-42z" />
    <glyph glyph-name="twosuperior" unicode="&#xb2;" horiz-adv-x="229" 
d="M195 265h-170v35q3 21 32 65q13 19 36 51t30 44t18 35t14 44t3 51v3v4q0 20 -1 32.5t-11.5 28t-30.5 15.5q-44 0 -44 -60v-54h-36v54q0 20 1 31.5t10 28t27 27.5q15 9 43 9q79 0 79 -102q0 -60 -4 -80q-2 -13 -8 -27.5t-10.5 -25t-15.5 -28.5t-15.5 -24.5t-19.5 -28.5
t-18 -26q-33 -46 -40 -67h131v-35z" />
    <glyph glyph-name="threesuperior" unicode="&#xb3;" horiz-adv-x="229" 
d="M205 403q0 -58 -5.5 -84t-30.5 -45q-21 -15 -55 -15q-91 0 -91 119q0 6 0.5 14.5t0.5 13.5h36q0 -25 0.5 -38t3.5 -29.5t8.5 -24.5t16 -14t25.5 -6q54 0 54 73v41q0 24 -6.5 39t-21 22.5t-27.5 10t-35 3.5v37q82 0 82 66v33v4v7t-0.5 8.5t-2 10t-4.5 9t-7.5 8t-11 5.5
t-15.5 2q-24 0 -32.5 -13t-9.5 -37l-1 -50h-36v45q0 91 79 91q25 0 43 -10q21 -13 28.5 -30.5t7.5 -51.5q0 -54 -9 -76t-44 -38q33 -13 46.5 -34t13.5 -66z" />
    <glyph glyph-name="acute" unicode="&#xb4;" horiz-adv-x="229" 
d="M204 676l-143 -109h-36l84 109h95z" />
    <glyph glyph-name="mu" unicode="&#xb5;" horiz-adv-x="333" 
d="M310 -1h-5q-37 0 -50.5 9t-16.5 36q-33 -46 -85 -46q-38 0 -61 27v-188h-42v666h42v-384q0 -41 17.5 -63t48.5 -22q28 0 45.5 14.5t32.5 50.5v404h42v-430q0 -22 4 -28t19 -6h9v-40z" />
    <glyph glyph-name="paragraph" unicode="&#xb6;" horiz-adv-x="627" 
d="M495 664h-33v-831h-44v831h-135v-831h-45v505q-69 9 -107 56t-38 122q0 62 30 109t83 67q36 14 96 14h193v-42z" />
    <glyph glyph-name="periodcentered" unicode="&#xb7;" horiz-adv-x="146" 
d="M94 244h-44v90h44v-90z" />
    <glyph glyph-name="cedilla" unicode="&#xb8;" horiz-adv-x="229" 
d="M195 -98q-1 -22 -18 -42t-53 -20t-90 30l19 23q36 -20 54 -20q19 1 27.5 11.5t8.5 21.5t-6 19q-3 4 -8 8t-10 6t-10.5 4t-9 3t-7.5 2h-4l5 78h33l-3 -51q44 -12 61 -39q11 -16 11 -34z" />
    <glyph glyph-name="onesuperior" unicode="&#xb9;" horiz-adv-x="229" 
d="M146 265h-39v372q-29 -21 -64 -27v35q34 9 47.5 23t21.5 39h34v-442z" />
    <glyph glyph-name="ordmasculine" unicode="&#xba;" horiz-adv-x="187" 
d="M164 500q0 -82 -74 -81q-69 1 -68 78v1.5v1.5v131q0 83 71 83t71 -76v-138zM130 500v131q0 12 -1 19.5t-4 16t-11.5 12.5t-21.5 4q-20 -1 -29 -12.5t-9 -39.5v-131q0 -48 38 -49q38 -2 38 49z" />
    <glyph glyph-name="guillemotright" unicode="&#xbb;" horiz-adv-x="375" 
d="M348 293l-126 -102h-63l129 101l-122 99h61zM205 293l-124 -102h-61l124 102l-116 98h55z" />
    <glyph glyph-name="onequarter" unicode="&#xbc;" horiz-adv-x="583" 
d="M583 132h-52v-132h-37v132h-123v43l113 266h47v-274h52v-35zM483 774l-367 -844l-25 11l367 845zM146 265h-39v372q-29 -21 -64 -27v35q34 9 47.5 23t21.5 39h34v-442zM494 167v221l-90 -221h90z" />
    <glyph glyph-name="onehalf" unicode="&#xbd;" horiz-adv-x="583" 
d="M550 0h-171v35q6 23 27 57q15 22 37 53t31 45t20 36.5t14.5 45t3.5 53.5v3v4q0 21 -1 33.5t-11.5 27.5t-30.5 15q-44 0 -44 -60v-54h-36v54q0 21 1.5 33t11 28.5t28.5 26.5q22 12 40 8q79 0 79 -102q0 -78 -14 -114.5t-72 -118.5q-39 -55 -45 -74h132v-35zM474 774
l-367 -844l-25 11l367 845zM146 265h-39v372q-29 -21 -64 -27v35q34 9 47.5 23t21.5 39h34v-442z" />
    <glyph glyph-name="threequarters" unicode="&#xbe;" horiz-adv-x="583" 
d="M583 132h-52v-132h-37v132h-123v43l113 266h47v-274h52v-35zM504 774l-368 -844l-24 11l366 845zM205 403q0 -58 -5.5 -84t-30.5 -45q-21 -15 -55 -15q-91 0 -91 119q0 6 0.5 14.5t0.5 13.5h36q0 -25 0.5 -38t3.5 -29.5t8.5 -24.5t16 -14t25.5 -6q54 0 54 73v41
q0 24 -6.5 39t-21 22.5t-27.5 10t-35 3.5v37q82 0 82 66v33v4v7t-0.5 8.5t-2 10t-4.5 9t-7.5 8t-11 5.5t-15.5 2q-24 0 -32.5 -13t-9.5 -37l-1 -50h-36v45q0 91 79 91q25 0 43 -10q21 -13 28.5 -30.5t7.5 -51.5q0 -54 -9 -76t-44 -38q33 -13 46.5 -34t13.5 -66zM494 167v221
l-90 -221h90z" />
    <glyph glyph-name="questiondown" unicode="&#xbf;" horiz-adv-x="354" 
d="M184 616h-47v90h47v-90zM282 225q4 -35 1.5 -91.5t-20.5 -87.5q-33 -57 -103 -57q-76 0 -106 65q-18 38 -18 137q0 51 8.5 81.5t36.5 69.5q37 52 42 61q11 20 14 52v78h47v-85q0 -38 -21 -69l-24 -35q-11 -15 -23 -34q-11 -16 -16.5 -26.5t-11 -33t-5.5 -51.5
q0 -39 3 -77q7 -68 45 -85q13 -6 31 -6q22 0 39 13q36 28 36 120q0 21 -2 61h47z" />
    <glyph glyph-name="Agrave" unicode="&#xc0;" horiz-adv-x="375" 
d="M245 771h-33l-152 109h97zM349 0h-52l-36 215h-148l-37 -215h-52l129 710h68zM252 261l-55 328q-4 22 -10 66q-2 -21 -8 -61l-58 -333h131z" />
    <glyph glyph-name="Aacute" unicode="&#xc1;" horiz-adv-x="375" 
d="M305 878l-142 -109h-36l84 109h94zM349 0h-52l-36 215h-148l-37 -215h-52l129 710h68zM252 261l-55 328q-4 22 -10 66q-2 -21 -8 -61l-58 -333h131z" />
    <glyph glyph-name="Acircumflex" unicode="&#xc2;" horiz-adv-x="375" 
d="M285 770h-39l-59 68l-61 -69h-41l77 109h51zM349 0h-52l-36 215h-148l-37 -215h-52l129 710h68zM252 261l-55 328q-4 22 -10 66q-2 -21 -8 -61l-58 -333h131z" />
    <glyph glyph-name="Atilde" unicode="&#xc3;" horiz-adv-x="375" 
d="M299 842q-10 -16 -16 -23q-29 -39 -58 -39q-8 0 -63 19q-12 6 -24 6q-22 0 -44 -26l-15 13q36 55 74 55q19 0 42 -10q28 -14 41 -14q11 0 19 4q7 4 28 28zM349 0h-52l-36 215h-148l-37 -215h-52l129 710h68zM252 261l-55 328q-4 22 -10 66q-2 -21 -8 -61l-58 -333h131z
" />
    <glyph glyph-name="Adieresis" unicode="&#xc4;" horiz-adv-x="375" 
d="M287 789h-52v76h52v-76zM139 789h-52v76h52v-76zM349 0h-52l-36 215h-148l-37 -215h-52l129 710h68zM252 261l-55 328q-4 22 -10 66q-2 -21 -8 -61l-58 -333h131z" />
    <glyph glyph-name="Aring" unicode="&#xc5;" horiz-adv-x="375" 
d="M253 814q0 -28 -19.5 -47t-46.5 -19q-28 0 -47 19t-19 47t19.5 47t46.5 19q28 0 47 -19.5t19 -46.5zM349 0h-52l-36 215h-148l-37 -215h-52l129 710h68zM231 814q0 19 -13 31.5t-31 12.5q-19 0 -31.5 -13t-12.5 -31q0 -19 13 -32q13 -12 31 -12q19 0 31.5 13t12.5 31z
M252 261l-55 328q-4 22 -10 66q-2 -21 -8 -61l-58 -333h131z" />
    <glyph glyph-name="AE" unicode="&#xc6;" horiz-adv-x="500" 
d="M480 0h-225v306h-108l-75 -306h-51l181 706h261v-43h-159v-273h146v-44h-146v-302h176v-44zM255 347v316h-18l-80 -316h98z" />
    <glyph glyph-name="Ccedilla" unicode="&#xc7;" horiz-adv-x="375" 
d="M334 134q0 -19 -1 -32.5t-8.5 -35.5t-20.5 -36t-39.5 -26t-63.5 -15l-1 -14q69 -17 72 -69q1 -22 -16 -44t-54 -22q-12 0 -23.5 2t-22.5 6.5t-18 7.5t-16.5 8.5t-10.5 5.5l19 23q38 -20 52 -20q19 -1 28.5 10t9.5 23q0 30 -55 42l3 43q-47 6 -72.5 31.5t-34.5 54.5
q-3 10 -5 23t-2.5 23t-0.5 11q0 16 -1 26v383v8q0 31 1.5 48t14 44t37.5 45q34 25 87 25q98 0 126 -78q3 -9 5 -23.5t3 -24.5v-10v-99h-48v46v18.5v21t-1 20.5t-3.5 22t-6 19t-10 18t-15.5 12.5t-21.5 9.5t-27.5 3q-38 0 -65.5 -23.5t-27.5 -79.5v-355q0 -3 -0.5 -23.5
t0 -28.5t2.5 -28t5.5 -29.5t10.5 -24.5t17.5 -22.5t26 -13t35.5 -5.5q87 0 87 95v113h50v-109z" />
    <glyph glyph-name="Egrave" unicode="&#xc8;" horiz-adv-x="333" 
d="M224 771h-33l-152 109h97zM309 662h-202v-272h166v-43h-166v-303h201v-44h-249v706h250v-44z" />
    <glyph glyph-name="Eacute" unicode="&#xc9;" horiz-adv-x="333" 
d="M300 878l-142 -109h-37l85 109h94zM309 662h-202v-272h166v-43h-166v-303h201v-44h-249v706h250v-44z" />
    <glyph glyph-name="Ecircumflex" unicode="&#xca;" horiz-adv-x="333" 
d="M275 770h-40l-58 68l-61 -69h-42l78 109h50zM309 662h-202v-272h166v-43h-166v-303h201v-44h-249v706h250v-44z" />
    <glyph glyph-name="Edieresis" unicode="&#xcb;" horiz-adv-x="333" 
d="M278 789h-52v76h52v-76zM130 789h-52v76h52v-76zM309 662h-202v-272h166v-43h-166v-303h201v-44h-249v706h250v-44z" />
    <glyph glyph-name="Igrave" unicode="&#xcc;" horiz-adv-x="167" 
d="M141 771h-33l-152 109h97zM109 0h-51v706h51v-706z" />
    <glyph glyph-name="Iacute" unicode="&#xcd;" horiz-adv-x="167" 
d="M201 878l-142 -109h-37l85 109h94zM109 0h-51v706h51v-706z" />
    <glyph glyph-name="Icircumflex" unicode="&#xce;" horiz-adv-x="167" 
d="M181 770h-39l-59 68l-61 -69h-41l77 109h51zM109 0h-51v706h51v-706z" />
    <glyph glyph-name="Idieresis" unicode="&#xcf;" horiz-adv-x="167" 
d="M184 789h-51v76h51v-76zM36 789h-52v76h52v-76zM109 0h-51v706h51v-706z" />
    <glyph glyph-name="Eth" unicode="&#xd0;" horiz-adv-x="396" 
d="M341 252q0 -41 -1 -64t-11.5 -62t-30.5 -64q-33 -41 -83 -54q-28 -8 -73 -8h-82v370h-61v42h60v294h82q49 0 86 -11.5t68 -49.5q27 -33 36.5 -86.5t9.5 -144.5v-162zM293 251v168q0 88 -9.5 135t-41.5 75q-36 32 -101 32h-33v-249h110v-42h-110v-325h42q40 0 66 12
q27 13 44.5 35.5t23.5 53.5t7.5 49.5t1.5 48.5v7z" />
    <glyph glyph-name="Ntilde" unicode="&#xd1;" horiz-adv-x="396" 
d="M309 842q-10 -16 -15 -23q-29 -39 -59 -39q-6 0 -63 19q-12 6 -24 6q-21 0 -43 -26l-16 13q12 17 20 26.5t23 19t31 9.5q19 0 42 -10q30 -14 42 -14q10 0 18 4q4 2 7 4.5t5.5 5.5t7.5 8.5t9 9.5zM337 0h-75l-164 667l4 -667h-47v706h72l169 -679l-7 679h48v-706z" />
    <glyph glyph-name="Ograve" unicode="&#xd2;" horiz-adv-x="396" 
d="M255 771h-32l-153 109h97zM340 144q0 -58 -21 -92q-35 -61 -124 -61q-74 0 -110 43q-31 39 -31 117v398v15q1 16 3.5 33.5t7.5 31.5q14 43 51 64.5t84 20.5q54 0 90 -26q23 -18 35 -47t13.5 -49.5t1.5 -57.5v-390zM293 163v344q0 86 -17 119q-11 23 -32 33q-19 11 -47 11
q-30 0 -54 -15q-41 -27 -41 -96v-389q0 -56 8 -80q7 -20 29 -37.5t59 -17.5q32 0 55 17q18 13 27 33t11 36t2 42z" />
    <glyph glyph-name="Oacute" unicode="&#xd3;" horiz-adv-x="396" 
d="M315 878l-142 -109h-36l84 109h94zM340 144q0 -58 -21 -92q-35 -61 -124 -61q-74 0 -110 43q-31 39 -31 117v398v15q1 16 3.5 33.5t7.5 31.5q14 43 51 64.5t84 20.5q54 0 90 -26q23 -18 35 -47t13.5 -49.5t1.5 -57.5v-390zM293 163v344q0 86 -17 119q-11 23 -32 33
q-19 11 -47 11q-30 0 -54 -15q-41 -27 -41 -96v-389q0 -56 8 -80q7 -20 29 -37.5t59 -17.5q32 0 55 17q18 13 27 33t11 36t2 42z" />
    <glyph glyph-name="Ocircumflex" unicode="&#xd4;" horiz-adv-x="396" 
d="M296 770h-40l-59 68l-61 -69h-41l78 109h50zM340 144q0 -58 -21 -92q-35 -61 -124 -61q-74 0 -110 43q-31 39 -31 117v398v15q1 16 3.5 33.5t7.5 31.5q14 43 51 64.5t84 20.5q54 0 90 -26q23 -18 35 -47t13.5 -49.5t1.5 -57.5v-390zM293 163v344q0 86 -17 119
q-11 23 -32 33q-19 11 -47 11q-30 0 -54 -15q-41 -27 -41 -96v-389q0 -56 8 -80q7 -20 29 -37.5t59 -17.5q32 0 55 17q18 13 27 33t11 36t2 42z" />
    <glyph glyph-name="Otilde" unicode="&#xd5;" horiz-adv-x="396" 
d="M309 842q-10 -16 -15 -23q-29 -39 -59 -39q-6 0 -63 19q-12 6 -24 6q-21 0 -43 -26l-16 13q12 17 20 26.5t23 19t31 9.5q19 0 42 -10q30 -14 42 -14q10 0 18 4q4 2 7 4.5t5.5 5.5t7.5 8.5t9 9.5zM340 144q0 -58 -21 -92q-35 -61 -124 -61q-74 0 -110 43q-31 39 -31 117
v398v15q1 16 3.5 33.5t7.5 31.5q14 43 51 64.5t84 20.5q54 0 90 -26q23 -18 35 -47t13.5 -49.5t1.5 -57.5v-390zM293 163v344q0 86 -17 119q-11 23 -32 33q-19 11 -47 11q-30 0 -54 -15q-41 -27 -41 -96v-389q0 -56 8 -80q7 -20 29 -37.5t59 -17.5q32 0 55 17q18 13 27 33
t11 36t2 42z" />
    <glyph glyph-name="Odieresis" unicode="&#xd6;" horiz-adv-x="396" 
d="M297 789h-52v76h52v-76zM149 789h-52v76h52v-76zM340 144q0 -58 -21 -92q-35 -61 -124 -61q-74 0 -110 43q-31 39 -31 117v398v15q1 16 3.5 33.5t7.5 31.5q14 43 51 64.5t84 20.5q54 0 90 -26q23 -18 35 -47t13.5 -49.5t1.5 -57.5v-390zM293 163v344q0 86 -17 119
q-11 23 -32 33q-19 11 -47 11q-30 0 -54 -15q-41 -27 -41 -96v-389q0 -56 8 -80q7 -20 29 -37.5t59 -17.5q32 0 55 17q18 13 27 33t11 36t2 42z" />
    <glyph glyph-name="multiply" unicode="&#xd7;" horiz-adv-x="558" 
d="M435 172l-30 -32l-127 126l-112 -126l-32 28l115 127l-130 132l31 31l129 -129l118 131l30 -29l-119 -132z" />
    <glyph glyph-name="Oslash" unicode="&#xd8;" horiz-adv-x="396" 
d="M376 704l-41 -94q5 -27 5 -51v-405q0 -32 -7 -62q-13 -50 -49.5 -75t-88.5 -25q-29 0 -51.5 8t-32 15.5t-22.5 22.5l-28 -67l-26 11l36 85q-17 34 -17 80v356q0 69 2 88q8 61 47 95q39 33 98 33q62 0 97 -38q14 -14 22 -30l28 66zM290 581q0 1 -1 7.5t-2.5 14.5t-3.5 14
q-18 57 -86 57q-30 0 -51 -14q-28 -17 -36 -46t-8 -71v-405zM292 162v345l-180 -415q8 -18 9 -20q23 -35 76 -35q47 0 70 27q25 28 25 98z" />
    <glyph glyph-name="Ugrave" unicode="&#xd9;" horiz-adv-x="396" 
d="M255 771h-32l-153 109h97zM338 140q0 -44 -10 -71q-30 -81 -132 -81q-55 0 -89 26q-12 8 -22 23q-14 19 -20.5 44t-7 38.5t-0.5 47.5v539h48v-547q0 -64 16 -89q23 -36 78 -36q37 0 58 17q23 17 27.5 43.5t4.5 92.5v519h49v-566z" />
    <glyph glyph-name="Uacute" unicode="&#xda;" horiz-adv-x="396" 
d="M315 878l-142 -109h-36l84 109h94zM338 140q0 -44 -10 -71q-30 -81 -132 -81q-55 0 -89 26q-12 8 -22 23q-14 19 -20.5 44t-7 38.5t-0.5 47.5v539h48v-547q0 -64 16 -89q23 -36 78 -36q37 0 58 17q23 17 27.5 43.5t4.5 92.5v519h49v-566z" />
    <glyph glyph-name="Ucircumflex" unicode="&#xdb;" horiz-adv-x="396" 
d="M296 770h-40l-59 68l-61 -69h-41l78 109h50zM338 140q0 -44 -10 -71q-30 -81 -132 -81q-55 0 -89 26q-12 8 -22 23q-14 19 -20.5 44t-7 38.5t-0.5 47.5v539h48v-547q0 -64 16 -89q23 -36 78 -36q37 0 58 17q23 17 27.5 43.5t4.5 92.5v519h49v-566z" />
    <glyph glyph-name="Udieresis" unicode="&#xdc;" horiz-adv-x="396" 
d="M297 789h-52v76h52v-76zM149 789h-52v76h52v-76zM338 140q0 -44 -10 -71q-30 -81 -132 -81q-55 0 -89 26q-12 8 -22 23q-14 19 -20.5 44t-7 38.5t-0.5 47.5v539h48v-547q0 -64 16 -89q23 -36 78 -36q37 0 58 17q23 17 27.5 43.5t4.5 92.5v519h49v-566z" />
    <glyph glyph-name="Yacute" unicode="&#xdd;" horiz-adv-x="354" 
d="M295 878l-142 -109h-37l84 109h95zM345 706l-144 -394v-312h-48v312l-139 394h52l113 -332l112 332h54z" />
    <glyph glyph-name="Thorn" unicode="&#xde;" horiz-adv-x="375" 
d="M333 343q0 -33 -5 -48q-24 -91 -149 -91h-72v-204h-49v706h48v-117h61q49 0 73 -4q31 -6 51 -20.5t28.5 -36t11 -40t2.5 -45.5v-100zM285 352v60q0 50 -5 76.5t-22 41.5q-20 17 -77 17l-75 -1v-301h80q22 0 36.5 3t30.5 13t24 33t8 58z" />
    <glyph glyph-name="germandbls" unicode="&#xdf;" horiz-adv-x="354" 
d="M306 83q0 -20 -4 -35q-16 -56 -83 -56q-16 0 -32 6q-38 14 -38 64v78h29v-65q0 -28 20 -38q9 -5 21 -5q44 1 44 60v184q0 29 -0.5 41.5t-8 34.5t-22.5 35q-22 19 -74 23v43q43 2 63 19q12 10 17.5 23t6.5 22.5t1 28.5v45q0 28 -3 40q-13 42 -66 42q-27 0 -45 -9
q-17 -8 -25 -27t-9 -31.5t-1 -37.5v-568h-43v577q0 78 35 110q30 27 91 27q78 0 101 -54q8 -18 8 -49v-80q0 -21 -4 -36q-11 -43 -67 -60q48 -19 68 -44q20 -26 20 -87v-221z" />
    <glyph glyph-name="agrave" unicode="&#xe0;" 
d="M224 569h-33l-151 109h97zM296 0q-44 0 -59 14q-10 8 -14 25q-50 -39 -97 -39q-49 0 -73.5 33.5t-24.5 84.5q0 45 18 79q10 19 28 35.5t29 23.5t40 22.5t35 18.5q26 15 44 29v57q0 57 -24 73q-12 9 -40 9q-43 0 -57 -32q-11 -25 -9 -85h-43q0 77 12 103q25 55 103 55
q32 0 59 -14q27 -15 35 -38t8 -59v-338q1 -8 6.5 -12t9.5 -4.5t14 -0.5v-40zM223 87v192q-14 -11 -32 -21q-9 -6 -26 -14.5t-24 -12.5q-36 -22 -53 -48t-17 -66q0 -10 1.5 -19.5t7.5 -24.5t20.5 -24t36.5 -9q43 0 86 47z" />
    <glyph glyph-name="aacute" unicode="&#xe1;" 
d="M283 676l-142 -109h-36l84 109h94zM296 0q-44 0 -59 14q-10 8 -14 25q-50 -39 -97 -39q-49 0 -73.5 33.5t-24.5 84.5q0 45 18 79q10 19 28 35.5t29 23.5t40 22.5t35 18.5q26 15 44 29v57q0 57 -24 73q-12 9 -40 9q-43 0 -57 -32q-11 -25 -9 -85h-43q0 77 12 103
q25 55 103 55q32 0 59 -14q27 -15 35 -38t8 -59v-338q1 -8 6.5 -12t9.5 -4.5t14 -0.5v-40zM223 87v192q-14 -11 -32 -21q-9 -6 -26 -14.5t-24 -12.5q-36 -22 -53 -48t-17 -66q0 -10 1.5 -19.5t7.5 -24.5t20.5 -24t36.5 -9q43 0 86 47z" />
    <glyph glyph-name="acircumflex" unicode="&#xe2;" 
d="M264 568h-39l-58 69l-62 -69h-40l76 109h51zM296 0q-44 0 -59 14q-10 8 -14 25q-50 -39 -97 -39q-49 0 -73.5 33.5t-24.5 84.5q0 45 18 79q10 19 28 35.5t29 23.5t40 22.5t35 18.5q26 15 44 29v57q0 57 -24 73q-12 9 -40 9q-43 0 -57 -32q-11 -25 -9 -85h-43q0 77 12 103
q25 55 103 55q32 0 59 -14q27 -15 35 -38t8 -59v-338q1 -8 6.5 -12t9.5 -4.5t14 -0.5v-40zM223 87v192q-14 -11 -32 -21q-9 -6 -26 -14.5t-24 -12.5q-36 -22 -53 -48t-17 -66q0 -10 1.5 -19.5t7.5 -24.5t20.5 -24t36.5 -9q43 0 86 47z" />
    <glyph glyph-name="atilde" unicode="&#xe3;" 
d="M278 641q-2 -4 -7.5 -11.5t-8.5 -11.5q-29 -39 -58 -39q-5 0 -63 20q-15 5 -24 5q-22 0 -44 -26l-15 13q36 55 74 55q19 0 41 -10q36 -14 42 -14q11 0 19 5q9 5 28 27zM296 0q-44 0 -59 14q-10 8 -14 25q-50 -39 -97 -39q-49 0 -73.5 33.5t-24.5 84.5q0 45 18 79
q10 19 28 35.5t29 23.5t40 22.5t35 18.5q26 15 44 29v57q0 57 -24 73q-12 9 -40 9q-43 0 -57 -32q-11 -25 -9 -85h-43q0 77 12 103q25 55 103 55q32 0 59 -14q27 -15 35 -38t8 -59v-338q1 -8 6.5 -12t9.5 -4.5t14 -0.5v-40zM223 87v192q-14 -11 -32 -21q-9 -6 -26 -14.5
t-24 -12.5q-36 -22 -53 -48t-17 -66q0 -10 1.5 -19.5t7.5 -24.5t20.5 -24t36.5 -9q43 0 86 47z" />
    <glyph glyph-name="adieresis" unicode="&#xe4;" 
d="M238 585h-48v77h48v-77zM139 585h-48v77h48v-77zM296 0q-44 0 -59 14q-10 8 -14 25q-50 -39 -97 -39q-49 0 -73.5 33.5t-24.5 84.5q0 45 18 79q10 19 28 35.5t29 23.5t40 22.5t35 18.5q26 15 44 29v57q0 57 -24 73q-12 9 -40 9q-43 0 -57 -32q-11 -25 -9 -85h-43
q0 77 12 103q25 55 103 55q32 0 59 -14q27 -15 35 -38t8 -59v-338q1 -8 6.5 -12t9.5 -4.5t14 -0.5v-40zM223 87v192q-14 -11 -32 -21q-9 -6 -26 -14.5t-24 -12.5q-36 -22 -53 -48t-17 -66q0 -10 1.5 -19.5t7.5 -24.5t20.5 -24t36.5 -9q43 0 86 47z" />
    <glyph glyph-name="aring" unicode="&#xe5;" 
d="M231 615q0 -28 -19.5 -47t-46.5 -19t-47 20q-19 19 -19 47t19.5 47t46.5 19t46.5 -20t19.5 -47zM296 0q-44 0 -59 14q-10 8 -14 25q-50 -39 -97 -39q-49 0 -73.5 33.5t-24.5 84.5q0 45 18 79q10 19 28 35.5t29 23.5t40 22.5t35 18.5q26 15 44 29v57q0 57 -24 73
q-12 9 -40 9q-43 0 -57 -32q-11 -25 -9 -85h-43q0 77 12 103q25 55 103 55q32 0 59 -14q27 -15 35 -38t8 -59v-338q1 -8 6.5 -12t9.5 -4.5t14 -0.5v-40zM209 616q0 18 -13 31t-31 13q-19 -1 -31.5 -14t-12.5 -31t13 -31t31 -13t31 13.5t13 31.5zM223 87v192q-14 -11 -32 -21
q-9 -6 -26 -14.5t-24 -12.5q-36 -22 -53 -48t-17 -66q0 -10 1.5 -19.5t7.5 -24.5t20.5 -24t36.5 -9q43 0 86 47z" />
    <glyph glyph-name="ae" unicode="&#xe6;" horiz-adv-x="500" 
d="M461 141q0 -62 -18 -92q-11 -18 -27 -30q-31 -22 -69 -22q-54 0 -85 34q-7 8 -21 28q-5 -10 -18 -23q-38 -38 -90 -38q-40 0 -71.5 27t-31.5 92q0 89 73 136q7 5 57 31q24 12 68 40v79q0 43 -30 56q-16 7 -33 7q-19 0 -37 -10q-15 -8 -22.5 -27t-8.5 -31.5t-1 -36.5v-11
h-42v36q0 82 54 107q26 11 59 11q51 0 77 -26q9 -9 12 -13q1 1 3.5 4t4.5 5t4 3q29 28 79 28q32 0 55.5 -11t34 -25t16.5 -36.5t6.5 -34t0.5 -29.5v-5v-107h-190v-105q0 -43 7.5 -65.5t27.5 -35.5q17 -13 40 -13q20 0 33 8q40 19 40 80v46h43v-31zM418 293v88q0 56 -31 74
q-19 11 -41 11q-40 0 -60 -29q-16 -23 -16 -73v-71h148zM228 101v180q-24 -17 -78 -46q-53 -28 -69 -73q-9 -23 -9 -45q0 -18 6 -36q15 -43 65 -43q20 0 35.5 6.5t26.5 20.5t13.5 18t9.5 18z" />
    <glyph glyph-name="ccedilla" unicode="&#xe7;" 
d="M275 127v-23t-5.5 -29.5t-15 -35t-31.5 -25.5t-53 -16l-1 -23q69 -17 72 -69q1 -22 -16 -44t-55 -22q-11 0 -22.5 2t-22.5 6.5t-18 7.5t-16.5 8.5t-10.5 5.5l19 23q38 -20 52 -20q19 -1 28.5 10t9.5 23q0 30 -55 42l3 50q-26 4 -44.5 15t-28.5 24t-15.5 33t-7 36t-1.5 38
v232q0 39 11 66t30.5 39.5t38 17t40.5 4.5q111 -3 111 -135v-44h-42v38q0 64 -27 88q-18 16 -45 16q-74 0 -74 -93v-224q0 -24 2 -39.5t9 -34.5t24 -28.5t44 -9.5q70 0 70 82v73h43v-65z" />
    <glyph glyph-name="egrave" unicode="&#xe8;" 
d="M213 569h-32l-152 109h97zM273 118q0 -49 -22 -78q-31 -41 -94 -41q-23 0 -43 6q-9 3 -19.5 8.5t-24 20t-19.5 32.5q-8 20 -8 56v264q0 26 6 47q23 73 108 73q65 0 96 -44q20 -30 20 -114v-101h-188v-124q0 -21 4 -36q15 -49 71 -49q31 0 50 18q10 10 14 22q7 19 7 97h42
v-57zM230 283v92q0 58 -28 79q-20 14 -44 14q-26 0 -44 -14q-29 -23 -29 -83v-88h145z" />
    <glyph glyph-name="eacute" unicode="&#xe9;" 
d="M273 676l-143 -109h-36l84 109h95zM273 118q0 -49 -22 -78q-31 -41 -94 -41q-23 0 -43 6q-9 3 -19.5 8.5t-24 20t-19.5 32.5q-8 20 -8 56v264q0 26 6 47q23 73 108 73q65 0 96 -44q20 -30 20 -114v-101h-188v-124q0 -21 4 -36q15 -49 71 -49q31 0 50 18q10 10 14 22
q7 19 7 97h42v-57zM230 283v92q0 58 -28 79q-20 14 -44 14q-26 0 -44 -14q-29 -23 -29 -83v-88h145z" />
    <glyph glyph-name="ecircumflex" unicode="&#xea;" 
d="M254 568h-39l-59 69l-61 -69h-41l77 109h51zM273 118q0 -49 -22 -78q-31 -41 -94 -41q-23 0 -43 6q-9 3 -19.5 8.5t-24 20t-19.5 32.5q-8 20 -8 56v264q0 26 6 47q23 73 108 73q65 0 96 -44q20 -30 20 -114v-101h-188v-124q0 -21 4 -36q15 -49 71 -49q31 0 50 18
q10 10 14 22q7 19 7 97h42v-57zM230 283v92q0 58 -28 79q-20 14 -44 14q-26 0 -44 -14q-29 -23 -29 -83v-88h145z" />
    <glyph glyph-name="edieresis" unicode="&#xeb;" 
d="M227 585h-48v77h48v-77zM128 585h-48v77h48v-77zM273 118q0 -49 -22 -78q-31 -41 -94 -41q-23 0 -43 6q-9 3 -19.5 8.5t-24 20t-19.5 32.5q-8 20 -8 56v264q0 26 6 47q23 73 108 73q65 0 96 -44q20 -30 20 -114v-101h-188v-124q0 -21 4 -36q15 -49 71 -49q31 0 50 18
q10 10 14 22q7 19 7 97h42v-57zM230 283v92q0 58 -28 79q-20 14 -44 14q-26 0 -44 -14q-29 -23 -29 -83v-88h145z" />
    <glyph glyph-name="igrave" unicode="&#xec;" horiz-adv-x="146" 
d="M130 569h-33l-151 109h97zM95 0h-43v504h43v-504z" />
    <glyph glyph-name="iacute" unicode="&#xed;" horiz-adv-x="146" 
d="M189 676l-142 -109h-36l84 109h94zM95 0h-43v504h43v-504z" />
    <glyph glyph-name="icircumflex" unicode="&#xee;" horiz-adv-x="146" 
d="M170 568h-39l-58 69l-61 -69h-41l77 109h50zM95 0h-43v504h43v-504z" />
    <glyph glyph-name="idieresis" unicode="&#xef;" horiz-adv-x="146" 
d="M144 585h-48v77h48v-77zM45 585h-48v77h48v-77zM95 0h-43v504h43v-504z" />
    <glyph glyph-name="eth" unicode="&#xf0;" 
d="M287 634l-57 -22q26 -45 35.5 -91t9.5 -133l-1 -246q0 -22 -1 -35.5t-6.5 -34t-19.5 -36t-36 -26.5q-25 -12 -56 -12q-77 0 -106 59q-10 21 -10 64v264q0 29 7 48q9 25 26 41t36 22t29.5 8t17.5 2q47 0 78 -41q-7 85 -39 133l-103 -38l-14 30l96 37q-29 36 -69 66l35 18
q46 -40 70 -70l64 24zM231 126v251q0 1 -0.5 7t-0.5 11.5t-2 14t-4.5 15.5t-8 14.5t-12.5 12.5t-18 8.5t-25 3.5q-13 0 -23.5 -2.5t-18 -6.5t-13.5 -10t-10 -11.5t-6.5 -13.5t-4 -14t-2 -13.5t-0.5 -11.5v-10v-6v-243q0 -85 75 -83q74 2 74 87z" />
    <glyph glyph-name="ntilde" unicode="&#xf1;" horiz-adv-x="333" 
d="M278 641q-2 -4 -7.5 -11.5t-8.5 -11.5q-29 -39 -58 -39q-5 0 -63 20q-15 5 -24 5q-22 0 -44 -26l-15 13q36 55 74 55q19 0 41 -10q36 -14 42 -14q11 0 19 5q9 5 28 27zM285 0h-42v403l-1 11q-2 12 -4 20q-15 39 -57 38q-45 0 -71 -38q-6 -8 -13 -25v-409h-42v503h42v-48
q8 13 19 24q30 30 74 30q73 -2 90 -64q5 -18 5 -41v-404z" />
    <glyph glyph-name="ograve" unicode="&#xf2;" 
d="M213 569h-32l-152 109h97zM274 142q0 -42 -7 -65q-7 -25 -22.5 -42.5t-34 -24.5t-31 -9.5t-24.5 -2.5q-35 0 -65 16t-42 46q-9 21 -9 61v264q0 48 21 76q32 45 100 45q54 0 84 -29q14 -14 23 -37q7 -20 7 -58v-240zM231 126v252q0 54 -29 74q-16 12 -42 12q-30 0 -48 -14
q-14 -10 -21 -25.5t-8 -27t-1 -32.5v-243q0 -20 3 -33q13 -50 70 -50q51 0 69 43q7 18 7 44z" />
    <glyph glyph-name="oacute" unicode="&#xf3;" 
d="M273 676l-143 -109h-36l84 109h95zM274 142q0 -42 -7 -65q-7 -25 -22.5 -42.5t-34 -24.5t-31 -9.5t-24.5 -2.5q-35 0 -65 16t-42 46q-9 21 -9 61v264q0 48 21 76q32 45 100 45q54 0 84 -29q14 -14 23 -37q7 -20 7 -58v-240zM231 126v252q0 54 -29 74q-16 12 -42 12
q-30 0 -48 -14q-14 -10 -21 -25.5t-8 -27t-1 -32.5v-243q0 -20 3 -33q13 -50 70 -50q51 0 69 43q7 18 7 44z" />
    <glyph glyph-name="ocircumflex" unicode="&#xf4;" 
d="M254 568h-39l-59 69l-61 -69h-41l77 109h51zM274 142q0 -42 -7 -65q-7 -25 -22.5 -42.5t-34 -24.5t-31 -9.5t-24.5 -2.5q-35 0 -65 16t-42 46q-9 21 -9 61v264q0 48 21 76q32 45 100 45q54 0 84 -29q14 -14 23 -37q7 -20 7 -58v-240zM231 126v252q0 54 -29 74
q-16 12 -42 12q-30 0 -48 -14q-14 -10 -21 -25.5t-8 -27t-1 -32.5v-243q0 -20 3 -33q13 -50 70 -50q51 0 69 43q7 18 7 44z" />
    <glyph glyph-name="otilde" unicode="&#xf5;" 
d="M267 641q-2 -4 -7 -11.5t-8 -11.5q-29 -39 -59 -39q-3 0 -63 20q-10 5 -23 5q-22 0 -44 -26l-16 13q12 17 20 26.5t23 19t31 9.5q20 0 42 -10q36 -14 42 -14q11 0 18 5q7 4 29 27zM274 142q0 -42 -7 -65q-7 -25 -22.5 -42.5t-34 -24.5t-31 -9.5t-24.5 -2.5q-35 0 -65 16
t-42 46q-9 21 -9 61v264q0 48 21 76q32 45 100 45q54 0 84 -29q14 -14 23 -37q7 -20 7 -58v-240zM231 126v252q0 54 -29 74q-16 12 -42 12q-30 0 -48 -14q-14 -10 -21 -25.5t-8 -27t-1 -32.5v-243q0 -20 3 -33q13 -50 70 -50q51 0 69 43q7 18 7 44z" />
    <glyph glyph-name="odieresis" unicode="&#xf6;" 
d="M230 585h-48v77h48v-77zM131 585h-48v77h48v-77zM274 142q0 -42 -7 -65q-7 -25 -22.5 -42.5t-34 -24.5t-31 -9.5t-24.5 -2.5q-35 0 -65 16t-42 46q-9 21 -9 61v264q0 48 21 76q32 45 100 45q54 0 84 -29q14 -14 23 -37q7 -20 7 -58v-240zM231 126v252q0 54 -29 74
q-16 12 -42 12q-30 0 -48 -14q-14 -10 -21 -25.5t-8 -27t-1 -32.5v-243q0 -20 3 -33q13 -50 70 -50q51 0 69 43q7 18 7 44z" />
    <glyph glyph-name="divide" unicode="&#xf7;" horiz-adv-x="559" 
d="M305 378h-49v74h49v-74zM475 275h-390v42h390v-42zM305 139h-49v74h49v-74z" />
    <glyph glyph-name="oslash" unicode="&#xf8;" 
d="M294 495l-29 -56q8 -24 8 -53v-266q0 -27 -8 -50q-10 -31 -35.5 -48.5t-43.5 -20.5t-34 -2q-32 0 -55 11q-11 5 -19 10q-4 3 -7.5 7t-6 7t-3.5 4l-22 -42l-17 10l27 53q-11 34 -11 58v254q0 71 33 103q32 32 89 32q46 0 75 -22q11 -7 19 -20l22 41zM227 409
q-3 12 -6 18.5t-10.5 16.5t-21 15t-32.5 5q-38 0 -57 -23q-19 -22 -19 -73v-245zM231 152v218l-145 -284q4 -16 10 -22q19 -26 59 -26q28 0 47 14q14 11 21 30.5t7.5 32t0.5 37.5z" />
    <glyph glyph-name="ugrave" unicode="&#xf9;" horiz-adv-x="333" 
d="M224 569h-33l-151 109h97zM279 0h-43v47q-12 -15 -16 -19q-33 -31 -75 -31q-49 0 -75 37q-20 27 -20 81v388h42v-372q0 -73 38 -91q10 -6 28 -6q39 0 61 31q10 14 17 34v404h43v-503z" />
    <glyph glyph-name="uacute" unicode="&#xfa;" horiz-adv-x="333" 
d="M283 676l-142 -109h-36l84 109h94zM279 0h-43v47q-12 -15 -16 -19q-33 -31 -75 -31q-49 0 -75 37q-20 27 -20 81v388h42v-372q0 -73 38 -91q10 -6 28 -6q39 0 61 31q10 14 17 34v404h43v-503z" />
    <glyph glyph-name="ucircumflex" unicode="&#xfb;" horiz-adv-x="333" 
d="M264 568h-39l-58 69l-62 -69h-40l76 109h51zM279 0h-43v47q-12 -15 -16 -19q-33 -31 -75 -31q-49 0 -75 37q-20 27 -20 81v388h42v-372q0 -73 38 -91q10 -6 28 -6q39 0 61 31q10 14 17 34v404h43v-503z" />
    <glyph glyph-name="udieresis" unicode="&#xfc;" horiz-adv-x="333" 
d="M238 585h-48v77h48v-77zM139 585h-48v77h48v-77zM279 0h-43v47q-12 -15 -16 -19q-33 -31 -75 -31q-49 0 -75 37q-20 27 -20 81v388h42v-372q0 -73 38 -91q10 -6 28 -6q39 0 61 31q10 14 17 34v404h43v-503z" />
    <glyph glyph-name="yacute" unicode="&#xfd;" horiz-adv-x="292" 
d="M262 676l-142 -109h-36l84 109h94zM280 503l-129 -560q-12 -51 -35 -75q-31 -32 -107 -32l1 42q69 -9 93 40q6 11 9 28l13 58l-110 499h43l88 -418l89 418h45z" />
    <glyph glyph-name="thorn" unicode="&#xfe;" horiz-adv-x="333" 
d="M285 114q0 -70 -46 -101q-25 -16 -56 -16q-52 0 -86 44v-204h-43v869h40v-250q41 51 93 52q34 0 56 -17q20 -15 30 -40.5t11 -42t1 -44.5v-7v-243zM242 129v262q0 41 -19.5 59.5t-45.5 18.5q-61 0 -80 -65v-310q20 -57 78 -57q67 0 67 92z" />
    <glyph glyph-name="ydieresis" unicode="&#xff;" horiz-adv-x="292" 
d="M227 585h-48v77h48v-77zM128 585h-48v77h48v-77zM280 503l-129 -560q-12 -51 -35 -75q-31 -32 -107 -32l1 42q69 -9 93 40q6 11 9 28l13 58l-110 499h43l88 -418l89 418h45z" />
    <glyph glyph-name="OE" unicode="&#x152;" horiz-adv-x="542" 
d="M523 0h-231v40q-11 -14 -19 -20q-37 -30 -91 -30q-45 0 -78 22q-54 36 -54 126v407q0 53 11 87.5t46 58.5q33 23 84 23q58 0 100 -40v32h231v-43h-184v-276h163v-42h-162v-302h184v-43zM292 141v377q0 26 -1 42t-6 39t-18 39t-33 25q-24 9 -45 9q-46 -1 -69 -29t-23 -74
v-406q0 -29 1 -42t8.5 -33.5t23.5 -34.5q25 -21 60 -21q19 0 40 8q42 19 55 57q7 18 7 44z" />
    <glyph glyph-name="oe" unicode="&#x153;" horiz-adv-x="500" 
d="M462 125q0 -38 -7 -60q-21 -70 -103 -69q-52 0 -81 28q-9 9 -20 30q-9 -13 -13 -18q-34 -40 -88 -40q-33 0 -60 15q-30 17 -39 45.5t-9 72.5v228v8q0 30 1.5 46t11.5 37.5t30 34.5q30 21 73 21q52 0 82 -30q2 -2 7.5 -9.5t7.5 -9.5q5 10 16 21q30 29 82 29q41 0 68 -20
q20 -15 30 -42.5t10.5 -42.5t0.5 -52v-93h-188v-100q0 -29 0.5 -41t8.5 -32.5t25 -31.5q18 -13 42 -13q45 0 61 35q8 16 8 45v52h43v-44zM419 291v82q0 36 -8 55q-16 38 -61 38q-33 0 -50 -18t-22 -37q-5 -16 -5 -37v-83h146zM231 135v241q0 89 -73 89q-32 0 -49 -16.5
t-21 -34.5q-4 -13 -4 -38v-220q0 -48 5.5 -70t23.5 -36q17 -13 42 -13q39 0 59 28q17 22 17 70z" />
    <glyph glyph-name="Scaron" unicode="&#x160;" horiz-adv-x="375" 
d="M293 877l-77 -108h-51l-71 108h39l58 -68l62 68h40zM334 156q0 -78 -25 -115q-35 -52 -120 -52q-50 0 -81 17q-12 7 -23 17q-23 20 -35 51q-8 23 -8 57v100h49v-57v-44q6 -98 104 -98q30 0 51 13q39 23 39 103q0 61 -25 101q-17 26 -43 53.5t-37 37.5q-57 56 -81 89
q-40 54 -40 131q0 33 4 53q18 103 129 103q51 0 83 -20q23 -15 34.5 -42t13 -46.5t1.5 -54.5v-51h-48v63q0 33 -3 47q-10 62 -80 62q-30 0 -50 -12q-35 -22 -35 -94q0 -47 13 -75t48 -68q15 -19 48 -53q54 -54 72 -77q45 -57 45 -139z" />
    <glyph glyph-name="scaron" unicode="&#x161;" horiz-adv-x="292" 
d="M253 680l-77 -109h-50l-72 108h39l58 -67l61 68h41zM265 123q0 -84 -57 -112q-29 -13 -60 -13q-43 0 -73 18q-12 8 -22 18q-6 8 -10 17q-15 30 -15 83v43h42v-29q0 -60 14 -81q7 -12 20 -18q19 -10 44 -10q23 0 36 6q38 16 38 78q0 27 -9.5 47.5t-19.5 29.5t-37 32
q-40 32 -72 64q-37 42 -37 101q0 108 106 108q30 0 51.5 -10t31.5 -22t15.5 -32.5t6 -30t0.5 -26.5v-34h-43v36q0 62 -35 75q-11 4 -28 4q-62 0 -62 -64q0 -44 21 -68q17 -22 75 -70q30 -24 44 -38q35 -37 35 -102z" />
    <glyph glyph-name="Ydieresis" unicode="&#x178;" horiz-adv-x="354" 
d="M278 789h-52v76h52v-76zM130 789h-52v76h52v-76zM345 706l-144 -394v-312h-48v312l-139 394h52l113 -332l112 332h54z" />
    <glyph glyph-name="florin" unicode="&#x192;" horiz-adv-x="283" 
d="M282 712l-6 -42q-15 4 -26 4q-14 0 -29 -5q-14 -6 -22 -17q-9 -15 -15 -59l-14 -100h69l-6 -41h-71l-65 -487q-9 -66 -39 -89q-30 -22 -74 -22q-2 0 -30 2l6 40l22 -2q20 0 36 8q27 15 35 74l63 476h-64l6 41h66l13 98q9 64 29 91q27 33 85 33q9 0 31 -3z" />
    <glyph glyph-name="circumflex" unicode="&#x2c6;" horiz-adv-x="229" 
d="M215 568h-40l-58 69l-61 -69h-42l77 109h50z" />
    <glyph glyph-name="tilde" unicode="&#x2dc;" horiz-adv-x="229" 
d="M225 641q-6 -10 -16 -23q-29 -39 -58 -39q-6 0 -14.5 2.5t-23.5 8.5t-25 9q-10 5 -24 5q-20 0 -44 -26l-16 13q12 17 20 26.5t23 19t31 9.5q19 0 42 -10q34 -14 42 -14q10 0 18 5q8 4 28 27z" />
    <glyph glyph-name="endash" unicode="&#x2013;" horiz-adv-x="355" 
d="M319 271h-284v42h284v-42z" />
    <glyph glyph-name="emdash" unicode="&#x2014;" horiz-adv-x="492" 
d="M456 274h-421v42h421v-42z" />
    <glyph glyph-name="quoteleft" unicode="&#x2018;" horiz-adv-x="146" 
d="M99 525h-45v91q0 35 9 55.5t36 34.5v-22q-12 -8 -17.5 -20.5t-6 -20.5t-0.5 -27h24v-91z" />
    <glyph glyph-name="quoteright" unicode="&#x2019;" horiz-adv-x="146" 
d="M96 615q0 -35 -9 -55.5t-37 -34.5v22q17 11 21 26t4 42h-24v91h45v-91z" />
    <glyph glyph-name="quotesinglbase" unicode="&#x201a;" horiz-adv-x="146" 
d="M96 0q0 -36 -9 -56t-37 -34v22q17 11 21 26t4 42h-24v91h45v-91z" />
    <glyph glyph-name="quotedblleft" unicode="&#x201c;" horiz-adv-x="250" 
d="M197 525h-45v91q0 35 9 56t36 35v-22q-12 -9 -17.5 -21t-6 -20t-0.5 -28h24v-91zM88 525h-45v91q0 36 8.5 56.5t36.5 34.5v-22q-12 -8 -17.5 -20.5t-6 -21t-0.5 -27.5h24v-91z" />
    <glyph glyph-name="quotedblright" unicode="&#x201d;" horiz-adv-x="250" 
d="M201 615q0 -36 -8.5 -56t-36.5 -34v22q17 11 21 26t4 42h-25v91h45v-91zM93 615q0 -35 -9 -55.5t-37 -34.5v22q17 11 21 26t4 42h-24v91h45v-91z" />
    <glyph glyph-name="quotedblbase" unicode="&#x201e;" horiz-adv-x="250" 
d="M201 0q0 -36 -8.5 -56t-36.5 -34v22q17 11 21 26t4 42h-25v91h45v-91zM93 0q0 -36 -9 -56t-37 -34v22q12 8 18 20t6.5 20t0.5 28h-24v91h45v-91z" />
    <glyph glyph-name="dagger" unicode="&#x2020;" 
d="M306 454h-124v-454h-47v454h-123v46h123v206h47v-206h124v-46z" />
    <glyph glyph-name="daggerdbl" unicode="&#x2021;" 
d="M303 170h-124v-170h-43v170h-125v43h125v279h-125v44h125v170h43v-170h124v-44h-124v-279h124v-43z" />
    <glyph glyph-name="bullet" unicode="&#x2022;" horiz-adv-x="333" 
d="M238 455l-1 -199h-142v199h143z" />
    <glyph glyph-name="ellipsis" unicode="&#x2026;" horiz-adv-x="1000" 
d="M858 0h-51v65h51v-65zM526 0h-52v65h52v-65zM193 0h-52v65h52v-65z" />
    <glyph glyph-name="perthousand" unicode="&#x2030;" horiz-adv-x="812" 
d="M787 101q0 -106 -90 -106q-94 0 -94 107v232q0 14 0.5 22t5 27t13.5 30t29 20.5t48 9.5q18 0 32.5 -4.5t24 -10.5t16 -16t9.5 -18t4.5 -20t2 -18t0.5 -16l-1 -10v-229zM558 101q0 -106 -90 -106q-94 0 -94 107v232q0 15 0.5 22.5t5 26.5t13.5 30t29 20.5t48 9.5
q18 0 33 -4.5t24 -10.5t15.5 -16t9.5 -18t5 -20t2 -18t-0.5 -15.5t-0.5 -10.5v-229zM483 774l-367 -844l-25 11l367 845zM204 366q0 -106 -90 -106q-94 0 -94 107v232v22t5 26.5t14 30.5t29 20.5t48 9.5q18 0 32.5 -4.5t24 -10.5t16 -16t9.5 -18t4.5 -20t2 -18t-0.5 -16v-10
v-229zM750 101v233v6q1 5 1 9t-1 11.5t-3 13t-6 12t-9.5 10.5t-14.5 6.5t-20 2.5q-32 -1 -43.5 -16.5t-11.5 -47.5v-235q0 -74 54 -74t54 69zM521 101v233q0 16 -1.5 26.5t-6.5 22t-16.5 17t-29.5 5.5q-31 -1 -42.5 -16.5t-11.5 -47.5v-235q0 -74 54 -74t54 69zM167 366v233
v5v10t-0.5 11.5t-2.5 13t-6 12t-10 10.5t-15 6.5t-20 2.5q-32 -1 -43 -16.5t-11 -47.5v-235q0 -74 54 -74t54 69z" />
    <glyph glyph-name="guilsinglleft" unicode="&#x2039;" horiz-adv-x="250" 
d="M219 393l-122 -100l117 -100h-56l-123 100l124 100h60z" />
    <glyph glyph-name="guilsinglright" unicode="&#x203a;" horiz-adv-x="250" 
d="M215 293l-126 -102h-62l129 101l-122 99h60z" />
    <glyph glyph-name="Euro" unicode="&#x20ac;" horiz-adv-x="386" 
d="M86 437v86q0 36 1 51q3 64 35 99q36 41 107 41q84 0 129 -58l-16 -50q-24 35 -49.5 49.5t-62.5 14.5q-60 0 -81 -38q-17 -30 -17 -104v-91h179l-12 -38h-167v-51h158l-11 -38h-146v-100q0 -92 13 -124q21 -52 88 -52q69 0 123 62v-63q-58 -44 -127 -44q-88 0 -124 63
q-20 35 -20 108v150h-60l8 38h52v51h-60l8 38h52z" />
    <glyph glyph-name="trademark" unicode="&#x2122;" horiz-adv-x="514" 
d="M450 374h-39l4 300l-62 -300h-44l-62 300l7 -300h-39l-1 332h57l60 -296l60 296h58zM184 670h-60v-296h-40v296h-62v36h162v-36z" />
    </font>
</defs>
</svg>
