<?xml version="1.0" standalone="no"?>
<!DOCTYPE svg PUBLIC "-//W3C//DTD SVG 1.1//EN" "http://www.w3.org/Graphics/SVG/1.1/DTD/svg11.dtd" >
<svg xmlns="http://www.w3.org/2000/svg" xmlns:xlink="http://www.w3.org/1999/xlink" version="1.1">
<metadata>
Created by FontForge 20170731 at Thu May 17 19:59:59 2007
 By Aleksey,,,
Copyright  2001, Berthold LLC. All rights reserved. Akzidenz-Grotesk is a trademark of Berthold Types Limited.
</metadata>
<defs>
<font id="AkzidenzGroteskBQ-ExtIt" horiz-adv-x="729" >
  <font-face 
    font-family="Akzidenz-Grotesk BQ Extended"
    font-weight="500"
    font-style="italic"
    font-stretch="normal"
    units-per-em="1000"
    panose-1="0 0 0 0 0 0 0 0 0 0"
    ascent="800"
    descent="-200"
    x-height="482"
    cap-height="706"
    bbox="-199 -234 1480 930"
    underline-thickness="75"
    underline-position="-398"
    slope="-13"
    unicode-range="U+0020-2122"
  />
<missing-glyph horiz-adv-x="500" 
 />
    <glyph glyph-name=".notdef" horiz-adv-x="500" 
 />
    <glyph glyph-name=".null" horiz-adv-x="0" 
 />
    <glyph glyph-name="nonmarkingreturn" horiz-adv-x="333" 
 />
    <glyph glyph-name="space" unicode=" " horiz-adv-x="326" 
 />
    <glyph glyph-name="exclam" unicode="!" horiz-adv-x="292" 
d="M296 706l-73 -315l-77 -212h-44l22 222l71 305h101zM156 100l-23 -100h-100l23 100h100z" />
    <glyph glyph-name="quotedbl" unicode="&#x22;" horiz-adv-x="356" 
d="M404 744l-105 -289h-25l30 289h100zM224 744l-105 -289h-25l30 289h100z" />
    <glyph glyph-name="numbersign" unicode="#" horiz-adv-x="749" 
d="M736 483l-17 -74h-179l-31 -97h176l-16 -71h-183l-79 -241h-78l81 241h-141l-81 -241h-74l79 241h-183l17 71h190l31 97h-185l17 74h191l73 223h78l-74 -223h141l71 223h77l-74 -223h173zM464 409h-140l-32 -97h141z" />
    <glyph glyph-name="dollar" unicode="$" horiz-adv-x="812" 
d="M767 550l-93 -33q-42 78 -162 107l-50 -218l66 -16q80 -19 130 -55q59 -43 59 -119q0 -110 -88 -172t-242 -62q-3 0 -11 0.5t-14 0.5l-27 -117h-77l29 124q-108 16 -177 68q-39 29 -61 60.5t-39 82.5l99 26q19 -62 63 -97q47 -37 136 -54l57 250l-23 5q-17 4 -71 18
q-67 18 -103 49q-48 40 -48 111q0 81 60 138q77 71 239 71q18 0 36 -1l23 98h79l-25 -106q176 -31 235 -159zM436 633q-12 1 -24 1q-95 0 -145 -28.5t-50 -82.5q0 -42 33 -59q31 -18 137 -41zM619 203q0 35 -22 54q-11 11 -28 18q-21 9 -113 31l-17 4l-55 -239h9
q103 0 164.5 36t61.5 96z" />
    <glyph glyph-name="percent" unicode="%" horiz-adv-x="1042" 
d="M1004 259q0 -114 -64.5 -190t-160.5 -76q-86 0 -136.5 49t-50.5 133q0 116 65 190.5t165 74.5q83 0 132.5 -49.5t49.5 -131.5zM815 670l-552 -682l-45 32l552 683zM440 511q0 -114 -64.5 -190t-160.5 -76q-86 0 -136.5 49.5t-50.5 132.5q0 116 65 190.5t165 74.5
q83 0 132.5 -49.5t49.5 -131.5zM933 249q0 63 -31 98t-86 35q-65 0 -109 -59t-44 -147q0 -58 30 -91.5t86 -33.5q65 0 109.5 56.5t44.5 141.5zM369 502q0 63 -31 98t-86 35q-65 0 -109 -59t-44 -147q0 -58 30 -91.5t86 -33.5q65 0 109.5 56.5t44.5 141.5z" />
    <glyph glyph-name="ampersand" unicode="&#x26;" horiz-adv-x="771" 
d="M706 335q-19 -77 -45 -124q-24 -45 -68 -94q15 -12 27 -20q25 -16 50 -16q2 0 24 2l-13 -79q-28 -9 -50 -9q-34 0 -60 16q-21 12 -56 41q-114 -69 -246 -69q-123 0 -191 48.5t-68 136.5q0 54 26 95q22 37 58 60q28 18 52.5 28.5t81.5 27.5q-10 13 -17 23q-30 46 -30 104
q0 76 56 123.5t145 47.5q80 0 131.5 -41.5t51.5 -105.5q0 -46 -23 -87q-21 -36 -57.5 -59.5t-106.5 -45.5l13 -15q86 -100 137 -150q37 40 57 81q18 35 28 82zM468 526q0 35 -24.5 57t-64.5 22q-45 0 -72 -25t-27 -68q0 -46 49 -109q74 19 106.5 48t32.5 75zM453 112l-14 14
q-40 40 -137 158l-23 28q-73 -17 -109 -38q-58 -33 -58 -97q0 -54 42.5 -83.5t120.5 -29.5q45 0 86 9q43 11 92 39z" />
    <glyph glyph-name="quotesingle" unicode="'" horiz-adv-x="176" 
d="M224 744l-105 -289h-25l30 289h100z" />
    <glyph glyph-name="parenleft" unicode="(" horiz-adv-x="333" 
d="M435 720q-66 -47 -98.5 -76.5t-67.5 -75.5q-125 -160 -125 -371q0 -182 103 -308l-35 -29q-41 40 -65 72q-101 132 -101 298q0 142 72 265q39 68 105 129q39 37 76 62.5t109 67.5z" />
    <glyph glyph-name="parenright" unicode=")" horiz-adv-x="333" 
d="M246 384q0 -142 -72 -265q-40 -68 -105 -130q-65 -61 -185 -129l-27 34q66 47 98.5 76.5t67.5 75.5q125 160 125 370q0 183 -103 309l35 29q41 -40 65 -72q101 -134 101 -298z" />
    <glyph glyph-name="asterisk" unicode="*" horiz-adv-x="349" 
d="M373 550l-110 -12l43 -95l-56 -25l-44 98l-77 -69l-41 46l77 69l-91 51l30 51l93 -50l24 101l60 -14l-24 -103l108 10z" />
    <glyph glyph-name="plus" unicode="+" horiz-adv-x="772" 
d="M677 337l-20 -83h-246l-52 -229h-95l52 229h-246l20 83h246l52 227h95l-52 -227h246z" />
    <glyph glyph-name="comma" unicode="," horiz-adv-x="250" 
d="M117 108l-29 -127q-13 -60 -47 -88q-31 -24 -89 -27l13 55q28 4 39 13.5t17 35.5l7 30h-45l25 108h109z" />
    <glyph glyph-name="hyphen" unicode="-" horiz-adv-x="385" 
d="M343 340l-19 -81h-315l19 81h315z" />
    <glyph glyph-name="period" unicode="." horiz-adv-x="250" 
d="M118 109l-25 -109h-110l25 109h110z" />
    <glyph glyph-name="slash" unicode="/" horiz-adv-x="417" 
d="M474 706l-436 -706h-96l435 706h97z" />
    <glyph glyph-name="zero" unicode="0" horiz-adv-x="708" 
d="M668 423q0 -132 -62 -248q-49 -91 -127 -139.5t-176 -48.5q-132 0 -204.5 74t-72.5 210q0 183 106.5 306.5t263.5 123.5q127 0 199.5 -74t72.5 -204zM566 416q0 99 -45.5 151.5t-130.5 52.5q-110 0 -186.5 -100t-76.5 -245q0 -93 43.5 -150t131.5 -57q114 0 189 99.5
t75 248.5z" />
    <glyph glyph-name="one" unicode="1" horiz-adv-x="708" 
d="M503 687l-158 -687h-99l124 537q-87 -33 -187 -33h-12l16 68q42 3 90 14q50 12 82 33.5t69 67.5h75z" />
    <glyph glyph-name="two" unicode="2" horiz-adv-x="708" 
d="M643 498q0 -55 -26.5 -108.5t-73.5 -96.5q-86 -77 -243 -152q-64 -30 -143 -60l420 1l-17 -82h-564l20 94q68 29 84 37q159 72 284 151q158 100 158 207q0 59 -42 92.5t-117 33.5q-104 0 -157 -68q-20 -27 -31 -51.5t-25 -77.5l-94 14q20 73 43 116q79 151 276 151
q114 0 181 -54.5t67 -146.5z" />
    <glyph glyph-name="three" unicode="3" horiz-adv-x="708" 
d="M653 519q0 -66 -38 -105.5t-118 -56.5q56 -12 88 -48.5t32 -88.5q0 -100 -87 -166t-218 -66q-133 0 -212 60t-84 165l100 11q3 -35 10 -53.5t25 -39.5q57 -63 164 -63q90 0 148.5 43.5t58.5 110.5q0 47 -34 72q-21 16 -50.5 21.5t-90.5 5.5h-75l15 75l69 1q70 1 102 7
t57 24q44 33 44 82q0 48 -47 79.5t-118 31.5q-65 0 -117 -25q-25 -12 -46 -35q-24 -26 -40 -64l-91 22q29 59 54 89q77 94 243 94q116 0 186 -50t70 -133z" />
    <glyph glyph-name="four" unicode="4" horiz-adv-x="708" 
d="M624 245l-18 -79h-118l-39 -166h-94l39 166h-400l18 79l520 452h78l-105 -452h119zM490 568l-359 -323h281z" />
    <glyph glyph-name="five" unicode="5" horiz-adv-x="735" 
d="M693 687l-17 -84h-429l-58 -184q5 3 11 7.5t7 5.5q75 48 184 48q121 0 191 -57t70 -156q0 -123 -93.5 -200.5t-242.5 -77.5q-132 0 -211.5 56.5t-90.5 157.5l102 10q8 -49 29 -77q26 -32 71.5 -50t99.5 -18q102 0 168 53.5t66 135.5q0 68 -50.5 106.5t-138.5 38.5
q-127 0 -199 -81l-88 7l104 359h515z" />
    <glyph glyph-name="six" unicode="6" horiz-adv-x="708" 
d="M701 510l-95 -18q-18 46 -44 73q-57 57 -155 57q-204 0 -266 -254q18 25 42 42q73 51 190 51q125 0 203.5 -60t78.5 -155q0 -114 -89 -186t-229 -72t-221 73t-81 199q0 123 52 238q45 98 129 150.5t197 52.5q222 0 288 -191zM557 235q0 69 -53.5 108t-147.5 39
q-100 0 -159.5 -44t-59.5 -118q0 -68 55.5 -109.5t146.5 -41.5q94 0 156 47t62 119z" />
    <glyph glyph-name="seven" unicode="7" horiz-adv-x="707" 
d="M680 687l-15 -76q-13 -11 -21 -15q-103 -73 -185 -168q-115 -133 -178 -288q-22 -55 -47 -140h-100q3 17 8 33q28 109 97 228q71 123 183 235q57 57 124 107h-449l15 84h568z" />
    <glyph glyph-name="eight" unicode="8" horiz-adv-x="708" 
d="M664 523q0 -40 -19.5 -76.5t-52.5 -58.5q-24 -15 -43 -22t-60 -14q68 -14 106.5 -53.5t38.5 -97.5q0 -97 -86.5 -156t-228.5 -59q-134 0 -216.5 52t-82.5 137t63 135q28 21 56 32q34 12 85 22q-120 29 -120 137q0 91 78 145t207 54q128 0 201.5 -47t73.5 -130zM569 511
q0 52 -48 81.5t-131 29.5q-89 0 -139 -32.5t-50 -90.5q0 -51 47 -78.5t133 -27.5q88 0 138 31t50 87zM537 206q0 54 -54 85t-147 31q-103 0 -159 -34t-56 -97q0 -57 54.5 -90.5t148.5 -33.5q96 0 154.5 38t58.5 101z" />
    <glyph glyph-name="nine" unicode="9" horiz-adv-x="708" 
d="M664 430q0 -125 -52 -238q-44 -98 -128.5 -151t-197.5 -53q-222 0 -288 191l95 18q18 -46 44 -72q57 -57 155 -57q205 0 266 253q-21 -27 -42 -41q-75 -52 -189 -52q-125 0 -204 60t-79 155q0 114 89 186.5t229 72.5t221 -73t81 -199zM563 469q0 68 -55.5 109.5
t-146.5 41.5q-95 0 -157 -47t-62 -118q0 -69 53.5 -108.5t147.5 -39.5q100 0 160 44t60 118z" />
    <glyph glyph-name="colon" unicode=":" horiz-adv-x="292" 
d="M248 495l-25 -109h-110l25 109h110zM160 109l-25 -109h-110l25 109h110z" />
    <glyph glyph-name="semicolon" unicode=";" horiz-adv-x="292" 
d="M248 495l-25 -109h-110l25 109h110zM159 108l-30 -127q-15 -62 -47 -88q-30 -24 -88 -27l13 55q28 4 39 13.5t17 35.5l7 30h-45l25 108h109z" />
    <glyph glyph-name="less" unicode="&#x3c;" horiz-adv-x="772" 
d="M700 580l-22 -99l-480 -184l395 -182l-21 -92l-489 230l22 95z" />
    <glyph glyph-name="equal" unicode="=" horiz-adv-x="772" 
d="M700 436l-20 -84h-583l19 84h584zM653 236l-20 -84h-583l19 84h584z" />
    <glyph glyph-name="greater" unicode="&#x3e;" horiz-adv-x="772" 
d="M676 350l-22 -94l-595 -233l22 100l480 184l-395 182l21 92z" />
    <glyph glyph-name="question" unicode="?" horiz-adv-x="667" 
d="M675 541q0 -61 -28 -106q-16 -27 -46 -51t-58 -37t-104 -39l-54 -19q-25 -9 -34 -17t-17 -25q-10 -23 -19 -66h-74l7 34q12 57 30 89q8 15 21 27q21 19 81 36q113 33 155 69q43 38 43 103q0 50 -43.5 79t-117.5 29q-111 0 -172 -64q-34 -36 -58 -96l-84 17
q34 107 114.5 163.5t201.5 56.5q119 0 187.5 -49t68.5 -134zM310 101l-24 -101h-101l24 101h101z" />
    <glyph glyph-name="at" unicode="@" horiz-adv-x="909" 
d="M859 434q0 -124 -77 -237q-41 -61 -92 -94t-101 -33q-40 0 -62.5 21t-22.5 58v7q-31 -35 -60 -54q-47 -31 -99 -31q-62 0 -97 40t-35 111q0 114 75 204.5t169 90.5q53 0 89 -36q16 -16 30 -48l20 62h73l-56 -193q-28 -98 -28 -132q0 -40 31 -40q38 0 84 49q44 49 72 120
t28 135q0 103 -72.5 164t-193.5 61q-117 0 -219.5 -60t-163.5 -161t-61 -216q0 -131 92 -211t244 -80q91 0 181 33q53 20 90.5 42t98.5 71l33 -41q-64 -52 -103.5 -76t-97.5 -46q-100 -38 -201 -38q-178 0 -288 94.5t-110 247.5q0 132 69 246t186 181t253 67q146 0 234 -76
t88 -202zM545 356q0 45 -22.5 71.5t-61.5 26.5q-35 0 -69 -25t-57 -68q-37 -66 -37 -131q0 -45 21.5 -70t59.5 -25q53 0 93 45q31 34 52 84t21 92z" />
    <glyph glyph-name="A" unicode="A" horiz-adv-x="833" 
d="M750 0h-110l-46 174h-433l-127 -174h-119l529 706h107zM570 255l-92 350l-257 -350h349z" />
    <glyph glyph-name="B" unicode="B" horiz-adv-x="894" 
d="M847 555q0 -70 -40.5 -118t-114.5 -65q43 -13 64 -30q52 -41 52 -116q0 -59 -28 -109.5t-76 -79.5q-26 -16 -64 -26q-46 -11 -147 -11h-493l163 706h457q90 0 133 -14q44 -14 69 -50t25 -87zM745 532q0 40 -24 64q-14 14 -36.5 19.5t-70.5 5.5h-367l-51 -209h364
q103 0 145 33q40 32 40 87zM706 222q0 38 -20 63q-18 24 -49.5 33t-96.5 9h-362l-58 -241h385q92 0 133 22q31 16 49.5 47t18.5 67z" />
    <glyph glyph-name="C" unicode="C" horiz-adv-x="864" 
d="M856 497l-102 -18q-25 76 -95 119t-169 43q-145 0 -241.5 -91t-96.5 -228q0 -164 148 -226q69 -29 145 -29q184 0 282 147l93 -25q-30 -55 -70 -93q-33 -32 -83 -59q-103 -55 -230 -55q-178 0 -282.5 88.5t-104.5 240.5q0 181 124.5 297t319.5 116q274 0 362 -227z" />
    <glyph glyph-name="D" unicode="D" horiz-adv-x="857" 
d="M822 412q0 -182 -112 -297q-75 -77 -184 -98q-85 -17 -201 -17h-325l163 706h282q53 0 76 -1q94 -3 157 -32q67 -31 105.5 -100t38.5 -161zM721 410q0 118 -83 173q-32 21 -61 27q-44 10 -146 10h-185l-123 -533h197q187 0 267 52q61 39 97.5 113t36.5 158z" />
    <glyph glyph-name="E" unicode="E" horiz-adv-x="792" 
d="M814 706l-20 -87h-551l-49 -210h537l-19 -84h-537l-55 -238h577l-20 -87h-677l163 706h651z" />
    <glyph glyph-name="F" unicode="F" horiz-adv-x="750" 
d="M791 706l-20 -87h-529l-52 -226h508l-19 -83h-509l-71 -310h-99l163 706h628z" />
    <glyph glyph-name="G" unicode="G" horiz-adv-x="915" 
d="M875 526l-105 -30q-20 39 -48 67q-82 77 -231 77q-148 0 -243 -90.5t-95 -231.5q0 -119 71.5 -186t198.5 -67q138 0 236 86q44 39 68 80q11 18 24 54h-330l19 88h418l-86 -373h-84l28 113q-111 -131 -304 -131q-169 0 -266.5 86.5t-97.5 235.5q0 184 124 303
q122 119 327 119q271 0 376 -200z" />
    <glyph glyph-name="H" unicode="H" horiz-adv-x="916" 
d="M907 706l-163 -706h-101l77 334h-541l-77 -334h-102l163 706h101l-67 -288h541l67 288h102z" />
    <glyph glyph-name="I" unicode="I" horiz-adv-x="274" 
d="M264 706l-162 -706h-102l163 706h101z" />
    <glyph glyph-name="J" unicode="J" horiz-adv-x="708" 
d="M699 706l-101 -436q-8 -35 -16 -62q-23 -78 -52 -121q-72 -103 -233 -103q-145 0 -236 80q-60 53 -83 137l103 25q19 -52 37 -77q58 -78 180 -78q87 0 132 43q25 24 41 63q14 36 35 127l93 402h100z" />
    <glyph glyph-name="K" unicode="K" horiz-adv-x="833" 
d="M912 706l-430 -278l285 -428h-117l-247 380l-256 -161l-50 -219h-97l163 706h99l-86 -370l573 370h163z" />
    <glyph glyph-name="L" unicode="L" horiz-adv-x="646" 
d="M589 86l-20 -86h-569l163 706h100l-143 -620h469z" />
    <glyph glyph-name="M" unicode="M" horiz-adv-x="1000" 
d="M1003 706l-163 -706h-95l143 605l-428 -605h-92l-137 600l-136 -600h-94l161 706h133l138 -618l429 618h141z" />
    <glyph glyph-name="N" unicode="N" horiz-adv-x="917" 
d="M907 706l-162 -706h-98l-414 592l-137 -592h-96l163 706h103l411 -591l135 591h95z" />
    <glyph glyph-name="O" unicode="O" horiz-adv-x="958" 
d="M909 411q0 -196 -130.5 -313t-349.5 -117q-179 0 -282 85.5t-103 234.5q0 97 42 186q55 114 165.5 175t262.5 61q80 0 148 -17t125 -52.5t89.5 -97.5t32.5 -145zM807 398q0 116 -77.5 177.5t-222.5 61.5q-163 0 -256 -81q-49 -43 -77.5 -108.5t-28.5 -136.5
q0 -115 79.5 -179t221.5 -64q149 0 245 76t113 207q3 22 3 47z" />
    <glyph glyph-name="P" unicode="P" horiz-adv-x="804" 
d="M829 522q0 -85 -54 -147q-40 -48 -114 -66q-59 -14 -169 -14h-321l-69 -295h-102l163 706h383q20 0 48 -0.5t36 -0.5q101 -3 147 -45q52 -49 52 -138zM729 516q0 45 -25 72q-15 16 -35 22q-29 9 -105 9h-320l-54 -238h320q73 0 109 6.5t61 23.5q49 36 49 105z" />
    <glyph glyph-name="Q" unicode="Q" horiz-adv-x="958" 
d="M919 11l-56 -70l-157 104q-122 -64 -278 -64q-179 0 -281.5 85.5t-102.5 234.5q0 97 42 186q55 114 165.5 175t262.5 61q185 0 290 -83.5t105 -231.5q0 -110 -50 -207q-26 -53 -75 -100zM807 398q0 116 -77.5 177.5t-222.5 61.5q-163 0 -256 -81q-49 -43 -77.5 -108.5
t-28.5 -136.5q0 -115 79.5 -179t221.5 -64q149 0 245 76t113 207q3 22 3 47z" />
    <glyph glyph-name="R" unicode="R" horiz-adv-x="869" 
d="M847 536q0 -81 -44 -138q-41 -55 -121 -76q-39 -10 -105 -15l191 -307h-117l-180 302h-299l-71 -302h-101l163 706h400q74 0 95 -1q70 -1 118 -31q71 -42 71 -138zM747 523q0 49 -31 74q-30 23 -126 23h-344l-56 -231h327q131 0 175 26q25 14 40 43.5t15 64.5z" />
    <glyph glyph-name="S" unicode="S" horiz-adv-x="812" 
d="M787 554l-98 -33q-27 53 -84 79q-22 11 -57 21q-60 18 -122 18q-102 0 -159.5 -29.5t-57.5 -82.5q0 -41 34 -59q39 -19 194 -52q140 -30 193 -54q55 -26 80 -60.5t25 -84.5q0 -88 -64 -149q-88 -85 -287 -85q-59 0 -108 7q-107 16 -179 68q-41 29 -64 60.5t-42 83.5
l104 27q20 -62 67 -98q80 -59 226 -59q113 0 178.5 35.5t65.5 96.5q0 36 -23 56q-19 15 -54.5 26t-130.5 30q-157 32 -212 54q-105 40 -105 143q0 81 64 140q76 70 255 70q136 0 229.5 -43.5t131.5 -125.5z" />
    <glyph glyph-name="T" unicode="T" horiz-adv-x="708" 
d="M770 706l-20 -84h-289l-143 -622h-100l143 622h-287l19 84h677z" />
    <glyph glyph-name="U" unicode="U" horiz-adv-x="888" 
d="M889 706l-93 -404q-19 -86 -41 -137t-54 -87q-89 -99 -312 -99q-165 0 -250 58t-85 170q0 41 20 128l86 371h99l-88 -380q-16 -67 -16 -105q0 -155 245 -155q158 0 227 71q25 25 40.5 65t35.5 125l87 379h99z" />
    <glyph glyph-name="V" unicode="V" horiz-adv-x="740" 
d="M821 706l-487 -706h-99l-166 706h108l129 -585l399 585h116z" />
    <glyph glyph-name="W" unicode="W" horiz-adv-x="1062" 
d="M1138 706l-375 -706h-110l-64 586l-342 -586h-109l-56 706h98l38 -579l338 579h107l67 -576l306 576h102z" />
    <glyph glyph-name="X" unicode="X" horiz-adv-x="774" 
d="M824 706l-378 -343l245 -363h-122l-198 294l-325 -294h-136l409 371l-224 335h121l178 -266l297 266h133z" />
    <glyph glyph-name="Y" unicode="Y" horiz-adv-x="768" 
d="M841 706l-424 -429l-64 -277h-99l65 277l-236 429h120l179 -335l331 335h128z" />
    <glyph glyph-name="Z" unicode="Z" horiz-adv-x="767" 
d="M821 706l-19 -89l-702 -530h584l-19 -87h-730l19 87l701 532h-544l18 87h692z" />
    <glyph glyph-name="bracketleft" unicode="[" horiz-adv-x="375" 
d="M438 765l-17 -70h-121l-179 -777h120l-17 -70h-219l212 917h221z" />
    <glyph glyph-name="backslash" unicode="\" horiz-adv-x="417" 
d="M337 0h-86l-185 706h83z" />
    <glyph glyph-name="bracketright" unicode="]" horiz-adv-x="375" 
d="M337 766l-212 -917h-221l17 70h122l178 776h-119l16 71h219z" />
    <glyph glyph-name="asciicircum" unicode="^" horiz-adv-x="772" 
d="M628 286l-97 1l-78 319l-231 -320h-107l310 420h97z" />
    <glyph glyph-name="underscore" unicode="_" horiz-adv-x="500" 
d="M380 -214h-520l17 75h520z" />
    <glyph glyph-name="grave" unicode="`" horiz-adv-x="292" 
d="M234 551h-64l-112 137h120z" />
    <glyph glyph-name="a" unicode="a" horiz-adv-x="682" 
d="M620 66l-16 -66q-38 -6 -74 -6q-86 0 -86 76q-85 -88 -235 -88q-101 0 -155 38t-54 109q0 51 28.5 91.5t76.5 56.5q44 14 115 20q45 4 108 4h168q6 29 6 48q0 27 -12 44q-30 36 -141 36q-77 0 -122 -23q-25 -12 -48 -46l-97 16q55 125 279 125q120 0 176.5 -30.5
t56.5 -95.5q0 -33 -15 -99l-35 -148q-4 -18 -4 -29q0 -20 11 -28t37 -8q11 0 32 3zM480 228h-179q-133 0 -173 -24q-37 -21 -37 -67q0 -83 141 -83q95 0 159.5 45t88.5 129z" />
    <glyph glyph-name="b" unicode="b" horiz-adv-x="745" 
d="M670 274q0 -109 -73 -193q-84 -96 -241 -96q-169 0 -245 93l-19 -78h-94l163 706h95l-63 -272q30 26 61 39q64 27 147 27q125 0 197 -60.5t72 -165.5zM573 266q0 75 -50 117t-139 42q-109 0 -167 -47q-32 -26 -51.5 -69t-19.5 -90q0 -75 54 -116.5t151 -41.5
q103 0 162.5 55t59.5 150z" />
    <glyph glyph-name="c" unicode="c" horiz-adv-x="679" 
d="M631 339l-94 -19q-19 33 -36 49q-56 53 -160 53q-101 0 -162.5 -53.5t-61.5 -142.5q0 -74 52 -118t140 -44q96 0 162 50q28 22 56 63l89 -28q-107 -163 -314 -163q-130 0 -206 62.5t-76 168.5q0 126 90.5 204.5t235.5 78.5q111 0 190 -48q63 -37 95 -113z" />
    <glyph glyph-name="d" unicode="d" horiz-adv-x="737" 
d="M741 706l-162 -706h-95l14 56q-48 -39 -90 -54q-55 -19 -122 -19q-122 0 -194 62t-72 168q0 124 92 204t234 80q158 0 230 -97l71 306h94zM537 262q0 75 -50.5 116t-142.5 41q-104 0 -166.5 -54t-62.5 -145q0 -81 52.5 -120t135.5 -39q102 0 168 51t66 150z" />
    <glyph glyph-name="e" unicode="e" horiz-adv-x="685" 
d="M610 256q0 -17 -1 -30h-495q0 -4 -0.5 -11t-0.5 -10q0 -65 51.5 -103.5t136.5 -38.5q139 0 209 102l82 -29q-92 -151 -298 -151q-128 0 -201 60.5t-73 166.5q0 126 89.5 206.5t229.5 80.5q126 0 198.5 -65t72.5 -178zM512 294q-9 63 -55 96.5t-125 33.5
q-75 0 -129.5 -34.5t-73.5 -95.5h383z" />
    <glyph glyph-name="f" unicode="f" horiz-adv-x="313" 
d="M408 705l-20 -85q-39 9 -66 9q-33 0 -50 -12q-15 -10 -23 -27.5t-18 -59.5l-11 -48h132l-15 -64h-132l-96 -418h-94l97 418h-77l15 64h78l10 46q16 73 38 110q44 74 149 74q41 0 83 -7z" />
    <glyph glyph-name="g" unicode="g" horiz-adv-x="706" 
d="M678 482l-101 -430q-18 -77 -35.5 -116t-45.5 -67q-74 -71 -245 -71q-179 0 -235 78q-25 36 -28 99h102q2 -53 40 -75t129 -22q137 0 185 65q25 35 44 124q-42 -33 -80 -48q-55 -22 -131 -22q-119 0 -188 58t-69 158q0 124 90.5 204t231.5 80q154 0 225 -93l18 78h93z
M530 272q0 69 -49 108.5t-134 39.5q-104 0 -168.5 -54t-64.5 -141q0 -70 48 -110t134 -40q102 0 168 48.5t66 148.5z" />
    <glyph glyph-name="h" unicode="h" horiz-adv-x="727" 
d="M633 315q0 -29 -13 -88l-53 -227h-94l54 234q10 42 10 74q0 109 -162 109q-101 0 -165 -56q-25 -22 -39 -50t-27 -83l-53 -228h-94l163 706h94l-65 -282q87 74 217 74q110 0 168.5 -47.5t58.5 -135.5z" />
    <glyph glyph-name="i" unicode="i" horiz-adv-x="250" 
d="M244 666l-22 -96h-94l22 96h94zM203 482l-111 -482h-95l111 482h95z" />
    <glyph glyph-name="j" unicode="j" horiz-adv-x="250" 
d="M244 665l-22 -96h-95l22 96h95zM202 482l-116 -504q-19 -80 -51 -122q-47 -59 -148 -59q-38 0 -86 11l20 89q40 -13 68 -13q23 0 41 6q25 9 39 30t25 69l114 493h94z" />
    <glyph glyph-name="k" unicode="k" horiz-adv-x="684" 
d="M643 482l-279 -187l253 -295h-126l-203 244l-166 -111l-30 -133h-95l163 706h95l-107 -464l346 240h149z" />
    <glyph glyph-name="l" unicode="l" horiz-adv-x="249" 
d="M254 706l-163 -706h-94l163 706h94z" />
    <glyph glyph-name="m" unicode="m" horiz-adv-x="1161" 
d="M1067 315q0 -40 -12 -88l-54 -227h-94l55 234q9 37 9 75q0 52 -37.5 80.5t-107.5 28.5q-61 0 -112 -23q-59 -27 -87 -81q-15 -29 -28 -86l-53 -228h-94l54 234q9 37 9 75q0 52 -37.5 80.5t-107.5 28.5q-60 0 -112 -23q-58 -26 -86 -81q-14 -27 -28 -86l-53 -228h-94
l111 482h94l-13 -58q88 74 203 74q78 0 136 -30q42 -22 68 -71q57 54 101 73q64 28 145 28q108 0 166.5 -47.5t58.5 -135.5z" />
    <glyph glyph-name="n" unicode="n" horiz-adv-x="727" 
d="M633 315q0 -29 -13 -88l-53 -227h-94l54 234q10 42 10 74q0 109 -162 109q-101 0 -165 -56q-25 -22 -39 -50t-27 -83l-53 -228h-94l111 482h95l-14 -58q87 74 217 74q110 0 168.5 -47.5t58.5 -135.5z" />
    <glyph glyph-name="o" unicode="o" 
d="M656 271q0 -10 -2 -30q-15 -121 -103.5 -188.5t-232.5 -67.5q-142 0 -222 59.5t-80 165.5q0 129 94.5 208t249.5 79q137 0 216.5 -60.5t79.5 -165.5zM560 259q0 77 -54 118.5t-154 41.5q-108 0 -173.5 -53.5t-65.5 -142.5q0 -75 55 -117.5t153 -42.5q104 0 167.5 48
t70.5 130q1 6 1 18z" />
    <glyph glyph-name="p" unicode="p" horiz-adv-x="737" 
d="M668 270q0 -124 -91.5 -204t-234.5 -80q-164 0 -230 97l-65 -278h-95l157 677h94l-13 -56q43 38 89 54q58 20 122 20q123 0 195 -62t72 -168zM572 263q0 71 -46.5 112t-130.5 45q-6 1 -19 1q-104 0 -165 -54.5t-61 -146.5q0 -75 50.5 -116t142.5 -41q104 0 166.5 54.5
t62.5 145.5z" />
    <glyph glyph-name="q" unicode="q" horiz-adv-x="740" 
d="M686 483l-156 -678h-95l57 244q-79 -66 -202 -66q-127 0 -199 59.5t-72 163.5q0 112 72 195q82 97 241 97q164 0 242 -94l18 79h94zM538 263q0 75 -54 117t-149 42q-75 0 -128 -31q-44 -25 -70 -73t-26 -106q0 -69 53 -111.5t139 -42.5q106 0 164 46q33 26 52 69t19 90z
" />
    <glyph glyph-name="r" unicode="r" horiz-adv-x="409" 
d="M449 488l-22 -93q-39 11 -76 11q-89 0 -144 -47q-22 -19 -35 -42q-12 -22 -20 -59l-60 -258h-95l112 482h94l-13 -55q62 69 185 69q41 0 74 -8z" />
    <glyph glyph-name="s" unicode="s" horiz-adv-x="651" 
d="M603 355l-105 -7q-12 36 -48 53q-56 27 -138 27q-75 0 -116.5 -19t-41.5 -54q0 -25 25 -37q30 -14 120 -25q130 -15 180 -31q39 -12 61 -40.5t22 -66.5t-18 -71q-53 -99 -257 -99q-153 0 -233 54q-53 36 -68 108l106 8q10 -44 50 -64q59 -31 154 -31q76 0 122.5 22.5
t46.5 59.5q0 22 -22 36q-23 14 -104 23l-77 9q-96 11 -143 34q-60 29 -60 94q0 77 71 120.5t198 43.5q156 0 227 -58q17 -14 32 -41q12 -22 16 -48z" />
    <glyph glyph-name="t" unicode="t" horiz-adv-x="326" 
d="M366 482l-15 -64h-139l-56 -243q-10 -47 -10 -59q0 -21 11.5 -30t37.5 -9q37 0 77 7l-19 -84q-37 -6 -82 -6q-66 0 -94.5 21.5t-28.5 71.5q0 23 13 79l58 252h-83l15 64h85l41 175h94l-41 -175h136z" />
    <glyph glyph-name="u" unicode="u" 
d="M680 482l-111 -482h-95l13 59q-86 -74 -214 -74q-110 0 -169.5 46t-59.5 132q0 37 12 92l53 227h94l-54 -234q-9 -38 -9 -69q0 -47 25 -71q42 -42 137 -42q100 0 165 55q25 22 39 50.5t27 83.5l52 227h95z" />
    <glyph glyph-name="v" unicode="v" horiz-adv-x="588" 
d="M622 482l-349 -482h-98l-125 482h102l89 -389l272 389h109z" />
    <glyph glyph-name="w" unicode="w" horiz-adv-x="912" 
d="M938 482l-317 -482h-96l-58 390l-240 -390h-97l-93 482h100l60 -380l236 380h102l57 -380l241 380h105z" />
    <glyph glyph-name="x" unicode="x" horiz-adv-x="620" 
d="M633 482l-285 -230l191 -252h-120l-136 194l-228 -194h-134l314 258l-177 224h123l121 -168l199 168h132z" />
    <glyph glyph-name="y" unicode="y" horiz-adv-x="581" 
d="M615 482l-395 -583q-32 -48 -77 -73q-41 -21 -110 -21q-48 0 -125 12l19 85q63 -15 102 -15q55 0 87 26q19 15 54 67l-128 502h102l94 -414l269 414h108z" />
    <glyph glyph-name="z" unicode="z" horiz-adv-x="594" 
d="M587 482l-14 -61l-465 -344h397l-17 -77h-543l15 64l464 343h-354l16 75h501z" />
    <glyph glyph-name="braceleft" unicode="{" horiz-adv-x="344" 
d="M427 768l-17 -69h-33q-43 0 -60 -16q-20 -17 -36 -90l-35 -154q-14 -62 -39 -91.5t-72 -40.5q57 -19 57 -78q0 -23 -7 -51l-37 -158q-12 -53 -12 -62q0 -23 13.5 -33t44.5 -10h36l-17 -70h-85q-45 0 -70.5 23t-25.5 64q0 18 13 75l40 169q7 28 7 47q0 30 -17.5 42
t-62.5 13l18 70q46 0 70 12q20 9 30 28t20 63l35 156q11 50 24 86q28 75 135 75h83z" />
    <glyph glyph-name="bar" unicode="|" horiz-adv-x="229" 
d="M255 765l-212 -917h-99l212 917h99z" />
    <glyph glyph-name="braceright" unicode="}" horiz-adv-x="344" 
d="M295 334l-17 -70q-48 0 -71 -11q-20 -10 -30 -29t-20 -63l-35 -155q-14 -59 -24 -87q-28 -74 -135 -74h-82l17 69h32q43 0 61 15q19 17 35 90l35 155q14 62 39 91t72 40q-57 20 -57 78q0 19 8 51l37 159q11 48 11 61q0 23 -13.5 33t-44.5 10h-36l17 71h86
q44 0 69.5 -23.5t25.5 -64.5q0 -23 -12 -74l-40 -170q-8 -37 -8 -47q0 -29 17.5 -41.5t62.5 -13.5z" />
    <glyph glyph-name="asciitilde" unicode="~" horiz-adv-x="772" 
d="M709 307q-53 -46 -101 -70q-58 -29 -108 -29t-127 36l-36 17q-61 29 -105 29q-22 0 -41 -6q-21 -7 -37 -17t-55 -43q-2 -2 -7.5 -6t-8.5 -7l-44 71q47 43 79 62q58 37 126 37q27 0 44 -4q28 -7 78 -28l59 -26q56 -25 84 -25q38 0 79 23q27 14 78 55z" />
    <glyph glyph-name="exclamdown" unicode="&#xa1;" horiz-adv-x="292" 
d="M253 706l-23 -100h-100l23 100h100zM184 527l-22 -222l-71 -305h-101l73 315l77 212h44z" />
    <glyph glyph-name="cent" unicode="&#xa2;" horiz-adv-x="677" 
d="M640 338l-97 -20q-25 43 -55.5 64t-80.5 30l-80 -347q47 2 77 12q76 23 129 99l92 -27q-106 -164 -304 -164h-13l-25 -105h-71l26 110q-43 9 -70 20q-65 25 -102 80t-37 126q0 126 89 203.5t237 78.5l21 92h71l-22 -97q43 -8 65.5 -16t54.5 -27q63 -38 95 -112zM336 416
q-96 -4 -154 -57t-58 -137q0 -120 133 -151z" />
    <glyph glyph-name="sterling" unicode="&#xa3;" 
d="M713 498l-101 -22q1 9 1 21q0 71 -46 110t-128 39q-83 0 -132 -35t-49 -94q0 -51 37 -106l14 -21h212l-17 -69h-162q19 -41 19 -81q0 -51 -30 -104l18 -12q45 -30 65 -38.5t45 -8.5q38 0 63 22q15 12 25 28q21 37 35 103h93q-10 -42 -12 -50q-18 -67 -48 -107
t-74.5 -62.5t-93.5 -22.5q-46 0 -90 22q-29 13 -77 50q-6 -5 -27 -23q-65 -50 -152 -50q-61 0 -96 27t-35 73q0 57 44.5 92.5t115.5 35.5q36 0 63 -8q23 -6 68 -27q10 29 10 50q0 35 -40 92h-181l16 68h125q-32 65 -32 112q0 104 77.5 164t211.5 60q260 0 265 -228zM222 108
q-31 18 -47 25q-30 12 -61 12t-48 -12.5t-17 -35.5q0 -18 15 -28.5t41 -10.5q18 0 38 5q22 5 37 13.5t42 31.5z" />
    <glyph glyph-name="currency" unicode="&#xa4;" horiz-adv-x="734" 
d="M693 557l-84 -69q35 -55 35 -122q0 -109 -74 -194l68 -77l-67 -56l-68 79q-72 -41 -154 -41q-100 0 -168 55l-86 -70l-53 62l84 69q-36 64 -36 125q0 56 23 111q11 26 21 41t32 38l-67 78l66 56l66 -77q74 41 151 41q98 0 173 -55l84 68zM555 360q0 74 -47.5 120
t-124.5 46q-86 0 -144 -58.5t-58 -145.5q0 -76 46.5 -121t122.5 -45q90 0 147.5 57.5t57.5 146.5z" />
    <glyph glyph-name="yen" unicode="&#xa5;" horiz-adv-x="812" 
d="M886 701l-327 -308h152l-17 -73h-213l-53 -50l-2 -11h254l-17 -74h-254l-43 -185h-99l43 185h-254l17 74h254l3 14l-28 47h-215l17 73h155l-182 308h122l196 -349l355 349h136z" />
    <glyph glyph-name="brokenbar" unicode="&#xa6;" horiz-adv-x="229" 
d="M255 765l-87 -378h-100l88 378h99zM130 226l-87 -378h-99l87 378h99z" />
    <glyph glyph-name="section" unicode="&#xa7;" horiz-adv-x="792" 
d="M730 616l-68 -76q-50 43 -95 63q-81 36 -170 36q-113 0 -113 -66q0 -24 22 -40q7 -5 22 -13q34 -17 99 -40q33 -10 79 -27q79 -30 108 -50q76 -50 76 -135q0 -55 -26 -102q-14 -24 -37 -47q-26 -26 -77 -53q14 -31 14 -60q0 -82 -66.5 -132t-175.5 -50q-62 0 -112 11
q-25 5 -63 18q-77 28 -164 86l80 78q56 -44 103 -64q81 -35 170 -35q59 0 91 21t32 59q0 29 -24 45q-11 9 -35 19q-40 16 -82 30q-59 21 -86 30q-78 29 -118 60q-57 48 -57 120q0 49 24 94q14 27 40 52q26 24 80 53q-21 34 -21 67q0 74 59.5 116.5t164.5 42.5q77 0 143 -16
q38 -9 74 -25q52 -22 109 -70zM597 253q0 39 -34 65q-32 23 -146 62q-19 6 -48 16.5t-35 12.5q-50 19 -80 39q-39 -16 -63 -40q-38 -38 -38 -86q0 -53 44 -78q23 -14 44 -22q34 -13 109 -38q84 -28 108 -39q18 -8 42 -22q41 23 59 41q38 38 38 89z" />
    <glyph glyph-name="dieresis" unicode="&#xa8;" horiz-adv-x="292" 
d="M338 671l-24 -103h-97l24 103h97zM75 671l-24 -104h-97l24 104h97z" />
    <glyph glyph-name="copyright" unicode="&#xa9;" horiz-adv-x="833" 
d="M768 351q0 -149 -104.5 -251.5t-252.5 -102.5q-149 0 -252 104t-103 254q0 149 103 251.5t253 102.5q149 0 252.5 -102.5t103.5 -249.5v-6zM730 352q0 135 -92 228t-226 93q-131 0 -224 -94t-93 -227t92.5 -226t224.5 -93t225 93t93 226zM631 449l-62 -36
q-23 50 -55.5 71.5t-85.5 21.5q-76 0 -121.5 -45t-45.5 -120q0 -64 40 -102.5t105 -38.5q66 0 112 41q19 17 38 47l58 -37q-72 -117 -212 -117q-97 0 -158 57.5t-61 147.5q0 102 70.5 167.5t179.5 65.5q142 0 198 -123z" />
    <glyph glyph-name="ordfeminine" unicode="&#xaa;" horiz-adv-x="479" 
d="M484 407l-12 -51l-10 -2q-12 -3 -43 -3q-33 0 -47.5 12t-15.5 43q-27 -25 -48 -36q-47 -26 -115 -26q-69 0 -108.5 29.5t-39.5 81.5q0 54 45 88q42 30 155 30h147l3 13q2 12 2 20q0 29 -25 40.5t-91 11.5q-50 0 -72 -9.5t-36 -35.5l-71 7q22 50 65 71.5t122 21.5
q93 0 134.5 -22t41.5 -72q0 -27 -7 -55l-23 -100q-5 -23 -5 -33q0 -15 7 -21t26 -6q5 0 21 3zM382 522l-170 -5q-35 -2 -54 -7q-41 -13 -41 -53q0 -56 88 -56q71 0 122 34q39 26 55 87z" />
    <glyph glyph-name="guillemotleft" unicode="&#xab;" horiz-adv-x="500" 
d="M467 458l-17 -69l-160 -139l97 -137l-13 -58l-167 159l20 86zM266 458l-17 -71l-160 -137l97 -137l-13 -58l-167 159l20 85z" />
    <glyph glyph-name="logicalnot" unicode="&#xac;" horiz-adv-x="772" 
d="M679 338l-77 -332h-95l57 248h-528l19 84h624z" />
    <glyph glyph-name="registered" unicode="&#xae;" horiz-adv-x="833" 
d="M768 351q0 -149 -104.5 -251.5t-252.5 -102.5q-149 0 -252 104t-103 254q0 149 103 251.5t253 102.5q149 0 252.5 -102.5t103.5 -249.5v-6zM729 352q0 135 -92 228t-226 93q-131 0 -223.5 -94t-92.5 -227t92 -226t224 -93q133 0 225.5 93t92.5 226zM618 458
q0 -127 -149 -135l107 -176h-79l-105 175h-66l-40 -175h-70l94 416h139q61 0 86 -5t46 -19q37 -28 37 -81zM546 451q0 41 -36 49q-19 4 -57 4h-86l-29 -122h63q88 0 115 13q30 15 30 56z" />
    <glyph glyph-name="macron" unicode="&#xaf;" horiz-adv-x="292" 
d="M335 645l-17 -76h-361l17 76h361z" />
    <glyph glyph-name="degree" unicode="&#xb0;" horiz-adv-x="354" 
d="M387 595q0 -68 -47 -115.5t-115 -47.5q-67 0 -113.5 47t-46.5 115q0 67 47 114t114 47t114 -46.5t47 -113.5zM305 595q0 34 -23 57t-57 23q-32 0 -55 -23t-23 -56q0 -32 23 -55.5t56 -23.5q32 0 55.5 23t23.5 55z" />
    <glyph glyph-name="plusminus" unicode="&#xb1;" horiz-adv-x="772" 
d="M704 464l-20 -83h-246l-52 -226h-95l52 226h-246l20 83h246l51 222h95l-51 -222h246zM616 83l-19 -83h-587l19 83h587z" />
    <glyph glyph-name="twosuperior" unicode="&#xb2;" horiz-adv-x="458" 
d="M452 556q0 -65 -51 -114q-30 -28 -73 -53t-144 -73l-19 -9l249 1l-12 -60h-368l14 68q32 12 47 19q25 10 85 40q46 22 93 49q68 38 92 77q14 22 14 53q0 38 -26 59t-73 21q-55 0 -87.5 -29.5t-39.5 -84.5l-68 15q41 158 201 158q76 0 121 -37.5t45 -99.5z" />
    <glyph glyph-name="threesuperior" unicode="&#xb3;" horiz-adv-x="458" 
d="M449 582q0 -75 -80 -103q59 -32 59 -91q0 -67 -53.5 -107t-144.5 -40t-140.5 38.5t-51.5 109.5l69 12q1 -40 20 -63q32 -37 113 -37q54 0 84.5 23t30.5 63q0 36 -27.5 49.5t-99.5 13.5h-30l10 54h23q7 0 14.5 -0.5t9.5 -0.5q125 0 125 72q0 29 -24.5 44.5t-70.5 15.5
q-60 0 -93 -25q-23 -18 -36 -59l-64 18q42 123 196 123q75 0 118 -29.5t43 -80.5z" />
    <glyph glyph-name="acute" unicode="&#xb4;" horiz-adv-x="292" 
d="M253 688l-147 -137h-67l87 137h127z" />
    <glyph glyph-name="mu" unicode="&#xb5;" 
d="M678 483l-81 -355q-4 -12 -4 -29q0 -36 48 -36q10 0 31 3l-15 -66q-42 -5 -74 -5q-86 0 -86 73v2q-81 -87 -222 -87q-43 0 -89 11q-30 8 -47 18t-39 33l-55 -240h-94l156 678h94l-50 -220q-15 -67 -15 -89q0 -52 42 -81.5t115 -29.5q31 0 62 7q54 12 102 49q28 22 46 56
q16 28 24 63l56 245h95z" />
    <glyph glyph-name="paragraph" unicode="&#xb6;" horiz-adv-x="667" 
d="M632 706l-13 -54h-34l-189 -819h-58l189 819h-144l-189 -819h-58l112 486q-113 42 -113 161q0 64 35 120q66 106 229 106h233z" />
    <glyph glyph-name="periodcentered" unicode="&#xb7;" horiz-adv-x="250" 
d="M162 297l-25 -109h-110l25 109h110z" />
    <glyph glyph-name="cedilla" unicode="&#xb8;" horiz-adv-x="292" 
d="M269 -115q0 -46 -40 -74t-106 -28q-43 0 -100 14l27 46q42 -12 67 -12q65 0 65 42q0 34 -70 34h-14l64 103h56l-37 -59q47 -4 67.5 -19.5t20.5 -46.5z" />
    <glyph glyph-name="onesuperior" unicode="&#xb9;" horiz-adv-x="458" 
d="M360 689l-103 -443h-70l79 340q-36 -14 -58 -17q-17 -3 -68 -3l12 52q58 1 89 16q22 10 34.5 21t30.5 34h54z" />
    <glyph glyph-name="ordmasculine" unicode="&#xba;" horiz-adv-x="500" 
d="M507 553q0 -14 -1 -21q-10 -86 -71.5 -134t-161.5 -48q-98 0 -154 42.5t-56 117.5q0 92 66 148t173 56q95 0 150 -43t55 -118zM438 545q0 54 -37 83t-105 29q-73 0 -117.5 -38t-44.5 -100q0 -53 37 -82t104 -29q71 0 114.5 33t47.5 91q0 2 0.5 6.5t0.5 6.5z" />
    <glyph glyph-name="guillemotright" unicode="&#xbb;" horiz-adv-x="500" 
d="M437 298l-20 -85l-239 -159l16 71l160 137l-96 137l13 58zM236 298l-20 -86l-239 -158l16 69l160 139l-96 137l13 58z" />
    <glyph glyph-name="onequarter" unicode="&#xbc;" horiz-adv-x="1042" 
d="M939 163l-13 -59h-86l-24 -104h-67l24 104h-255l13 57l332 281h55l-65 -279h86zM821 670l-552 -682l-46 32l553 683zM376 689l-103 -443h-70l79 340q-36 -14 -58 -17q-17 -3 -68 -3l12 52q58 1 89 16q22 10 34.5 21t30.5 34h54zM832 349l-219 -187h173z" />
    <glyph glyph-name="onehalf" unicode="&#xbd;" horiz-adv-x="1042" 
d="M971 307q0 -65 -51 -113q-29 -28 -71.5 -52.5t-145.5 -73.5l-19 -9h249l-12 -59h-368l14 67q29 13 47 19q45 21 85 41q59 29 93 48q68 38 92 77q14 22 14 54q0 38 -26 58.5t-73 20.5q-55 0 -87.5 -29t-39.5 -84l-68 14q40 158 201 158q76 0 121 -37t45 -100zM782 670
l-552 -682l-46 32l552 683zM352 689l-102 -443h-70l79 340q-38 -14 -59 -17q-17 -3 -68 -3l13 52q57 1 88 16q36 16 65 55h54z" />
    <glyph glyph-name="threequarters" unicode="&#xbe;" horiz-adv-x="1042" 
d="M970 163l-14 -59h-86l-24 -104h-67l24 104h-255l13 57l332 281h55l-64 -279h86zM859 670l-552 -682l-46 32l552 683zM455 582q0 -75 -80 -103q31 -17 44.5 -38t13.5 -53q0 -68 -53 -107.5t-144 -39.5t-140.5 38.5t-51.5 109.5l69 12q1 -40 20 -63q31 -37 113 -37
q54 0 84 22.5t30 63.5q0 36 -27.5 49.5t-98.5 13.5h-31l11 54h23q7 0 14.5 -0.5t9.5 -0.5q125 0 125 72q0 29 -24.5 44.5t-70.5 15.5q-60 0 -93 -25q-23 -18 -36 -59l-64 18q42 123 196 123q75 0 118 -29.5t43 -80.5zM862 349l-218 -187h173z" />
    <glyph glyph-name="questiondown" unicode="&#xbf;" horiz-adv-x="667" 
d="M471 706l-23 -101h-101l23 101h101zM554 203q-34 -107 -115 -163.5t-202 -56.5q-119 0 -187.5 48.5t-68.5 133.5q0 61 28 106q16 27 46 51q32 25 60.5 38.5t101.5 38.5l54 18q24 8 34 16.5t18 25.5q8 19 18 66h74l-7 -34q-12 -60 -29 -89q-7 -14 -22 -27q-21 -19 -81 -36
q-111 -32 -154 -69q-44 -39 -44 -103q0 -50 43.5 -79t117.5 -29q112 0 172 63q34 36 59 98z" />
    <glyph glyph-name="Agrave" unicode="&#xc0;" horiz-adv-x="833" 
d="M551 755h-66l-105 126h119zM750 0h-110l-46 174h-433l-127 -174h-119l529 706h107zM570 255l-92 350l-257 -350h349z" />
    <glyph glyph-name="Aacute" unicode="&#xc1;" horiz-adv-x="833" 
d="M649 878l-149 -125h-65l87 125h127zM750 0h-110l-46 174h-433l-127 -174h-119l529 706h107zM570 255l-92 350l-257 -350h349z" />
    <glyph glyph-name="Acircumflex" unicode="&#xc2;" horiz-adv-x="833" 
d="M655 753h-75l-69 69l-94 -70h-86l129 125h107zM750 0h-110l-46 174h-433l-127 -174h-119l529 706h107zM570 255l-92 350l-257 -350h349z" />
    <glyph glyph-name="Atilde" unicode="&#xc3;" horiz-adv-x="833" 
d="M692 816q-38 -27 -65 -41q-31 -14 -56 -14q-36 0 -60 11l-49 22q-17 8 -36 8q-13 0 -25 -3q-23 -6 -61 -34l-28 44q34 27 61 42q35 19 69 19q26 0 65 -19q46 -23 76 -23q13 0 26 3q23 6 47 23l9 6zM750 0h-110l-46 174h-433l-127 -174h-119l529 706h107zM570 255l-92 350
l-257 -350h349z" />
    <glyph glyph-name="Adieresis" unicode="&#xc4;" horiz-adv-x="833" 
d="M699 877l-18 -103h-98l18 103h98zM436 877l-18 -103h-97l18 103h97zM750 0h-110l-46 174h-433l-127 -174h-119l529 706h107zM570 255l-92 350l-257 -350h349z" />
    <glyph glyph-name="Aring" unicode="&#xc5;" horiz-adv-x="833" 
d="M625 836q0 -43 -32 -70t-84 -27t-84.5 27t-32.5 70q0 42 32 68t84 26q51 0 84 -26.5t33 -67.5zM750 0h-110l-46 174h-433l-127 -174h-119l529 706h107zM564 836q0 20 -16 33.5t-41 13.5q-23 0 -39 -14t-16 -34t16.5 -33.5t40.5 -13.5t39.5 13.5t15.5 34.5zM570 255
l-92 350l-257 -350h349z" />
    <glyph glyph-name="AE" unicode="&#xc6;" horiz-adv-x="1125" 
d="M1150 706l-20 -86h-439l-49 -212h431l-19 -82h-431l-54 -238h469l-20 -88h-570l39 170h-281l-152 -170h-130l649 706h577zM595 611l-316 -359h228z" />
    <glyph glyph-name="Ccedilla" unicode="&#xc7;" horiz-adv-x="864" 
d="M856 497l-102 -18q-25 76 -95 119t-169 43q-145 0 -241.5 -91t-96.5 -228q0 -164 148 -226q69 -29 145 -29q184 0 282 147l93 -25q-28 -51 -64.5 -87t-88.5 -65q-95 -53 -220 -54l-21 -35q44 -5 63 -16q31 -17 31 -56q0 -50 -43 -80t-114 -30q-49 0 -106 15l29 50
q47 -14 72 -14q32 0 50.5 12t18.5 34q0 37 -76 37h-14l51 85q-82 8 -127.5 23.5t-91.5 51.5q-119 90 -119 251q0 181 124.5 297t319.5 116q274 0 362 -227z" />
    <glyph glyph-name="Egrave" unicode="&#xc8;" horiz-adv-x="792" 
d="M549 755h-66l-104 126h118zM814 706l-20 -87h-551l-49 -210h537l-19 -84h-537l-55 -238h577l-20 -87h-677l163 706h651z" />
    <glyph glyph-name="Eacute" unicode="&#xc9;" horiz-adv-x="792" 
d="M632 878l-149 -125h-65l87 125h127zM814 706l-20 -87h-551l-49 -210h537l-19 -84h-537l-55 -238h577l-20 -87h-677l163 706h651z" />
    <glyph glyph-name="Ecircumflex" unicode="&#xca;" horiz-adv-x="792" 
d="M648 753h-75l-69 69l-94 -70h-86l129 125h107zM814 706l-20 -87h-551l-49 -210h537l-19 -84h-537l-55 -238h577l-20 -87h-677l163 706h651z" />
    <glyph glyph-name="Edieresis" unicode="&#xcb;" horiz-adv-x="792" 
d="M694 877l-18 -103h-98l18 103h98zM431 877l-18 -103h-97l18 103h97zM814 706l-20 -87h-551l-49 -210h537l-19 -84h-537l-55 -238h577l-20 -87h-677l163 706h651z" />
    <glyph glyph-name="Igrave" unicode="&#xcc;" horiz-adv-x="274" 
d="M274 755h-66l-105 126h119zM264 706l-162 -706h-102l163 706h101z" />
    <glyph glyph-name="Iacute" unicode="&#xcd;" horiz-adv-x="274" 
d="M373 878l-149 -125h-65l87 125h127zM264 706l-162 -706h-102l163 706h101z" />
    <glyph glyph-name="Icircumflex" unicode="&#xce;" horiz-adv-x="274" 
d="M377 752h-75l-69 69l-94 -70h-86l129 125h107zM264 706l-162 -706h-102l163 706h101z" />
    <glyph glyph-name="Idieresis" unicode="&#xcf;" horiz-adv-x="274" 
d="M420 877l-18 -103h-98l18 103h98zM157 877l-18 -103h-97l18 103h97zM264 706l-162 -706h-102l163 706h101z" />
    <glyph glyph-name="Eth" unicode="&#xd0;" horiz-adv-x="857" 
d="M822 412q0 -182 -112 -297q-75 -77 -184 -98q-85 -17 -201 -17h-325l79 343h-82l15 68h83l68 295h282q53 0 76 -1q94 -3 157 -32q67 -31 105.5 -100t38.5 -161zM721 410q0 118 -83 173q-32 21 -61 27q-44 10 -146 10h-185l-48 -209h324l-16 -68h-323l-60 -256h197
q187 0 267 52q61 39 97.5 113t36.5 158z" />
    <glyph glyph-name="Ntilde" unicode="&#xd1;" horiz-adv-x="917" 
d="M724 816q-38 -27 -65 -41q-31 -14 -56 -14q-36 0 -60 11l-49 22q-17 8 -36 8q-13 0 -25 -3q-23 -6 -61 -34l-28 44q34 27 61 42q35 19 69 19q26 0 65 -19q46 -23 76 -23q13 0 26 3q23 6 47 23l9 6zM907 706l-162 -706h-98l-414 592l-137 -592h-96l163 706h103l411 -591
l135 591h95z" />
    <glyph glyph-name="Ograve" unicode="&#xd2;" horiz-adv-x="958" 
d="M568 755h-66l-104 126h118zM909 411q0 -196 -130.5 -313t-349.5 -117q-179 0 -282 85.5t-103 234.5q0 97 42 186q55 114 165.5 175t262.5 61q80 0 148 -17t125 -52.5t89.5 -97.5t32.5 -145zM807 398q0 116 -77.5 177.5t-222.5 61.5q-163 0 -256 -81q-49 -43 -77.5 -108.5
t-28.5 -136.5q0 -115 79.5 -179t221.5 -64q149 0 245 76t113 207q3 22 3 47z" />
    <glyph glyph-name="Oacute" unicode="&#xd3;" horiz-adv-x="958" 
d="M671 878l-149 -125h-65l87 125h127zM909 411q0 -196 -130.5 -313t-349.5 -117q-179 0 -282 85.5t-103 234.5q0 97 42 186q55 114 165.5 175t262.5 61q80 0 148 -17t125 -52.5t89.5 -97.5t32.5 -145zM807 398q0 116 -77.5 177.5t-222.5 61.5q-163 0 -256 -81
q-49 -43 -77.5 -108.5t-28.5 -136.5q0 -115 79.5 -179t221.5 -64q149 0 245 76t113 207q3 22 3 47z" />
    <glyph glyph-name="Ocircumflex" unicode="&#xd4;" horiz-adv-x="958" 
d="M672 753h-76l-68 69l-95 -70h-85l129 125h107zM909 411q0 -196 -130.5 -313t-349.5 -117q-179 0 -282 85.5t-103 234.5q0 97 42 186q55 114 165.5 175t262.5 61q80 0 148 -17t125 -52.5t89.5 -97.5t32.5 -145zM807 398q0 116 -77.5 177.5t-222.5 61.5q-163 0 -256 -81
q-49 -43 -77.5 -108.5t-28.5 -136.5q0 -115 79.5 -179t221.5 -64q149 0 245 76t113 207q3 22 3 47z" />
    <glyph glyph-name="Otilde" unicode="&#xd5;" horiz-adv-x="958" 
d="M707 816q-38 -27 -65 -41q-31 -14 -56 -14q-36 0 -60 11l-49 22q-17 8 -36 8q-13 0 -25 -3q-23 -6 -61 -34l-28 44q34 27 61 42q35 19 69 19q26 0 65 -19q46 -23 76 -23q12 0 26 3q23 6 47 23l9 6zM909 411q0 -196 -130.5 -313t-349.5 -117q-179 0 -282 85.5t-103 234.5
q0 97 42 186q55 114 165.5 175t262.5 61q80 0 148 -17t125 -52.5t89.5 -97.5t32.5 -145zM807 398q0 116 -77.5 177.5t-222.5 61.5q-163 0 -256 -81q-49 -43 -77.5 -108.5t-28.5 -136.5q0 -115 79.5 -179t221.5 -64q149 0 245 76t113 207q3 22 3 47z" />
    <glyph glyph-name="Odieresis" unicode="&#xd6;" horiz-adv-x="958" 
d="M705 877l-18 -103h-98l18 103h98zM442 877l-18 -103h-97l18 103h97zM909 411q0 -196 -130.5 -313t-349.5 -117q-179 0 -282 85.5t-103 234.5q0 97 42 186q55 114 165.5 175t262.5 61q80 0 148 -17t125 -52.5t89.5 -97.5t32.5 -145zM807 398q0 116 -77.5 177.5
t-222.5 61.5q-163 0 -256 -81q-49 -43 -77.5 -108.5t-28.5 -136.5q0 -115 79.5 -179t221.5 -64q149 0 245 76t113 207q3 22 3 47z" />
    <glyph glyph-name="multiply" unicode="&#xd7;" horiz-adv-x="772" 
d="M641 440l-197 -145l169 -145l-72 -61l-173 150l-207 -151l-60 59l202 148l-173 149l71 60l178 -153l202 148z" />
    <glyph glyph-name="Oslash" unicode="&#xd8;" horiz-adv-x="958" 
d="M955 605l-81 -50q35 -71 35 -147q0 -110 -50 -207q-55 -106 -166.5 -163t-266.5 -57q-101 0 -174.5 27.5t-134.5 87.5l-92 -58l-37 65l87 53q-31 69 -31 143q0 190 129.5 307t340.5 117q208 0 316 -108l87 54zM743 562q-29 34 -93.5 54.5t-144.5 20.5q-161 0 -254 -81
q-49 -43 -77.5 -108t-28.5 -136q0 -54 19 -102zM807 396q0 37 -3.5 56t-17.5 51l-580 -354q79 -81 241 -81q161 0 260.5 90t99.5 238z" />
    <glyph glyph-name="Ugrave" unicode="&#xd9;" horiz-adv-x="888" 
d="M562 755h-66l-105 126h119zM889 706l-93 -404q-19 -86 -41 -137t-54 -87q-89 -99 -312 -99q-165 0 -250 58t-85 170q0 41 20 128l86 371h99l-88 -380q-16 -67 -16 -105q0 -155 245 -155q158 0 227 71q25 25 40.5 65t35.5 125l87 379h99z" />
    <glyph glyph-name="Uacute" unicode="&#xda;" horiz-adv-x="888" 
d="M672 878l-149 -125h-65l87 125h127zM889 706l-93 -404q-19 -86 -41 -137t-54 -87q-89 -99 -312 -99q-165 0 -250 58t-85 170q0 41 20 128l86 371h99l-88 -380q-16 -67 -16 -105q0 -155 245 -155q158 0 227 71q25 25 40.5 65t35.5 125l87 379h99z" />
    <glyph glyph-name="Ucircumflex" unicode="&#xdb;" horiz-adv-x="888" 
d="M682 753h-75l-69 69l-94 -70h-86l129 125h107zM889 706l-93 -404q-19 -86 -41 -137t-54 -87q-89 -99 -312 -99q-165 0 -250 58t-85 170q0 41 20 128l86 371h99l-88 -380q-16 -67 -16 -105q0 -155 245 -155q158 0 227 71q25 25 40.5 65t35.5 125l87 379h99z" />
    <glyph glyph-name="Udieresis" unicode="&#xdc;" horiz-adv-x="888" 
d="M725 877l-18 -103h-98l18 103h98zM462 877l-18 -103h-97l18 103h97zM889 706l-93 -404q-19 -86 -41 -137t-54 -87q-89 -99 -312 -99q-165 0 -250 58t-85 170q0 41 20 128l86 371h99l-88 -380q-16 -67 -16 -105q0 -155 245 -155q158 0 227 71q25 25 40.5 65t35.5 125
l87 379h99z" />
    <glyph glyph-name="Yacute" unicode="&#xdd;" horiz-adv-x="768" 
d="M610 878l-149 -125h-65l87 125h127zM841 706l-424 -429l-64 -277h-99l65 277l-236 429h120l179 -335l331 335h128z" />
    <glyph glyph-name="Thorn" unicode="&#xde;" horiz-adv-x="804" 
d="M798 385q0 -85 -54 -147q-43 -49 -115 -66q-59 -14 -168 -14h-322l-37 -158h-102l163 706h102l-32 -137h282q18 0 46 -0.5t38 -0.5q100 -3 146 -45q53 -48 53 -138zM697 380q0 46 -24 71q-12 15 -35 22q-25 9 -53 9h-372l-55 -238h321q73 0 109 6.5t61 23.5q48 35 48 106
z" />
    <glyph glyph-name="germandbls" unicode="&#xdf;" 
d="M688 573q0 -58 -33 -95t-93 -45q53 -17 76.5 -50t23.5 -88q0 -104 -47 -191q-63 -114 -231 -114q-192 0 -192 119q0 22 5 52h94q-4 -23 -4 -32q0 -67 104 -67q62 0 102 32q22 18 35 42q38 74 38 149q0 38 -19 61q-13 16 -30 23q-20 10 -42.5 12.5t-83.5 2.5h-58l17 73h59
q52 0 73 3q37 4 69 25q37 24 37 75q0 85 -164 85q-116 0 -157 -35q-39 -32 -64 -139l-109 -471h-96l112 485q3 15 16 60t28 70.5t41 46.5q74 59 220 59q273 0 273 -148z" />
    <glyph glyph-name="agrave" unicode="&#xe0;" horiz-adv-x="682" 
d="M416 551h-64l-112 137h120zM620 66l-16 -66q-38 -6 -74 -6q-86 0 -86 76q-85 -88 -235 -88q-101 0 -155 38t-54 109q0 51 28.5 91.5t76.5 56.5q44 14 115 20q45 4 108 4h168q6 29 6 48q0 27 -12 44q-30 36 -141 36q-77 0 -122 -23q-25 -12 -48 -46l-97 16q55 125 279 125
q120 0 176.5 -30.5t56.5 -95.5q0 -33 -15 -99l-35 -148q-4 -18 -4 -29q0 -20 11 -28t37 -8q11 0 32 3zM480 228h-179q-133 0 -173 -24q-37 -21 -37 -67q0 -83 141 -83q95 0 159.5 45t88.5 129z" />
    <glyph glyph-name="aacute" unicode="&#xe1;" horiz-adv-x="682" 
d="M518 689l-147 -137h-66l87 137h126zM620 67l-16 -66q-38 -6 -74 -6q-86 0 -86 76q-85 -88 -235 -88q-101 0 -155 38t-54 109q0 51 28.5 91.5t76.5 56.5q44 14 115 20q45 4 108 4h168q6 29 6 48q0 28 -12 44q-30 36 -141 36q-77 0 -122 -23q-25 -12 -48 -46l-97 16
q55 125 279 125q120 0 176.5 -30.5t56.5 -95.5q0 -33 -15 -99l-35 -148q-4 -18 -4 -29q0 -20 11 -28t37 -8q11 0 32 3zM480 229h-179q-133 0 -173 -24q-37 -21 -37 -67q0 -83 141 -83q95 0 159.5 45t88.5 129z" />
    <glyph glyph-name="acircumflex" unicode="&#xe2;" horiz-adv-x="682" 
d="M532 552h-75l-64 76l-94 -77h-89l138 138h107zM620 66l-16 -66q-38 -6 -74 -6q-86 0 -86 76q-85 -88 -235 -88q-101 0 -155 38t-54 109q0 51 28.5 91.5t76.5 56.5q44 14 115 20q45 4 108 4h168q6 29 6 48q0 27 -12 44q-30 36 -141 36q-77 0 -122 -23q-25 -12 -48 -46
l-97 16q55 125 279 125q120 0 176.5 -30.5t56.5 -95.5q0 -33 -15 -99l-35 -148q-4 -18 -4 -29q0 -20 11 -28t37 -8q11 0 32 3zM480 228h-179q-133 0 -173 -24q-37 -21 -37 -67q0 -83 141 -83q95 0 159.5 45t88.5 129z" />
    <glyph glyph-name="atilde" unicode="&#xe3;" horiz-adv-x="682" 
d="M542 610q-38 -27 -65 -41q-31 -14 -56 -14q-36 0 -60 11l-49 22q-17 8 -36 8q-13 0 -25 -3q-23 -6 -61 -34l-28 44q34 27 61 42q35 19 69 19q26 0 65 -19q46 -23 76 -23q13 0 26 3q23 6 47 23l9 6zM620 66l-16 -66q-38 -6 -74 -6q-86 0 -86 76q-85 -88 -235 -88
q-101 0 -155 38t-54 109q0 51 28.5 91.5t76.5 56.5q44 14 115 20q45 4 108 4h168q6 29 6 48q0 27 -12 44q-30 36 -141 36q-77 0 -122 -23q-25 -12 -48 -46l-97 16q55 125 279 125q120 0 176.5 -30.5t56.5 -95.5q0 -33 -15 -99l-35 -148q-4 -18 -4 -29q0 -20 11 -28t37 -8
q11 0 32 3zM480 228h-179q-133 0 -173 -24q-37 -21 -37 -67q0 -83 141 -83q95 0 159.5 45t88.5 129z" />
    <glyph glyph-name="adieresis" unicode="&#xe4;" horiz-adv-x="682" 
d="M574 671l-24 -103h-97l24 103h97zM311 671l-24 -104h-97l24 104h97zM620 66l-16 -66q-38 -6 -74 -6q-86 0 -86 76q-85 -88 -235 -88q-101 0 -155 38t-54 109q0 51 28.5 91.5t76.5 56.5q44 14 115 20q45 4 108 4h168q6 29 6 48q0 27 -12 44q-30 36 -141 36q-77 0 -122 -23
q-25 -12 -48 -46l-97 16q55 125 279 125q120 0 176.5 -30.5t56.5 -95.5q0 -33 -15 -99l-35 -148q-4 -18 -4 -29q0 -20 11 -28t37 -8q11 0 32 3zM480 228h-179q-133 0 -173 -24q-37 -21 -37 -67q0 -83 141 -83q95 0 159.5 45t88.5 129z" />
    <glyph glyph-name="aring" unicode="&#xe5;" horiz-adv-x="682" 
d="M494 644q0 -43 -32 -69.5t-84 -26.5t-84.5 27t-32.5 69q0 41 33.5 67.5t85.5 26.5q51 0 82.5 -26t31.5 -68zM620 66l-16 -66q-38 -6 -74 -6q-86 0 -86 76q-85 -88 -235 -88q-101 0 -155 38t-54 109q0 51 28.5 91.5t76.5 56.5q44 14 115 20q45 4 108 4h168q6 29 6 48
q0 27 -12 44q-30 36 -141 36q-77 0 -122 -23q-25 -12 -48 -46l-97 16q55 125 279 125q120 0 176.5 -30.5t56.5 -95.5q0 -33 -15 -99l-35 -148q-4 -18 -4 -29q0 -20 11 -28t37 -8q11 0 32 3zM433 644q0 20 -16 33.5t-41 13.5q-24 0 -39.5 -13.5t-15.5 -34.5q0 -20 16.5 -33.5
t41.5 -13.5q23 0 38.5 13.5t15.5 34.5zM480 228h-179q-133 0 -173 -24q-37 -21 -37 -67q0 -83 141 -83q95 0 159.5 45t88.5 129z" />
    <glyph glyph-name="ae" unicode="&#xe6;" horiz-adv-x="1143" 
d="M1068 257q0 -17 -1 -30h-495q-1 -8 -1 -21q0 -64 51 -103t136 -39q141 0 209 101l82 -28q-91 -152 -297 -152q-91 0 -150.5 29t-98.5 91q-54 -65 -122.5 -94.5t-162.5 -29.5q-218 0 -218 148q0 51 28.5 91.5t76.5 56.5q44 14 115 20q45 4 108 4h168q6 29 6 48
q0 27 -12 44q-30 36 -141 36q-77 0 -122 -23q-25 -12 -48 -46l-97 16q55 125 281 125q113 0 172 -33q23 -13 42 -41q53 40 101.5 56t115.5 16q128 0 201 -64.5t73 -177.5zM969 295q-8 63 -54 96t-126 33q-75 0 -129 -34t-74 -95h383zM480 228h-179q-133 0 -173 -24
q-37 -21 -37 -67q0 -83 141 -83q95 0 159.5 45t88.5 129z" />
    <glyph glyph-name="ccedilla" unicode="&#xe7;" horiz-adv-x="679" 
d="M631 339l-94 -19q-19 33 -36 49q-56 53 -160 53q-101 0 -162.5 -53.5t-61.5 -142.5q0 -74 52 -118t140 -44q96 0 162 50q28 22 56 63l89 -28q-24 -36 -40.5 -54.5t-46.5 -40.5q-80 -58 -197 -68l-22 -35q47 -4 67.5 -19.5t20.5 -46.5q0 -46 -40 -74t-107 -28
q-42 0 -98 14l27 46q41 -12 67 -12q64 0 64 42q0 34 -70 34h-14l49 80q-122 8 -189 68t-67 162q0 126 90.5 204.5t235.5 78.5q111 0 190 -48q63 -37 95 -113z" />
    <glyph glyph-name="egrave" unicode="&#xe8;" horiz-adv-x="685" 
d="M396 551h-64l-112 137h120zM610 256q0 -17 -1 -30h-495q0 -4 -0.5 -11t-0.5 -10q0 -65 51.5 -103.5t136.5 -38.5q139 0 209 102l82 -29q-92 -151 -298 -151q-128 0 -201 60.5t-73 166.5q0 126 89.5 206.5t229.5 80.5q126 0 198.5 -65t72.5 -178zM512 294q-9 63 -55 96.5
t-125 33.5q-75 0 -129.5 -34.5t-73.5 -95.5h383z" />
    <glyph glyph-name="eacute" unicode="&#xe9;" horiz-adv-x="685" 
d="M489 688l-147 -137h-66l87 137h126zM610 256q0 -17 -1 -30h-495q0 -4 -0.5 -11t-0.5 -10q0 -65 51.5 -103.5t136.5 -38.5q139 0 209 102l82 -29q-92 -151 -298 -151q-128 0 -201 60.5t-73 166.5q0 126 89.5 206.5t229.5 80.5q126 0 198.5 -65t72.5 -178zM512 294
q-9 63 -55 96.5t-125 33.5q-75 0 -129.5 -34.5t-73.5 -95.5h383z" />
    <glyph glyph-name="ecircumflex" unicode="&#xea;" horiz-adv-x="685" 
d="M495 552h-75l-64 76l-94 -77h-89l138 138h107zM610 256q0 -17 -1 -30h-495q0 -4 -0.5 -11t-0.5 -10q0 -65 51.5 -103.5t136.5 -38.5q139 0 209 102l82 -29q-92 -151 -298 -151q-128 0 -201 60.5t-73 166.5q0 126 89.5 206.5t229.5 80.5q126 0 198.5 -65t72.5 -178z
M512 294q-9 63 -55 96.5t-125 33.5q-75 0 -129.5 -34.5t-73.5 -95.5h383z" />
    <glyph glyph-name="edieresis" unicode="&#xeb;" horiz-adv-x="685" 
d="M548 671l-24 -103h-97l24 103h97zM285 671l-24 -104h-97l24 104h97zM610 256q0 -17 -1 -30h-495q0 -4 -0.5 -11t-0.5 -10q0 -65 51.5 -103.5t136.5 -38.5q139 0 209 102l82 -29q-92 -151 -298 -151q-128 0 -201 60.5t-73 166.5q0 126 89.5 206.5t229.5 80.5
q126 0 198.5 -65t72.5 -178zM512 294q-9 63 -55 96.5t-125 33.5q-75 0 -129.5 -34.5t-73.5 -95.5h383z" />
    <glyph glyph-name="igrave" unicode="&#xec;" horiz-adv-x="250" 
d="M226 551h-64l-112 137h120zM203 482l-111 -482h-95l111 482h95z" />
    <glyph glyph-name="iacute" unicode="&#xed;" horiz-adv-x="250" 
d="M323 688l-147 -137h-66l87 137h126zM203 482l-111 -482h-95l111 482h95z" />
    <glyph glyph-name="icircumflex" unicode="&#xee;" horiz-adv-x="250" 
d="M323 551h-75l-64 76l-94 -77h-89l138 138h107zM203 482l-111 -482h-95l111 482h95z" />
    <glyph glyph-name="idieresis" unicode="&#xef;" horiz-adv-x="250" 
d="M370 670l-24 -103h-97l24 103h97zM107 670l-24 -104h-97l24 104h97zM203 482l-111 -482h-95l111 482h95z" />
    <glyph glyph-name="eth" unicode="&#xf0;" 
d="M656 604l-120 -16q119 -143 119 -305q0 -139 -90 -218.5t-246 -79.5q-142 0 -222.5 59.5t-80.5 165.5q0 130 90 205.5t245 75.5q106 0 177 -47q-11 26 -33 61q-20 33 -53 70l-199 -29l-18 53l168 24q-32 31 -75 64l-14 11l98 15q57 -43 89 -77l147 21zM560 259
q0 77 -54 118.5t-154 41.5q-108 0 -173.5 -53.5t-65.5 -142.5q0 -75 55 -117.5t153 -42.5q104 0 167.5 48t70.5 130q1 6 1 18z" />
    <glyph glyph-name="ntilde" unicode="&#xf1;" horiz-adv-x="727" 
d="M591 610q-38 -27 -65 -41q-31 -14 -56 -14q-36 0 -60 11l-49 22q-17 8 -36 8q-13 0 -25 -3q-23 -6 -61 -34l-28 44q34 27 61 42q35 19 69 19q26 0 65 -19q46 -23 76 -23q12 0 26 3q23 6 47 23l9 6zM633 315q0 -29 -13 -88l-53 -227h-94l54 234q10 42 10 74
q0 109 -162 109q-101 0 -165 -56q-25 -22 -39 -50t-27 -83l-53 -228h-94l111 482h95l-14 -58q87 74 217 74q110 0 168.5 -47.5t58.5 -135.5z" />
    <glyph glyph-name="ograve" unicode="&#xf2;" 
d="M427 551h-64l-112 137h120zM656 271q0 -10 -2 -30q-15 -121 -103.5 -188.5t-232.5 -67.5q-142 0 -222 59.5t-80 165.5q0 129 94.5 208t249.5 79q137 0 216.5 -60.5t79.5 -165.5zM560 259q0 77 -54 118.5t-154 41.5q-108 0 -173.5 -53.5t-65.5 -142.5q0 -75 55 -117.5
t153 -42.5q104 0 167.5 48t70.5 130q1 6 1 18z" />
    <glyph glyph-name="oacute" unicode="&#xf3;" 
d="M531 688l-147 -137h-66l87 137h126zM656 271q0 -10 -2 -30q-15 -121 -103.5 -188.5t-232.5 -67.5q-142 0 -222 59.5t-80 165.5q0 129 94.5 208t249.5 79q137 0 216.5 -60.5t79.5 -165.5zM560 259q0 77 -54 118.5t-154 41.5q-108 0 -173.5 -53.5t-65.5 -142.5
q0 -75 55 -117.5t153 -42.5q104 0 167.5 48t70.5 130q1 6 1 18z" />
    <glyph glyph-name="ocircumflex" unicode="&#xf4;" 
d="M525 552h-75l-64 76l-94 -77h-89l138 138h107zM656 271q0 -10 -2 -30q-15 -121 -103.5 -188.5t-232.5 -67.5q-142 0 -222 59.5t-80 165.5q0 129 94.5 208t249.5 79q137 0 216.5 -60.5t79.5 -165.5zM560 259q0 77 -54 118.5t-154 41.5q-108 0 -173.5 -53.5t-65.5 -142.5
q0 -75 55 -117.5t153 -42.5q104 0 167.5 48t70.5 130q1 6 1 18z" />
    <glyph glyph-name="otilde" unicode="&#xf5;" 
d="M561 611q-38 -27 -65 -41q-31 -14 -56 -14q-36 0 -60 11l-49 22q-17 8 -36 8q-13 0 -25 -3q-23 -6 -61 -34l-28 44q34 27 61 42q35 19 69 19q26 0 65 -19q46 -23 76 -23q12 0 26 3q13 3 46 23q6 4 10 6zM656 271q0 -10 -2 -30q-15 -121 -103.5 -188.5t-232.5 -67.5
q-142 0 -222 59.5t-80 165.5q0 129 94.5 208t249.5 79q137 0 216.5 -60.5t79.5 -165.5zM560 259q0 77 -54 118.5t-154 41.5q-108 0 -173.5 -53.5t-65.5 -142.5q0 -75 55 -117.5t153 -42.5q104 0 167.5 48t70.5 130q1 6 1 18z" />
    <glyph glyph-name="odieresis" unicode="&#xf6;" 
d="M574 671l-24 -103h-97l24 103h97zM311 671l-24 -104h-97l24 104h97zM656 271q0 -10 -2 -30q-15 -121 -103.5 -188.5t-232.5 -67.5q-142 0 -222 59.5t-80 165.5q0 129 94.5 208t249.5 79q137 0 216.5 -60.5t79.5 -165.5zM560 259q0 77 -54 118.5t-154 41.5
q-108 0 -173.5 -53.5t-65.5 -142.5q0 -75 55 -117.5t153 -42.5q104 0 167.5 48t70.5 130q1 6 1 18z" />
    <glyph glyph-name="divide" unicode="&#xf7;" horiz-adv-x="772" 
d="M475 509l-24 -106h-107l24 106h107zM698 338l-20 -84h-629l20 84h629zM402 186l-24 -106h-107l24 106h107z" />
    <glyph glyph-name="oslash" unicode="&#xf8;" 
d="M686 412l-56 -35q25 -51 25 -105q0 -67 -28 -125q-79 -162 -311 -162q-144 0 -231 69l-74 -44l-36 61l66 38q-24 44 -24 103q0 128 94.5 206.5t248.5 78.5q141 0 224 -67l69 39zM502 381q-61 38 -152 38q-106 0 -171.5 -54t-65.5 -142q0 -32 12 -64zM560 262q0 31 -13 66
l-377 -223q58 -42 154 -42q108 0 172 54t64 145z" />
    <glyph glyph-name="ugrave" unicode="&#xf9;" 
d="M455 551h-64l-112 137h120zM680 482l-111 -482h-95l13 59q-86 -74 -214 -74q-110 0 -169.5 46t-59.5 132q0 37 12 92l53 227h94l-54 -234q-9 -38 -9 -69q0 -47 25 -71q42 -42 137 -42q100 0 165 55q25 22 39 50.5t27 83.5l52 227h95z" />
    <glyph glyph-name="uacute" unicode="&#xfa;" 
d="M556 688l-147 -137h-66l87 137h126zM680 482l-111 -482h-95l13 59q-86 -74 -214 -74q-110 0 -169.5 46t-59.5 132q0 37 12 92l53 227h94l-54 -234q-9 -38 -9 -69q0 -47 25 -71q42 -42 137 -42q100 0 165 55q25 22 39 50.5t27 83.5l52 227h95z" />
    <glyph glyph-name="ucircumflex" unicode="&#xfb;" 
d="M558 552h-75l-64 76l-94 -77h-89l138 138h107zM680 482l-111 -482h-95l13 59q-86 -74 -214 -74q-110 0 -169.5 46t-59.5 132q0 37 12 92l53 227h94l-54 -234q-9 -38 -9 -69q0 -47 25 -71q42 -42 137 -42q100 0 165 55q25 22 39 50.5t27 83.5l52 227h95z" />
    <glyph glyph-name="udieresis" unicode="&#xfc;" 
d="M605 671l-24 -103h-97l24 103h97zM342 671l-24 -104h-97l24 104h97zM680 482l-111 -482h-95l13 59q-86 -74 -214 -74q-110 0 -169.5 46t-59.5 132q0 37 12 92l53 227h94l-54 -234q-9 -38 -9 -69q0 -47 25 -71q42 -42 137 -42q100 0 165 55q25 22 39 50.5t27 83.5l52 227
h95z" />
    <glyph glyph-name="yacute" unicode="&#xfd;" horiz-adv-x="581" 
d="M483 688l-147 -137h-66l87 137h126zM615 482l-395 -583q-32 -48 -77 -73q-41 -21 -110 -21q-48 0 -125 12l19 85q63 -15 102 -15q55 0 87 26q19 15 54 67l-128 502h102l94 -414l269 414h108z" />
    <glyph glyph-name="thorn" unicode="&#xfe;" horiz-adv-x="737" 
d="M668 270q0 -124 -91.5 -204t-234.5 -80q-158 0 -228 93l-65 -274h-97l208 901h97l-65 -278q40 36 87 52q58 20 122 20q123 0 195 -62t72 -168zM572 263q0 71 -50 114.5t-135 43.5q-104 0 -170.5 -49.5t-66.5 -151.5q0 -75 50.5 -116t142.5 -41q104 0 166.5 54.5
t62.5 145.5z" />
    <glyph glyph-name="ydieresis" unicode="&#xff;" horiz-adv-x="581" 
d="M536 671l-24 -103h-97l24 103h97zM273 671l-24 -104h-97l24 104h97zM615 482l-395 -583q-32 -48 -77 -73q-41 -21 -110 -21q-48 0 -125 12l19 85q63 -15 102 -15q55 0 87 26q19 15 54 67l-128 502h102l94 -414l269 414h108z" />
    <glyph glyph-name="OE" unicode="&#x152;" horiz-adv-x="1176" 
d="M1201 706l-21 -88h-437l-49 -214h428l-19 -82h-428l-55 -235h469l-20 -87h-563q-60 -11 -123 -11q-159 0 -248.5 81t-89.5 224q0 114 53 212q56 104 160.5 158t250.5 54q57 0 130 -10l15 -2h547zM647 619q-45 11 -75 15q-47 6 -82 6q-153 0 -248 -95t-95 -249
q0 -106 64 -166t178 -60q15 0 51 2q37 3 84 15z" />
    <glyph glyph-name="oe" unicode="&#x153;" horiz-adv-x="1218" 
d="M1143 257q0 -17 -1 -30h-495q0 -4 -0.5 -11t-0.5 -10q0 -65 51.5 -103.5t136.5 -38.5q138 0 209 102l81 -29q-91 -151 -297 -151q-160 0 -240 103q-51 -54 -115 -78.5t-155 -24.5q-142 0 -222 59.5t-80 165.5q0 129 95 208t250 79q176 0 258 -104q8 9 18 19q90 87 236 87
q126 0 198.5 -65t72.5 -178zM1045 295q-9 63 -55 96.5t-125 33.5q-75 0 -129.5 -34.5t-74.5 -95.5h384zM559 260q0 77 -54 118.5t-154 41.5q-108 0 -173.5 -53.5t-65.5 -142.5q0 -75 54.5 -117t152.5 -42q104 0 168 47.5t71 129.5q0 3 0.5 9t0.5 9z" />
    <glyph glyph-name="Scaron" unicode="&#x160;" horiz-adv-x="812" 
d="M633 877l-129 -125h-107l-88 124h76l69 -69l94 70h85zM787 554l-98 -33q-27 53 -84 79q-22 11 -57 21q-60 18 -122 18q-102 0 -159.5 -29.5t-57.5 -82.5q0 -41 34 -59q39 -19 194 -52q140 -30 193 -54q55 -26 80 -60.5t25 -84.5q0 -88 -64 -149q-88 -85 -287 -85
q-59 0 -108 7q-107 16 -179 68q-41 29 -64 60.5t-42 83.5l104 27q20 -62 67 -98q80 -59 226 -59q113 0 178.5 35.5t65.5 96.5q0 36 -23 56q-19 15 -54.5 26t-130.5 30q-157 32 -212 54q-105 40 -105 143q0 81 64 140q76 70 255 70q136 0 229.5 -43.5t131.5 -125.5z" />
    <glyph glyph-name="scaron" unicode="&#x161;" horiz-adv-x="651" 
d="M540 688l-137 -138h-107l-78 137h76l63 -76l95 77h88zM603 355l-105 -7q-12 36 -48 53q-56 27 -138 27q-75 0 -116.5 -19t-41.5 -54q0 -25 25 -37q30 -14 120 -25q130 -15 180 -31q39 -12 61 -40.5t22 -66.5t-18 -71q-53 -99 -257 -99q-153 0 -233 54q-53 36 -68 108
l106 8q10 -44 50 -64q59 -31 154 -31q76 0 122.5 22.5t46.5 59.5q0 22 -22 36q-23 14 -104 23l-77 9q-96 11 -143 34q-60 29 -60 94q0 77 71 120.5t198 43.5q156 0 227 -58q17 -14 32 -41q12 -22 16 -48z" />
    <glyph glyph-name="Ydieresis" unicode="&#x178;" horiz-adv-x="768" 
d="M667 877l-18 -103h-98l18 103h98zM404 877l-18 -103h-97l18 103h97zM841 706l-424 -429l-64 -277h-99l65 277l-236 429h120l179 -335l331 335h128z" />
    <glyph glyph-name="florin" unicode="&#x192;" horiz-adv-x="313" 
d="M406 696l-20 -85l-11 2q-40 7 -50 7q-40 0 -61 -18q-23 -22 -39 -95q-4 -22 -5 -26h134l-16 -65h-134l-96 -416q-5 -24 -12 -50q-17 -62 -34 -89q-45 -70 -153 -70q-27 0 -77 7l19 85q36 -9 61 -9q42 0 62.5 19.5t31.5 69.5l8 37l97 416h-80l15 65h81l14 60q14 53 27 80
q43 82 159 82q27 0 79 -7z" />
    <glyph glyph-name="circumflex" unicode="&#x2c6;" horiz-adv-x="292" 
d="M307 552h-75l-64 76l-94 -77h-89l138 138h107z" />
    <glyph glyph-name="tilde" unicode="&#x2dc;" horiz-adv-x="292" 
d="M336 610q-38 -27 -65 -41q-31 -14 -56 -14q-36 0 -60 11l-49 22q-17 8 -36 8q-13 0 -25 -3q-23 -6 -61 -34l-28 44q34 27 61 42q35 19 69 19q26 0 65 -19q46 -23 76 -23q13 0 26 3t46 23q6 4 10 6z" />
    <glyph glyph-name="endash" unicode="&#x2013;" horiz-adv-x="626" 
d="M584 341l-19 -82h-556l19 82h556z" />
    <glyph glyph-name="emdash" unicode="&#x2014;" horiz-adv-x="932" 
d="M890 341l-19 -82h-862l19 82h862z" />
    <glyph glyph-name="quoteleft" unicode="&#x2018;" horiz-adv-x="251" 
d="M260 712l-13 -55q-29 -3 -40 -14t-18 -43l-5 -23h44l-24 -108h-110l29 128q15 64 45 89t92 26z" />
    <glyph glyph-name="quoteright" unicode="&#x2019;" horiz-adv-x="251" 
d="M251 706l-30 -128q-15 -65 -44.5 -89.5t-91.5 -25.5l12 55q29 3 39.5 13.5t18.5 43.5l6 23h-45l25 108h110z" />
    <glyph glyph-name="quotesinglbase" unicode="&#x201a;" horiz-adv-x="251" 
d="M114 108l-29 -128q-15 -64 -45 -89t-92 -26l13 55q29 3 40 14t18 43l5 23h-45l25 108h110z" />
    <glyph glyph-name="quotedblleft" unicode="&#x201c;" horiz-adv-x="437" 
d="M446 712l-13 -55q-29 -3 -40 -14t-18 -43l-5 -23h45l-25 -108h-110l29 128q15 64 45 89t92 26zM260 712l-13 -55q-29 -3 -40 -14t-18 -43l-5 -23h44l-24 -108h-110l29 128q15 64 45 89t92 26z" />
    <glyph glyph-name="quotedblright" unicode="&#x201d;" horiz-adv-x="437" 
d="M437 706l-30 -128q-15 -65 -44.5 -89.5t-91.5 -25.5l13 55q29 3 40 14t18 43l5 23h-45l25 108h110zM251 706l-30 -128q-15 -65 -44.5 -89.5t-91.5 -25.5l12 55q29 3 39.5 13.5t18.5 43.5l6 23h-45l25 108h110z" />
    <glyph glyph-name="quotedblbase" unicode="&#x201e;" horiz-adv-x="437" 
d="M301 108l-30 -128q-15 -65 -44.5 -89.5t-91.5 -25.5l12 55q29 3 39.5 13.5t18.5 43.5l6 23h-45l25 108h110zM114 108l-29 -128q-15 -64 -45 -89t-92 -26l13 55q29 3 40 14t18 43l5 23h-45l25 108h110z" />
    <glyph glyph-name="dagger" unicode="&#x2020;" horiz-adv-x="604" 
d="M589 481l-19 -80h-214l-122 -525h-95l122 525h-217l18 79h217l52 226h95l-52 -225h215z" />
    <glyph glyph-name="daggerdbl" unicode="&#x2021;" horiz-adv-x="604" 
d="M596 517l-17 -73h-215l-67 -290h215l-17 -72h-215l-48 -207h-94l48 207h-217l17 72h217l67 290h-217l17 73h217l43 189h94l-43 -189h215z" />
    <glyph glyph-name="bullet" unicode="&#x2022;" horiz-adv-x="333" 
d="M305 468l-51 -230h-231l51 230h231z" />
    <glyph glyph-name="ellipsis" unicode="&#x2026;" horiz-adv-x="1000" 
d="M822 97l-22 -97h-98l22 97h98zM489 97l-21 -97h-99l22 97h98zM155 97l-22 -97h-98l22 97h98z" />
    <glyph glyph-name="perthousand" unicode="&#x2030;" horiz-adv-x="1517" 
d="M1480 259q0 -114 -64.5 -190t-160.5 -76q-86 0 -136.5 49t-50.5 133q0 116 65 190.5t165 74.5q83 0 132.5 -49.5t49.5 -131.5zM1004 259q0 -114 -64.5 -190t-160.5 -76q-86 0 -136 49t-50 133q0 116 64.5 190.5t164.5 74.5q83 0 132.5 -49.5t49.5 -131.5zM815 670
l-552 -682l-45 32l552 683zM440 511q0 -114 -64.5 -190t-160.5 -76q-86 0 -136.5 49.5t-50.5 132.5q0 116 65 190.5t165 74.5q83 0 132.5 -49.5t49.5 -131.5zM1409 249q0 63 -31 98t-86 35q-65 0 -109 -59t-44 -147q0 -58 29.5 -91t85.5 -33q66 0 110.5 56.5t44.5 140.5z
M933 249q0 63 -31 98t-86 35q-65 0 -108.5 -59t-43.5 -147q0 -58 29.5 -91t85.5 -33q65 0 109.5 56.5t44.5 140.5zM369 502q0 63 -31 98t-86 35q-65 0 -109 -59t-44 -147q0 -58 30 -91.5t86 -33.5q65 0 109.5 56.5t44.5 141.5z" />
    <glyph glyph-name="guilsinglleft" unicode="&#x2039;" horiz-adv-x="299" 
d="M266 458l-17 -71l-160 -137l97 -137l-13 -58l-167 159l20 85z" />
    <glyph glyph-name="guilsinglright" unicode="&#x203a;" horiz-adv-x="299" 
d="M236 298l-20 -86l-239 -158l16 69l160 139l-96 137l13 58z" />
    <glyph glyph-name="Euro" unicode="&#x20ac;" horiz-adv-x="933" 
d="M926 601l-61 -85q-40 42 -83 66q-100 57 -230 57q-236 0 -312 -199h578l-42 -62h-552q-6 -32 -6 -50h522l-41 -61h-482q10 -96 82.5 -146.5t200.5 -50.5q155 0 276 80q27 17 56 42l-29 -131q-93 -45 -159 -62t-152 -17q-173 0 -271.5 73t-113.5 212h-91l45 61h49v5
q4 31 8 45h-81l45 62h50q25 72 59 119q40 52 91 88q113 80 285 80q116 0 200.5 -29.5t158.5 -96.5z" />
    <glyph glyph-name="trademark" unicode="&#x2122;" horiz-adv-x="687" 
d="M704 706l-77 -332h-57l65 262l-144 -262h-51l-22 272l-56 -272h-57l77 332h77l22 -263l142 263h81zM354 706l-12 -49h-104l-65 -283h-59l65 283h-107l12 49h270z" />
    </font>
</defs>
</svg>
