<?xml version="1.0" standalone="no"?>
<!DOCTYPE svg PUBLIC "-//W3C//DTD SVG 1.1//EN" "http://www.w3.org/Graphics/SVG/1.1/DTD/svg11.dtd" >
<svg xmlns="http://www.w3.org/2000/svg" xmlns:xlink="http://www.w3.org/1999/xlink" version="1.1">
<metadata>
Created by FontForge 20170731 at Thu May 17 19:59:58 2007
 By Aleksey,,,
Copyright  2001, Berthold LLC. All rights reserved. Akzidenz-Grotesk is a trademark of Berthold Types Limited. 
</metadata>
<defs>
<font id="AkzidenzGroteskBQ-CndIt" horiz-adv-x="368" >
  <font-face 
    font-family="Akzidenz-Grotesk BQ Condensed"
    font-weight="500"
    font-style="italic"
    font-stretch="condensed"
    units-per-em="1000"
    panose-1="0 0 0 0 0 0 0 0 0 0"
    ascent="800"
    descent="-200"
    x-height="496"
    cap-height="706"
    bbox="-117 -250 917 914"
    underline-thickness="59"
    underline-position="-350"
    slope="-13"
    unicode-range="U+0020-2122"
  />
<missing-glyph horiz-adv-x="500" 
 />
    <glyph glyph-name=".notdef" horiz-adv-x="500" 
 />
    <glyph glyph-name=".null" horiz-adv-x="0" 
 />
    <glyph glyph-name="nonmarkingreturn" horiz-adv-x="333" 
 />
    <glyph glyph-name="space" unicode=" " horiz-adv-x="208" 
 />
    <glyph glyph-name="exclam" unicode="!" horiz-adv-x="208" 
d="M272 706l-51 -222l-91 -292h-44l49 292l51 222h86zM133 118l-27 -118h-86l27 118h86z" />
    <glyph glyph-name="quotedbl" unicode="&#x22;" horiz-adv-x="272" 
d="M363 741l-90 -289h-28l41 289h77zM227 741l-90 -289h-29l41 289h78z" />
    <glyph glyph-name="numbersign" unicode="#" horiz-adv-x="538" 
d="M583 491l-18 -77h-122l-29 -107h123l-19 -77h-125l-62 -230h-79l62 230h-88l-62 -230h-80l62 230h-121l18 77h123l29 107h-124l18 77h128l58 215h80l-59 -215h88l58 215h80l-59 -215h120zM363 414h-88l-29 -107h88z" />
    <glyph glyph-name="dollar" unicode="$" horiz-adv-x="396" 
d="M438 605q0 -23 -6 -53l-12 -53l-80 -1l9 38q8 34 8 56q0 35 -32 44l-57 -245l35 -50q55 -78 55 -153q0 -89 -49 -141.5t-134 -56.5l-19 -84h-57l19 84q-107 27 -107 128v13q3 28 14 73l9 38h82l-9 -38q-7 -28 -9 -39q-5 -23 -5 -39q0 -45 43 -59l62 267l-47 65
q-34 48 -34 110q0 71 34 128q46 75 135 78l20 84h57l-19 -85q94 -18 94 -109zM268 636q-29 -7 -47.5 -39.5t-18.5 -75.5q0 -37 23 -71zM276 183q0 41 -36 88l-47 -206q38 6 60.5 37.5t22.5 80.5z" />
    <glyph glyph-name="percent" unicode="%" horiz-adv-x="625" 
d="M641 359q0 -20 -6 -44l-52 -216q-25 -103 -112 -103q-42 0 -68.5 24t-26.5 62q0 18 6 44l52 215q25 104 110 104q43 0 70 -24t27 -62zM608 706l-476 -706h-49l476 706h49zM310 624q0 -18 -6 -45l-51 -215q-25 -104 -113 -104q-41 0 -67.5 24.5t-26.5 62.5q0 17 6 44
l51 215q25 104 110 104q44 0 70.5 -23.5t26.5 -62.5zM572 349q0 16 -8.5 25.5t-22.5 9.5q-12 0 -23 -9q-11 -10 -22 -54l-46 -197q-5 -24 -5 -33q0 -15 8.5 -24.5t22.5 -9.5t23 9q12 11 22 54l46 197q5 24 5 32zM241 615q0 15 -8 24t-22 9t-24 -8q-12 -12 -22 -54l-45 -197
q-5 -23 -5 -33q0 -15 8.5 -24.5t21.5 -9.5t24 9q12 11 22 54l45 197q5 22 5 33z" />
    <glyph glyph-name="ampersand" unicode="&#x26;" horiz-adv-x="458" 
d="M439 306q-6 -28 -18 -63q-8 -22 -19 -45q-2 -3 -7 -14.5t-6.5 -14t-6.5 -11.5t-8.5 -13.5t-9.5 -12t-13 -15.5l-10 -11q13 -34 55 -34h10l-17 -76q-6 0 -11.5 -0.5t-7.5 -0.5q-60 0 -94 47q-18 -13 -22 -15q-56 -37 -115 -37q-62 0 -101 40.5t-39 104.5q0 54 30 98
q20 29 40 48t75 58l18 13q-7 25 -9 38q-8 37 -8 69q0 73 39 118t102 45q49 0 80.5 -27.5t31.5 -71.5q0 -56 -60 -116q-30 -30 -83 -72q11 -43 22 -78q12 -38 29 -82q25 35 36 62q11 30 20 69h77zM323 516q0 18 -11.5 28.5t-30.5 10.5q-54 0 -54 -80q0 -29 10 -71
q86 70 86 112zM242 104q-8 19 -27 70q-22 65 -34 107q-42 -32 -63 -55q-34 -37 -34 -84q0 -36 20 -58t52 -22q41 0 86 42z" />
    <glyph glyph-name="quotesingle" unicode="'" horiz-adv-x="136" 
d="M227 741l-90 -289h-29l41 289h78z" />
    <glyph glyph-name="parenleft" unicode="(" horiz-adv-x="297" 
d="M385 679q-30 -31 -45 -48q-80 -87 -129 -206q-64 -154 -64 -299q0 -149 54 -268l-50 -34q-87 165 -87 329q0 171 90 329q26 44 64 93q49 65 133 145z" />
    <glyph glyph-name="parenright" unicode=")" horiz-adv-x="297" 
d="M250 391q0 -174 -90 -328q-24 -43 -63 -94q-53 -69 -133 -145l-35 42q24 23 46 47q80 88 129 206q64 156 64 300q0 149 -54 268l50 33q86 -166 86 -329z" />
    <glyph glyph-name="asterisk" unicode="*" horiz-adv-x="332" 
d="M385 557l-101 -11l38 -91l-52 -23l-39 92l-72 -65l-37 44l72 65l-83 49l28 49l85 -48l23 96l56 -14l-24 -97l100 9z" />
    <glyph glyph-name="plus" unicode="+" horiz-adv-x="558" 
d="M504 334l-18 -74h-152l-39 -169h-86l38 169h-153l17 74h153l39 169h86l-38 -169h153z" />
    <glyph glyph-name="comma" unicode="," horiz-adv-x="167" 
d="M109 118l-26 -113q-11 -48 -22.5 -72t-30.5 -41q-22 -19 -62 -29l11 52q26 9 37 25.5t18 59.5h-37l26 118h86z" />
    <glyph glyph-name="hyphen" unicode="-" horiz-adv-x="266" 
d="M267 331l-18 -78h-216l18 78h216z" />
    <glyph glyph-name="period" unicode="." horiz-adv-x="167" 
d="M108 118l-27 -118h-86l27 118h86z" />
    <glyph glyph-name="slash" unicode="/" horiz-adv-x="292" 
d="M404 706l-364 -706h-84l367 706h81z" />
    <glyph glyph-name="zero" unicode="0" horiz-adv-x="375" 
d="M426 598q0 -26 -18 -104l-68 -297q-13 -51 -16 -62q-11 -42 -33 -75q-47 -69 -144 -69q-61 0 -98.5 32.5t-37.5 85.5q0 24 7 57l79 343q13 54 16 62q15 50 32 75q48 70 141 70q62 0 101 -33t39 -85zM335 581q0 26 -15.5 40.5t-43.5 14.5q-39 0 -60 -30q-15 -24 -31 -94
l-73 -317q-11 -51 -11 -72q0 -24 16 -38t44 -14q39 0 60 30q15 24 31 94l72 316q11 49 11 70z" />
    <glyph glyph-name="one" unicode="1" horiz-adv-x="375" 
d="M356 706l-164 -706h-88l128 554h-117l16 67h6q69 0 100 18t45 67h74z" />
    <glyph glyph-name="two" unicode="2" horiz-adv-x="375" 
d="M414 582q0 -59 -32 -129q-21 -45 -53 -90q-4 -5 -13 -17.5t-15 -20.5q-29 -38 -38 -48l-169 -201h210l-18 -76h-309l20 85l176 213q85 103 116 156q37 66 37 123q0 27 -14.5 42.5t-40.5 15.5q-38 0 -59 -38q-11 -23 -13 -31q-10 -37 -26 -112h-81q3 16 8 37.5t6 26.5
q17 73 35 110q43 87 140 87q63 0 98 -34.5t35 -98.5z" />
    <glyph glyph-name="three" unicode="3" horiz-adv-x="375" 
d="M408 603q0 -46 -28 -136q-16 -55 -43 -73q-25 -17 -54 -17h-1q64 -21 64 -93q0 -59 -29 -156q-16 -52 -37 -79q-47 -60 -136 -60q-65 0 -102 29.5t-37 81.5q0 21 4 38q6 30 17 72h80q-4 -9 -8 -31q-9 -39 -9 -60q0 -52 61 -52q59 0 75 55q3 11 18 63q15 58 15 86
q0 61 -75 61q-12 0 -25 -1l19 79q12 -1 25 -1q63 0 85 40q15 26 23 64q2 5 7 32q5 30 5 40q0 54 -54 54q-38 0 -57 -36q-19 -32 -27 -98h-79q1 7 2.5 16t1.5 12q13 61 35 106q18 36 54.5 56.5t82.5 20.5q127 0 127 -113z" />
    <glyph glyph-name="four" unicode="4" horiz-adv-x="375" 
d="M392 706l-103 -473h62l-15 -75h-63l-36 -158h-83l36 158h-182l20 97l241 451h123zM298 637l-203 -404h111z" />
    <glyph glyph-name="five" unicode="5" horiz-adv-x="375" 
d="M430 706l-16 -76h-193l-37 -175q28 30 79 30q47 0 75 -27t28 -73q0 -31 -8 -68l-31 -147q-1 -4 -2.5 -13t-2.5 -14q-10 -50 -32 -85q-42 -67 -145 -67q-64 0 -100.5 30t-36.5 82q0 35 18 103h83l-7 -29q-7 -27 -7 -47q0 -61 66 -61q34 0 51.5 21t29.5 77l29 138
q5 24 5 50q0 52 -54 52q-35 0 -53 -26q-12 -18 -19 -57h-79l86 382h273z" />
    <glyph glyph-name="six" unicode="6" horiz-adv-x="375" 
d="M422 608q0 -29 -10 -69h-83q8 33 8 49q0 50 -59 50q-41 0 -59 -29q-14 -24 -31 -97l-24 -101q37 48 97 48q49 0 78.5 -29t29.5 -78q0 -26 -11 -76l-25 -111l-5 -15q-4 -15 -6 -25q-13 -45 -28 -68q-41 -66 -145 -66q-64 0 -98 29t-34 83q0 29 15 93l80 340q26 108 67 144
q40 35 110 35q62 0 97.5 -29t35.5 -78zM281 332q0 25 -16 40.5t-42 15.5q-29 0 -51 -20q-22 -22 -35 -78l-26 -108q-9 -37 -9 -58q0 -56 61 -56q33 0 51.5 21.5t30.5 74.5l31 132q5 23 5 36z" />
    <glyph glyph-name="seven" unicode="7" horiz-adv-x="375" 
d="M440 706l-15 -65q-57 -74 -107 -168q-56 -105 -104 -235q-38 -105 -71 -238h-95q19 86 46 161q25 71 58 145q64 143 163 292l20 30h-221l18 78h308z" />
    <glyph glyph-name="eight" unicode="8" horiz-adv-x="376" 
d="M428 604q0 -14 -9 -57l-18 -81q-9 -43 -37 -68q-23 -22 -62 -26q54 -26 54 -83q0 -22 -7 -52l-25 -106q-17 -74 -55.5 -106.5t-107.5 -32.5q-68 0 -108 32.5t-40 87.5q0 18 10 65l25 111q9 40 36.5 65.5t67.5 30.5q-51 20 -51 72q0 15 6 42l21 90q14 63 50 95t107 32
q65 0 104 -30.5t39 -80.5zM342 590q0 26 -17 40.5t-47 14.5q-56 0 -70 -65l-16 -70q-7 -32 -7 -43q0 -25 16 -39t44 -14q60 0 76 71l17 74q4 20 4 31zM267 276q0 55 -66 55q-29 0 -46 -16t-25 -51l-21 -89q-9 -41 -9 -53q0 -25 18 -39.5t48 -14.5q31 0 48 18t27 61l21 91
q5 25 5 38z" />
    <glyph glyph-name="nine" unicode="9" horiz-adv-x="375" 
d="M421 603q0 -25 -16 -92l-79 -340q-25 -106 -67 -144q-41 -36 -110 -36q-62 0 -98 28.5t-36 78.5q0 26 11 70h82q-7 -29 -7 -50q0 -23 15.5 -36.5t43.5 -13.5q39 0 58 30q13 18 31 96l24 102q-36 -48 -96 -48q-49 0 -78.5 29t-29.5 77q0 32 10 76l26 111q11 39 11 40
q13 46 28 69q41 65 145 65q64 0 98 -29t34 -83zM336 583q0 56 -61 56q-33 0 -52 -22t-31 -74l-30 -132q-5 -23 -5 -36q0 -26 15.5 -41.5t42.5 -15.5q30 0 51 21q22 20 35 78l26 108q9 37 9 58z" />
    <glyph glyph-name="colon" unicode=":" horiz-adv-x="208" 
d="M231 477l-27 -118h-86l27 118h86zM149 118l-27 -118h-86l27 118h86z" />
    <glyph glyph-name="semicolon" unicode=";" horiz-adv-x="208" 
d="M231 477l-27 -118h-86l27 118h86zM148 118l-26 -113q-11 -48 -22.5 -72t-30.5 -41q-21 -19 -62 -29l11 52q26 9 37 25.5t18 59.5h-37l26 118h86z" />
    <glyph glyph-name="less" unicode="&#x3c;" horiz-adv-x="559" 
d="M510 537l-21 -92l-310 -146l246 -148l-19 -81l-316 194l18 78z" />
    <glyph glyph-name="equal" unicode="=" horiz-adv-x="559" 
d="M527 425l-17 -73h-389l16 73h390zM487 255l-16 -72h-390l17 72h389z" />
    <glyph glyph-name="greater" unicode="&#x3e;" horiz-adv-x="559" 
d="M513 346l-18 -79l-402 -194l21 91l310 146l-246 148l19 81z" />
    <glyph glyph-name="question" unicode="?" horiz-adv-x="396" 
d="M440 599q0 -22 -7 -54q-5 -27 -12 -50q-4 -15 -19 -45q-11 -22 -31 -45l-69 -82q-27 -31 -37 -62q-6 -22 -15 -71h-66l4 20q12 62 25 93q17 40 56 87l16 19q34 41 45 74q22 59 22 101q0 54 -62 54q-35 0 -53 -18q-18 -20 -33 -88l-14 -65h-78l16 74q18 84 46 121
q43 55 131 55q64 0 99.5 -31t35.5 -87zM250 118l-27 -118h-86l27 118h86z" />
    <glyph glyph-name="at" unicode="@" horiz-adv-x="816" 
d="M786 438q0 -112 -58 -221q-36 -67 -85.5 -107t-97.5 -40q-73 0 -74 85q-66 -84 -143 -84q-53 0 -85 41t-32 110q0 113 67.5 204.5t149.5 91.5q49 0 77 -31q17 -17 30 -54l17 62h65l-39 -150l-14 -60q-22 -93 -22 -118q0 -37 27 -37q32 0 69 45q41 49 65 118t24 140
q0 109 -60.5 168.5t-171.5 59.5q-86 0 -163 -41t-132 -117q-41 -57 -66.5 -136.5t-25.5 -151.5q0 -128 81.5 -207.5t213.5 -79.5q84 0 171 40t155 109l30 -41q-161 -159 -361 -159q-110 0 -193 47q-159 89 -159 292q0 205 134 351t321 146q132 0 208.5 -74t76.5 -201z
M507 364q0 39 -20.5 64t-52.5 25q-54 0 -99 -65.5t-45 -149.5q0 -102 66 -102q59 0 105 70t46 158z" />
    <glyph glyph-name="A" unicode="A" horiz-adv-x="365" 
d="M360 706l-54 -706h-87l10 132h-131l-52 -132h-92l286 706h120zM275 605l-144 -391h105z" />
    <glyph glyph-name="B" unicode="B" horiz-adv-x="413" 
d="M451 565q0 -29 -9 -67q-12 -46 -39 -73q-35 -35 -95 -44q28 -2 58 -24q34 -27 34 -90q0 -44 -13.5 -95t-35.5 -88q-26 -44 -79 -65q-44 -19 -149 -19h-122l163 706h118q62 0 95.5 -11t51.5 -38q22 -32 22 -92zM365 559q0 35 -17 50q-10 10 -25 13q-16 4 -27 4h-65
l-49 -210h75q50 0 79 38t29 105zM314 262q0 41 -24 60q-20 16 -53 16h-4q-4 0 -10.5 0.5t-14.5 0.5h-44l-59 -263h55q85 0 114 42q16 25 28 67t12 77z" />
    <glyph glyph-name="C" unicode="C" horiz-adv-x="392" 
d="M452 610q0 -30 -11 -79l-11 -46h-82l9 36q10 43 10 66q0 27 -16 42t-45 15q-39 0 -64 -25q-22 -22 -37 -64q-13 -37 -23 -83l-65 -295q-6 -27 -6 -45q0 -68 69 -68q49 0 72 35q14 23 33 97l13 52h82l-9 -36q-7 -28 -10 -39q-3 -12 -11 -40q-16 -51 -40 -83
q-43 -60 -144 -60q-68 0 -106 35t-38 97q0 32 9 72l66 284q24 103 53 149q56 90 167 90q63 0 99 -28.5t36 -78.5z" />
    <glyph glyph-name="D" unicode="D" horiz-adv-x="430" 
d="M471 579q0 -43 -18 -118l-51 -219q-19 -78 -34 -121q-22 -54 -53 -79q-32 -27 -80 -36q-35 -6 -100 -6h-134l163 706h133q83 0 119 -21q55 -32 55 -106zM381 551q0 41 -22 57.5t-77 16.5h-49l-126 -547h61q77 0 104 34q11 14 17 32q17 45 27 93l51 227q14 60 14 87z" />
    <glyph glyph-name="E" unicode="E" 
d="M455 706l-18 -79h-206l-48 -210h192l-19 -80h-192l-59 -258h225l-19 -79h-310l163 706h291z" />
    <glyph glyph-name="F" unicode="F" horiz-adv-x="355" 
d="M462 706l-18 -79h-213l-47 -208h188l-18 -77h-188l-79 -342h-86l163 706h298z" />
    <glyph glyph-name="G" unicode="G" horiz-adv-x="424" 
d="M466 606q0 -28 -9 -66l-12 -50h-84l8 36q9 39 9 60q0 57 -67 57q-50 0 -75 -30t-44 -114l-59 -250q-21 -86 -21 -124q0 -29 18 -45.5t50 -16.5q51 0 83 40q26 30 44 114l16 72h-104l18 76h186l-84 -365h-74l12 49q-62 -58 -135 -58q-57 0 -89 33.5t-32 93.5q0 40 12 88
l70 295q4 17 12 46q17 58 35 85q54 85 171 85q70 0 107.5 -29t37.5 -82z" />
    <glyph glyph-name="H" unicode="H" horiz-adv-x="433" 
d="M494 706l-163 -706h-85l73 328h-157l-75 -328h-86l163 706h85l-70 -301h157l73 301h85z" />
    <glyph glyph-name="I" unicode="I" horiz-adv-x="188" 
d="M249 706l-162 -706h-86l163 706h85z" />
    <glyph glyph-name="J" unicode="J" horiz-adv-x="271" 
d="M335 706l-120 -530q-20 -90 -38 -120q-36 -65 -133 -65q-48 0 -93 17l24 74q33 -13 66 -13q50 0 69 43q10 27 22 76l116 518h87z" />
    <glyph glyph-name="K" unicode="K" horiz-adv-x="386" 
d="M492 706l-252 -340l113 -366h-87l-102 340l-78 -340h-85l163 706h85l-72 -306l223 306h92z" />
    <glyph glyph-name="L" unicode="L" horiz-adv-x="349" 
d="M306 79l-18 -79h-287l164 706h86l-146 -627h201z" />
    <glyph glyph-name="M" unicode="M" horiz-adv-x="564" 
d="M626 706l-163 -706h-79l157 639l-255 -639h-105l39 639l-137 -639h-82l163 706h129l-43 -630l246 630h130z" />
    <glyph glyph-name="N" unicode="N" horiz-adv-x="440" 
d="M502 706l-164 -706h-120l2 639l-136 -639h-83l164 706h118l2 -640l135 640h82z" />
    <glyph glyph-name="O" unicode="O" horiz-adv-x="422" 
d="M462 587q0 -34 -11 -82l-81 -346q-16 -71 -45 -109q-43 -58 -139 -58q-78 0 -120.5 33t-42.5 92q0 31 12 82l81 346q20 88 66.5 129t123.5 41q73 0 114.5 -34t41.5 -94zM374 575q0 66 -73 66q-45 0 -69 -30q-16 -19 -30 -78l-81 -348q-8 -34 -8 -56q0 -65 74 -65
q38 0 59.5 23.5t34.5 77.5l82 344q11 47 11 66z" />
    <glyph glyph-name="P" unicode="P" horiz-adv-x="402" 
d="M455 578q0 -53 -14 -111t-36 -95q-24 -41 -72 -62q-43 -19 -111 -19h-69l-67 -291h-85l163 706h114q81 0 113 -12q64 -25 64 -116zM368 549q0 44 -20 60.5t-75 16.5h-42l-60 -258h47q50 0 76 9q29 10 42 35q12 21 24 75q8 38 8 62z" />
    <glyph glyph-name="Q" unicode="Q" horiz-adv-x="422" 
d="M462 587q0 -34 -11 -82l-81 -346q-21 -90 -65 -129l83 -91l-53 -46l-90 105q-28 -6 -58 -6q-79 0 -121.5 32.5t-42.5 92.5q0 31 12 82l81 346q20 88 66.5 129t123.5 41q73 0 114.5 -34t41.5 -94zM374 575q0 66 -73 66q-45 0 -69 -30q-16 -19 -30 -78l-81 -348
q-8 -34 -8 -56q0 -65 74 -65q38 0 59.5 23.5t34.5 77.5l82 344q11 47 11 66z" />
    <glyph glyph-name="R" unicode="R" horiz-adv-x="413" 
d="M458 575q0 -57 -17 -114.5t-45 -91.5q-33 -42 -93 -52l56 -317h-87l-49 310h-67l-72 -310h-83l163 706h129q55 0 84 -7.5t49 -26.5q32 -32 32 -97zM368 556q0 32 -13 48q-10 13 -28 17.5t-60 4.5h-38l-57 -247h40q57 0 84 10.5t41 36.5q31 62 31 130z" />
    <glyph glyph-name="S" unicode="S" horiz-adv-x="366" 
d="M427 598q0 -24 -11 -73l-7 -32h-79l10 44q6 30 6 45q0 59 -62 59q-43 0 -66.5 -28t-23.5 -78q0 -26 7 -45t32 -58l69 -108q10 -15 23 -41q20 -43 20 -92q0 -93 -50.5 -146t-138.5 -53q-74 0 -116 36.5t-42 100.5q0 31 9 67l13 53h84l-8 -34q-13 -53 -13 -76q0 -74 80 -74
q45 0 70.5 31t25.5 86q0 45 -34 97l-77 120q-43 68 -43 125q0 89 49.5 139.5t135.5 50.5q137 0 137 -116z" />
    <glyph glyph-name="T" unicode="T" horiz-adv-x="370" 
d="M471 706l-19 -79h-126l-145 -627h-87l145 627h-138l19 79h351z" />
    <glyph glyph-name="U" unicode="U" horiz-adv-x="432" 
d="M496 706l-118 -510q-15 -66 -30.5 -102t-38.5 -58q-47 -47 -129 -47q-73 0 -112.5 31t-39.5 88q0 26 15 92l117 506h85l-126 -546q-4 -15 -4 -33q0 -63 72 -63q40 0 62 22q24 26 45 116l116 504h86z" />
    <glyph glyph-name="V" unicode="V" horiz-adv-x="396" 
d="M502 706l-298 -706h-124l49 706h87l-55 -631l246 631h95z" />
    <glyph glyph-name="W" unicode="W" horiz-adv-x="651" 
d="M757 706l-286 -706h-116l61 585l-218 -585h-118l52 706h87l-61 -633l228 633h113l-69 -633l241 633h86z" />
    <glyph glyph-name="X" unicode="X" horiz-adv-x="389" 
d="M481 706l-203 -340l60 -366h-88l-41 295l-166 -295h-97l231 377l-50 329h87l31 -261l142 261h94z" />
    <glyph glyph-name="Y" unicode="Y" horiz-adv-x="388" 
d="M507 706l-262 -433l-62 -273h-87l63 275l-48 431h87l25 -344l187 344h97z" />
    <glyph glyph-name="Z" unicode="Z" horiz-adv-x="353" 
d="M444 706l-15 -67l-349 -561h234l-18 -78h-327l17 72l341 555h-194l18 79h293z" />
    <glyph glyph-name="bracketleft" unicode="[" horiz-adv-x="313" 
d="M404 718l-14 -61h-106l-178 -766h107l-15 -62h-191l206 889h191z" />
    <glyph glyph-name="backslash" unicode="\" horiz-adv-x="355" 
d="M309 0h-75l-122 706h74z" />
    <glyph glyph-name="bracketright" unicode="]" horiz-adv-x="313" 
d="M331 718l-206 -888h-190l13 60h107l177 766h-106l15 62h190z" />
    <glyph glyph-name="asciicircum" unicode="^" horiz-adv-x="559" 
d="M517 356h-84l-56 272l-178 -270h-95l247 348h80z" />
    <glyph glyph-name="underscore" unicode="_" horiz-adv-x="500" 
d="M418 -206h-519l13 59h520z" />
    <glyph glyph-name="grave" unicode="`" horiz-adv-x="208" 
d="M182 564h-64l-92 107h105z" />
    <glyph glyph-name="a" unicode="a" horiz-adv-x="347" 
d="M352 409q0 -20 -10 -64l-56 -239q-11 -44 -11 -73q0 -16 13 -33h-94l6 48q-41 -58 -100 -58q-46 0 -73.5 29.5t-27.5 78.5q0 70 41 117q27 30 86 58l37 18q63 31 100 62l5 20q4 18 4 28q0 42 -52 42q-44 0 -59 -30q-11 -21 -18 -71l-1 -8l-73 1l1 9q10 92 46 127t113 35
q123 0 123 -97zM246 275q-21 -17 -54 -35l-27 -15q-32 -18 -45.5 -28.5t-23.5 -27.5q-16 -26 -16 -60q0 -27 12.5 -42.5t34.5 -15.5q35 0 61 32q21 26 36 94z" />
    <glyph glyph-name="b" unicode="b" horiz-adv-x="369" 
d="M373 411q0 -26 -11 -75l-43 -187q-19 -81 -55 -119.5t-92 -38.5q-59 0 -90 56l-11 -47h-75l163 706h79l-58 -241q38 41 94 41q43 0 71 -27t28 -68zM289 390q0 25 -13.5 39t-36.5 14q-62 0 -86 -105l-39 -168q-10 -41 -10 -56q0 -26 15.5 -42t41.5 -16q57 0 76 87l45 195
q7 29 7 52z" />
    <glyph glyph-name="c" unicode="c" horiz-adv-x="346" 
d="M354 406q0 -13 -10 -70l-3 -17h-75l4 18q9 37 9 60q0 49 -48 49q-36 0 -54 -27q-14 -20 -27 -78l-34 -147q-16 -71 -16 -93t13.5 -34.5t36.5 -12.5q36 0 54 29q19 31 32 103h78q-20 -113 -61 -155q-39 -41 -111 -41q-57 0 -90.5 27.5t-33.5 73.5q0 27 17 102l34 148
q17 77 43 110q40 55 120 55q59 0 90.5 -25.5t31.5 -74.5z" />
    <glyph glyph-name="d" unicode="d" horiz-adv-x="367" 
d="M442 706l-163 -706h-75l10 46q-44 -54 -100 -54q-45 0 -71 27.5t-26 74.5q0 25 18 101l31 130q23 98 48 132q40 52 101 52q60 0 89 -52l57 249h81zM283 381q0 30 -15 46.5t-41 16.5q-19 0 -32 -8q-16 -10 -25 -28q-11 -21 -27 -91l-29 -120q-15 -63 -15 -86q0 -25 13 -39
t35 -14q39 0 63 41q15 24 29 80l32 133q5 21 6 26q6 29 6 43z" />
    <glyph glyph-name="e" unicode="e" horiz-adv-x="344" 
d="M351 404q0 -31 -19 -121l-11 -50h-199l-15 -65q-9 -43 -9 -58q0 -53 52 -53q30 0 46.5 22t26.5 75h81q-17 -77 -42 -112q-37 -51 -120 -51q-125 0 -125 107q0 26 11 72l42 182q20 84 51 115q40 38 110 38q54 0 87 -27.5t33 -73.5zM274 397q0 48 -49 48q-36 0 -54 -29
q-11 -18 -29 -98l-5 -21h120l11 54q6 29 6 46z" />
    <glyph glyph-name="f" unicode="f" horiz-adv-x="220" 
d="M344 701l-15 -65q-17 8 -40 8q-21 0 -32 -12q-8 -10 -12 -20q-11 -31 -18 -63l-12 -53h71l-13 -58h-70l-102 -438h-79l101 438h-53l14 58h52l13 57q4 20 11 45q15 50 34 76q29 38 85 38q32 0 65 -11z" />
    <glyph glyph-name="g" unicode="g" 
d="M395 496l-110 -471l-13 -54q-33 -139 -169 -139q-55 0 -89 27.5t-34 72.5q0 9 3 28h75q-2 -7 -2 -15q0 -49 54 -49q35 0 56 21q8 9 13 19q8 15 18 58l9 37q-35 -34 -85 -34t-76.5 26.5t-26.5 76.5q0 24 12 77l35 149q21 90 50 130q38 49 102 49t94 -53l10 44h74zM286 386
q0 27 -14.5 42t-40.5 15q-32 0 -50 -23q-17 -23 -36 -100l-30 -125q-14 -60 -14 -81q0 -52 52 -52q39 0 58 30q17 25 35 104l28 121q12 49 12 69z" />
    <glyph glyph-name="h" unicode="h" 
d="M371 418q0 -16 -1 -24q-2 -13 -9 -45l-81 -349h-80l80 350q6 24 6 40q0 24 -13.5 38t-36.5 14q-38 0 -58 -31q-11 -16 -19 -50l-83 -361h-80l162 706h80l-57 -249q40 49 94 49q43 0 69.5 -24.5t26.5 -63.5z" />
    <glyph glyph-name="i" unicode="i" horiz-adv-x="165" 
d="M234 691l-24 -103h-80l24 103h80zM191 496l-115 -496h-80l114 496h81z" />
    <glyph glyph-name="j" unicode="j" horiz-adv-x="180" 
d="M249 691l-24 -104h-80l24 104h80zM203 496l-107 -462q-8 -34 -11 -45q-17 -70 -30 -98q-29 -60 -115 -60q-17 0 -57 4l16 66q31 -3 44 -3q19 0 29 6t16 22q12 37 28 103l108 467h79z" />
    <glyph glyph-name="k" unicode="k" horiz-adv-x="354" 
d="M421 496l-176 -195l63 -301h-82l-44 235l-69 -73l-38 -162h-79l164 706h79l-98 -424l185 214h95z" />
    <glyph glyph-name="l" unicode="l" horiz-adv-x="165" 
d="M239 706l-163 -706h-80l162 706h81z" />
    <glyph glyph-name="m" unicode="m" horiz-adv-x="568" 
d="M571 418q0 -16 -1 -24q-3 -23 -8 -45l-82 -349h-80l81 350q5 20 5 40q0 24 -13.5 38t-36.5 14q-24 0 -43.5 -17t-25.5 -43l-89 -382h-80l80 350q6 24 6 40q0 24 -13.5 38t-36.5 14q-36 0 -56 -31q-11 -17 -19 -50l-83 -361h-80l114 496h78l-8 -40q42 50 95 50
q61 0 84 -51q49 52 113 52q45 0 72 -24.5t27 -64.5z" />
    <glyph glyph-name="n" unicode="n" 
d="M371 418q0 -16 -1 -24q-2 -13 -9 -45l-81 -349h-80l80 350q6 24 6 40q0 24 -13.5 38t-36.5 14q-37 0 -58 -31q-11 -15 -19 -50l-83 -361h-80l114 496h78l-8 -39q39 49 96 49q42 0 68.5 -24.5t26.5 -63.5z" />
    <glyph glyph-name="o" unicode="o" horiz-adv-x="354" 
d="M359 396q0 -15 -8 -53l-49 -212q-15 -64 -41 -94q-39 -46 -116 -46q-62 0 -95 27t-33 78q0 29 10 73l44 192q17 76 54.5 110t104.5 34q129 0 129 -109zM276 391q0 50 -52 50q-36 0 -52 -26q-12 -18 -20 -58l-46 -212q-7 -33 -7 -46q0 -46 53 -46q29 0 44.5 18t25.5 63
l48 215q6 27 6 42z" />
    <glyph glyph-name="p" unicode="p" horiz-adv-x="367" 
d="M372 402q0 -25 -18 -101l-31 -130q-23 -96 -49 -132q-38 -52 -101 -52q-59 0 -88 52l-45 -198h-81l151 655h75l-11 -46q44 54 101 54q44 0 70.5 -28t26.5 -74zM290 385q0 25 -13 39t-36 14q-65 0 -93 -121l-31 -132q-11 -46 -11 -70q0 -30 15 -46.5t41 -16.5q18 0 32 9
q15 9 24 27q11 21 27 91l29 120q16 69 16 86z" />
    <glyph glyph-name="q" unicode="q" horiz-adv-x="369" 
d="M395 496l-150 -656h-79l44 191q-14 -14 -26 -22q-28 -19 -67 -19q-43 0 -71.5 27t-28.5 68q0 26 11 75l43 187q19 81 55 119.5t93 38.5q59 0 90 -56l11 47h75zM280 382q0 27 -15 42.5t-41 15.5q-58 0 -77 -87l-44 -195q-7 -29 -7 -52q0 -25 13 -39t36 -14q62 0 86 105
l39 168q10 42 10 56z" />
    <glyph glyph-name="r" unicode="r" horiz-adv-x="251" 
d="M321 505l-21 -85q-8 1 -19 1q-56 0 -90.5 -37t-52.5 -118l-60 -266h-82l115 496h77l-21 -84q25 43 62 68t78 25h14z" />
    <glyph glyph-name="s" unicode="s" horiz-adv-x="310" 
d="M329 405q0 -22 -8 -58l-71 -1q6 28 6 47q0 50 -52 50q-29 0 -45.5 -17.5t-16.5 -48.5q0 -5 2 -11q5 -20 46 -67l48 -55q26 -30 35.5 -53t9.5 -54q0 -64 -42 -104.5t-108 -40.5q-61 0 -96.5 30t-35.5 81q0 27 12 75h76q-11 -41 -11 -64q0 -58 63 -58q31 0 48 19t17 53
q0 19 -8 34t-31 42l-51 59q-48 55 -48 107q0 61 39.5 98.5t103.5 37.5q55 0 86.5 -27t31.5 -74z" />
    <glyph glyph-name="t" unicode="t" horiz-adv-x="223" 
d="M288 496l-14 -60h-72l-71 -305q-6 -24 -6 -41q0 -14 9.5 -22.5t25.5 -8.5q10 0 26 4l-16 -65q-23 -7 -47 -7q-86 0 -86 75q0 18 4 33l79 337h-53l14 60h53l20 85l88 35l-28 -120h74z" />
    <glyph glyph-name="u" unicode="u" 
d="M392 496l-114 -496h-78l8 39q-40 -49 -96 -49q-42 0 -69 24.5t-27 64.5q0 6 2 24q3 24 8 44l82 349h80l-81 -350q-5 -20 -5 -40q0 -24 13.5 -38t36.5 -14q37 0 58 31q9 13 18 50l84 361h80z" />
    <glyph glyph-name="v" unicode="v" horiz-adv-x="315" 
d="M384 496l-226 -496h-91l4 496h85l-22 -406l163 406h87z" />
    <glyph glyph-name="w" unicode="w" horiz-adv-x="521" 
d="M589 496l-212 -496h-96l31 421l-168 -421h-98l23 496h87l-45 -424l163 424h107l-30 -418l154 418h84z" />
    <glyph glyph-name="x" unicode="x" horiz-adv-x="333" 
d="M388 497l-164 -231l59 -266h-85l-33 197l-121 -197h-92l186 266l-46 231h88l18 -162l98 162h92z" />
    <glyph glyph-name="y" unicode="y" horiz-adv-x="315" 
d="M383 496l-201 -462q-2 -4 -5 -10.5t-8 -19.5t-10 -24q-37 -88 -74 -116q-37 -26 -91 -26q-20 0 -59 8l16 68q29 -8 45 -8q42 0 62 32q13 23 13 83l-2 475h83l-14 -408l157 408h88z" />
    <glyph glyph-name="z" unicode="z" horiz-adv-x="292" 
d="M343 496l-16 -67l-262 -364h176l-15 -65h-266l15 65l260 364h-149l16 67h241z" />
    <glyph glyph-name="braceleft" unicode="{" horiz-adv-x="302" 
d="M398 720l-13 -58h-17q-41 0 -58 -16q-9 -9 -15 -22q-9 -20 -21 -71l-27 -120q-15 -65 -39.5 -95t-72.5 -40q57 -21 57 -80q0 -21 -8 -58l-37 -168q-8 -33 -9 -41q-3 -12 -3 -23q0 -44 56 -44h16l-13 -58h-43q-48 0 -74.5 25t-26.5 70q0 18 13 77l37 167q8 34 8 51
q0 26 -15 38.5t-53 16.5l14 61q37 1 58 11q19 10 29.5 29.5t21.5 65.5l26 114q14 61 26 91q11 26 31 45q19 18 41.5 24t67.5 7z" />
    <glyph glyph-name="bar" unicode="|" horiz-adv-x="180" 
d="M256 748l-232 -998h-80l231 998h81z" />
    <glyph glyph-name="braceright" unicode="}" horiz-adv-x="302" 
d="M296 273l-14 -60q-39 -3 -59 -12q-19 -9 -30 -29t-21 -65l-25 -115q-13 -60 -27 -91q-11 -26 -30 -44q-20 -19 -42.5 -25.5t-67.5 -6.5h-43l14 58h17q41 0 57 15q8 8 15 22q9 20 21 71l27 120q15 65 39.5 95t73.5 40q-58 21 -58 80q0 21 8 58l38 168q11 44 11 64
q0 45 -56 45h-16l14 57h42q48 0 75 -25t27 -70q0 -18 -13 -77l-38 -167q-8 -34 -8 -51q0 -26 15.5 -38t53.5 -17z" />
    <glyph glyph-name="asciitilde" unicode="~" horiz-adv-x="559" 
d="M518 298q-35 -33 -64 -49q-36 -20 -70 -20q-33 0 -84 26l-23 12q-43 22 -70 22q-21 0 -37 -9.5t-49 -38.5l-9 -8l-27 67q29 29 49 43q38 26 82 26q17 0 29 -3q16 -4 50 -20l42 -20q39 -18 53 -18q26 0 52 16q20 11 50 39z" />
    <glyph glyph-name="exclamdown" unicode="&#xa1;" horiz-adv-x="208" 
d="M251 706l-27 -118h-86l27 118h86zM186 514l-49 -292l-51 -222h-86l51 222l91 292h44z" />
    <glyph glyph-name="cent" unicode="&#xa2;" horiz-adv-x="365" 
d="M362 406q0 -30 -9 -70l-4 -17h-74l3 14q8 37 8 61q0 49 -47 49q-36 0 -54 -27q-13 -20 -27 -79l-42 -182q-6 -30 -6 -52t13.5 -34.5t36.5 -12.5q34 0 53 29q22 36 31 101h79q-19 -102 -52.5 -144.5t-101.5 -50.5l-20 -83h-57l20 86q-40 7 -62.5 33t-22.5 64q0 27 17 102
l34 148q23 102 67 136q33 26 85 29l19 84h57l-20 -89q76 -16 76 -95z" />
    <glyph glyph-name="sterling" unicode="&#xa3;" horiz-adv-x="460" 
d="M480 583q0 -39 -14 -94h-88q15 63 15 92q0 65 -72 65q-50 0 -72.5 -35t-22.5 -111q0 -39 11 -109l2 -12h138l-17 -74h-114l1 -11q2 -32 2 -40q0 -95 -37 -156q37 -27 63 -27q33 0 55 44t26 118h81q-9 -116 -53 -179.5t-117 -63.5q-58 0 -107 48l-7 -6l-18 -15
q-32 -24 -73 -24q-37 0 -59.5 21t-22.5 56q0 40 28.5 66t72.5 26q36 0 68 -24q17 45 17 104q0 26 -6 63h-99l17 74h73q-1 9 -3 21t-2 15q-5 55 -5 89q0 213 179 213q78 0 119 -34t41 -100zM113 88q-24 17 -38 17q-13 0 -21.5 -7t-8.5 -17q0 -19 22 -19q19 0 46 26z" />
    <glyph glyph-name="currency" unicode="&#xa4;" horiz-adv-x="661" 
d="M657 557l-78 -69q33 -56 33 -117q0 -111 -72 -198l64 -77l-60 -54l-64 78q-72 -43 -148 -43q-47 0 -80 12t-72 44l-80 -69l-49 60l79 68q-34 64 -34 125q0 56 22 111q18 44 50 80l-63 78l59 54l63 -77q70 42 146 42q89 0 157 -55l77 67zM534 361q0 78 -45.5 125.5
t-119.5 47.5q-83 0 -138.5 -61t-55.5 -152q0 -76 45 -125t114 -49q85 0 142.5 62t57.5 152z" />
    <glyph glyph-name="yen" unicode="&#xa5;" horiz-adv-x="435" 
d="M530 706l-204 -347h87l-13 -58h-108l-16 -27l-7 -27h118l-13 -57h-118l-44 -190h-88l44 190h-117l13 57h117l7 27l-3 27h-108l13 58h86l-42 347h93l20 -358l187 358h96z" />
    <glyph glyph-name="brokenbar" unicode="&#xa6;" horiz-adv-x="180" 
d="M256 748l-98 -417h-80l96 417h82zM132 216l-108 -466h-80l107 466h81z" />
    <glyph glyph-name="section" unicode="&#xa7;" horiz-adv-x="417" 
d="M455 605q0 -27 -15 -77h-79l3 14q8 38 8 50q0 25 -17.5 39t-49.5 14q-40 0 -63.5 -27.5t-23.5 -73.5q0 -24 9 -37q6 -11 18 -19t49 -27q65 -33 88 -56q32 -34 32 -77q0 -79 -97 -149q24 -41 24 -84q0 -93 -49 -146.5t-135 -53.5q-77 0 -118.5 34.5t-41.5 97.5q0 32 12 73
h87q-12 -41 -12 -61q0 -68 79 -68q53 0 72 38q16 32 16 70q0 15 -5 30q-12 32 -76 65q-42 22 -47 25q-36 22 -50 38q-27 27 -27 66q0 93 108 153q-22 28 -22 72q0 70 36 121q45 66 138 66q71 0 110 -28.5t39 -81.5zM339 299q0 39 -46 63l-57 30q-34 18 -49 30
q-63 -34 -63 -87q0 -16 7 -29q12 -18 79 -53l18 -10t13.5 -7t5.5 -3q13 -6 22 -13q8 -4 13 -8q57 38 57 87z" />
    <glyph glyph-name="dieresis" unicode="&#xa8;" horiz-adv-x="208" 
d="M230 666l-24 -103h-77l24 103h77zM80 666l-23 -103h-79l23 103h79z" />
    <glyph glyph-name="copyright" unicode="&#xa9;" horiz-adv-x="832" 
d="M791 354q0 -151 -103 -254t-254 -103q-148 0 -251.5 104t-103.5 252q0 149 103.5 252.5t252.5 103.5t252.5 -103t103.5 -252zM755 352q0 136 -93 229.5t-227 93.5q-133 0 -226.5 -94.5t-93.5 -228.5t93 -227.5t226 -93.5q134 0 227.5 93.5t93.5 227.5zM590 490
q0 -21 -4 -41l-7 -35h-73l5 23q5 22 5 40q0 47 -50 47q-36 0 -51 -24q-6 -9 -9 -19q-5 -10 -14 -51l-28 -121q-12 -51 -12 -74q0 -52 54 -52q30 0 45.5 24t29.5 90h72l-8 -40q-16 -72 -47 -102q-34 -34 -98 -34q-58 0 -91.5 28.5t-33.5 76.5q0 26 12 78l31 132q1 7 10 35
q12 39 31 64q36 49 110 49q58 0 89.5 -24.5t31.5 -69.5z" />
    <glyph glyph-name="ordfeminine" unicode="&#xaa;" horiz-adv-x="274" 
d="M345 651q0 -18 -6 -44l-38 -158q-7 -28 -7 -53q0 -20 13 -35h-77v34q-34 -41 -82 -41q-40 0 -63.5 23.5t-23.5 63.5q0 76 97 118l30 13l33 14q33 14 51 27l3 14q3 18 3 19q0 28 -41 28q-33 0 -45 -20q-2 -4 -6 -14q-2 -5 -4 -15q-2 -17 -4 -25h-66l1 7q7 45 20 68
q25 48 107 48q105 0 105 -72zM261 553l-83 -42q-45 -23 -45 -67q0 -43 41 -43q27 0 46 22q8 10 14 23q3 7 11 41z" />
    <glyph glyph-name="guillemotleft" unicode="&#xab;" horiz-adv-x="354" 
d="M383 479l-29 -127l-93 -76l54 -91l-24 -106l-103 164l20 86zM221 479l-29 -127l-92 -76l53 -91l-24 -106l-103 164l20 86z" />
    <glyph glyph-name="logicalnot" unicode="&#xac;" horiz-adv-x="559" 
d="M503 333l-59 -258h-87l42 185h-328l18 73h414z" />
    <glyph glyph-name="registered" unicode="&#xae;" horiz-adv-x="832" 
d="M790 354q0 -151 -103 -254t-254 -103q-148 0 -251.5 104t-103.5 252q0 149 104 252.5t252 103.5q149 0 252.5 -103t103.5 -252zM754 352q0 136 -93 229.5t-227 93.5q-133 0 -226.5 -94.5t-93.5 -228.5t93 -227.5t226 -93.5t227 93.5t94 227.5zM594 472q0 -60 -28 -98.5
t-77 -45.5l55 -198h-73l-51 193h-39l-43 -193h-73l102 449h97q21 0 45 -2q33 -3 54 -21q31 -26 31 -84zM522 466q0 26 -12 40q-15 15 -62 15h-21l-34 -146h23q56 0 75 13q31 21 31 78z" />
    <glyph glyph-name="macron" unicode="&#xaf;" horiz-adv-x="208" 
d="M228 647l-13 -66h-235l14 66h234z" />
    <glyph glyph-name="degree" unicode="&#xb0;" horiz-adv-x="355" 
d="M425 594q0 -67 -47 -114t-113 -47q-67 0 -114 47t-47 114q0 68 46.5 115t113.5 47q69 0 115 -46.5t46 -115.5zM357 596q0 39 -26 66t-64 27q-41 0 -68 -26.5t-27 -66.5q0 -38 27 -65t66 -27q38 0 65 27t27 65z" />
    <glyph glyph-name="plusminus" unicode="&#xb1;" horiz-adv-x="559" 
d="M513 370l-17 -74h-154l-38 -169h-85l38 169h-154l17 74h155l38 169h85l-38 -169h153zM445 74l-17 -74h-393l17 74h393z" />
    <glyph glyph-name="twosuperior" unicode="&#xb2;" horiz-adv-x="254" 
d="M320 633q0 -39 -20 -80q-15 -31 -34 -59q-22 -31 -46 -59l-90 -103h121l-15 -61h-209l13 53l117 133q23 25 33 39q25 31 40 58q22 41 22 75q0 28 -27 28q-22 0 -33 -22q-9 -17 -24 -82h-60q16 79 32 109q29 54 93 54q41 0 64 -21.5t23 -61.5z" />
    <glyph glyph-name="threesuperior" unicode="&#xb3;" horiz-adv-x="254" 
d="M317 640q0 -34 -17 -78q-19 -50 -68 -59q42 -12 42 -59t-28 -112q-16 -39 -44 -56q-29 -16 -61 -16q-45 0 -70.5 20.5t-25.5 55.5q0 20 13 63h67q-2 -8 -4 -18q-5 -20 -5 -29q0 -28 31 -28q24 0 39 36q18 47 18 77q0 36 -42 36h-15l15 54h7q43 0 58 25q9 14 13 30
q10 30 10 47q0 28 -26 28q-37 0 -50 -73h-60q11 59 26 84q27 48 89 48q42 0 65 -19.5t23 -56.5z" />
    <glyph glyph-name="acute" unicode="&#xb4;" horiz-adv-x="208" 
d="M202 671l-132 -107h-64l87 107h109z" />
    <glyph glyph-name="mu" unicode="&#xb5;" horiz-adv-x="385" 
d="M401 496l-89 -390q-11 -46 -11 -73q0 -16 13 -33h-96l5 46q-33 -50 -76 -50t-56 37l-43 -193h-81l150 656h80l-79 -343q-5 -25 -5 -40q0 -23 13.5 -37t36.5 -14q37 0 58 31q10 15 18 50l82 353h80z" />
    <glyph glyph-name="paragraph" unicode="&#xb6;" horiz-adv-x="632" 
d="M623 706l-16 -63h-34l-186 -810h-62l185 810h-117l-186 -810h-62l112 486q-87 52 -87 163q0 84 46 143q37 48 101 68q42 13 112 13h194z" />
    <glyph glyph-name="periodcentered" unicode="&#xb7;" horiz-adv-x="167" 
d="M161 352l-27 -118h-86l27 118h86z" />
    <glyph glyph-name="cedilla" unicode="&#xb8;" horiz-adv-x="208" 
d="M203 -126q0 -37 -33 -63.5t-79 -26.5q-37 0 -86 27l17 23l4 -3q32 -16 53 -16q26 0 43.5 14.5t17.5 36.5q0 15 -9.5 25t-25.5 10q-14 0 -30 -10l-19 9l57 111h29l-45 -84q20 7 36 7q31 0 50.5 -16.5t19.5 -43.5z" />
    <glyph glyph-name="onesuperior" unicode="&#xb9;" horiz-adv-x="254" 
d="M275 706l-101 -436h-68l77 333h-72l12 50h4q42 0 61 11.5t28 41.5h59z" />
    <glyph glyph-name="ordmasculine" unicode="&#xba;" horiz-adv-x="265" 
d="M342 639q0 -27 -6 -49l-33 -134q-13 -53 -43 -78t-82 -25q-50 0 -79 23t-29 62q0 16 7 48l32 133q13 54 43 78.5t83 24.5q49 0 78 -22.5t29 -60.5zM275 632q0 40 -43 40q-17 0 -29 -9q-16 -10 -27 -51l-33 -131q-6 -23 -6 -37q0 -19 12 -29.5t32 -10.5q16 0 28 9
q17 11 27 51l33 130q6 24 6 38z" />
    <glyph glyph-name="guillemotright" unicode="&#xbb;" horiz-adv-x="354" 
d="M364 319l-20 -86l-175 -150l29 127l93 76l-54 90l24 107zM202 319l-20 -86l-175 -150l29 127l93 76l-53 90l24 107z" />
    <glyph glyph-name="onequarter" unicode="&#xbc;" horiz-adv-x="625" 
d="M628 470l-71 -309h47l-14 -60h-47l-24 -101h-68l24 101h-135l15 69l186 300h87zM600 706l-476 -706h-49l477 706h48zM279 706l-101 -436h-68l78 333h-73l12 50h4q42 0 61 11.5t28 41.5h59zM547 393l-132 -232h75z" />
    <glyph glyph-name="onehalf" unicode="&#xbd;" horiz-adv-x="625" 
d="M631 363q0 -39 -20 -80q-15 -32 -34 -59q-27 -38 -46 -59l-91 -104h122l-15 -61h-210l14 53l116 133q7 8 18.5 21.5t15.5 18.5q25 31 40 58q22 39 22 75q0 27 -27 27q-22 0 -33 -21q-9 -19 -24 -82h-60q17 81 32 109q29 54 93 54q41 0 64 -22t23 -61zM600 706l-476 -706
h-49l477 706h48zM280 706l-101 -436h-68l77 333h-72l11 50h4q43 0 62 11.5t28 41.5h59z" />
    <glyph glyph-name="threequarters" unicode="&#xbe;" horiz-adv-x="625" 
d="M638 470l-73 -309h45l-14 -60h-45l-25 -101h-69l24 101h-136l15 69l189 300h89zM612 706l-476 -706h-49l476 706h49zM312 640q0 -34 -17 -78q-19 -50 -68 -59q42 -12 42 -59t-28 -112q-16 -39 -44 -56q-29 -16 -61 -16q-45 0 -70.5 20.5t-25.5 55.5q0 20 13 63h67
q-2 -8 -4 -18q-5 -20 -5 -29q0 -28 31 -28q24 0 39 36q18 47 18 77q0 36 -42 36h-15l15 54h7q43 0 58 25q9 14 13 30q10 30 10 47q0 28 -26 28q-37 0 -50 -73h-60q11 59 26 84q27 48 89 48q42 0 65 -19.5t23 -56.5zM556 393l-136 -232h76z" />
    <glyph glyph-name="questiondown" unicode="&#xbf;" horiz-adv-x="396" 
d="M328 706l-27 -118h-86l27 118h86zM353 239l-16 -74q-18 -85 -47 -121q-43 -55 -130 -55q-65 0 -100.5 31t-35.5 87q0 22 7 53q9 41 12 50q6 18 20 46q12 25 30 45l70 82q25 29 36 62q7 19 16 71h66l-4 -20q-11 -57 -26 -93q-13 -34 -55 -87l-16 -20q-36 -45 -46 -73
q-22 -64 -22 -101q0 -54 62 -54q36 0 54 18t33 88l14 65h78z" />
    <glyph glyph-name="Agrave" unicode="&#xc0;" horiz-adv-x="365" 
d="M361 764h-65l-90 107h106zM360 706l-54 -706h-87l10 132h-131l-52 -132h-92l286 706h120zM275 605l-144 -391h105z" />
    <glyph glyph-name="Aacute" unicode="&#xc1;" horiz-adv-x="365" 
d="M442 871l-123 -107h-64l78 107h109zM360 706l-54 -706h-87l10 132h-131l-52 -132h-92l286 706h120zM275 605l-144 -391h105z" />
    <glyph glyph-name="Acircumflex" unicode="&#xc2;" horiz-adv-x="365" 
d="M434 764h-78l-41 63l-67 -63h-78l119 107h65zM360 706l-54 -706h-87l10 132h-131l-52 -132h-92l286 706h120zM275 605l-144 -391h105z" />
    <glyph glyph-name="Atilde" unicode="&#xc3;" horiz-adv-x="365" 
d="M360 706l-54 -706h-87l10 132h-131l-52 -132h-92l286 706h120zM275 605l-144 -391h105zM442 845q-6 -37 -30 -61t-55 -24q-17 0 -59 19q-39 17 -49 17q-21 0 -30 -29l-36 -1q8 41 32 64.5t57 23.5q19 0 51 -16l27 -13q14 -7 28 -7q20 0 28 27h36z" />
    <glyph glyph-name="Adieresis" unicode="&#xc4;" horiz-adv-x="365" 
d="M461 871l-25 -107h-83l25 107h83zM287 871l-25 -107h-83l25 107h83zM360 706l-54 -706h-87l10 132h-131l-52 -132h-92l286 706h120zM275 605l-144 -391h105z" />
    <glyph glyph-name="Aring" unicode="&#xc5;" horiz-adv-x="365" 
d="M397 834q0 -33 -24.5 -57t-57.5 -24q-32 0 -55.5 23.5t-23.5 57.5q0 33 23.5 56.5t56.5 23.5t57 -23.5t24 -56.5zM360 706l-54 -706h-87l10 132h-131l-52 -132h-92l286 706h120zM353 834q0 16 -10.5 26.5t-26.5 10.5t-26 -10.5t-10 -27.5q0 -15 10.5 -25.5t25.5 -10.5
t26 10.5t11 26.5zM275 605l-144 -391h105z" />
    <glyph glyph-name="AE" unicode="&#xc6;" horiz-adv-x="599" 
d="M662 706l-18 -79h-184l-46 -210h176l-19 -78h-175l-57 -260h220l-19 -79h-306l37 155h-155l-88 -155h-92l416 706h310zM377 618l-217 -387h128z" />
    <glyph glyph-name="Ccedilla" unicode="&#xc7;" horiz-adv-x="392" 
d="M452 610q0 -30 -11 -79l-11 -46h-82l9 36q10 43 10 66q0 27 -16 42t-45 15q-39 0 -64 -25q-22 -22 -37 -64q-13 -37 -23 -83l-65 -295q-6 -27 -6 -45q0 -68 69 -68q49 0 72 35q14 23 33 97l13 52h82l-9 -36l-8.5 -34t-12.5 -45q-16 -52 -40 -83q-42 -58 -141 -60l-33 -63
q20 7 36 7q31 0 50 -16.5t19 -43.5q0 -37 -33 -63.5t-79 -26.5q-37 0 -85 27l16 23l5 -3q26 -16 52 -16q27 0 44 14t17 37q0 15 -9.5 25t-25.5 10q-14 0 -30 -10l-19 9l47 91q-62 11 -90.5 42t-28.5 89q0 32 9 72l66 284q24 103 53 149q56 90 167 90q63 0 99 -28.5t36 -78.5
z" />
    <glyph glyph-name="Egrave" unicode="&#xc8;" 
d="M356 765h-65l-90 107h106zM455 706l-18 -79h-206l-48 -210h192l-19 -80h-192l-59 -258h225l-19 -79h-310l163 706h291z" />
    <glyph glyph-name="Eacute" unicode="&#xc9;" 
d="M455 871l-123 -107h-64l78 107h109zM455 706l-18 -79h-206l-48 -210h192l-19 -80h-192l-59 -258h225l-19 -79h-310l163 706h291z" />
    <glyph glyph-name="Ecircumflex" unicode="&#xca;" 
d="M446 764h-78l-41 63l-67 -63h-78l119 107h65zM455 706l-18 -79h-206l-48 -210h192l-19 -80h-192l-59 -258h225l-19 -79h-310l163 706h291z" />
    <glyph glyph-name="Edieresis" unicode="&#xcb;" 
d="M474 871l-24 -107h-83l24 107h83zM301 871l-25 -107h-83l25 107h83zM455 706l-18 -79h-206l-48 -210h192l-19 -80h-192l-59 -258h225l-19 -79h-310l163 706h291z" />
    <glyph glyph-name="Igrave" unicode="&#xcc;" horiz-adv-x="188" 
d="M269 764h-65l-89 107h105zM249 706l-162 -706h-86l163 706h85z" />
    <glyph glyph-name="Iacute" unicode="&#xcd;" horiz-adv-x="188" 
d="M353 871l-123 -107h-64l78 107h109zM249 706l-162 -706h-86l163 706h85z" />
    <glyph glyph-name="Icircumflex" unicode="&#xce;" horiz-adv-x="188" 
d="M349 763h-79l-41 63l-66 -63h-78l119 107h65zM249 706l-162 -706h-86l163 706h85z" />
    <glyph glyph-name="Idieresis" unicode="&#xcf;" horiz-adv-x="188" 
d="M370 871l-25 -107h-83l25 107h83zM197 871l-25 -107h-83l25 107h83zM249 706l-162 -706h-86l163 706h85z" />
    <glyph glyph-name="Eth" unicode="&#xd0;" horiz-adv-x="430" 
d="M471 579q0 -43 -18 -118l-51 -219q-19 -78 -34 -121q-22 -54 -53 -79q-32 -27 -80 -36q-35 -6 -100 -6h-134l83 356h-63l14 63h63l66 287h133q83 0 119 -21q55 -32 55 -106zM381 551q0 41 -22 57.5t-77 16.5h-49l-47 -206h107l-15 -63h-107l-64 -278h61q77 0 104 34
q22 27 44 125l51 227q14 60 14 87z" />
    <glyph glyph-name="Ntilde" unicode="&#xd1;" horiz-adv-x="440" 
d="M502 706l-164 -706h-120l2 639l-136 -639h-83l164 706h118l2 -640l135 640h82zM486 845q-6 -37 -30 -61t-55 -24q-17 0 -59 19q-39 17 -49 17q-21 0 -30 -29l-36 -1q8 41 32 64.5t57 23.5q19 0 51 -16l27 -13q14 -7 28 -7q20 0 28 27h36z" />
    <glyph glyph-name="Ograve" unicode="&#xd2;" horiz-adv-x="422" 
d="M380 764h-65l-90 107h106zM462 587q0 -34 -11 -82l-81 -346q-16 -71 -45 -109q-43 -58 -139 -58q-78 0 -120.5 33t-42.5 92q0 31 12 82l81 346q20 88 66.5 129t123.5 41q73 0 114.5 -34t41.5 -94zM374 575q0 66 -73 66q-45 0 -69 -30q-16 -19 -30 -78l-81 -348
q-8 -34 -8 -56q0 -65 74 -65q38 0 59.5 23.5t34.5 77.5l82 344q11 47 11 66z" />
    <glyph glyph-name="Oacute" unicode="&#xd3;" horiz-adv-x="422" 
d="M450 871l-123 -107h-64l78 107h109zM462 587q0 -34 -11 -82l-81 -346q-16 -71 -45 -109q-43 -58 -139 -58q-78 0 -120.5 33t-42.5 92q0 31 12 82l81 346q20 88 66.5 129t123.5 41q73 0 114.5 -34t41.5 -94zM374 575q0 66 -73 66q-45 0 -69 -30q-16 -19 -30 -78l-81 -348
q-8 -34 -8 -56q0 -65 74 -65q38 0 59.5 23.5t34.5 77.5l82 344q11 47 11 66z" />
    <glyph glyph-name="Ocircumflex" unicode="&#xd4;" horiz-adv-x="422" 
d="M456 764h-79l-41 63l-67 -63h-77l119 107h65zM462 587q0 -34 -11 -82l-81 -346q-16 -71 -45 -109q-43 -58 -139 -58q-78 0 -120.5 33t-42.5 92q0 31 12 82l81 346q20 88 66.5 129t123.5 41q73 0 114.5 -34t41.5 -94zM374 575q0 66 -73 66q-45 0 -69 -30q-16 -19 -30 -78
l-81 -348q-8 -34 -8 -56q0 -65 74 -65q38 0 59.5 23.5t34.5 77.5l82 344q11 47 11 66z" />
    <glyph glyph-name="Otilde" unicode="&#xd5;" horiz-adv-x="422" 
d="M462 587q0 -34 -11 -82l-81 -346q-16 -71 -45 -109q-43 -58 -139 -58q-78 0 -120.5 33t-42.5 92q0 31 12 82l81 346q20 88 66.5 129t123.5 41q73 0 114.5 -34t41.5 -94zM374 575q0 66 -73 66q-45 0 -69 -30q-16 -19 -30 -78l-81 -348q-8 -34 -8 -56q0 -65 74 -65
q38 0 59.5 23.5t34.5 77.5l82 344q11 47 11 66zM461 845q-6 -37 -30 -61t-55 -24q-17 0 -59 19q-39 17 -49 17q-21 0 -30 -29l-36 -1q8 41 32 64.5t57 23.5q19 0 51 -16l27 -13q14 -7 28 -7q20 0 28 27h36z" />
    <glyph glyph-name="Odieresis" unicode="&#xd6;" horiz-adv-x="422" 
d="M482 871l-25 -107h-83l25 107h83zM308 871l-24 -107h-83l24 107h83zM462 587q0 -34 -11 -82l-81 -346q-16 -71 -45 -109q-43 -58 -139 -58q-78 0 -120.5 33t-42.5 92q0 31 12 82l81 346q20 88 66.5 129t123.5 41q73 0 114.5 -34t41.5 -94zM374 575q0 66 -73 66
q-45 0 -69 -30q-16 -19 -30 -78l-81 -348q-8 -34 -8 -56q0 -65 74 -65q38 0 59.5 23.5t34.5 77.5l82 344q11 47 11 66z" />
    <glyph glyph-name="multiply" unicode="&#xd7;" horiz-adv-x="558" 
d="M489 411l-137 -119l80 -134l-66 -52l-80 133l-136 -120l-42 61l138 121l-80 132l66 52l79 -131l137 118z" />
    <glyph glyph-name="Oslash" unicode="&#xd8;" horiz-adv-x="422" 
d="M503 680l-45 -61q4 -19 4 -38q0 -26 -11 -76l-81 -346q-16 -71 -45 -109q-44 -58 -139 -58q-111 0 -145 60l-37 -51l-31 24l51 70q-1 9 -1 22q0 31 12 82l81 346q20 88 66.5 129t123.5 41q38 0 68 -9q37 -11 66 -45l33 43zM373 570v10q0 29 -19 45t-53 16q-47 0 -70 -30
q-17 -20 -30 -78l-69 -288zM361 489l-245 -332q-3 -19 -3 -27q0 -31 18.5 -48.5t51.5 -17.5q40 0 63 23.5t37 78.5z" />
    <glyph glyph-name="Ugrave" unicode="&#xd9;" horiz-adv-x="432" 
d="M391 764h-65l-89 107h106zM496 706l-118 -510q-15 -66 -30.5 -102t-38.5 -58q-47 -47 -129 -47q-73 0 -112.5 31t-39.5 88q0 26 15 92l117 506h85l-126 -546q-4 -15 -4 -33q0 -63 72 -63q40 0 62 22q24 26 45 116l116 504h86z" />
    <glyph glyph-name="Uacute" unicode="&#xda;" horiz-adv-x="432" 
d="M464 871l-122 -107h-64l77 107h109zM496 706l-118 -510q-15 -66 -30.5 -102t-38.5 -58q-47 -47 -129 -47q-73 0 -112.5 31t-39.5 88q0 26 15 92l117 506h85l-126 -546q-4 -15 -4 -33q0 -63 72 -63q40 0 62 22q24 26 45 116l116 504h86z" />
    <glyph glyph-name="Ucircumflex" unicode="&#xdb;" horiz-adv-x="432" 
d="M464 764h-79l-41 63l-66 -63h-78l119 107h65zM496 706l-118 -510q-15 -66 -30.5 -102t-38.5 -58q-47 -47 -129 -47q-73 0 -112.5 31t-39.5 88q0 26 15 92l117 506h85l-126 -546q-4 -15 -4 -33q0 -63 72 -63q40 0 62 22q24 26 45 116l116 504h86z" />
    <glyph glyph-name="Udieresis" unicode="&#xdc;" horiz-adv-x="432" 
d="M491 871l-25 -107h-83l25 107h83zM317 871l-25 -107h-83l25 107h83zM496 706l-118 -510q-15 -66 -30.5 -102t-38.5 -58q-47 -47 -129 -47q-73 0 -112.5 31t-39.5 88q0 26 15 92l117 506h85l-126 -546q-4 -15 -4 -33q0 -63 72 -63q40 0 62 22q24 26 45 116l116 504h86z
" />
    <glyph glyph-name="Yacute" unicode="&#xdd;" horiz-adv-x="388" 
d="M448 871l-122 -107h-64l77 107h109zM507 706l-262 -433l-62 -273h-87l63 275l-48 431h87l25 -344l187 344h97z" />
    <glyph glyph-name="Thorn" unicode="&#xde;" horiz-adv-x="402" 
d="M424 444q0 -53 -14 -111t-36 -96q-25 -42 -72 -62q-43 -19 -111 -19h-69l-36 -156h-85l163 706h85l-30 -135h28q73 0 111 -13q66 -25 66 -114zM337 414q0 45 -20 61.5t-75 16.5h-42l-60 -259h47q51 0 76 9q27 11 42 36q12 22 24 75q8 38 8 61z" />
    <glyph glyph-name="germandbls" unicode="&#xdf;" horiz-adv-x="377" 
d="M416 601q0 -70 -30 -113.5t-81 -48.5q23 -8 33 -15q40 -26 40 -81q0 -26 -11 -81q-22 -119 -51 -183q-20 -46 -51.5 -66t-83.5 -20q-29 0 -58 8l16 67q24 -7 39 -7q44 0 63 43q15 32 37 130q18 81 18 110q0 38 -20 51q-19 12 -55 12h-5l16 70q13 -2 28 -2q43 0 58 31
q19 40 19 83q0 59 -57 59q-29 0 -45 -16q-7 -8 -12 -18q-8 -16 -16 -50l-129 -564h-82l130 566q12 52 27 80t39 45q35 24 87 24q66 0 101.5 -29.5t35.5 -84.5z" />
    <glyph glyph-name="agrave" unicode="&#xe0;" horiz-adv-x="347" 
d="M301 564h-64l-92 107h105zM352 409q0 -20 -10 -64l-56 -239q-11 -44 -11 -73q0 -16 13 -33h-94l6 48q-41 -58 -100 -58q-46 0 -73.5 29.5t-27.5 78.5q0 70 41 117q27 30 86 58l37 18q63 31 100 62l5 20q4 18 4 28q0 42 -52 42q-44 0 -59 -30q-11 -21 -18 -71l-1 -8l-73 1
l1 9q10 92 46 127t113 35q123 0 123 -97zM246 275q-21 -17 -54 -35l-27 -15q-32 -18 -45.5 -28.5t-23.5 -27.5q-16 -26 -16 -60q0 -27 12.5 -42.5t34.5 -15.5q35 0 61 32q21 26 36 94z" />
    <glyph glyph-name="aacute" unicode="&#xe1;" horiz-adv-x="347" 
d="M393 671l-132 -107h-64l87 107h109zM352 409q0 -20 -10 -64l-56 -239q-11 -44 -11 -73q0 -16 13 -33h-94l6 48q-41 -58 -100 -58q-46 0 -73.5 29.5t-27.5 78.5q0 70 41 117q27 30 86 58l37 18q63 31 100 62l5 20q4 18 4 28q0 42 -52 42q-44 0 -59 -30q-11 -21 -18 -71
l-1 -8l-73 1l1 9q10 92 46 127t113 35q123 0 123 -97zM246 275q-21 -17 -54 -35l-27 -15q-32 -18 -45.5 -28.5t-23.5 -27.5q-16 -26 -16 -60q0 -27 12.5 -42.5t34.5 -15.5q35 0 61 32q21 26 36 94z" />
    <glyph glyph-name="acircumflex" unicode="&#xe2;" horiz-adv-x="347" 
d="M371 563h-77l-36 63l-66 -63h-78l123 110h65zM352 409q0 -20 -10 -64l-56 -239q-11 -44 -11 -73q0 -16 13 -33h-94l6 48q-41 -58 -100 -58q-46 0 -73.5 29.5t-27.5 78.5q0 70 41 117q27 30 86 58l37 18q63 31 100 62l5 20q4 18 4 28q0 42 -52 42q-44 0 -59 -30
q-11 -21 -18 -71l-1 -8l-73 1l1 9q10 92 46 127t113 35q123 0 123 -97zM246 275q-21 -17 -54 -35l-27 -15q-32 -18 -45.5 -28.5t-23.5 -27.5q-16 -26 -16 -60q0 -27 12.5 -42.5t34.5 -15.5q35 0 61 32q21 26 36 94z" />
    <glyph glyph-name="atilde" unicode="&#xe3;" horiz-adv-x="347" 
d="M352 409q0 -20 -10 -64l-56 -239q-11 -44 -11 -73q0 -16 13 -33h-94l6 48q-41 -58 -100 -58q-46 0 -73.5 29.5t-27.5 78.5q0 70 41 117q27 30 86 58l37 18q63 31 100 62l5 20q4 18 4 28q0 42 -52 42q-44 0 -59 -30q-11 -21 -18 -71l-1 -8l-73 1l1 9q10 92 46 127t113 35
q123 0 123 -97zM246 275q-21 -17 -54 -35l-27 -15q-32 -18 -45.5 -28.5t-23.5 -27.5q-16 -26 -16 -60q0 -27 12.5 -42.5t34.5 -15.5q35 0 61 32q21 26 36 94zM376 652q-6 -37 -30 -61t-55 -24q-17 0 -59 19q-39 17 -49 17q-21 0 -30 -29l-36 -1q8 41 32 64.5t57 23.5
q19 0 51 -16l27 -13q14 -7 28 -7q20 0 28 27h36z" />
    <glyph glyph-name="adieresis" unicode="&#xe4;" horiz-adv-x="347" 
d="M371 666l-24 -103h-77l24 103h77zM221 666l-23 -103h-79l23 103h79zM352 409q0 -20 -10 -64l-56 -239q-11 -44 -11 -73q0 -16 13 -33h-94l6 48q-41 -58 -100 -58q-46 0 -73.5 29.5t-27.5 78.5q0 70 41 117q27 30 86 58l37 18q63 31 100 62l5 20q4 18 4 28q0 42 -52 42
q-44 0 -59 -30q-11 -21 -18 -71l-1 -8l-73 1l1 9q10 92 46 127t113 35q123 0 123 -97zM246 275q-21 -17 -54 -35l-27 -15q-32 -18 -45.5 -28.5t-23.5 -27.5q-16 -26 -16 -60q0 -27 12.5 -42.5t34.5 -15.5q35 0 61 32q21 26 36 94z" />
    <glyph glyph-name="aring" unicode="&#xe5;" horiz-adv-x="347" 
d="M334 628q0 -33 -24.5 -57t-57.5 -24q-32 0 -55.5 23.5t-23.5 57.5q0 33 23.5 56.5t56.5 23.5t57 -23.5t24 -56.5zM352 409q0 -20 -10 -64l-56 -239q-11 -44 -11 -73q0 -16 13 -33h-94l6 48q-41 -58 -100 -58q-46 0 -73.5 29.5t-27.5 78.5q0 70 41 117q27 30 86 58l37 18
q63 31 100 62l5 20q4 18 4 28q0 42 -52 42q-44 0 -59 -30q-11 -21 -18 -71l-1 -8l-73 1l1 9q10 92 46 127t113 35q123 0 123 -97zM290 628q0 16 -10.5 26.5t-26.5 10.5t-26 -10.5t-10 -27.5q0 -15 10.5 -25.5t25.5 -10.5t26 10.5t11 26.5zM246 275q-21 -17 -54 -35l-27 -15
q-32 -18 -45.5 -28.5t-23.5 -27.5q-16 -26 -16 -60q0 -27 12.5 -42.5t34.5 -15.5q35 0 61 32q21 26 36 94z" />
    <glyph glyph-name="ae" unicode="&#xe6;" horiz-adv-x="537" 
d="M543 402q0 -27 -8 -67l-8 -37l-14 -64h-198l-15 -65q-9 -38 -9 -58q0 -54 52 -54q29 0 45.5 23t26.5 75h81q-15 -76 -42 -113q-37 -51 -120 -51q-81 0 -117 57q-43 -58 -114 -58q-48 0 -76 29t-28 79q0 70 41 117q27 30 86 58l37 18q63 31 100 62l5 20q4 18 4 28
q0 42 -52 42q-44 0 -59 -30q-11 -21 -18 -71l-1 -8l-73 1l1 9q6 52 28 96q32 66 129 66q60 0 97 -34q40 34 97 34q58 0 90 -27.5t32 -76.5zM466 395q0 47 -49 47q-52 0 -67 -60q-6 -23 -16 -64l-5 -21h119l5 21q3 11 7 33q6 27 6 44zM248 277q-13 -10 -24 -17
q-18 -12 -59 -35q-51 -27 -69 -56q-16 -26 -16 -60q0 -58 49 -58q35 0 60 33q22 27 37 95z" />
    <glyph glyph-name="ccedilla" unicode="&#xe7;" horiz-adv-x="346" 
d="M354 406q0 -13 -10 -70l-3 -17h-75l4 18q9 37 9 60q0 49 -48 49q-36 0 -54 -27q-14 -20 -27 -78l-34 -147q-2 -10 -4.5 -20.5t-4 -15.5t-1.5 -6q-6 -28 -6 -51q0 -22 13.5 -34.5t36.5 -12.5q36 0 54 29q19 31 32 103h78q-19 -104 -54.5 -147t-106.5 -48l-34 -64
q20 7 36 7q31 0 50 -16.5t19 -43.5q0 -37 -33 -63.5t-79 -26.5q-37 0 -85 27l16 23l5 -3q26 -16 53 -16q26 0 43 14.5t17 36.5q0 15 -9.5 25t-25.5 10q-14 0 -30 -10l-19 9l48 91q-31 5 -50 12q-25 10 -41 34.5t-16 53.5q0 27 17 102l34 148q17 77 43 110q40 55 120 55
q59 0 90.5 -25.5t31.5 -74.5z" />
    <glyph glyph-name="egrave" unicode="&#xe8;" horiz-adv-x="344" 
d="M298 564h-64l-92 107h105zM351 404q0 -31 -19 -121l-11 -50h-199l-15 -65q-9 -43 -9 -58q0 -53 52 -53q30 0 46.5 22t26.5 75h81q-17 -77 -42 -112q-37 -51 -120 -51q-125 0 -125 107q0 26 11 72l42 182q20 84 51 115q40 38 110 38q54 0 87 -27.5t33 -73.5zM274 397
q0 48 -49 48q-36 0 -54 -29q-11 -18 -29 -98l-5 -21h120l11 54q6 29 6 46z" />
    <glyph glyph-name="eacute" unicode="&#xe9;" horiz-adv-x="344" 
d="M385 671l-132 -107h-64l87 107h109zM351 404q0 -31 -19 -121l-11 -50h-199l-15 -65q-9 -43 -9 -58q0 -53 52 -53q30 0 46.5 22t26.5 75h81q-17 -77 -42 -112q-37 -51 -120 -51q-125 0 -125 107q0 26 11 72l42 182q20 84 51 115q40 38 110 38q54 0 87 -27.5t33 -73.5z
M274 397q0 48 -49 48q-36 0 -54 -29q-11 -18 -29 -98l-5 -21h120l11 54q6 29 6 46z" />
    <glyph glyph-name="ecircumflex" unicode="&#xea;" horiz-adv-x="344" 
d="M363 563h-77l-36 63l-66 -63h-78l123 110h65zM351 404q0 -31 -19 -121l-11 -50h-199l-15 -65q-9 -43 -9 -58q0 -53 52 -53q30 0 46.5 22t26.5 75h81q-17 -77 -42 -112q-37 -51 -120 -51q-125 0 -125 107q0 26 11 72l42 182q20 84 51 115q40 38 110 38q54 0 87 -27.5
t33 -73.5zM274 397q0 48 -49 48q-36 0 -54 -29q-11 -18 -29 -98l-5 -21h120l11 54q6 29 6 46z" />
    <glyph glyph-name="edieresis" unicode="&#xeb;" horiz-adv-x="344" 
d="M379 667l-24 -103h-77l24 103h77zM229 667l-23 -103h-79l23 103h79zM351 404q0 -31 -19 -121l-11 -50h-199l-15 -65q-9 -43 -9 -58q0 -53 52 -53q30 0 46.5 22t26.5 75h81q-17 -77 -42 -112q-37 -51 -120 -51q-125 0 -125 107q0 26 11 72l42 182q20 84 51 115
q40 38 110 38q54 0 87 -27.5t33 -73.5zM274 397q0 48 -49 48q-36 0 -54 -29q-11 -18 -29 -98l-5 -21h120l11 54q6 29 6 46z" />
    <glyph glyph-name="igrave" unicode="&#xec;" horiz-adv-x="165" 
d="M217 564h-64l-92 107h105zM191 496l-115 -496h-80l114 496h81z" />
    <glyph glyph-name="iacute" unicode="&#xed;" horiz-adv-x="165" 
d="M300 671l-132 -107h-64l87 107h109zM191 496l-115 -496h-80l114 496h81z" />
    <glyph glyph-name="icircumflex" unicode="&#xee;" horiz-adv-x="165" 
d="M291 563h-77l-36 63l-66 -63h-78l123 110h65zM191 496l-115 -496h-80l114 496h81z" />
    <glyph glyph-name="idieresis" unicode="&#xef;" horiz-adv-x="165" 
d="M298 666l-24 -103h-77l24 103h77zM148 666l-23 -103h-79l23 103h79zM191 496l-115 -496h-80l114 496h81z" />
    <glyph glyph-name="eth" unicode="&#xf0;" horiz-adv-x="354" 
d="M395 611l-57 -12q25 -63 25 -142q0 -62 -19 -143l-42 -183q-15 -64 -41 -94q-39 -46 -116 -46q-61 0 -94.5 27.5t-33.5 77.5q0 29 10 73l44 192q17 71 50 105t86 34q49 0 80 -30q-2 32 -2 34q-3 40 -18 81l-111 -23l-12 47l99 21q-9 14 -22 29q-15 16 -34 32l68 22
q33 -29 58 -67l70 14zM276 391q0 50 -52 50q-22 0 -40 -13q-10 -10 -12 -13q-12 -18 -20 -58l-46 -212q-7 -33 -7 -46q0 -46 53 -46q29 0 44.5 18t25.5 63l48 215q6 27 6 42z" />
    <glyph glyph-name="ntilde" unicode="&#xf1;" 
d="M371 418q0 -16 -1 -24q-2 -13 -9 -45l-81 -349h-80l80 350q6 24 6 40q0 24 -13.5 38t-36.5 14q-37 0 -58 -31q-11 -15 -19 -50l-83 -361h-80l114 496h78l-8 -39q39 49 96 49q42 0 68.5 -24.5t26.5 -63.5zM392 652q-6 -37 -30 -61t-55 -24q-17 0 -59 19q-39 17 -49 17
q-20 0 -29 -29l-38 -1q8 41 32 64.5t57 23.5q19 0 51 -16l27 -13q16 -7 28 -7q20 0 28 27h37z" />
    <glyph glyph-name="ograve" unicode="&#xf2;" horiz-adv-x="354" 
d="M295 564h-64l-92 107h105zM359 396q0 -15 -8 -53l-49 -212q-15 -64 -41 -94q-39 -46 -116 -46q-62 0 -95 27t-33 78q0 29 10 73l44 192q17 76 54.5 110t104.5 34q129 0 129 -109zM276 391q0 50 -52 50q-36 0 -52 -26q-12 -18 -20 -58l-46 -212q-7 -33 -7 -46
q0 -46 53 -46q29 0 44.5 18t25.5 63l48 215q6 27 6 42z" />
    <glyph glyph-name="oacute" unicode="&#xf3;" horiz-adv-x="354" 
d="M391 671l-132 -107h-64l87 107h109zM359 396q0 -15 -8 -53l-49 -212q-15 -64 -41 -94q-39 -46 -116 -46q-62 0 -95 27t-33 78q0 29 10 73l44 192q17 76 54.5 110t104.5 34q129 0 129 -109zM276 391q0 50 -52 50q-36 0 -52 -26q-12 -18 -20 -58l-46 -212q-7 -33 -7 -46
q0 -46 53 -46q29 0 44.5 18t25.5 63l48 215q6 27 6 42z" />
    <glyph glyph-name="ocircumflex" unicode="&#xf4;" horiz-adv-x="354" 
d="M370 563h-77l-36 63l-66 -63h-78l123 110h65zM359 396q0 -15 -8 -53l-49 -212q-15 -64 -41 -94q-39 -46 -116 -46q-62 0 -95 27t-33 78q0 29 10 73l44 192q17 76 54.5 110t104.5 34q129 0 129 -109zM276 391q0 50 -52 50q-36 0 -52 -26q-12 -18 -20 -58l-46 -212
q-7 -33 -7 -46q0 -46 53 -46q29 0 44.5 18t25.5 63l48 215q6 27 6 42z" />
    <glyph glyph-name="otilde" unicode="&#xf5;" horiz-adv-x="354" 
d="M359 396q0 -15 -8 -53l-49 -212q-15 -64 -41 -94q-39 -46 -116 -46q-62 0 -95 27t-33 78q0 29 10 73l44 192q17 76 54.5 110t104.5 34q129 0 129 -109zM276 391q0 50 -52 50q-36 0 -52 -26q-12 -18 -20 -58l-46 -212q-7 -33 -7 -46q0 -46 53 -46q29 0 44.5 18t25.5 63
l48 215q6 27 6 42zM378 652q-6 -37 -30 -61t-55 -24q-17 0 -59 19q-39 17 -49 17q-21 0 -30 -29l-36 -1q8 41 32 64.5t57 23.5q19 0 51 -16l27 -13q14 -7 28 -7q20 0 28 27h36z" />
    <glyph glyph-name="odieresis" unicode="&#xf6;" horiz-adv-x="354" 
d="M389 666l-24 -103h-77l24 103h77zM239 666l-23 -103h-79l23 103h79zM359 396q0 -15 -8 -53l-49 -212q-15 -64 -41 -94q-39 -46 -116 -46q-62 0 -95 27t-33 78q0 29 10 73l44 192q17 76 54.5 110t104.5 34q129 0 129 -109zM276 391q0 50 -52 50q-36 0 -52 -26
q-12 -18 -20 -58l-46 -212q-7 -33 -7 -46q0 -46 53 -46q29 0 44.5 18t25.5 63l48 215q6 27 6 42z" />
    <glyph glyph-name="divide" unicode="&#xf7;" horiz-adv-x="559" 
d="M391 502l-25 -109h-88l25 109h88zM508 334l-16 -73h-401l17 73h400zM322 201l-25 -109h-88l25 109h88z" />
    <glyph glyph-name="oslash" unicode="&#xf8;" horiz-adv-x="353" 
d="M390 465l-35 -41q3 -16 3 -27q0 -21 -7 -54l-50 -212q-15 -65 -40 -94q-40 -46 -116 -46q-79 0 -113 46l-28 -32l-27 24l41 49q-2 18 -2 21q0 29 10 70l44 192q17 76 54.5 109.5t105.5 33.5q74 0 110 -43l26 31zM278 387v4q0 51 -54 51q-22 0 -40 -13q-23 -18 -34 -71
l-36 -167zM264 315l-166 -198q-2 -10 -2 -20q0 -45 54 -45q30 0 46 18t26 64z" />
    <glyph glyph-name="ugrave" unicode="&#xf9;" 
d="M309 564h-64l-92 107h105zM392 496l-114 -496h-78l8 39q-40 -49 -96 -49q-42 0 -69 24.5t-27 64.5q0 6 2 24q3 24 8 44l82 349h80l-81 -350q-5 -20 -5 -40q0 -24 13.5 -38t36.5 -14q37 0 58 31q9 13 18 50l84 361h80z" />
    <glyph glyph-name="uacute" unicode="&#xfa;" 
d="M391 671l-132 -107h-64l87 107h109zM392 496l-114 -496h-78l8 39q-40 -49 -96 -49q-42 0 -69 24.5t-27 64.5q0 6 2 24q3 24 8 44l82 349h80l-81 -350q-5 -20 -5 -40q0 -24 13.5 -38t36.5 -14q37 0 58 31q9 13 18 50l84 361h80z" />
    <glyph glyph-name="ucircumflex" unicode="&#xfb;" 
d="M384 563h-77l-36 63l-66 -63h-78l123 110h65zM392 496l-114 -496h-78l8 39q-40 -49 -96 -49q-42 0 -69 24.5t-27 64.5q0 6 2 24q3 24 8 44l82 349h80l-81 -350q-5 -20 -5 -40q0 -24 13.5 -38t36.5 -14q37 0 58 31q9 13 18 50l84 361h80z" />
    <glyph glyph-name="udieresis" unicode="&#xfc;" 
d="M397 666l-24 -103h-77l24 103h77zM247 666l-23 -103h-79l23 103h79zM392 496l-114 -496h-78l8 39q-40 -49 -96 -49q-42 0 -69 24.5t-27 64.5q0 6 2 24q3 24 8 44l82 349h80l-81 -350q-5 -20 -5 -40q0 -24 13.5 -38t36.5 -14q37 0 58 31q9 13 18 50l84 361h80z" />
    <glyph glyph-name="yacute" unicode="&#xfd;" horiz-adv-x="315" 
d="M375 671l-131 -107h-64l86 107h109zM383 496l-201 -462q-2 -4 -5 -10.5t-8 -19.5t-10 -24q-37 -88 -74 -116q-37 -26 -91 -26q-20 0 -59 8l16 68q29 -8 45 -8q42 0 62 32q13 23 13 83l-2 475h83l-14 -408l157 408h88z" />
    <glyph glyph-name="thorn" unicode="&#xfe;" horiz-adv-x="367" 
d="M372 402q0 -25 -18 -101l-31 -130q-23 -96 -49 -132q-38 -52 -101 -52q-59 0 -88 52l-45 -198h-81l199 865h81l-59 -249q41 47 96 47q43 0 69.5 -28t26.5 -74zM290 385q0 25 -13 39t-36 14q-65 0 -93 -121l-31 -132q-11 -46 -11 -70q0 -30 15 -46.5t41 -16.5q18 0 32 9
q15 9 24 27q11 21 27 91l29 120q16 69 16 86z" />
    <glyph glyph-name="ydieresis" unicode="&#xff;" horiz-adv-x="315" 
d="M370 666l-24 -103h-77l24 103h77zM220 666l-23 -103h-79l23 103h79zM383 496l-201 -462q-2 -4 -5 -10.5t-8 -19.5t-10 -24q-37 -88 -74 -116q-37 -26 -91 -26q-20 0 -59 8l16 68q29 -8 45 -8q42 0 62 32q13 23 13 83l-2 475h83l-14 -408l157 408h88z" />
    <glyph glyph-name="OE" unicode="&#x152;" horiz-adv-x="612" 
d="M675 706l-19 -79h-183l-46 -210h176l-19 -78h-175l-58 -260h221l-19 -79h-191q-70 0 -123 -4q-48 -3 -68 -3q-68 0 -108 33.5t-40 90.5q0 31 12 82l81 346q20 87 65 127.5t121 40.5q21 0 40 -2q56 -4 63 -4q25 0 41.5 -0.5t39.5 -0.5h189zM374 575q0 66 -73 66
q-45 0 -69 -30q-16 -19 -30 -78l-81 -348q-8 -34 -8 -56q0 -65 74 -65q38 0 59.5 23.5t34.5 77.5l82 344q11 47 11 66z" />
    <glyph glyph-name="oe" unicode="&#x153;" horiz-adv-x="544" 
d="M553 403q0 -23 -10 -69l-22 -100h-199l-15 -66q-8 -36 -8 -57q0 -54 53 -54q30 0 46.5 22t26.5 76h78q-16 -78 -41 -113q-38 -50 -117 -50q-56 0 -96 37q-44 -38 -106 -38q-61 0 -93.5 27.5t-32.5 77.5q0 29 10 73l44 192q17 75 54.5 109.5t102.5 34.5q24 0 47 -6
q31 -7 53 -32q43 39 105 39q58 0 89 -26.5t31 -76.5zM474 398q0 47 -50 47q-36 0 -53 -28q-18 -32 -30 -98l-4 -21h118l12 53q7 28 7 47zM276 391q0 50 -52 50q-22 0 -40 -13q-8 -6 -12 -13q-12 -18 -20 -58l-46 -212q-7 -33 -7 -46q0 -46 53 -46q29 0 44.5 18t25.5 63
l48 215q6 27 6 42z" />
    <glyph glyph-name="Scaron" unicode="&#x160;" horiz-adv-x="366" 
d="M447 871l-119 -107h-65l-80 107h79l41 -63l67 63h77zM427 598q0 -24 -11 -73l-7 -32h-79l10 44q6 30 6 45q0 59 -62 59q-43 0 -66.5 -28t-23.5 -78q0 -26 7 -45t32 -58l69 -108q10 -15 23 -41q20 -43 20 -92q0 -93 -50.5 -146t-138.5 -53q-74 0 -116 36.5t-42 100.5
q0 31 9 67l13 53h84l-8 -34q-13 -53 -13 -76q0 -74 80 -74q45 0 70.5 31t25.5 86q0 45 -34 97l-77 120q-43 68 -43 125q0 89 49.5 139.5t135.5 50.5q137 0 137 -116z" />
    <glyph glyph-name="scaron" unicode="&#x161;" horiz-adv-x="310" 
d="M372 673l-123 -110h-65l-69 110h76l37 -63l66 63h78zM329 405q0 -22 -8 -58l-71 -1q6 28 6 47q0 50 -52 50q-29 0 -45.5 -17.5t-16.5 -48.5q0 -5 2 -11q5 -20 46 -67l48 -55q26 -30 35.5 -53t9.5 -54q0 -64 -42 -104.5t-108 -40.5q-61 0 -96.5 30t-35.5 81q0 27 12 75h76
q-11 -41 -11 -64q0 -58 63 -58q31 0 48 19t17 53q0 19 -8 34t-31 42l-51 59q-48 55 -48 107q0 61 39.5 98.5t103.5 37.5q55 0 86.5 -27t31.5 -74z" />
    <glyph glyph-name="Ydieresis" unicode="&#x178;" horiz-adv-x="388" 
d="M469 871l-25 -107h-83l25 107h83zM295 871l-25 -107h-83l25 107h83zM507 706l-262 -433l-62 -273h-87l63 275l-48 431h87l25 -344l187 344h97z" />
    <glyph glyph-name="florin" unicode="&#x192;" horiz-adv-x="271" 
d="M341 714l-15 -70q-10 1 -19 1q-19 0 -29 -7q-15 -12 -27 -65l-17 -73h71l-15 -60h-69l-91 -404q-21 -94 -43 -131q-26 -47 -95 -47q-28 0 -49 5l15 68l5 -1q4 -1 24 -1q35 0 45 27q6 13 17 64l94 420h-61l14 60h61l25 113q13 58 37.5 81t72.5 23q12 0 49 -3z" />
    <glyph glyph-name="circumflex" unicode="&#x2c6;" horiz-adv-x="208" 
d="M233 563h-77l-36 63l-66 -63h-79l123 110h65z" />
    <glyph glyph-name="tilde" unicode="&#x2dc;" horiz-adv-x="208" 
d="M234 652q-6 -37 -30 -61t-55 -24q-17 0 -59 19q-39 17 -49 17q-21 0 -30 -29l-37 -1q8 41 32 64.5t57 23.5q19 0 51 -16l27 -13q16 -7 28 -7q20 0 28 27h37z" />
    <glyph glyph-name="endash" unicode="&#x2013;" horiz-adv-x="371" 
d="M371 331l-18 -78h-320l18 78h320z" />
    <glyph glyph-name="emdash" unicode="&#x2014;" horiz-adv-x="567" 
d="M568 331l-18 -78h-517l18 78h517z" />
    <glyph glyph-name="quoteleft" unicode="&#x2018;" horiz-adv-x="167" 
d="M236 709l-11 -52q-26 -9 -36.5 -25.5t-17.5 -59.5h37l-27 -118h-85l26 113q11 49 22 72.5t30 40.5q22 19 62 29z" />
    <glyph glyph-name="quoteright" unicode="&#x2019;" horiz-adv-x="167" 
d="M244 706l-26 -113q-11 -49 -22 -72.5t-30 -40.5q-22 -19 -62 -29l11 52q26 9 36.5 25.5t17.5 59.5h-37l27 118h85z" />
    <glyph glyph-name="quotesinglbase" unicode="&#x201a;" horiz-adv-x="167" 
d="M109 118l-26 -113q-11 -48 -22.5 -72t-30.5 -41q-22 -19 -62 -29l11 52q26 9 37 25.5t18 59.5h-37l26 118h86z" />
    <glyph glyph-name="quotedblleft" unicode="&#x201c;" horiz-adv-x="313" 
d="M382 709l-11 -52q-26 -9 -36.5 -25t-18.5 -60h37l-26 -118h-85l25 113q10 47 21.5 71.5t31.5 41.5q22 19 62 29zM236 709l-11 -52q-26 -9 -36.5 -25.5t-17.5 -59.5h37l-27 -118h-85l26 113q11 49 22 72.5t30 40.5q22 19 62 29z" />
    <glyph glyph-name="quotedblright" unicode="&#x201d;" horiz-adv-x="313" 
d="M390 706l-26 -113q-19 -83 -52 -113q-22 -19 -63 -29l11 52q26 9 37 25.5t18 59.5h-37l27 118h85zM244 706l-26 -113q-11 -49 -22 -72.5t-30 -40.5q-22 -19 -62 -29l11 52q26 9 36.5 25.5t17.5 59.5h-37l27 118h85z" />
    <glyph glyph-name="quotedblbase" unicode="&#x201e;" horiz-adv-x="313" 
d="M254 118l-25 -113q-10 -47 -21.5 -71.5t-31.5 -41.5q-22 -19 -62 -29l11 52q26 9 36.5 25t18.5 60h-37l26 118h85zM109 118l-26 -113q-11 -48 -22.5 -72t-30.5 -41q-22 -19 -62 -29l11 52q26 9 37 25.5t18 59.5h-37l26 118h86z" />
    <glyph glyph-name="dagger" unicode="&#x2020;" horiz-adv-x="375" 
d="M412 467l-17 -71h-122l-115 -509h-79l115 509h-126l17 71h126l54 239h79l-54 -239h122z" />
    <glyph glyph-name="daggerdbl" unicode="&#x2021;" horiz-adv-x="375" 
d="M412 488l-17 -71h-121l-45 -198h122l-17 -71h-121l-60 -261h-79l60 261h-126l16 71h126l45 198h-126l16 71h126l49 218h79l-49 -218h122z" />
    <glyph glyph-name="bullet" unicode="&#x2022;" horiz-adv-x="341" 
d="M330 480l-59 -248h-186l58 248h187z" />
    <glyph glyph-name="ellipsis" unicode="&#x2026;" horiz-adv-x="1000" 
d="M846 100l-23 -100h-83l22 100h84zM513 100l-22 -100h-84l23 100h83zM180 100l-23 -100h-84l23 100h84z" />
    <glyph glyph-name="perthousand" unicode="&#x2030;" horiz-adv-x="901" 
d="M917 359q0 -20 -6 -44l-52 -216q-25 -103 -112 -103q-41 0 -67.5 24t-26.5 62q0 18 6 44l51 215q25 104 111 104q43 0 69.5 -24t26.5 -62zM641 359q0 -20 -6 -44l-52 -216q-25 -103 -112 -103q-42 0 -68.5 24t-26.5 62q0 18 6 44l52 215q25 104 110 104q43 0 70 -24
t27 -62zM609 706l-476 -706h-49l476 706h49zM310 624q0 -18 -6 -45l-51 -215q-25 -104 -113 -104q-41 0 -67.5 24.5t-26.5 62.5q0 17 6 44l51 215q25 104 110 104q44 0 70.5 -23.5t26.5 -62.5zM848 349q0 16 -8.5 25.5t-22.5 9.5q-12 0 -23 -9q-11 -10 -22 -54l-45 -197
q-6 -29 -6 -33q0 -15 8.5 -24.5t22.5 -9.5t23 9q13 12 23 54l45 197q5 24 5 32zM572 349q0 16 -8.5 25.5t-22.5 9.5q-12 0 -23 -9q-11 -10 -22 -54l-46 -197q-5 -24 -5 -33q0 -15 8.5 -24.5t22.5 -9.5t23 9q12 11 22 54l46 197q5 24 5 32zM241 615q0 15 -8 24t-22 9t-24 -8
q-12 -12 -22 -54l-45 -197q-5 -23 -5 -33q0 -15 8.5 -24.5t21.5 -9.5t24 9q12 11 22 54l45 197q5 22 5 33z" />
    <glyph glyph-name="guilsinglleft" unicode="&#x2039;" horiz-adv-x="192" 
d="M221 479l-29 -127l-92 -76l53 -91l-24 -106l-103 164l20 86z" />
    <glyph glyph-name="guilsinglright" unicode="&#x203a;" horiz-adv-x="192" 
d="M202 319l-20 -86l-175 -150l29 127l93 76l-53 90l24 107z" />
    <glyph glyph-name="Euro" unicode="&#x20ac;" horiz-adv-x="434" 
d="M508 661l-36 -77q-23 27 -41 38q-35 24 -79 24q-40 0 -62 -21q-15 -12 -25 -32q-17 -38 -30 -105l-9 -45h190l-25 -57h-178l-10 -49h167l-24 -57h-155l-11 -49q-15 -64 -15 -88q0 -79 83 -79q35 0 66 11t77 47l-22 -98q-69 -35 -139 -35q-73 0 -113 36t-40 102
q0 34 19 115l9 38h-59l24 57h46l10 49h-59l24 57h48l11 53l13 52q15 54 29 81.5t36 48.5q47 42 129 42q26 0 58 -8q52 -11 93 -51z" />
    <glyph glyph-name="trademark" unicode="&#x2122;" horiz-adv-x="557" 
d="M627 706l-78 -332h-56l76 300l-134 -300h-61l7 300l-64 -300h-56l78 332h89l-8 -261l113 261h94zM303 706l-11 -48h-62l-64 -284h-59l65 284h-69l11 48h189z" />
    </font>
</defs>
</svg>
