<?xml version="1.0" standalone="no"?>
<!DOCTYPE svg PUBLIC "-//W3C//DTD SVG 1.1//EN" "http://www.w3.org/Graphics/SVG/1.1/DTD/svg11.dtd" >
<svg xmlns="http://www.w3.org/2000/svg" xmlns:xlink="http://www.w3.org/1999/xlink" version="1.1">
<metadata>
Created by FontForge 20170731 at Thu May 17 19:59:58 2007
 By Aleksey,,,
Copyright  1997, 2001, Berthold LLC. All rights reserved. Akzidenz-Grotesk is a trademark of Berthold Types Limited.
</metadata>
<defs>
<font id="AkzidenzGroteskBQ-Cnd" horiz-adv-x="375" >
  <font-face 
    font-family="Akzidenz-Grotesk BQ Condensed"
    font-weight="500"
    font-stretch="condensed"
    units-per-em="1000"
    panose-1="0 0 0 0 0 0 0 0 0 0"
    ascent="800"
    descent="-200"
    x-height="500"
    cap-height="706"
    bbox="-47 -250 875 908"
    underline-thickness="59"
    underline-position="-350"
    unicode-range="U+0020-2122"
  />
<missing-glyph horiz-adv-x="500" 
 />
    <glyph glyph-name=".notdef" horiz-adv-x="500" 
 />
    <glyph glyph-name=".null" horiz-adv-x="0" 
 />
    <glyph glyph-name="nonmarkingreturn" horiz-adv-x="333" 
 />
    <glyph glyph-name="space" unicode=" " horiz-adv-x="208" 
 />
    <glyph glyph-name="exclam" unicode="!" horiz-adv-x="208" 
d="M168 484l-22 -292h-44l-20 292v222h86v-222zM168 0h-86v118h86v-118z" />
    <glyph glyph-name="quotedbl" unicode="&#x22;" horiz-adv-x="272" 
d="M243 741l-24 -289h-28l-26 289h78zM106 741l-23 -289h-29l-25 289h77z" />
    <glyph glyph-name="numbersign" unicode="#" horiz-adv-x="538" 
d="M522 414h-124l-10 -107h121v-77h-129l-21 -230h-79l21 230h-87l-22 -230h-79l21 230h-119v77h125l10 107h-121v77h130l19 215h80l-20 -215h87l21 215h79l-21 -215h118v-77zM318 414h-88l-10 -107h88z" />
    <glyph glyph-name="dollar" unicode="$" horiz-adv-x="396" 
d="M371 157q0 -112 -85 -151q-22 -11 -57 -15v-85h-57v85q-18 2 -25 4q-58 10 -92 60q-6 10 -11 19.5t-7.5 22t-4.5 20t-2.5 23t-0.5 20.5v23.5v21.5v39h82v-39q0 -50 2 -64q4 -43 34 -63q13 -7 25 -11v261l-42 44q-34 37 -43 50q-23 31 -31.5 60t-8.5 72q0 100 57 138
q30 19 68 23v84h57l1 -84q60 -5 91 -36q23 -24 29 -54t6 -74v-54h-80v39q0 68 -24 89q-9 8 -23 11v-238l47 -51q35 -37 51 -58t30 -56t14 -76zM172 457v179q-12 -5 -20 -13q-22 -21 -22 -67q0 -26 9 -48t14 -29t19 -22zM285 158q0 22 -8 40q-14 33 -48 67l1 -198q10 3 23 11
q32 23 32 80z" />
    <glyph glyph-name="percent" unicode="%" horiz-adv-x="625" 
d="M604 221q0 -36 -2 -106q0 -49 -13 -75q-24 -45 -89 -45q-40 0 -64 16q-19 12 -27.5 34.5t-9.5 41.5t-2 70q0 10 -0.5 30.5t-0.5 31.5q0 17 0.5 51t0.5 51q0 83 41 109q27 17 61 17q30 0 54 -13q50 -26 50 -116q0 -16 0.5 -48t0.5 -49zM509 706l-344 -706h-49l347 706h46z
M229 486q0 -36 -2 -106q0 -49 -13 -75q-24 -45 -89 -45q-40 0 -64 16q-19 12 -27.5 34.5t-9.5 41.5t-2 70q0 10 -0.5 30.5t-0.5 31.5q0 17 0.5 51t0.5 51q0 83 41 109q27 17 61 17q30 0 54 -13q50 -26 50 -116q0 -16 0.5 -48.5t0.5 -48.5zM536 144q0 12 -0.5 37t-0.5 38
l1 54q0 54 -1 54v7.5t-0.5 8.5t-1 8t-1 8t-2 6.5t-3 6.5t-4.5 5t-6 4.5t-8 2.5t-10 1q-27 0 -33 -27q-3 -16 -3 -71v-66q0 -15 0.5 -43.5t0.5 -42.5v-38q0 -41 35 -41q30 0 34 25q3 24 3 63zM161 409q0 13 -0.5 38t-0.5 37v34v40v34q-2 40 -11 49q-8 9 -25 9q-27 0 -33 -27
q-3 -17 -3 -71v-66q0 -14 0.5 -43t0.5 -44v-37q0 -41 35 -41q30 0 34 25q3 24 3 63z" />
    <glyph glyph-name="ampersand" unicode="&#x26;" horiz-adv-x="458" 
d="M437 -4q-62 -4 -101 26q-7 5 -22 20l-18 -15q-44 -37 -115 -37q-73 0 -117 45.5t-43 118.5q0 73 48 140q9 13 15 19l17 17l25 25q-46 96 -46 148q0 21 6 39q26 80 115 80q23 0 47 -8q16 -5 31 -15t30.5 -34.5t15.5 -57.5q0 -47 -36 -99q-24 -35 -64 -72q23 -48 89 -157
q11 23 13 28q11 35 11 99h77q1 -16 0 -33q-4 -66 -29 -125q-4 -12 -22 -43q5 -7 11 -14q19 -20 62 -20v-75zM251 505q0 27 -15.5 38.5t-31.5 11.5q-24 0 -36 -15q-10 -13 -10 -39q0 -34 33 -93l14 14q46 46 46 83zM265 103q-34 46 -102 177q-13 -10 -21 -19
q-37 -39 -37 -109q0 -17 5 -36q4 -11 10.5 -21.5t24 -22t39.5 -11.5q47 0 81 42z" />
    <glyph glyph-name="quotesingle" unicode="'" horiz-adv-x="136" 
d="M106 741l-23 -289h-29l-25 289h77z" />
    <glyph glyph-name="parenleft" unicode="(" horiz-adv-x="292" 
d="M283 -135l-40 -36q-35 36 -78 114q-96 174 -96 335q0 212 166 440l43 -38q-119 -167 -119 -393q0 -228 92 -375q3 -5 32 -47z" />
    <glyph glyph-name="parenright" unicode=")" horiz-adv-x="292" 
d="M223 278q0 -159 -97 -335q-43 -77 -77 -114l-41 36q125 170 125 424q0 224 -120 391l43 38q167 -219 167 -440z" />
    <glyph glyph-name="asterisk" unicode="*" horiz-adv-x="332" 
d="M307 590l-96 -35l59 -80l-45 -34l-61 80l-54 -81l-46 34l54 81l-92 28l16 54l94 -26v98h57v-100l95 33z" />
    <glyph glyph-name="plus" unicode="+" horiz-adv-x="558" 
d="M475 261h-154v-169h-83v169h-155v73h155v170h83v-170h154v-73z" />
    <glyph glyph-name="comma" unicode="," horiz-adv-x="167" 
d="M126 -4q0 -56 -18 -89.5t-67 -43.5v52q38 9 38 67q0 12 -1 18h-37v118h85v-122z" />
    <glyph glyph-name="hyphen" unicode="-" horiz-adv-x="266" 
d="M241 253h-216v78h216v-78z" />
    <glyph glyph-name="period" unicode="." horiz-adv-x="167" 
d="M126 0h-85v118h85v-118z" />
    <glyph glyph-name="slash" unicode="/" horiz-adv-x="292" 
d="M287 706l-198 -706h-84l201 706h81z" />
    <glyph glyph-name="zero" unicode="0" 
d="M347 354q0 -21 -1 -62.5t-1 -61.5v-62q0 -105 -52 -146q-41 -31 -104 -31q-56 0 -95 23q-44 25 -54.5 69.5t-10.5 146.5v28q-2 100 -1 151q0 14 0.5 42.5t0.5 43.5q0 49 2 73q8 96 75 130q35 17 81 17q50 0 86 -20q44 -24 58.5 -69.5t14.5 -109.5q0 -27 0.5 -81t0.5 -81z
M258 221v290q0 72 -13 96q-17 29 -57 29q-57 0 -68 -58q-5 -30 -5 -164q0 -123 1 -185q0 -71 2 -92q3 -39 24 -55q18 -13 45 -13q50 0 63 35q8 20 8 117z" />
    <glyph glyph-name="one" unicode="1" 
d="M242 0h-88v554h-117v67q32 0 47 2q41 4 62 23t22 60h74v-706z" />
    <glyph glyph-name="two" unicode="2" 
d="M343 0h-309v85l146 247q22 38 32 57q24 44 31.5 73.5t7.5 79.5q0 28 -3 40q-11 53 -63 53q-25 0 -42 -17q-10 -11 -15 -28t-5 -24.5v-30.5v-81h-81v88q0 5 0.5 15t0.5 14q4 89 59 123q35 21 82 21q62 0 94.5 -31t44.5 -68q11 -35 11 -85q0 -78 -31 -147q-11 -25 -35 -65
l-145 -243h220v-76z" />
    <glyph glyph-name="three" unicode="3" 
d="M343 169q0 -50 -12 -83q-13 -36 -48 -65.5t-98 -29.5q-66 0 -111 35q-44 35 -44 128q0 9 0.5 28.5t0.5 29.5l80 -1q-1 -21 1 -64q1 -25 5.5 -39.5t20.5 -26.5q18 -13 42 -13q29 0 47 14q6 5 11 11t8 14.5t4.5 14t2.5 17t1 15v16.5v14q0 7 0.5 21.5t0.5 21.5q0 51 -16 76
q-20 30 -75 30q-18 0 -28 -1l1 79q39 0 45 1q28 4 41 17q25 23 25 83q0 32 -3 65q-3 61 -62 61q-25 0 -39 -14q-22 -22 -22 -91q0 -18 1 -27h-80q-1 28 0 57q1 35 6.5 59.5t23.5 48t49 34.5q30 10 64 10q49 0 86 -23q32 -21 46 -58t14 -105q0 -57 -7 -86t-27 -46
q-14 -12 -48 -21q46 -12 65 -35q11 -15 17 -35q11 -37 11 -137z" />
    <glyph glyph-name="four" unicode="4" 
d="M349 158h-62v-158h-83v158h-183v97l143 451h123v-473h62v-75zM208 627l-121 -394h117z" />
    <glyph glyph-name="five" unicode="5" 
d="M341 291q0 -20 -0.5 -60t-0.5 -61q-2 -84 -32 -122q-43 -57 -128 -57q-74 0 -115 45q-21 24 -28 50q-9 27 -9 82q0 26 1 39l83 -1q-2 -81 11 -105q15 -31 60 -31q38 0 57 26q5 7 8 16t4 22.5t1.5 23t0.5 31.5v34q0 10 0.5 30.5t0.5 31.5q0 57 -6 77q-12 45 -61 45
q-22 0 -36 -11q-23 -17 -23 -72h-80l11 382h273v-76h-193l-5 -176q2 4 14 12q30 19 71 19t73 -23q29 -22 38.5 -58.5t9.5 -112.5z" />
    <glyph glyph-name="six" unicode="6" 
d="M342 233q0 -46 -3 -94q-5 -77 -38 -107q-42 -41 -117 -41q-67 0 -104 33q-32 28 -39 67.5t-7 134.5v310q0 71 18.5 108.5t55.5 55.5q33 15 76 15q94 0 129 -60q11 -17 16 -37.5t4.5 -39t-0.5 -40.5l-82 1q0 57 -7 71q-16 27 -58 27q-65 0 -69 -76q-1 -16 -1 -96v-54
q42 51 98 51q26 0 49 -10q50 -20 67 -68q12 -36 12 -151zM256 224q0 54 -1 82q-2 39 -12 54q-17 28 -58 28q-45 0 -59 -38q-9 -26 -9 -121v-70q0 -39 11 -60q17 -31 60 -31t58 34q10 22 10 122z" />
    <glyph glyph-name="seven" unicode="7" 
d="M341 641q-14 -26 -20 -39q-25 -55 -52 -142q-35 -117 -48 -217t-16 -243h-96q8 245 81 459q16 48 63 169h-220v78h308v-65z" />
    <glyph glyph-name="eight" unicode="8" 
d="M343 222q0 -92 -9 -126q-16 -65 -75 -90q-36 -15 -76 -15q-48 0 -86 21q-33 19 -49 53.5t-16 101.5q0 110 9 140q6 22 19 38q19 24 53 31q-10 0 -26 7q-35 17 -43 71q-4 28 -4 91q0 112 61 149q33 21 88 21q86 0 122 -49q27 -35 27 -112q0 -61 -4 -92q-5 -62 -50 -80
q-5 -2 -22 -6q30 -6 50 -27q18 -19 24.5 -46.5t6.5 -80.5zM255 536q0 50 -4 64q-11 46 -62 45q-27 0 -43 -13q-25 -21 -25 -103q0 -30 1 -45q2 -32 15 -49q18 -22 54 -22q47 0 59 44q3 14 5 79zM257 199q0 32 -1 48q0 82 -69 81q-38 0 -54 -25q-6 -8 -9 -18.5t-3.5 -15.5
t-1 -21.5t-0.5 -17.5q0 -8 -0.5 -23t-0.5 -22q0 -6 0.5 -18t0.5 -18q4 -79 68 -79q50 0 64 44q6 20 6 85z" />
    <glyph glyph-name="nine" unicode="9" 
d="M337 463q0 -38 -0.5 -114.5t-0.5 -114.5v-77q0 -79 -39 -123q-37 -43 -114 -43q-97 0 -133 71q-13 28 -13 73q0 9 0.5 26t0.5 25h80v-26q-1 -27 0 -28q2 -34 19 -48q17 -15 48 -15q25 0 41 13q17 13 21 32.5t6 66.5q0 7 0.5 21t0.5 21q0 14 -0.5 40.5t-0.5 40.5
q-47 -44 -102 -44q-63 0 -98 48q-24 35 -24 124q0 61 3 124q2 34 5 53t15 41.5t35 38.5q39 26 98 26q71 0 109 -38q15 -12 28 -39q6 -12 9.5 -24t4.5 -31t1.5 -30t0 -42.5t-0.5 -47.5zM254 421v134q0 45 -23 67q-17 16 -45 16q-44 0 -63 -39q-4 -8 -5.5 -16.5t-2 -14
t-0.5 -22.5v-27q0 -7 -0.5 -22t-0.5 -23v-59q0 -22 8 -40q18 -39 63 -39q33 0 51 21q9 11 15 29q3 13 3 35z" />
    <glyph glyph-name="colon" unicode=":" horiz-adv-x="208" 
d="M168 359h-86v118h86v-118zM168 0h-86v118h86v-118z" />
    <glyph glyph-name="semicolon" unicode=";" horiz-adv-x="208" 
d="M168 364h-86v113h86v-113zM168 -4q0 -56 -18 -89.5t-68 -43.5v51q7 3 12.5 6t9.5 7.5t6.5 7.5t4.5 9.5t3 9t1.5 11t0.5 10.5v12.5v12.5h-38v118h86v-122z" />
    <glyph glyph-name="less" unicode="&#x3c;" horiz-adv-x="559" 
d="M446 76l-358 194v78l358 195v-84l-279 -147l279 -145v-91z" />
    <glyph glyph-name="equal" unicode="=" horiz-adv-x="559" 
d="M474 351h-389v72h389v-72zM474 181h-389v72h389v-72z" />
    <glyph glyph-name="greater" unicode="&#x3e;" horiz-adv-x="559" 
d="M471 271l-358 -195v83l279 147l-279 146v90l358 -193v-78z" />
    <glyph glyph-name="question" unicode="?" horiz-adv-x="396" 
d="M360 554q0 -55 -4 -79q-3 -17 -9 -33t-10.5 -24t-22 -35.5t-26.5 -42.5q-14 -22 -20 -34q-14 -30 -14 -71q0 -30 1 -46h-66v39q0 38 1.5 53.5t11.5 44.5t34 73q22 39 26 49q12 27 12 83q0 5 0.5 16t0.5 17q0 19 -4 30q-18 43 -69 43q-20 0 -37 -9q-19 -11 -24.5 -28
t-5.5 -44v-90h-78v100q0 53 16 85q17 33 54.5 49.5t77.5 16.5q14 0 30 -2.5t40 -10.5t45 -28.5t31 -50.5q9 -27 9 -71zM265 0h-86v118h86v-118z" />
    <glyph glyph-name="at" unicode="@" horiz-adv-x="816" 
d="M778 426q0 -65 -21.5 -135t-56.5 -121q-69 -100 -150 -100q-73 0 -77 85q-63 -84 -139 -84q-56 0 -89.5 44t-33.5 118q0 110 63.5 197.5t143.5 87.5q44 0 77 -31q19 -19 32 -54l15 62h65l-57 -263q-2 -10 -4 -30t-2 -31q0 -41 28 -41q31 0 67 45q38 46 59.5 111.5
t21.5 132.5q0 115 -63 178.5t-177 63.5q-128 0 -227 -87q-86 -76 -124 -203q-22 -77 -22 -142q0 -134 85 -217.5t221 -83.5q84 0 170 39.5t151 109.5l31 -41q-23 -23 -35 -34q-141 -125 -320 -125q-110 0 -195 47q-170 93 -170 307q0 202 127.5 342t310.5 140
q136 0 215.5 -77.5t79.5 -209.5zM502 355q0 44 -21 71t-56 27q-53 0 -94.5 -66t-41.5 -151q0 -48 18 -74t51 -26q57 0 100.5 66t43.5 153z" />
    <glyph glyph-name="A" unicode="A" horiz-adv-x="396" 
d="M396 0h-92l-25 136h-164l-24 -136h-91l152 706h88zM264 212l-69 363l-65 -363h134z" />
    <glyph glyph-name="B" unicode="B" horiz-adv-x="437" 
d="M402 217q0 -66 -9 -101.5t-32 -61.5q-23 -28 -53 -40q-25 -10 -50 -12t-86 -2h-122v706h175q86 0 126 -43q40 -44 40 -123q0 -77 -30 -118q-18 -24 -44 -34q-17 -7 -39 -7q38 0 66 -19q58 -38 58 -145zM305 522q0 64 -27 87q-22 18 -89 18h-51v-211h60q29 0 43 2
q64 12 64 104zM315 194q0 75 -15 104q-10 17 -24 27q-16 10 -32.5 12.5t-57.5 2.5h-48v-263h51q41 -2 61 3q33 7 49 33t16 81z" />
    <glyph glyph-name="C" unicode="C" horiz-adv-x="417" 
d="M380 248q0 -50 -1 -75q0 -37 -4 -61q-14 -83 -83 -110q-33 -12 -78 -12q-66 0 -107 31q-21 18 -33 36q-19 29 -24.5 69.5t-5.5 121.5v113q0 79 1 119q2 133 37 179q43 58 139 58q73 0 118 -45q20 -21 28.5 -52.5t8.5 -89.5q0 -31 -1 -46h-81q0 51 -1 77t-6 41t-21 27
q-19 14 -45 14q-66 0 -80 -62q-10 -44 -10 -232q0 -79 3 -158q0 -3 0.5 -17t1 -20.5t1.5 -18t4 -20.5t7 -16q20 -35 71 -35q28 0 47 15q32 24 32 117v52h82z" />
    <glyph glyph-name="D" unicode="D" horiz-adv-x="437" 
d="M394 389q0 -53 -2 -157q0 -39 -3 -78q-9 -100 -74 -135q-9 -5 -18 -8t-19.5 -5t-18 -3.5t-20.5 -2t-18 -0.5h-20.5h-18.5h-132v706h133q91 0 127 -16q67 -30 79 -114q5 -37 5 -187zM307 324q0 145 -1 174q-1 46 -5.5 68.5t-19.5 37.5q-23 21 -98 21h-45v-547h58
q48 0 70 11q27 14 35 53q6 32 6 182z" />
    <glyph glyph-name="E" unicode="E" horiz-adv-x="396" 
d="M368 0h-318v706h311v-79h-223v-210h195v-80h-195v-258h230v-79z" />
    <glyph glyph-name="F" unicode="F" 
d="M361 627h-222v-208h193v-77h-193v-342h-89v706h311v-79z" />
    <glyph glyph-name="G" unicode="G" horiz-adv-x="437" 
d="M395 0h-74v49q-17 -17 -28 -26q-46 -34 -101 -33q-22 0 -43.5 5t-50 28.5t-40.5 63.5q-12 38 -13 152q-1 37 -1 112t3 150q0 72 11 110q32 106 166 106q72 0 112 -27q13 -9 23 -21q17 -20 24 -44q6 -21 6 -85v-50h-83v35q0 6 -0.5 18t-0.5 18q-1 15 -3 25.5t-9 25.5
t-24 23t-43 8q-33 0 -55 -15q-12 -8 -18 -16q-7 -9 -11 -28q-10 -47 -10 -200v-85q0 -59 3 -119t10 -76q20 -42 71 -42q38 0 64 23q15 12 23 31q10 26 10 101v72h-104v76h186v-365z" />
    <glyph glyph-name="H" unicode="H" horiz-adv-x="437" 
d="M387 0h-88v329h-161v-329h-88v706h88v-300h161v300h88v-706z" />
    <glyph glyph-name="I" unicode="I" horiz-adv-x="187" 
d="M137 0h-87v706h87v-706z" />
    <glyph glyph-name="J" unicode="J" horiz-adv-x="396" 
d="M349 231q0 -33 -1 -50v-14.5t-0.5 -14.5t-1 -13.5t-1 -14.5t-1.5 -13.5t-3 -14t-4.5 -12.5t-5.5 -13.5t-7 -12.5t-9 -13q-46 -56 -140 -56q-62 0 -103 32q-23 19 -32 37q-6 10 -10 23.5t-6.5 24t-3.5 29t-1 25.5v29v24h85v-64q0 -30 9 -47q20 -37 66 -37q78 0 82 89
q1 0 1 36l-1 36v480h88v-475z" />
    <glyph glyph-name="K" unicode="K" horiz-adv-x="417" 
d="M417 0h-98l-125 361l-57 -85v-276h-87v706h87v-304l182 304h98l-167 -266z" />
    <glyph glyph-name="L" unicode="L" horiz-adv-x="354" 
d="M347 0h-297v706h90v-627h207v-79z" />
    <glyph glyph-name="M" unicode="M" horiz-adv-x="562" 
d="M512 0h-81l12 639l-105 -639h-111l-105 639l14 -639h-86v706h132l99 -630l97 630h134v-706z" />
    <glyph glyph-name="N" unicode="N" horiz-adv-x="437" 
d="M387 0h-124l-138 612l12 -612h-87v706h121l143 -618l-12 618h85v-706z" />
    <glyph glyph-name="O" unicode="O" horiz-adv-x="437" 
d="M394 363q0 -24 -2 -67.5t-2 -57.5q0 -21 -2 -63q-9 -109 -53 -148q-43 -37 -122 -37q-97 0 -137 57q-14 19 -21 45q-11 39 -11 223q0 63 2 191q3 108 38 153q46 58 143 58q108 0 145 -78q14 -28 17 -63q8 -67 5 -213zM304 363q0 98 -1 147q0 74 -14 98q-20 35 -68 35
q-31 0 -52 -17q-23 -19 -29 -51.5t-6 -104.5v-49q0 -136 1 -204q0 -81 7 -103q17 -52 76 -52q51 0 69 41q14 31 16 166q1 31 1 94z" />
    <glyph glyph-name="P" unicode="P" horiz-adv-x="417" 
d="M389 492q0 -113 -37 -158q-36 -44 -140 -44h-74v-290h-88v706h183q81 0 119 -47q7 -8 12 -16.5t9 -18.5t7 -17t4.5 -19.5t2.5 -18t1.5 -20t0.5 -18.5v-20v-19zM303 487q0 45 -2 68q-2 20 -10 34t-17.5 21t-26.5 11t-29 4.5t-34 0.5h-46v-259h59q22 0 30.5 0.5t25 3.5
t26 12.5t16.5 24.5q8 17 8 79z" />
    <glyph glyph-name="Q" unicode="Q" horiz-adv-x="437" 
d="M402 -62l-49 -51l-107 104q-25 -2 -56 0q-124 9 -140 128q-6 49 -6 171q0 70 2 204q2 106 27 148q43 75 155 75q122 0 152 -97q16 -48 16 -192q0 -94 -5 -212q-3 -94 -17 -131q-7 -19 -18 -34q-18 -28 -41 -39zM306 363q1 30 -2 175q0 105 -83 105q-44 0 -66 -33
q-13 -19 -17 -50q-4 -29 -4 -204q0 -108 1 -161q0 -4 0.5 -18.5t1 -22t1.5 -19.5t4 -21t7 -17q20 -35 70 -35q52 0 69 37q3 7 5.5 15t4 19.5t2.5 20t1.5 25t1 26t0.5 31v32.5q1 16 2 47.5t1 47.5z" />
    <glyph glyph-name="R" unicode="R" horiz-adv-x="437" 
d="M422 0h-92l-120 310h-73v-310h-87v706h154q92 0 132 -33q55 -45 55 -155q0 -47 -7 -88q-8 -48 -29 -74t-59 -36zM303 504q0 52 -8 75q-6 17 -17 27.5t-28 14.5t-28.5 4.5t-32.5 0.5h-9h-43v-247h46q55 0 77 8q15 6 25 19t13.5 33.5t4 32t0.5 32.5z" />
    <glyph glyph-name="S" unicode="S" horiz-adv-x="396" 
d="M371 160q0 -97 -64 -140q-44 -30 -110 -30q-125 0 -159 97q-11 32 -11 79v78h83v-35q0 -70 8 -93q19 -51 79 -51t81 46q8 17 8 42q0 28 -10 51.5t-20 35t-36 38.5l-95 98q-45 47 -63 83t-18 94q0 38 8 67q30 97 156 97q119 0 143 -92q6 -24 6 -82v-45h-78q-1 44 -1 58
q0 61 -38 79q-16 7 -37 7q-34 0 -53 -19q-3 -3 -14 -19q-7 -16 -7 -47q0 -24 6 -41q4 -12 12.5 -25t13.5 -19t21 -23t17 -18l111 -118q8 -9 22 -27q39 -50 39 -126z" />
    <glyph glyph-name="T" unicode="T" 
d="M365 627h-134v-627h-87v627h-134v79h355v-79z" />
    <glyph glyph-name="U" unicode="U" horiz-adv-x="437" 
d="M390 179q0 -62 -13 -102.5t-58 -64.5q-40 -22 -102 -22q-87 0 -129 41q-18 18 -29 48q-12 35 -12 97v530h89v-468q0 -108 8 -128q11 -29 42 -39q15 -5 35 -5q44 0 64 26q9 12 12 25q4 19 4 87v502h89v-527z" />
    <glyph glyph-name="V" unicode="V" 
d="M375 706l-131 -706h-112l-132 706h90l98 -619l98 619h89z" />
    <glyph glyph-name="W" unicode="W" horiz-adv-x="625" 
d="M625 706l-119 -706h-116l-77 585l-80 -585h-118l-115 706h87l87 -619l83 619h113l81 -619l88 619h86z" />
    <glyph glyph-name="X" unicode="X" horiz-adv-x="396" 
d="M396 0h-95l-108 306l-101 -306h-92l135 385l-126 321h97l85 -271l79 271h94l-116 -321z" />
    <glyph glyph-name="Y" unicode="Y" horiz-adv-x="396" 
d="M396 706l-155 -420v-286h-91v286l-150 420h93l105 -353l105 353h93z" />
    <glyph glyph-name="Z" unicode="Z" 
d="M353 0h-331v72l232 555h-199v79h298v-67l-236 -561h236v-78z" />
    <glyph glyph-name="bracketleft" unicode="[" horiz-adv-x="313" 
d="M293 -171h-196v889h196v-63h-112v-762h112v-64z" />
    <glyph glyph-name="backslash" unicode="\" horiz-adv-x="292" 
d="M286 0h-83l-198 706h81z" />
    <glyph glyph-name="bracketright" unicode="]" horiz-adv-x="313" 
d="M216 -171h-197v64h113v762h-113v63h197v-889z" />
    <glyph glyph-name="asciicircum" unicode="^" horiz-adv-x="559" 
d="M496 358h-89l-128 271l-127 -271h-90l177 348h80z" />
    <glyph glyph-name="underscore" unicode="_" horiz-adv-x="500" 
d="M510 -206h-520v59h520v-59z" />
    <glyph glyph-name="grave" unicode="`" horiz-adv-x="229" 
d="M196 564h-64l-99 107h109z" />
    <glyph glyph-name="a" unicode="a" horiz-adv-x="354" 
d="M333 0h-98v60q-33 -69 -104 -69q-33 0 -60 16q-52 31 -52 114q0 66 40 106q10 11 22 19.5t35 24t41 27.5q34 24 73 60v17q0 70 -61 70q-18 0 -30.5 -6.5t-18 -12t-8.5 -19.5t-3 -17v-16q0 -12 2 -38h-73q0 29 1 43q1 23 1.5 33.5t6.5 26t17 28.5q36 42 113 42
q66 0 101 -36q15 -16 25 -42q6 -20 6 -85v-240q0 -71 9 -89q2 -5 15 -17zM230 162v123q-10 -10 -28 -26q-16 -12 -25 -18q-41 -31 -52 -44q-24 -31 -24 -73q0 -75 55 -74q32 0 55 29q19 25 19 83z" />
    <glyph glyph-name="b" unicode="b" 
d="M339 298q0 -99 -2 -149q-4 -72 -16 -97q-10 -22 -35 -41.5t-66 -19.5q-27 0 -50.5 12t-30.5 19t-20 22v-44h-75v706h79v-246q1 1 3 3.5t3.5 4.5t5 5t6.5 6q33 30 80 30q42 0 67 -19.5t35 -42.5q16 -37 16 -149zM258 240q0 56 -1 84q-3 58 -3 59v5q-1 4 -1.5 6.5t-2 8
t-3 9.5t-4 9.5t-5.5 9t-7.5 8t-9.5 7t-12 4t-15 1.5q-15 0 -33.5 -9.5t-28.5 -32.5q-3 -6 -4.5 -13t-2.5 -11.5t-1.5 -15.5t-0.5 -15.5v-21v-23.5v-114q0 -85 11 -106q9 -16 27.5 -26t36.5 -10q44 0 54 47q6 29 6 140z" />
    <glyph glyph-name="c" unicode="c" horiz-adv-x="354" 
d="M320 186q0 -65 -6 -97.5t-26 -55.5q-36 -42 -114 -42q-93 0 -120 61q-18 38 -18 176q0 77 4 138q10 82 39 110q33 33 102 33q87 0 117 -50q15 -24 18.5 -51t3.5 -89h-76q0 43 -2 65q0 26 -10 41q-15 24 -51 24q-50 0 -59 -51q-6 -36 -6 -149q0 -35 2 -105q0 -44 9 -61
q15 -29 53 -29q53 0 60 59q4 32 4 73h76z" />
    <glyph glyph-name="d" unicode="d" 
d="M331 0h-75v52q-5 -8 -17 -23q-34 -38 -88 -38q-92 0 -108 102q-7 49 -7 153q0 36 2 108q3 56 15 86q14 32 41 51t61 18q44 0 75 -26q7 -6 20 -22v245h81v-706zM252 249q0 64 -2 96q-2 53 -17 76q-17 26 -51 26q-17 0 -32 -9q-6 -4 -11 -9.5t-8.5 -10.5t-6 -14t-3.5 -14
t-2 -16t-1 -14t-0.5 -14.5t-0.5 -12.5q-1 -23 -1 -69q0 -96 1 -115q1 -40 8 -57q17 -38 57 -38q16 0 22 3q27 8 38 46q8 32 10 146z" />
    <glyph glyph-name="e" unicode="e" horiz-adv-x="354" 
d="M318 155q1 -27 0 -43t-8 -37.5t-21 -38.5q-37 -45 -110 -45q-91 0 -125 67q-5 9 -8 19t-4.5 17t-2.5 22t-1.5 22t-0.5 30v34q-1 31 -1 93q0 47 4 86q5 41 15 62.5t28 36.5q34 28 92 28q62 0 96 -27q19 -14 30 -35q5 -9 8.5 -21.5t5 -21t2.5 -26t1 -22.5v-25v-21v-74h-201
q-2 -44 0 -88q1 -34 5 -47q13 -44 60 -44q23 0 37 11q25 19 24 88h75zM243 299v21q0 39 -1 58q-4 69 -62 69q-38 0 -53 -32q-10 -22 -10 -95v-21h126z" />
    <glyph glyph-name="f" unicode="f" horiz-adv-x="229" 
d="M224 440h-81v-440h-79v440h-59v60h59v54q0 82 20 112q27 43 98 43q26 0 42 -6v-69q-21 6 -32 6q-19 0 -31 -10q-13 -11 -15.5 -26t-2.5 -54v-50h81v-60z" />
    <glyph glyph-name="g" unicode="g" 
d="M331 -29q-2 -84 -58 -116q-40 -23 -97 -23q-60 0 -97 32q-20 17 -29 38q-10 24 -10 58h74q0 -22 6 -35q5 -11 21 -20t39 -9q27 0 44 11q5 3 9 7t6.5 9l4.5 9t3.5 10.5t2 10t1 11t0.5 10v11v9.5v58l-9 -12q-34 -43 -92 -43q-59 0 -89 44q-25 36 -25 136q0 17 -0.5 50
t-0.5 49q0 36 1 54q2 91 25 129q29 50 99 50q62 0 97 -53v44h74v-475v-54zM253 216v28q0 75 -2 97q1 44 -7 66q-15 46 -62 46q-16 0 -34 -11q-20 -15 -25.5 -47.5t-5.5 -95.5v-78q0 -62 2 -94q5 -42 24 -57q18 -12 38 -12q44 0 61 40q11 24 11 118z" />
    <glyph glyph-name="h" unicode="h" 
d="M331 0h-79v301q0 48 -1 72q-3 42 -20 58q-15 15 -41 15q-27 0 -44 -17q-11 -12 -16.5 -32.5t-6 -37t-0.5 -59.5v-300h-79v706h79v-251q34 42 66 50q12 4 35 4q35 0 61 -18q22 -15 33 -44t12 -47t1 -56v-344z" />
    <glyph glyph-name="i" unicode="i" horiz-adv-x="167" 
d="M123 588h-79v103h79v-103zM123 0h-79v500h79v-500z" />
    <glyph glyph-name="j" unicode="j" horiz-adv-x="167" 
d="M123 587h-79v104h79v-104zM123 34q0 -53 -1 -80q0 -26 -6 -49q-10 -37 -39 -55t-91 -18q-6 0 -17 0.5t-16 0.5l1 66q1 0 15.5 -0.5t21.5 0t17.5 2.5t17.5 7q12 7 16 31q2 20 2 90v471h79v-466z" />
    <glyph glyph-name="k" unicode="k" horiz-adv-x="354" 
d="M363 500l-135 -194l128 -306h-85l-97 232l-51 -70v-162h-79v706h79v-433l148 227h92z" />
    <glyph glyph-name="l" unicode="l" horiz-adv-x="167" 
d="M124 0h-81v706h81v-706z" />
    <glyph glyph-name="m" unicode="m" horiz-adv-x="583" 
d="M540 0h-82v328q0 67 -8 85q-15 34 -54 34q-26 0 -40 -14q-6 -5 -10 -11.5t-7 -15t-4.5 -15t-2 -17t-0.5 -15.5v-17v-14v-328h-81v328q0 75 -10 92q-19 30 -53 27q-27 0 -43 -16q-14 -15 -17.5 -37t-3.5 -68v-326h-80v500h75v-49q12 16 22 26q35 32 85 32q56 0 86 -39
q1 -1 13 -19q4 8 21 25q33 33 82 33q37 0 63 -18q30 -21 39.5 -51.5t9.5 -74.5v-365z" />
    <glyph glyph-name="n" unicode="n" 
d="M331 0h-81v366q0 80 -59 80q-44 0 -60 -42q-7 -17 -7 -81v-323h-80v500h76v-46q1 1 7 8.5t10 11.5q41 35 91 35q60 0 86 -43q11 -18 14 -41t3 -73v-352z" />
    <glyph glyph-name="o" unicode="o" horiz-adv-x="354" 
d="M318 245q0 -64 -2 -96q-1 -37 -5 -56q-17 -102 -136 -102q-85 0 -118 55q-21 37 -21 115v65q0 87 2 130q2 82 36 117q32 36 107 36q38 0 65.5 -13t41 -28.5t21 -41.5t8.5 -38.5t1 -32.5q1 -55 0 -110zM235 246q0 73 -1 110q-1 19 -2 30t-6 27t-16.5 23.5t-29.5 7.5
q-44 0 -55 -47q-5 -21 -5 -124q0 -20 0.5 -60.5t0.5 -60.5q0 -48 5 -63q11 -35 49 -35q45 0 55 52q5 29 5 140z" />
    <glyph glyph-name="p" unicode="p" 
d="M339 288q0 -69 -3 -138q-3 -73 -18 -103q-31 -56 -98 -56q-46 0 -76 29q-12 12 -18 22v-201h-82v659h79l1 -48q41 57 101 57q39 0 67 -22q36 -29 43 -84q4 -32 4 -115zM256 261q0 54 -1 81q0 18 -1 27q-4 76 -60 76q-46 0 -60 -55q-7 -25 -7 -140q0 -67 2 -100
q0 -41 14 -66q17 -33 53 -33q40 0 51 41q5 19 7 96q2 48 2 73z" />
    <glyph glyph-name="q" unicode="q" 
d="M331 -159h-79v209q-8 -14 -16 -22q-32 -37 -84 -37q-39 0 -67 23q-23 19 -34 49.5t-12 48t-2 60.5q-1 27 -1 79q0 17 0.5 51.5t0.5 52.5q2 72 26 106q35 48 93 48q29 0 51.5 -13.5t29.5 -23t17 -25.5v53h77v-659zM253 253q0 13 -0.5 28t-1.5 33t-1 28q-3 50 -8 63
q-16 41 -62 40q-49 0 -58 -56q-3 -23 -3 -145q0 -48 1 -72q0 -5 0.5 -22t1.5 -27q6 -69 59 -69q35 0 55 30q7 10 11 32q8 41 6 137z" />
    <glyph glyph-name="r" unicode="r" horiz-adv-x="250" 
d="M256 425q-38 0 -57 -5q-15 -4 -27 -12t-19.5 -16t-13 -23t-8 -24t-4 -27.5t-1.5 -26v-28v-24.5v-239h-82v500h77v-94q13 29 23 45q39 58 99 58h13v-84z" />
    <glyph glyph-name="s" unicode="s" horiz-adv-x="313" 
d="M295 128q0 -100 -85 -129q-25 -8 -59 -8q-77 0 -109 46q-15 21 -19.5 49t-5.5 87h77q0 -16 2 -50q0 -25 7 -38q16 -29 53 -29q26 0 42 17t16 43q0 21 -8 37.5t-16 25t-28 25.5l-62 54q-37 33 -53 58t-16 65q0 55 26 88q13 17 43 30q28 10 59 10q63 0 94 -31
q14 -15 20 -34q10 -27 10 -91h-71q0 43 -4 56q-11 36 -49 36q-20 0 -36.5 -11.5t-16.5 -43.5q0 -14 6 -26q10 -21 56 -60l57 -47q1 -1 12.5 -11t16.5 -15q41 -44 41 -103z" />
    <glyph glyph-name="t" unicode="t" horiz-adv-x="229" 
d="M222 63l-1 -65q-21 -7 -45 -7q-59 0 -85 25q-13 12 -19 35t-6.5 35t-0.5 40q0 6 0.5 18.5t0.5 18.5v277h-60v60h62v134h80v-134h74v-60h-74v-323q0 -28 9 -42q11 -16 37 -16q14 0 28 4z" />
    <glyph glyph-name="u" unicode="u" 
d="M331 0h-77l-1 46q-43 -55 -106 -55q-38 0 -65 22q-19 16 -27.5 43t-9.5 48t-1 82v314h80v-328q0 -28 1 -42q0 -31 7 -46q14 -33 52 -33q23 0 39 13q18 14 23.5 37.5t5.5 72.5v326h79v-500z" />
    <glyph glyph-name="v" unicode="v" horiz-adv-x="313" 
d="M313 500l-115 -500h-91l-107 500h87l66 -410l73 410h87z" />
    <glyph glyph-name="w" unicode="w" horiz-adv-x="521" 
d="M521 500l-98 -500h-96l-68 421l-69 -421h-98l-92 500h87l53 -428l65 428h108l65 -422l59 422h84z" />
    <glyph glyph-name="x" unicode="x" horiz-adv-x="333" 
d="M333 0h-91l-79 198l-75 -198h-88l120 268l-104 232h93l54 -164l60 164h90l-105 -232z" />
    <glyph glyph-name="y" unicode="y" horiz-adv-x="333" 
d="M320 500l-86 -436q-2 -9 -5.5 -27t-5.5 -27q-7 -35 -11 -52.5t-16 -45.5t-29 -45q-31 -30 -95 -30h-52v69q27 -1 53 0q14 2 23.5 4.5t21 16t11.5 37.5q0 19 -10 61l-113 475h86l79 -402l64 402h85z" />
    <glyph glyph-name="z" unicode="z" horiz-adv-x="292" 
d="M281 0h-272v66l188 366h-163v68h247v-68l-187 -366h187v-66z" />
    <glyph glyph-name="braceleft" unicode="{" horiz-adv-x="354" 
d="M327 -171h-5q-51 0 -75 6q-36 8 -58.5 25.5t-33 44t-13.5 52t-3 63.5v74q0 28 -0.5 41.5t-4.5 36.5t-12.5 34t-25 21t-41.5 12v69q29 0 46 12q14 9 22.5 22.5t11.5 35t3.5 31.5t0.5 35v89q0 73 19.5 116t80.5 61q28 8 88 8v-67l-12 -1q-59 -5 -74 -35t-15 -98v-36v-25.5
v-29.5t-1 -27t-3.5 -29t-6.5 -25t-10.5 -25t-15.5 -19t-21.5 -17t-27.5 -9v-4q18 -3 31.5 -11.5t22.5 -17t15.5 -25.5t10 -26.5t5 -32.5t1.5 -30.5v-33v-28.5v-49q0 -60 17 -88t72 -32l12 -1v-67z" />
    <glyph glyph-name="bar" unicode="|" horiz-adv-x="229" 
d="M155 -250h-81v998h81v-998z" />
    <glyph glyph-name="braceright" unicode="}" horiz-adv-x="354" 
d="M327 239q-24 0 -40.5 -9t-24.5 -21t-12.5 -33t-5.5 -35.5t-1 -38.5v-79q0 -32 -1 -50.5t-6.5 -43.5t-15.5 -40.5t-29.5 -29.5t-47.5 -22q-21 -6 -88 -8v67l12 1q58 5 73 35t15 97q0 34 2 100q1 29 4 47.5t11 41t25.5 35.5t43.5 18v4q-4 2 -15 5.5t-16 6.5q-11 6 -20 16.5
t-15 19.5t-10 25.5t-6 25.5t-3 29t-1 26.5v28v23.5v49q0 60 -17 88t-71 32l-12 1v67q40 -1 64 -4t51 -13.5t43.5 -33.5t24.5 -60q3 -15 4.5 -37t1.5 -39t-0.5 -43t-0.5 -35q0 -28 0.5 -40.5t4.5 -36.5t15.5 -39t29.5 -23q9 -4 34 -6v-69z" />
    <glyph glyph-name="asciitilde" unicode="~" horiz-adv-x="565" 
d="M501 301q-30 -35 -57 -51q-33 -20 -67 -20t-91 26l-26 12q-47 22 -76 22q-38 0 -76 -44l-7 -8l-37 61q26 29 43 44q33 27 78 27q34 0 78 -20l54 -24q37 -17 60 -17q39 0 86 52z" />
    <glyph glyph-name="exclamdown" unicode="&#xa1;" horiz-adv-x="208" 
d="M126 589h-85v117h85v-117zM126 0h-85v223l21 291h45l19 -291v-223z" />
    <glyph glyph-name="cent" unicode="&#xa2;" horiz-adv-x="354" 
d="M315 183q0 -68 -8.5 -105.5t-36.5 -59.5q-10 -8 -26.5 -15t-26.5 -9.5t-12 -2.5v-73h-54v73q-93 10 -110 98q-4 18 -5 61q-1 22 -1 58q0 23 1.5 60t1.5 47q3 66 3 70q0 15 7 39q11 38 39 60q21 17 64 25v65h54v-65q52 -7 80 -41q5 -6 9.5 -13.5t7.5 -17t5.5 -16
t3.5 -18.5t2 -17t1.5 -18.5t0.5 -16v-16.5v-14h-75v16q0 29 -2 47q-4 67 -61 66q-49 0 -57 -59q-5 -35 -5 -190q0 -91 4 -104q6 -21 19 -32q15 -13 37 -13q64 0 64 90q0 6 0.5 16t0.5 15v10h75z" />
    <glyph glyph-name="sterling" unicode="&#xa3;" horiz-adv-x="458" 
d="M435 233q2 -56 -1 -100q-4 -57 -21 -87q-31 -56 -100 -56q-53 0 -115 48l-5.5 -5.5t-6 -6.5t-5.5 -5q-35 -29 -80 -29q-23 0 -38 7q-23 10 -37.5 31.5t-14.5 47.5q0 14 5 29q20 55 83 55q33 0 67 -24q7 67 -26 167h-99v75h74q-15 42 -20 58.5t-10 45t-5 62.5q0 97 53 138
q42 33 122 33q91 0 128 -58q27 -42 27 -147q0 -16 -1 -25h-87q0 91 -8 114q-7 22 -24 34q-15 10 -42 10q-41 0 -60 -28t-19 -70q0 -56 23 -125q8 -22 18 -42h134v-75h-112q22 -88 21 -129q0 -39 -14 -79q1 -1 6 -4.5t8 -4.5q27 -17 52 -17q30 0 41 25q11 21 11 77
q0 30 -3 60h81zM140 88q-24 16 -40 16q-26 0 -26 -20q3 -21 24 -21q27 0 42 25z" />
    <glyph glyph-name="currency" unicode="&#xa4;" horiz-adv-x="627" 
d="M586 569l-71 -75q48 -78 48 -153q0 -85 -49 -158l71 -76l-53 -55l-72 76q-72 -52 -149 -52q-41 0 -72 11t-74 41l-72 -74l-52 55l72 74q-28 44 -38.5 78.5t-10.5 78.5q0 81 49 155l-70 74l52 55l70 -73q72 51 149 51q79 0 147 -51l72 74zM481 338q0 81 -47.5 134.5
t-119.5 53.5t-120.5 -53.5t-48.5 -132.5q0 -80 49 -133.5t122 -53.5q70 0 117.5 53.5t47.5 131.5z" />
    <glyph glyph-name="yen" unicode="&#xa5;" horiz-adv-x="396" 
d="M396 706l-124 -347h87v-58h-108l-10 -27v-27h118v-57h-118v-190h-88v190h-117v57h117v27l-9 27h-108v58h86l-122 347h95l103 -358l104 358h94z" />
    <glyph glyph-name="brokenbar" unicode="&#xa6;" horiz-adv-x="229" 
d="M155 308h-81v441h81v-441zM155 -249h-81v439h81v-439z" />
    <glyph glyph-name="section" unicode="&#xa7;" horiz-adv-x="417" 
d="M389 316q0 -40 -15.5 -69t-48.5 -67q25 -29 34.5 -54t9.5 -64q0 -88 -44 -127t-131 -39q-84 0 -123 41t-39 124v38h87v-37q0 -90 79 -90q41 0 62.5 22t21.5 63q0 34 -12.5 53t-42.5 36q-17 9 -74 33.5t-77 38.5q-54 39 -54 103q0 67 67 129q-39 42 -39 105q0 82 39.5 120
t121.5 38q79 0 116 -35t37 -112q0 -26 -1 -39h-80q0 24 -0.5 34t-4 29.5t-11 28t-22.5 16t-37 7.5q-75 0 -75 -78q0 -9 1.5 -17.5t3.5 -14.5t7 -12.5t7.5 -10.5t10.5 -9.5t10.5 -7.5t13.5 -7.5l13 -6.5t14.5 -6t14.5 -6q48 -20 72 -31q88 -42 88 -119zM319 287q0 14 -6 26
t-11.5 19.5t-21 16.5t-21.5 12t-26 11t-22 9q-27 11 -81 35q-39 -37 -39 -70q0 -32 27 -54q12 -10 43.5 -25.5t70.5 -32t50 -22.5q37 37 37 75z" />
    <glyph glyph-name="dieresis" unicode="&#xa8;" horiz-adv-x="229" 
d="M231 563h-78v103h78v-103zM77 563h-79v103h79v-103z" />
    <glyph glyph-name="copyright" unicode="&#xa9;" horiz-adv-x="832" 
d="M772 354q0 -151 -103 -254t-254 -103q-148 0 -251.5 104t-103.5 252q0 149 104 252.5t252 103.5q149 0 252.5 -103t103.5 -252zM736 352q0 136 -93 229.5t-227 93.5q-133 0 -226.5 -94.5t-93.5 -228.5t93 -227.5t226 -93.5t227 93.5t94 227.5zM561 258q0 -64 -12 -89
q-25 -55 -117 -55q-67 0 -103 32q-38 33 -38 118v173q0 58 14 87q29 63 127 63q59 0 93 -26q21 -16 28.5 -41t7.5 -76v-33h-72v31q0 37 -6 55q-10 31 -54 31q-36 0 -49.5 -22t-13.5 -80v-151q0 -58 13.5 -80t49.5 -22q30 0 43 13q8 6 11 18q6 19 6 55v28h72v-29z" />
    <glyph glyph-name="ordfeminine" unicode="&#xaa;" horiz-adv-x="229" 
d="M217 392h-76v21q-24 -26 -53 -26q-36 -1 -54.5 24t-18.5 61q0 15 3 27.5t7 20.5t14 17.5t16 14.5t22.5 16.5t24.5 17.5q8 5 19 14t15 12v7v8.5t-0.5 7.5t-1.5 8t-3 6.5t-5 5.5t-7.5 3.5t-10.5 1.5q-30 1 -30 -40v-25h-53v30q0 31 5 42q19 45 80 45q30 0 49.5 -10
t26.5 -28.5t8.5 -29t1.5 -26.5v-172q0 -31 21 -54zM139 512v41q-6 -5 -24.5 -18.5t-23.5 -19t-11 -17.5t-6 -27q0 -35 28 -35q37 0 37 76z" />
    <glyph glyph-name="guillemotleft" unicode="&#xab;" horiz-adv-x="354" 
d="M324 80l-139 158v86l139 156v-116l-74 -83l74 -84v-117zM162 80l-140 158v86l140 156v-116l-74 -83l74 -84v-117z" />
    <glyph glyph-name="logicalnot" unicode="&#xac;" horiz-adv-x="559" 
d="M475 75h-85v185h-329v73h414v-258z" />
    <glyph glyph-name="registered" unicode="&#xae;" horiz-adv-x="832" 
d="M772 354q0 -151 -103 -254t-254 -103q-148 0 -251.5 104t-103.5 252q0 149 104 252.5t252 103.5q149 0 252.5 -103t103.5 -252zM736 352q0 136 -93 229.5t-227 93.5q-133 0 -226.5 -94.5t-93.5 -228.5t93 -227.5t226 -93.5t227 93.5t94 227.5zM573 125h-80l-88 189h-33
v-189h-72v449h95q88 0 118 -18q22 -14 31.5 -39t9.5 -71q0 -59 -16 -86t-60 -41zM482 446q0 45 -16 59q-12 11 -74 11h-20v-145h23q53 0 70 14.5t17 60.5z" />
    <glyph glyph-name="macron" unicode="&#xaf;" horiz-adv-x="229" 
d="M223 575h-217v64h217v-64z" />
    <glyph glyph-name="degree" unicode="&#xb0;" horiz-adv-x="354" 
d="M338 594q0 -67 -47 -114.5t-114 -47.5t-114 47.5t-47 114.5t47 114t114 47q68 0 114.5 -46.5t46.5 -114.5zM256 596q0 33 -23 56t-56 23t-56 -23t-23 -56q0 -32 23.5 -55.5t55.5 -23.5q33 0 56 23t23 56z" />
    <glyph glyph-name="plusminus" unicode="&#xb1;" horiz-adv-x="559" 
d="M476 296h-155v-169h-82v169h-155v73h155v170h82v-170h155v-73zM476 0h-392v73h392v-73z" />
    <glyph glyph-name="twosuperior" unicode="&#xb2;" horiz-adv-x="250" 
d="M225 265h-203v60l89 151q4 6 12.5 20t10.5 18t7.5 14.5t6.5 15.5t3.5 14t3 18t0.5 21v3q0 49 -34 49q-15 0 -22.5 -11t-8 -18.5t-0.5 -23.5v-56h-63v60q0 41 9.5 63.5t33.5 36.5q20 12 53 12q43 -1 70 -29t27 -90t-41 -131l-83 -137h129v-60z" />
    <glyph glyph-name="threesuperior" unicode="&#xb3;" horiz-adv-x="250" 
d="M224 376q0 -31 -6 -51q-10 -29 -33 -45t-35.5 -18t-24.5 -2q-31 -1 -56 10q-27 14 -38 34t-11 60v43h63v-23v-10.5v-12t1 -11t3 -11.5t5.5 -9t10 -7t14.5 -2q19 0 28.5 11t10.5 23.5t1 41.5v12q0 29 -9 43.5t-39 14.5q-4 0 -12 -0.5t-13 -0.5v62q4 0 11 -0.5t11 -0.5
q23 0 34.5 11t11.5 44q0 26 -1 37.5t-8.5 21.5t-22.5 10q-30 0 -30 -57v-23h-63v28v4q-2 109 95 109q96 0 96 -120q0 -53 -12 -71q-8 -12 -23 -22q15 -7 23 -17q18 -23 18 -106z" />
    <glyph glyph-name="acute" unicode="&#xb4;" horiz-adv-x="229" 
d="M196 671l-98 -107h-65l53 107h110z" />
    <glyph glyph-name="mu" unicode="&#xb5;" 
d="M355 0h-101v47q-22 -33 -37.5 -44.5t-37.5 -11.5q-29 0 -55 26v-176h-80v659h80v-346q0 -52 8 -72q13 -31 53 -31q35 0 51 27t16 87v335h79v-419q0 -34 5 -50.5t19 -30.5z" />
    <glyph glyph-name="paragraph" unicode="&#xb6;" horiz-adv-x="632" 
d="M499 643h-34v-810h-58v810h-121v-810h-58v486q-142 36 -142 187q0 96 59 150q31 29 69 39.5t109 10.5h176v-63z" />
    <glyph glyph-name="periodcentered" unicode="&#xb7;" horiz-adv-x="167" 
d="M126 209h-85v118h85v-118z" />
    <glyph glyph-name="cedilla" unicode="&#xb8;" horiz-adv-x="229" 
d="M208 -128q0 -20 -13 -42q-31 -47 -96 -47q-35 0 -78 20l13 24q37 -14 55 -14q21 0 39.5 14t18.5 36q0 16 -11.5 27.5t-27.5 10.5q-13 0 -30 -13l-21 8l37 109h28l-28 -79q28 10 45 10q29 0 49 -17.5t20 -46.5z" />
    <glyph glyph-name="onesuperior" unicode="&#xb9;" horiz-adv-x="250" 
d="M164 265h-68v335h-70v55h11.5h14t12.5 1t13 2.5t10.5 5t9.5 8.5t5.5 12.5t2.5 16.5v5h59v-441z" />
    <glyph glyph-name="ordmasculine" unicode="&#xba;" horiz-adv-x="229" 
d="M206 554q0 -41 -1 -65q-2 -59 -28 -82q-23 -20 -64 -19q-35 1 -51 11q-25 15 -32 37.5t-7 71.5v46q0 40 1 64q1 14 2 20.5t6 23.5t13.5 25.5t26.5 16.5t42 8q17 0 30.5 -3t23 -9.5t16.5 -12.5t11 -18l6.5 -19.5t3.5 -23t1.5 -21.5t0 -23t-0.5 -21v-7zM143 555
q0 10 -0.5 29.5t-0.5 29.5q0 13 -0.5 20.5t-7.5 16.5t-20 9q-15 0 -23 -16q-4 -6 -4 -89q0 -97 6 -105q9 -13 21 -13q7 0 12 2.5t8 7t4.5 8.5t1.5 8l1 4l1 16q0 16 0.5 37t0.5 35z" />
    <glyph glyph-name="guillemotright" unicode="&#xbb;" horiz-adv-x="354" 
d="M332 238l-140 -158v117l74 84l-74 83v116l140 -156v-86zM170 238l-140 -158v117l74 84l-74 83v116l140 -156v-86z" />
    <glyph glyph-name="onequarter" unicode="&#xbc;" horiz-adv-x="625" 
d="M606 96h-38v-96h-64v96h-111v67l88 279h87v-287h38v-59zM509 706l-344 -706h-49l347 706h46zM164 265h-68v335h-70v55h11.5h14t12.5 1t13 2.5t10.5 5t9.5 8.5t5.5 12.5t2.5 16.5v5h59v-441zM505 339l-56 -184h55z" />
    <glyph glyph-name="onehalf" unicode="&#xbd;" horiz-adv-x="625" 
d="M600 0h-203v60l89 151q3 6 10.5 18.5t10 16t7.5 13t6.5 13.5t4 12t3 14.5t1.5 15.5t1 19v3q0 48 -34 48q-15 0 -22.5 -11t-8 -18.5t-0.5 -23.5v-56h-63v60q0 41 9.5 63.5t33.5 36.5q20 12 53 12q43 -1 70 -29t27 -90t-41 -131l-83 -137h129v-60zM495 706l-344 -706h-49
l348 706h45zM164 265h-68v335h-70v55h11.5h14t12.5 1t13 2.5t10.5 5t9.5 8.5t5.5 12.5t2.5 16.5v5h59v-441z" />
    <glyph glyph-name="threequarters" unicode="&#xbe;" horiz-adv-x="625" 
d="M606 96h-38v-96h-64v96h-111v67l88 279h87v-287h38v-59zM525 706l-344 -706h-49l348 706h45zM224 376q0 -31 -6 -51q-10 -29 -33 -45t-35.5 -18t-24.5 -2q-31 -1 -56 10q-27 14 -38 34t-11 60v43h63v-23v-10.5v-12t1 -11t3 -11.5t5.5 -9t10 -7t14.5 -2q19 0 28.5 11
t10.5 23.5t1 41.5v12q0 29 -9 43.5t-39 14.5q-4 0 -12 -0.5t-13 -0.5v62q4 0 11 -0.5t11 -0.5q23 0 34.5 11t11.5 44q0 26 -1 37.5t-8.5 21.5t-22.5 10q-30 0 -30 -57v-23h-63v28v4q-2 109 95 109q96 0 96 -120q0 -53 -12 -71q-8 -12 -23 -22q15 -7 23 -17q18 -23 18 -106z
M505 339l-56 -184h55z" />
    <glyph glyph-name="questiondown" unicode="&#xbf;" horiz-adv-x="396" 
d="M216 589h-85v117h85v-117zM338 140q0 -53 -15 -83q-17 -34 -54 -50.5t-79 -16.5q-47 0 -85 20q-21 11 -35.5 29t-21 30.5t-9.5 35.5t-3 26.5v21.5q0 55 4 81q3 16 9 31t11 24t22 35.5t26 41.5q16 27 18 31q16 32 16 75q0 8 -0.5 23t-0.5 22h66v-39q0 -54 -7.5 -82.5
t-44.5 -95.5q-17 -31 -21 -41q-12 -27 -13 -85q0 -5 -0.5 -15t-0.5 -15q0 -16 5 -30q16 -45 69 -45q21 0 38 10q28 16 28 71v91h78v-101z" />
    <glyph glyph-name="Agrave" unicode="&#xc0;" horiz-adv-x="396" 
d="M243 764h-65l-97 107h109zM396 0h-92l-25 136h-164l-24 -136h-91l152 706h88zM264 212l-69 363l-65 -363h134z" />
    <glyph glyph-name="Aacute" unicode="&#xc1;" horiz-adv-x="396" 
d="M316 871l-98 -107h-64l53 107h109zM396 0h-92l-25 136h-164l-24 -136h-91l152 706h88zM264 212l-69 363l-65 -363h134z" />
    <glyph glyph-name="Acircumflex" unicode="&#xc2;" horiz-adv-x="396" 
d="M335 764h-88l-53 60l-57 -60h-67l101 107h65zM396 0h-92l-25 136h-164l-24 -136h-91l152 706h88zM264 212l-69 363l-65 -363h134z" />
    <glyph glyph-name="Atilde" unicode="&#xc3;" horiz-adv-x="396" 
d="M325 858q-1 -17 -6 -34q-19 -55 -69 -55q-20 0 -79 23l-6 2q-6 2 -14.5 4t-14.5 2q-23 0 -28 -31h-35q0 45 27 70q12 11 25 16q9 4 23 4q25 0 76 -21q26 -10 38 -10q23 0 27 30h36zM396 0h-92l-25 136h-164l-24 -136h-91l152 706h88zM264 212l-69 363l-65 -363h134z" />
    <glyph glyph-name="Adieresis" unicode="&#xc4;" horiz-adv-x="396" 
d="M329 764h-83v107h83v-107zM151 764h-83v107h83v-107zM396 0h-92l-25 136h-164l-24 -136h-91l152 706h88zM264 212l-69 363l-65 -363h134z" />
    <glyph glyph-name="Aring" unicode="&#xc5;" horiz-adv-x="396" 
d="M279 828q0 -33 -23.5 -56.5t-57.5 -23.5q-33 0 -56.5 23.5t-23.5 56.5t24 56.5t57 23.5t56.5 -23.5t23.5 -56.5zM396 0h-92l-25 136h-164l-24 -136h-91l152 706h88zM235 829q0 15 -10.5 25.5t-26.5 10.5q-15 0 -26 -11t-10 -26q0 -14 11 -25t26 -11t25.5 10.5t10.5 26.5z
M264 212l-69 363l-65 -363h134z" />
    <glyph glyph-name="AE" unicode="&#xc6;" horiz-adv-x="625" 
d="M605 0h-308v155h-153l-52 -155h-92l249 706h343v-79h-208v-210h178v-80h-178v-258h221v-79zM297 231v386l-127 -386h127z" />
    <glyph glyph-name="Ccedilla" unicode="&#xc7;" horiz-adv-x="417" 
d="M380 225q0 -52 -1 -75.5t-6 -49.5t-17 -46q-18 -32 -62 -50q-29 -11 -69 -15l-12 1l-20 -58q24 10 45 10q28 0 48 -17.5t20 -46.5q0 -31 -27.5 -59.5t-78.5 -29.5q-36 -1 -80 20l13 24q28 -14 54 -14q28 0 43 16.5t15 32.5t-11.5 27.5t-27.5 11.5q-17 0 -30 -13l-20 7
l29 89q-95 18 -125 94q-6 15 -9.5 39t-5 72t-1.5 70v92q0 86 0.5 118.5t4.5 77.5t13 69q15 40 47 63q45 32 112 32q54 0 96 -27q35 -24 47 -59.5t12 -102.5q0 -28 -1 -44h-81v26q0 74 -9 95q-8 16 -22 27q-15 11 -42 11q-21 0 -36.5 -6t-24 -17t-13 -20t-7.5 -22
q-9 -37 -9 -227q0 -181 6 -217q0 -20 13 -38q24 -32 69 -32q25 0 44 12q15 11 23 29.5t9 32t2 40.5q1 16 1 44v26h82v-23z" />
    <glyph glyph-name="Egrave" unicode="&#xc8;" horiz-adv-x="396" 
d="M243 764h-65l-97 107h109zM368 0h-318v706h311v-79h-223v-210h195v-80h-195v-258h230v-79z" />
    <glyph glyph-name="Eacute" unicode="&#xc9;" horiz-adv-x="396" 
d="M316 871l-98 -107h-64l53 107h109zM368 0h-318v706h311v-79h-223v-210h195v-80h-195v-258h230v-79z" />
    <glyph glyph-name="Ecircumflex" unicode="&#xca;" horiz-adv-x="396" 
d="M329 764h-87l-53 60l-58 -60h-66l101 107h65zM368 0h-318v706h311v-79h-223v-210h195v-80h-195v-258h230v-79z" />
    <glyph glyph-name="Edieresis" unicode="&#xcb;" horiz-adv-x="396" 
d="M329 764h-83v107h83v-107zM151 764h-83v107h83v-107zM368 0h-318v706h311v-79h-223v-210h195v-80h-195v-258h230v-79z" />
    <glyph glyph-name="Igrave" unicode="&#xcc;" horiz-adv-x="187" 
d="M139 764h-65l-97 107h109zM137 0h-87v706h87v-706z" />
    <glyph glyph-name="Iacute" unicode="&#xcd;" horiz-adv-x="187" 
d="M212 871l-98 -107h-64l53 107h109zM137 0h-87v706h87v-706z" />
    <glyph glyph-name="Icircumflex" unicode="&#xce;" horiz-adv-x="187" 
d="M225 764h-87l-53 60l-58 -60h-67l102 107h65zM137 0h-87v706h87v-706z" />
    <glyph glyph-name="Idieresis" unicode="&#xcf;" horiz-adv-x="187" 
d="M225 764h-83v107h83v-107zM47 764h-83v107h83v-107zM137 0h-87v706h87v-706z" />
    <glyph glyph-name="Eth" unicode="&#xd0;" horiz-adv-x="437" 
d="M393 248q0 -73 -2 -97q-2 -26 -7 -42q-24 -82 -104 -103q-26 -6 -98 -6h-132v355h-49v64h49v287h133q28 0 40 -0.5t39 -3t41.5 -9.5t33.5 -19t31 -32.5t18 -48.5q4 -21 6 -94q1 -36 1 -98v-153zM307 332q0 215 -9 242q-7 22 -20 33q-23 18 -95 18h-45v-206h88v-64h-88
v-277h43q63 0 87 11.5t33 54.5q6 30 6 188z" />
    <glyph glyph-name="Ntilde" unicode="&#xd1;" horiz-adv-x="437" 
d="M346 858q-2 -22 -6 -34q-8 -25 -26 -40t-43 -15q-19 0 -80 23l-6 2q-6 2 -14 4t-14 2q-10 0 -16 -5t-8 -10t-4 -16h-36q4 49 28 70q11 11 25 16q9 4 23 4q25 0 76 -21q26 -10 38 -10q23 0 27 30h36zM387 0h-124l-138 612l12 -612h-87v706h121l143 -618l-12 618h85v-706z
" />
    <glyph glyph-name="Ograve" unicode="&#xd2;" horiz-adv-x="437" 
d="M263 764h-64l-97 107h109zM394 363q0 -24 -2 -67.5t-2 -57.5q0 -21 -2 -63q-9 -109 -53 -148q-43 -37 -122 -37q-97 0 -137 57q-14 19 -21 45q-11 39 -11 223q0 63 2 191q3 108 38 153q46 58 143 58q108 0 145 -78q14 -28 17 -63q8 -67 5 -213zM304 363q0 98 -1 147
q0 74 -14 98q-20 35 -68 35q-31 0 -52 -17q-23 -19 -29 -51.5t-6 -104.5v-49q0 -136 1 -204q0 -81 7 -103q17 -52 76 -52q51 0 69 41q14 31 16 166q1 31 1 94z" />
    <glyph glyph-name="Oacute" unicode="&#xd3;" horiz-adv-x="437" 
d="M337 871l-98 -107h-64l53 107h109zM394 363q0 -24 -2 -67.5t-2 -57.5q0 -21 -2 -63q-9 -109 -53 -148q-43 -37 -122 -37q-97 0 -137 57q-14 19 -21 45q-11 39 -11 223q0 63 2 191q3 108 38 153q46 58 143 58q108 0 145 -78q14 -28 17 -63q8 -67 5 -213zM304 363
q0 98 -1 147q0 74 -14 98q-20 35 -68 35q-31 0 -52 -17q-23 -19 -29 -51.5t-6 -104.5v-49q0 -136 1 -204q0 -81 7 -103q17 -52 76 -52q51 0 69 41q14 31 16 166q1 31 1 94z" />
    <glyph glyph-name="Ocircumflex" unicode="&#xd4;" horiz-adv-x="437" 
d="M350 764h-87l-53 60l-58 -60h-67l102 107h65zM394 363q0 -24 -2 -67.5t-2 -57.5q0 -21 -2 -63q-9 -109 -53 -148q-43 -37 -122 -37q-97 0 -137 57q-14 19 -21 45q-11 39 -11 223q0 63 2 191q3 108 38 153q46 58 143 58q108 0 145 -78q14 -28 17 -63q8 -67 5 -213z
M304 363q0 98 -1 147q0 74 -14 98q-20 35 -68 35q-31 0 -52 -17q-23 -19 -29 -51.5t-6 -104.5v-49q0 -136 1 -204q0 -81 7 -103q17 -52 76 -52q51 0 69 41q14 31 16 166q1 31 1 94z" />
    <glyph glyph-name="Otilde" unicode="&#xd5;" horiz-adv-x="437" 
d="M346 858q-2 -22 -6 -34q-8 -25 -26 -40t-43 -15q-19 0 -80 23l-6 2q-6 2 -14 4t-14 2q-10 0 -16 -5t-8 -10t-4 -16h-36q4 49 28 70q11 11 25 16q9 4 23 4q25 0 76 -21q26 -10 38 -10q23 0 27 30h36zM394 363q0 -24 -2 -67.5t-2 -57.5q0 -21 -2 -63q-9 -109 -53 -148
q-43 -37 -122 -37q-97 0 -137 57q-14 19 -21 45q-11 39 -11 223q0 63 2 191q3 108 38 153q46 58 143 58q108 0 145 -78q14 -28 17 -63q8 -67 5 -213zM304 363q0 98 -1 147q0 74 -14 98q-20 35 -68 35q-31 0 -52 -17q-23 -19 -29 -51.5t-6 -104.5v-49q0 -136 1 -204
q0 -81 7 -103q17 -52 76 -52q51 0 69 41q14 31 16 166q1 31 1 94z" />
    <glyph glyph-name="Odieresis" unicode="&#xd6;" horiz-adv-x="437" 
d="M350 764h-83v107h83v-107zM172 764h-83v107h83v-107zM394 363q0 -24 -2 -67.5t-2 -57.5q0 -21 -2 -63q-9 -109 -53 -148q-43 -37 -122 -37q-97 0 -137 57q-14 19 -21 45q-11 39 -11 223q0 63 2 191q3 108 38 153q46 58 143 58q108 0 145 -78q14 -28 17 -63q8 -67 5 -213z
M304 363q0 98 -1 147q0 74 -14 98q-20 35 -68 35q-31 0 -52 -17q-23 -19 -29 -51.5t-6 -104.5v-49q0 -136 1 -204q0 -81 7 -103q17 -52 76 -52q51 0 69 41q14 31 16 166q1 31 1 94z" />
    <glyph glyph-name="multiply" unicode="&#xd7;" horiz-adv-x="558" 
d="M447 184l-55 -59l-114 118l-105 -118l-53 48l109 121l-120 123l58 56l116 -119l108 120l51 -50l-110 -121z" />
    <glyph glyph-name="Oslash" unicode="&#xd8;" horiz-adv-x="437" 
d="M402 696l-28 -57q9 -23 11 -33q10 -41 10 -211q0 -36 -2 -108q-3 -103 -3 -104q-7 -117 -58 -159q-42 -34 -119 -34q-70 0 -112 31q-11 9 -24 24l-22 -45l-37 20l37 74q-11 64 -11 191q0 68 2 202q1 111 27 155q45 75 150 75q62 0 102 -24q7 -5 21 -16l20 38zM299 582
q-5 21 -13 33q-21 28 -64 28q-60 0 -78 -56q-10 -31 -10 -181v-153zM306 428q0 13 -0.5 37.5t-0.5 36.5l-170 -339q2 -66 35 -88q21 -13 49 -13q67 0 78 73q3 19 7 163q2 88 2 130z" />
    <glyph glyph-name="Ugrave" unicode="&#xd9;" horiz-adv-x="437" 
d="M263 764h-64l-97 107h109zM390 179q0 -62 -13 -102.5t-58 -64.5q-40 -22 -102 -22q-87 0 -129 41q-18 18 -29 48q-12 35 -12 97v530h89v-468q0 -108 8 -128q11 -29 42 -39q15 -5 35 -5q44 0 64 26q9 12 12 25q4 19 4 87v502h89v-527z" />
    <glyph glyph-name="Uacute" unicode="&#xda;" horiz-adv-x="437" 
d="M337 871l-98 -107h-64l53 107h109zM390 179q0 -62 -13 -102.5t-58 -64.5q-40 -22 -102 -22q-87 0 -129 41q-18 18 -29 48q-12 35 -12 97v530h89v-468q0 -108 8 -128q11 -29 42 -39q15 -5 35 -5q44 0 64 26q9 12 12 25q4 19 4 87v502h89v-527z" />
    <glyph glyph-name="Ucircumflex" unicode="&#xdb;" horiz-adv-x="437" 
d="M350 764h-87l-53 60l-58 -60h-67l102 107h65zM390 179q0 -62 -13 -102.5t-58 -64.5q-40 -22 -102 -22q-87 0 -129 41q-18 18 -29 48q-12 35 -12 97v530h89v-468q0 -108 8 -128q11 -29 42 -39q15 -5 35 -5q44 0 64 26q9 12 12 25q4 19 4 87v502h89v-527z" />
    <glyph glyph-name="Udieresis" unicode="&#xdc;" horiz-adv-x="437" 
d="M350 764h-83v107h83v-107zM172 764h-83v107h83v-107zM390 179q0 -62 -13 -102.5t-58 -64.5q-40 -22 -102 -22q-87 0 -129 41q-18 18 -29 48q-12 35 -12 97v530h89v-468q0 -108 8 -128q11 -29 42 -39q15 -5 35 -5q44 0 64 26q9 12 12 25q4 19 4 87v502h89v-527z" />
    <glyph glyph-name="Yacute" unicode="&#xdd;" horiz-adv-x="396" 
d="M326 871l-97 -107h-65l53 107h109zM396 706l-155 -420v-286h-91v286l-150 420h93l105 -353l105 353h93z" />
    <glyph glyph-name="Thorn" unicode="&#xde;" horiz-adv-x="417" 
d="M390 374q0 -54 -9 -91.5t-23.5 -59t-39 -33t-48.5 -15t-60 -3.5h-72v-172h-88v706h88v-117h57q67 0 101.5 -10.5t60.5 -43.5q7 -9 12 -19.5t8.5 -19t6 -22t4 -20t2 -22t0.5 -19.5v-21v-18zM303 369q0 65 -8.5 93t-42.5 40q-18 6 -68 6h-46v-258h59q47 0 59 5
q17 7 27 15.5t14 25t5 30t1 43.5z" />
    <glyph glyph-name="germandbls" unicode="&#xdf;" horiz-adv-x="396" 
d="M350 249q0 -27 -2 -81q-2 -58 -11 -84q-20 -61 -79 -80q-20 -7 -48 -7q-18 0 -41 4v68q21 -5 34 -5q39 0 53 31q12 28 12 117q0 50 -3 101q-3 55 -15 73q-16 24 -59 24q-3 0 -11 -0.5t-11 -0.5v71q54 0 68 15t14 60q0 40 -9 58q-14 29 -55 29q-34 0 -49 -20q-6 -8 -9 -19
q-4 -14 -4 -88v-515h-81v565q0 81 39 112q36 32 103 32q105 0 133 -75q10 -24 10 -76q0 -31 -6.5 -52t-20 -32t-24.5 -16t-29 -10q25 -5 39 -12q49 -22 56 -81q6 -34 6 -106z" />
    <glyph glyph-name="agrave" unicode="&#xe0;" horiz-adv-x="354" 
d="M228 564h-64l-98 107h109zM333 0h-98v60q-33 -69 -104 -69q-33 0 -60 16q-52 31 -52 114q0 66 40 106q10 11 22 19.5t35 24t41 27.5q34 24 73 60v17q0 70 -61 70q-18 0 -30.5 -6.5t-18 -12t-8.5 -19.5t-3 -17v-16q0 -12 2 -38h-73q0 29 1 43q1 23 1.5 33.5t6.5 26
t17 28.5q36 42 113 42q66 0 101 -36q15 -16 25 -42q6 -20 6 -85v-240q0 -71 9 -89q2 -5 15 -17zM230 162v123q-10 -10 -28 -26q-16 -12 -25 -18q-41 -31 -52 -44q-24 -31 -24 -73q0 -75 55 -74q32 0 55 29q19 25 19 83z" />
    <glyph glyph-name="aacute" unicode="&#xe1;" horiz-adv-x="354" 
d="M295 671l-98 -107h-64l53 107h109zM333 0h-98v60q-33 -69 -104 -69q-33 0 -60 16q-52 31 -52 114q0 66 40 106q10 11 22 19.5t35 24t41 27.5q34 24 73 60v17q0 70 -61 70q-18 0 -30.5 -6.5t-18 -12t-8.5 -19.5t-3 -17v-16q0 -12 2 -38h-73q0 29 1 43q1 23 1.5 33.5
t6.5 26t17 28.5q36 42 113 42q66 0 101 -36q15 -16 25 -42q6 -20 6 -85v-240q0 -71 9 -89q2 -5 15 -17zM230 162v123q-10 -10 -28 -26q-16 -12 -25 -18q-41 -31 -52 -44q-24 -31 -24 -73q0 -75 55 -74q32 0 55 29q19 25 19 83z" />
    <glyph glyph-name="acircumflex" unicode="&#xe2;" horiz-adv-x="354" 
d="M314 563h-87l-54 63l-57 -63h-67l102 110h65zM333 0h-98v60q-33 -69 -104 -69q-33 0 -60 16q-52 31 -52 114q0 66 40 106q10 11 22 19.5t35 24t41 27.5q34 24 73 60v17q0 70 -61 70q-18 0 -30.5 -6.5t-18 -12t-8.5 -19.5t-3 -17v-16q0 -12 2 -38h-73q0 29 1 43
q1 23 1.5 33.5t6.5 26t17 28.5q36 42 113 42q66 0 101 -36q15 -16 25 -42q6 -20 6 -85v-240q0 -71 9 -89q2 -5 15 -17zM230 162v123q-10 -10 -28 -26q-16 -12 -25 -18q-41 -31 -52 -44q-24 -31 -24 -73q0 -75 55 -74q32 0 55 29q19 25 19 83z" />
    <glyph glyph-name="atilde" unicode="&#xe3;" horiz-adv-x="354" 
d="M304 658q-1 -21 -5 -34q-3 -10 -9 -20t-22.5 -22.5t-38.5 -12.5q-11 0 -25 4t-32 10.5t-23 8.5q-23 8 -34 8q-5 0 -9.5 -1.5t-7 -4t-4.5 -5t-3 -6t-1.5 -5.5l-1.5 -6v-3h-36q0 44 27 70q14 12 25 16q12 4 23 4q21 0 76 -21q26 -10 39 -10q22 0 26 30h36zM333 0h-98v60
q-33 -69 -104 -69q-33 0 -60 16q-52 31 -52 114q0 66 40 106q10 11 22 19.5t35 24t41 27.5q34 24 73 60v17q0 70 -61 70q-18 0 -30.5 -6.5t-18 -12t-8.5 -19.5t-3 -17v-16q0 -12 2 -38h-73q0 29 1 43q1 23 1.5 33.5t6.5 26t17 28.5q36 42 113 42q66 0 101 -36q15 -16 25 -42
q6 -20 6 -85v-240q0 -71 9 -89q2 -5 15 -17zM230 162v123q-10 -10 -28 -26q-16 -12 -25 -18q-41 -31 -52 -44q-24 -31 -24 -73q0 -75 55 -74q32 0 55 29q19 25 19 83z" />
    <glyph glyph-name="adieresis" unicode="&#xe4;" horiz-adv-x="354" 
d="M290 563h-77v103h77v-103zM136 563h-79v103h79v-103zM333 0h-98v60q-33 -69 -104 -69q-33 0 -60 16q-52 31 -52 114q0 66 40 106q10 11 22 19.5t35 24t41 27.5q34 24 73 60v17q0 70 -61 70q-18 0 -30.5 -6.5t-18 -12t-8.5 -19.5t-3 -17v-16q0 -12 2 -38h-73q0 29 1 43
q1 23 1.5 33.5t6.5 26t17 28.5q36 42 113 42q66 0 101 -36q15 -16 25 -42q6 -20 6 -85v-240q0 -71 9 -89q2 -5 15 -17zM230 162v123q-10 -10 -28 -26q-16 -12 -25 -18q-41 -31 -52 -44q-24 -31 -24 -73q0 -75 55 -74q32 0 55 29q19 25 19 83z" />
    <glyph glyph-name="aring" unicode="&#xe5;" horiz-adv-x="354" 
d="M255 628q0 -33 -24 -56.5t-57 -23.5t-56.5 24t-23.5 57t23.5 56.5t57.5 23.5q33 0 57 -23.5t23 -57.5zM333 0h-98v60q-33 -69 -104 -69q-33 0 -60 16q-52 31 -52 114q0 66 40 106q10 11 22 19.5t35 24t41 27.5q34 24 73 60v17q0 70 -61 70q-18 0 -30.5 -6.5t-18 -12
t-8.5 -19.5t-3 -17v-16q0 -12 2 -38h-73q0 29 1 43q1 23 1.5 33.5t6.5 26t17 28.5q36 42 113 42q66 0 101 -36q15 -16 25 -42q6 -20 6 -85v-240q0 -71 9 -89q2 -5 15 -17zM211 629q0 14 -8 22.5t-15.5 11t-13.5 2.5q-8 0 -13 -2q-23 -10 -23 -34q0 -16 10.5 -26t26.5 -10
q14 0 25 10.5t11 25.5zM230 162v123q-10 -10 -28 -26q-16 -12 -25 -18q-41 -31 -52 -44q-24 -31 -24 -73q0 -75 55 -74q32 0 55 29q19 25 19 83z" />
    <glyph glyph-name="ae" unicode="&#xe6;" horiz-adv-x="542" 
d="M505 145q0 -49 -11 -78q-11 -31 -42.5 -53.5t-86.5 -22.5q-66 0 -109 47q-28 -26 -50 -36.5t-56 -10.5q-45 0 -71.5 20.5t-36.5 46.5q-9 22 -9 60q0 63 31 99q8 10 19 19t20 15t29 19.5t35 23.5q13 10 69 53v32q0 66 -56 66q-21 0 -35 -11q-23 -19 -23 -81v-16h-73v22
t0.5 26t2 23t5 25.5t8.5 21.5q28 54 110 54q46 0 77 -17q13 -9 22 -16q5 4 12 8.5t8 5.5q33 19 77 19q45 0 78 -21q17 -11 28.5 -26.5t17 -27.5t8 -36.5t2.5 -33v-37.5v-91h-195v-111q0 -40 18 -56.5t43 -16.5q19 0 31 9q26 17 26 62q1 9 1 26v13h76v-17zM430 301v53
q0 36 -6 54q-13 39 -56 39q-20 0 -35 -12q-9 -7 -14 -15.5t-7 -23.5t-2 -19v-23v-53h120zM236 154l-1 115q-24 -18 -37 -27q-3 -2 -16.5 -11.5t-17 -12t-14 -11.5t-14 -13.5l-10.5 -13.5t-9 -16.5t-4.5 -18t-2.5 -22.5q0 -29 15 -48.5t43 -19.5q35 0 54 29q14 20 14 70z" />
    <glyph glyph-name="ccedilla" unicode="&#xe7;" horiz-adv-x="354" 
d="M320 172q0 -81 -16 -113q-35 -68 -118 -68l-19 -59q23 10 45 10q28 0 47.5 -17.5t20.5 -46.5q0 -32 -27.5 -60t-79.5 -29q-35 -1 -79 20l12 24q30 -14 55 -14q28 0 42.5 16t14.5 33q1 16 -10.5 27.5t-27.5 11.5q-17 0 -30 -13l-21 7l31 90q-23 3 -40.5 8t-30.5 15t-22 19
t-15 28t-9 32.5t-4.5 41t-2 46t-0.5 54.5q0 41 0.5 63t2 53.5t5.5 48t11 38t17.5 32t26 21t36 14.5t47.5 4q38 0 64.5 -10t40.5 -24.5t22 -40t9.5 -46.5t1.5 -54v-15h-76q0 81 -10 101q-12 28 -51 29q-48 1 -61 -47q-6 -23 -6 -137v-15q0 -126 4 -143q0 -17 12 -31
q16 -22 46 -22q41 -1 53.5 28t12.5 92v12h76v-14z" />
    <glyph glyph-name="egrave" unicode="&#xe8;" horiz-adv-x="354" 
d="M228 564h-64l-98 107h109zM318 155q1 -27 0 -43t-8 -37.5t-21 -38.5q-37 -45 -110 -45q-91 0 -125 67q-5 9 -8 19t-4.5 17t-2.5 22t-1.5 22t-0.5 30v34q-1 31 -1 93q0 47 4 86q5 41 15 62.5t28 36.5q34 28 92 28q62 0 96 -27q19 -14 30 -35q5 -9 8.5 -21.5t5 -21t2.5 -26
t1 -22.5v-25v-21v-74h-201q-2 -44 0 -88q1 -34 5 -47q13 -44 60 -44q23 0 37 11q25 19 24 88h75zM243 299v21q0 39 -1 58q-4 69 -62 69q-38 0 -53 -32q-10 -22 -10 -95v-21h126z" />
    <glyph glyph-name="eacute" unicode="&#xe9;" horiz-adv-x="354" 
d="M295 671l-98 -107h-64l53 107h109zM318 155q1 -27 0 -43t-8 -37.5t-21 -38.5q-37 -45 -110 -45q-91 0 -125 67q-5 9 -8 19t-4.5 17t-2.5 22t-1.5 22t-0.5 30v34q-1 31 -1 93q0 47 4 86q5 41 15 62.5t28 36.5q34 28 92 28q62 0 96 -27q19 -14 30 -35q5 -9 8.5 -21.5t5 -21
t2.5 -26t1 -22.5v-25v-21v-74h-201q-2 -44 0 -88q1 -34 5 -47q13 -44 60 -44q23 0 37 11q25 19 24 88h75zM243 299v21q0 39 -1 58q-4 69 -62 69q-38 0 -53 -32q-10 -22 -10 -95v-21h126z" />
    <glyph glyph-name="ecircumflex" unicode="&#xea;" horiz-adv-x="354" 
d="M314 563h-87l-54 63l-57 -63h-67l102 110h65zM318 155q1 -27 0 -43t-8 -37.5t-21 -38.5q-37 -45 -110 -45q-91 0 -125 67q-5 9 -8 19t-4.5 17t-2.5 22t-1.5 22t-0.5 30v34q-1 31 -1 93q0 47 4 86q5 41 15 62.5t28 36.5q34 28 92 28q62 0 96 -27q19 -14 30 -35
q5 -9 8.5 -21.5t5 -21t2.5 -26t1 -22.5v-25v-21v-74h-201q-2 -44 0 -88q1 -34 5 -47q13 -44 60 -44q23 0 37 11q25 19 24 88h75zM243 299v21q0 39 -1 58q-4 69 -62 69q-38 0 -53 -32q-10 -22 -10 -95v-21h126z" />
    <glyph glyph-name="edieresis" unicode="&#xeb;" horiz-adv-x="354" 
d="M294 563h-78v103h78v-103zM140 563h-79v103h79v-103zM318 155q1 -27 0 -43t-8 -37.5t-21 -38.5q-37 -45 -110 -45q-91 0 -125 67q-5 9 -8 19t-4.5 17t-2.5 22t-1.5 22t-0.5 30v34q-1 31 -1 93q0 47 4 86q5 41 15 62.5t28 36.5q34 28 92 28q62 0 96 -27q19 -14 30 -35
q5 -9 8.5 -21.5t5 -21t2.5 -26t1 -22.5v-25v-21v-74h-201q-2 -44 0 -88q1 -34 5 -47q13 -44 60 -44q23 0 37 11q25 19 24 88h75zM243 299v21q0 39 -1 58q-4 69 -62 69q-38 0 -53 -32q-10 -22 -10 -95v-21h126z" />
    <glyph glyph-name="igrave" unicode="&#xec;" horiz-adv-x="167" 
d="M134 564h-64l-98 107h109zM123 0h-79v500h79v-500z" />
    <glyph glyph-name="iacute" unicode="&#xed;" horiz-adv-x="167" 
d="M201 671l-97 -107h-65l53 107h109zM123 0h-79v500h79v-500z" />
    <glyph glyph-name="icircumflex" unicode="&#xee;" horiz-adv-x="167" 
d="M220 563h-87l-53 63l-58 -63h-67l102 110h65zM123 0h-79v500h79v-500z" />
    <glyph glyph-name="idieresis" unicode="&#xef;" horiz-adv-x="167" 
d="M200 563h-77v103h77v-103zM46 563h-79v103h79v-103zM123 0h-79v500h79v-500z" />
    <glyph glyph-name="eth" unicode="&#xf0;" horiz-adv-x="354" 
d="M334 622l-56 -17q20 -36 20 -50q10 -25 15 -63.5t5.5 -70.5t0.5 -104v-29q0 -56 -3 -126q-1 -42 -5 -66t-17 -51t-41.5 -40t-73.5 -14q-23 0 -42.5 3.5t-33 10t-25 17t-18.5 19.5t-12 23t-7.5 23.5t-3.5 24t-1 21v18v12.5v67q0 129 4 160q4 22 8 35q14 41 42 62
q30 24 71 24q44 0 79 -42q-14 85 -30 115l-110 -34l-16 46l97 30q-25 30 -62 56l67 28q38 -29 55 -52l7 -10l69 22zM235 246v47q0 91 -8 115q-12 37 -48 36q-35 0 -51 -36q-8 -18 -8 -127q0 -146 2 -170q2 -20 7 -29q16 -29 45 -29q55 0 58 80q1 5 1 13v6q2 35 2 94z" />
    <glyph glyph-name="ntilde" unicode="&#xf1;" 
d="M314 658q-1 -21 -5 -34q-3 -10 -9 -20t-22.5 -22.5t-38.5 -12.5q-11 0 -23.5 3t-34 11.5t-22.5 8.5q-26 8 -34 8q-5 0 -9.5 -1.5t-7 -4t-4.5 -5t-3 -6t-1.5 -5.5l-1.5 -6v-3h-36q0 44 28 70q12 12 24 16q13 4 24 4q20 0 75 -21q26 -10 39 -10q26 0 26 30h36zM331 0h-81
v366q0 80 -59 80q-44 0 -60 -42q-7 -17 -7 -81v-323h-80v500h76v-46q1 1 7 8.5t10 11.5q41 35 91 35q60 0 86 -43q11 -18 14 -41t3 -73v-352z" />
    <glyph glyph-name="ograve" unicode="&#xf2;" horiz-adv-x="354" 
d="M228 564h-64l-98 107h109zM318 245q0 -64 -2 -96q-1 -37 -5 -56q-17 -102 -136 -102q-85 0 -118 55q-21 37 -21 115v65q0 87 2 130q2 82 36 117q32 36 107 36q38 0 65.5 -13t41 -28.5t21 -41.5t8.5 -38.5t1 -32.5q1 -55 0 -110zM235 246q0 73 -1 110q-1 19 -2 30t-6 27
t-16.5 23.5t-29.5 7.5q-44 0 -55 -47q-5 -21 -5 -124q0 -20 0.5 -60.5t0.5 -60.5q0 -48 5 -63q11 -35 49 -35q45 0 55 52q5 29 5 140z" />
    <glyph glyph-name="oacute" unicode="&#xf3;" horiz-adv-x="354" 
d="M295 671l-98 -107h-64l53 107h109zM318 245q0 -64 -2 -96q-1 -37 -5 -56q-17 -102 -136 -102q-85 0 -118 55q-21 37 -21 115v65q0 87 2 130q2 82 36 117q32 36 107 36q38 0 65.5 -13t41 -28.5t21 -41.5t8.5 -38.5t1 -32.5q1 -55 0 -110zM235 246q0 73 -1 110q-1 19 -2 30
t-6 27t-16.5 23.5t-29.5 7.5q-44 0 -55 -47q-5 -21 -5 -124q0 -20 0.5 -60.5t0.5 -60.5q0 -48 5 -63q11 -35 49 -35q45 0 55 52q5 29 5 140z" />
    <glyph glyph-name="ocircumflex" unicode="&#xf4;" horiz-adv-x="354" 
d="M314 563h-87l-54 63l-57 -63h-67l102 110h65zM318 245q0 -64 -2 -96q-1 -37 -5 -56q-17 -102 -136 -102q-85 0 -118 55q-21 37 -21 115v65q0 87 2 130q2 82 36 117q32 36 107 36q38 0 65.5 -13t41 -28.5t21 -41.5t8.5 -38.5t1 -32.5q1 -55 0 -110zM235 246q0 73 -1 110
q-1 19 -2 30t-6 27t-16.5 23.5t-29.5 7.5q-44 0 -55 -47q-5 -21 -5 -124q0 -20 0.5 -60.5t0.5 -60.5q0 -48 5 -63q11 -35 49 -35q45 0 55 52q5 29 5 140z" />
    <glyph glyph-name="otilde" unicode="&#xf5;" horiz-adv-x="354" 
d="M304 658q-1 -21 -5 -34q-3 -10 -9 -20t-22.5 -22.5t-38.5 -12.5q-11 0 -25 4t-32 10.5t-23 8.5q-23 8 -34 8q-5 0 -9.5 -1.5t-7 -4t-4.5 -5t-3 -6t-1.5 -5.5l-1.5 -6v-3h-36q0 44 27 70q14 12 25 16q12 4 23 4q21 0 76 -21q26 -10 39 -10q22 0 26 30h36zM318 245
q0 -64 -2 -96q-1 -37 -5 -56q-17 -102 -136 -102q-85 0 -118 55q-21 37 -21 115v65q0 87 2 130q2 82 36 117q32 36 107 36q38 0 65.5 -13t41 -28.5t21 -41.5t8.5 -38.5t1 -32.5q1 -55 0 -110zM235 246q0 73 -1 110q-1 19 -2 30t-6 27t-16.5 23.5t-29.5 7.5q-44 0 -55 -47
q-5 -21 -5 -124q0 -20 0.5 -60.5t0.5 -60.5q0 -48 5 -63q11 -35 49 -35q45 0 55 52q5 29 5 140z" />
    <glyph glyph-name="odieresis" unicode="&#xf6;" horiz-adv-x="354" 
d="M293 563h-77v103h77v-103zM139 563h-78v103h78v-103zM318 245q0 -64 -2 -96q-1 -37 -5 -56q-17 -102 -136 -102q-85 0 -118 55q-21 37 -21 115v65q0 87 2 130q2 82 36 117q32 36 107 36q38 0 65.5 -13t41 -28.5t21 -41.5t8.5 -38.5t1 -32.5q1 -55 0 -110zM235 246
q0 73 -1 110q-1 19 -2 30t-6 27t-16.5 23.5t-29.5 7.5q-44 0 -55 -47q-5 -21 -5 -124q0 -20 0.5 -60.5t0.5 -60.5q0 -48 5 -63q11 -35 49 -35q45 0 55 52q5 29 5 140z" />
    <glyph glyph-name="divide" unicode="&#xf7;" horiz-adv-x="559" 
d="M322 393h-83v102h82zM480 261h-401v73h401v-73zM322 99h-83v102h83v-102z" />
    <glyph glyph-name="oslash" unicode="&#xf8;" horiz-adv-x="354" 
d="M328 489l-27 -45q0 -2 2.5 -8.5t4.5 -11.5q10 -39 10 -136q0 -92 -2 -138q-2 -90 -38 -125q-34 -34 -101 -34q-57 0 -92 25q-7 5 -19 17l-21 -42l-31 22l31 57q-8 34 -9 89q-1 21 -1 63q0 41 2 121q0 91 37 130q35 36 107 36q54 0 83 -21q2 -1 15 -11l22 34zM231 393
q0 7 -5 19q-12 33 -48 32q-30 0 -46 -26q-2 -4 -4 -9.5t-3.5 -12.5t-2.5 -13.5t-1.5 -17t-1 -17.5t-0.5 -20.5v-21v-23v-23.5v-62zM235 281q0 30 -1 45l-112 -198q0 -24 2 -33q10 -41 50 -41q50 0 57 59q4 27 4 168z" />
    <glyph glyph-name="ugrave" unicode="&#xf9;" 
d="M238 564h-64l-98 107h109zM331 0h-77l-1 46q-43 -55 -106 -55q-38 0 -65 22q-19 16 -27.5 43t-9.5 48t-1 82v314h80v-328q0 -28 1 -42q0 -31 7 -46q14 -33 52 -33q23 0 39 13q18 14 23.5 37.5t5.5 72.5v326h79v-500z" />
    <glyph glyph-name="uacute" unicode="&#xfa;" 
d="M306 671l-98 -107h-64l52 107h110zM331 0h-77l-1 46q-43 -55 -106 -55q-38 0 -65 22q-19 16 -27.5 43t-9.5 48t-1 82v314h80v-328q0 -28 1 -42q0 -31 7 -46q14 -33 52 -33q23 0 39 13q18 14 23.5 37.5t5.5 72.5v326h79v-500z" />
    <glyph glyph-name="ucircumflex" unicode="&#xfb;" 
d="M324 563h-87l-53 63l-58 -63h-67l102 110h65zM331 0h-77l-1 46q-43 -55 -106 -55q-38 0 -65 22q-19 16 -27.5 43t-9.5 48t-1 82v314h80v-328q0 -28 1 -42q0 -31 7 -46q14 -33 52 -33q23 0 39 13q18 14 23.5 37.5t5.5 72.5v326h79v-500z" />
    <glyph glyph-name="udieresis" unicode="&#xfc;" 
d="M306 563h-77v103h77v-103zM152 563h-79v103h79v-103zM331 0h-77l-1 46q-43 -55 -106 -55q-38 0 -65 22q-19 16 -27.5 43t-9.5 48t-1 82v314h80v-328q0 -28 1 -42q0 -31 7 -46q14 -33 52 -33q23 0 39 13q18 14 23.5 37.5t5.5 72.5v326h79v-500z" />
    <glyph glyph-name="yacute" unicode="&#xfd;" horiz-adv-x="333" 
d="M285 671l-98 -107h-64l53 107h109zM320 500l-86 -436q-2 -12 -8.5 -47.5t-9 -46t-9.5 -35t-13.5 -35t-17.5 -24t-26 -23.5q-24 -16 -78 -16h-52v69q3 0 11 -0.5t12 -0.5q16 0 23.5 0.5t22 3t21.5 8.5t13 18t6 29q0 21 -10 61l-113 475h86l79 -402l64 402h85z" />
    <glyph glyph-name="thorn" unicode="&#xfe;" 
d="M339 290q0 -200 -20 -239q-26 -54 -94 -60q-60 -2 -99 51v-201h-82v865h79v-254q13 17 23 27t31.5 20t47.5 10q42 0 73 -27q20 -18 29 -48.5t10.5 -57.5t1.5 -86zM256 261q0 15 -0.5 43t-0.5 43t-0.5 22.5t-4 24t-9 26t-17 17.5t-27.5 8q-13 0 -23 -3t-17 -11
t-12.5 -15.5t-8.5 -20t-5.5 -21t-3 -23t-0.5 -20.5v-19.5v-14.5v-35q0 -143 10 -167q17 -43 57 -44q14 0 24 4t16.5 13t10.5 17t6 22t2.5 21t0.5 21v16q1 18 1.5 48t0.5 48z" />
    <glyph glyph-name="ydieresis" unicode="&#xff;" horiz-adv-x="333" 
d="M283 563h-77v103h77v-103zM129 563h-78v103h78v-103zM320 500l-86 -436q-2 -9 -5.5 -27t-5.5 -27q-7 -35 -11 -52.5t-16 -45.5t-29 -45q-31 -30 -95 -30h-52v69q27 -1 53 0q14 2 23.5 4.5t21 16t11.5 37.5q0 19 -10 61l-113 475h86l79 -402l64 402h85z" />
    <glyph glyph-name="OE" unicode="&#x152;" horiz-adv-x="646" 
d="M626 0h-256q-12 0 -72 -5q-72 -5 -85 -5q-66 0 -106 34q-40 32 -53 101q-10 55 -10 167q0 143 4 217q2 43 4.5 64t15 51.5t35.5 51.5q46 41 122 41q18 0 52 -4q6 0 19.5 -1.5t20.5 -2.5q28 -3 56 -3h242v-79h-209v-210h178v-80h-178v-258h220v-79zM321 247v229
q0 65 -1 78q-5 53 -34 74q-20 14 -53 14q-56 0 -79 -43q-9 -17 -13.5 -45.5t-5 -53.5t-0.5 -79v-69q0 -99 2 -149q1 -72 18 -101q23 -36 78 -36q42 0 63 24q12 14 17 32q8 29 8 125z" />
    <glyph glyph-name="oe" unicode="&#x153;" horiz-adv-x="542" 
d="M506 163q0 -6 -0.5 -16.5t-0.5 -15.5q-5 -92 -58 -122q-31 -18 -75 -18q-53 0 -97 41q-5 -5 -17 -15q-36 -26 -90 -26q-65 0 -102 42q-12 14 -16 27q-14 35 -14 189q0 29 2 85q0 28 1 42q8 93 68 119q34 14 70 14q50 0 99 -37q44 37 95 37q48 0 83 -25q24 -18 36 -45
t14 -47.5t2 -56.5v-97h-194v-33q0 -97 4 -111q12 -40 57 -40q23 0 36 13q14 12 17.5 32t4.5 64h75zM430 303q0 96 -12 116q-15 25 -49 25q-18 0 -31 -9q-26 -18 -26 -87v-45h118zM238 247q1 33 -1 101q0 40 -5 56q-14 42 -55 42q-46 0 -55 -55q-6 -48 -6 -133q0 -74 2 -111
q1 -51 13 -70q14 -24 46 -24q24 0 38 15q5 6 9 13.5t6 13.5t3 18.5t1.5 19.5t1 25t0.5 27q2 42 2 62z" />
    <glyph glyph-name="Scaron" unicode="&#x160;" horiz-adv-x="396" 
d="M331 871l-102 -107h-65l-98 107h87l54 -63l57 63h67zM371 159q0 -53 -19 -89.5t-49 -52t-54 -21.5t-49 -6q-138 0 -166 112q-7 27 -7 64v78h83v-56q0 -22 1 -35q7 -89 89 -88q20 1 37 6.5t33.5 27.5t15.5 58t-15 59.5t-51 61.5l-95 98q-23 24 -33.5 37t-24 35.5
t-18.5 48.5t-5 61q0 27 6 51t21.5 50.5t50.5 42t86 15.5t83.5 -16t45.5 -44t16.5 -48t3.5 -47v-64h-78l-1 37q-1 43 -6.5 63.5t-26.5 33.5q-18 11 -44 10q-72 -2 -72 -84q0 -27 13.5 -54t56.5 -73l81 -85q41 -42 58 -66.5t26 -61.5q7 -28 7 -59z" />
    <glyph glyph-name="scaron" unicode="&#x161;" horiz-adv-x="313" 
d="M290 673l-102 -109h-65l-98 109h87l54 -63l57 63h67zM295 122q-2 -51 -34 -91t-111 -40q-56 0 -87 24q-12 9 -20 21t-12.5 21.5t-7.5 28t-3.5 26.5t-1.5 31.5t-1 29.5h77v-8q0 -42 4 -62.5t19 -33.5t38 -13q26 -1 42.5 16.5t16.5 44.5q0 28 -10.5 44t-41.5 43l-62 54
q-39 34 -54 59.5t-15 63.5q0 42 14 70t37 39.5t41.5 15t38.5 3.5q41 0 67 -15q34 -18 44 -49t10 -92h-71v15q0 16 -1 25.5t-5 23t-15.5 21t-29.5 7.5q-55 0 -55 -55q0 -17 10.5 -34t20 -25.5t31.5 -26.5l57 -47q22 -19 35 -33t24.5 -41.5t10.5 -60.5z" />
    <glyph glyph-name="Ydieresis" unicode="&#x178;" horiz-adv-x="396" 
d="M329 764h-83v107h83v-107zM151 764h-83v107h83v-107zM396 706l-155 -420v-286h-91v286l-150 420h93l105 -353l105 353h93z" />
    <glyph glyph-name="florin" unicode="&#x192;" horiz-adv-x="271" 
d="M267 714l-7 -70q-2 1 -6 1h-2q-15 0 -25.5 -4t-16 -9t-9 -17t-4.5 -18.5t-3 -23.5l-8 -73h71l-8 -60h-69l-42 -404q-5 -51 -8.5 -73t-14.5 -49t-30 -40q-23 -16 -70 -16q-20 0 -43 5l7 68q20 -3 27 -3q21 0 32.5 15t14.5 30.5t7 52.5q1 6 1 9l41 405h-61l7 60h61l11 113
q2 18 3 26t7.5 26t16.5 27t30 17t48 8q12 0 42 -3z" />
    <glyph glyph-name="circumflex" unicode="&#x2c6;" horiz-adv-x="229" 
d="M247 563h-87l-54 63l-57 -63h-67l102 110h65z" />
    <glyph glyph-name="tilde" unicode="&#x2dc;" horiz-adv-x="229" 
d="M241 658q-3 -28 -5 -34q-3 -10 -9 -20t-22.5 -22.5t-38.5 -12.5q-11 0 -25 3.5t-33 11t-22 8.5q-24 8 -34 8q-27 0 -27 -31h-36q0 45 26 70q14 12 25 16q12 4 23 4q23 0 76 -21q27 -10 39 -10q26 0 26 30h37z" />
    <glyph glyph-name="endash" unicode="&#x2013;" horiz-adv-x="371" 
d="M346 253h-321v78h321v-78z" />
    <glyph glyph-name="emdash" unicode="&#x2014;" horiz-adv-x="567" 
d="M542 253h-517v78h517v-78z" />
    <glyph glyph-name="quoteleft" unicode="&#x2018;" horiz-adv-x="167" 
d="M126 452h-85v121q0 56 18 89.5t67 43.5v-51q-7 -2 -12.5 -4.5t-9.5 -7t-6.5 -7.5t-4.5 -10t-3 -10t-1.5 -11.5t-0.5 -11v-12.5v-11h38v-118z" />
    <glyph glyph-name="quoteright" unicode="&#x2019;" horiz-adv-x="167" 
d="M126 585q0 -57 -17.5 -90t-67.5 -43v51q38 10 38 67q0 13 -1 19h-37v117h85v-121z" />
    <glyph glyph-name="quotesinglbase" unicode="&#x201a;" horiz-adv-x="167" 
d="M126 -4q0 -56 -18 -89.5t-67 -43.5v52q38 9 38 67q0 12 -1 18h-37v118h85v-122z" />
    <glyph glyph-name="quotedblleft" unicode="&#x201c;" horiz-adv-x="313" 
d="M272 452h-85q0 20 -0.5 60.5t-0.5 60.5q0 36 6 61t26 45.5t54 26.5v-51q-14 -4 -22.5 -12t-11.5 -23.5t-3.5 -22.5t-0.5 -27h38v-118zM126 452h-85v121q0 56 18 89.5t67 43.5v-51q-38 -10 -38 -59v-26h38v-118z" />
    <glyph glyph-name="quotedblright" unicode="&#x201d;" horiz-adv-x="313" 
d="M272 585q0 -56 -18 -89.5t-67 -43.5v51q7 1 13 6t10 9.5t7 10.5t4.5 10t2 12t0.5 11v13v13h-37v118h85v-121zM126 585q0 -57 -17.5 -90t-67.5 -43v51q38 14 38 67q0 12 -1 18h-37v118h85v-121z" />
    <glyph glyph-name="quotedblbase" unicode="&#x201e;" horiz-adv-x="313" 
d="M272 -4q0 -56 -18 -89.5t-67 -43.5v51q1 0 6 2t7 4q6 4 10 9t7 11t4.5 10t2 12.5t0.5 11.5v13v13h-37v118h85v-122zM126 -4q0 -57 -17.5 -90t-67.5 -43v51q38 14 38 67q0 13 -1 19h-37v118h85v-122z" />
    <glyph glyph-name="dagger" unicode="&#x2020;" 
d="M351 394h-122v-507h-79v507h-126v73h126v239h79v-239h122v-73z" />
    <glyph glyph-name="daggerdbl" unicode="&#x2021;" 
d="M351 119h-123v-232h-78v232h-126v73h126v236h-126v72h126v206h78v-206h123v-72h-123v-236h123v-73z" />
    <glyph glyph-name="bullet" unicode="&#x2022;" horiz-adv-x="341" 
d="M263 232h-186v249h186v-249z" />
    <glyph glyph-name="ellipsis" unicode="&#x2026;" horiz-adv-x="1000" 
d="M875 0h-84v100h84v-100zM542 0h-84v100h84v-100zM209 0h-84v100h84v-100z" />
    <glyph glyph-name="perthousand" unicode="&#x2030;" horiz-adv-x="875" 
d="M854 221q0 -1 -3 -106q0 -51 -12 -75q-24 -45 -89 -45q-40 0 -64 16q-19 12 -27.5 34.5t-9.5 41.5t-2 70q0 10 -0.5 30.5t-0.5 31.5q0 17 0.5 51t0.5 51q0 83 41 109q27 17 61 17q30 0 54 -13q50 -26 50 -116q0 -16 0.5 -48t0.5 -49zM604 221q0 -71 -1 -106
q0 -47 -14 -75q-24 -45 -89 -45q-40 0 -64 16q-19 12 -27.5 34.5t-9.5 41.5t-2 70q0 10 -0.5 30.5t-0.5 31.5q0 17 0.5 51t0.5 51q0 83 41 109q27 17 61 17q30 0 54 -13q50 -26 50 -116q0 -16 0.5 -48t0.5 -49zM509 706l-344 -706h-49l347 706h46zM229 486q0 -36 -2 -106
q0 -49 -13 -75q-24 -45 -89 -45q-40 0 -64 16q-19 12 -27.5 34.5t-9.5 41.5t-2 70q0 10 -0.5 30.5t-0.5 31.5q0 17 0.5 51t0.5 51q0 83 41 109q27 17 61 17q30 0 54 -13q50 -26 50 -116q0 -16 0.5 -48.5t0.5 -48.5zM786 144v75v54q1 54 0 54q-2 41 -13 51q-9 7 -24 7
q-26 0 -32 -27q-4 -22 -4 -71v-66q0 -15 0.5 -43.5t0.5 -42.5v-38q0 -41 36 -41q29 0 33 25q3 24 3 63zM536 144q0 12 -0.5 37t-0.5 38l1 54q0 54 -1 54v7.5t-0.5 8.5t-1 8t-1 8t-2 6.5t-3 6.5t-4.5 5t-6 4.5t-8 2.5t-10 1q-27 0 -33 -27q-3 -16 -3 -71v-66q0 -15 0.5 -43.5
t0.5 -42.5v-38q0 -41 36 -41q29 0 33 25q3 24 3 63zM161 409q0 13 -0.5 38t-0.5 37v34v40v34q-2 40 -11 49q-8 9 -25 9q-27 0 -33 -27q-3 -17 -3 -71v-66q0 -14 0.5 -43t0.5 -44v-37q0 -41 35 -41q30 0 34 25q3 24 3 63z" />
    <glyph glyph-name="guilsinglleft" unicode="&#x2039;" horiz-adv-x="187" 
d="M160 80l-140 158v86l140 156v-116l-74 -83l74 -84v-117z" />
    <glyph glyph-name="guilsinglright" unicode="&#x203a;" horiz-adv-x="187" 
d="M167 238l-139 -158v117l74 84l-74 83v116l139 -156v-86z" />
    <glyph glyph-name="Euro" unicode="&#x20ac;" horiz-adv-x="434" 
d="M403 672l-23 -88q-31 30 -57 44.5t-62 14.5q-34 0 -55.5 -13.5t-29 -34.5t-11 -48t-1 -54t-0.5 -52h190l-13 -57h-177v-49h167l-12 -57h-155q-1 -8 -1 -47q0 -99 15 -127q21 -40 78 -40q83 0 143 62v-97q-69 -39 -162 -39q-51 0 -89 23.5t-56 69.5q-8 20 -11.5 48
t-4 45.5t0 55.5t0.5 46h-53l12 57h40v49h-51l11 57h41v55q0 109 37 158q48 63 148 63q81 0 141 -45z" />
    <glyph glyph-name="trademark" unicode="&#x2122;" horiz-adv-x="557" 
d="M511 374h-58l7 300l-64 -300h-61l-63 296l6 -296h-55v332h89l54 -264l54 264h91v-332zM193 658h-66v-284h-58v284h-64v48h188v-48z" />
    </font>
</defs>
</svg>
