<?xml version="1.0" standalone="no"?>
<!DOCTYPE svg PUBLIC "-//W3C//DTD SVG 1.1//EN" "http://www.w3.org/Graphics/SVG/1.1/DTD/svg11.dtd" >
<svg xmlns="http://www.w3.org/2000/svg" xmlns:xlink="http://www.w3.org/1999/xlink" version="1.1">
<metadata>
Created by FontForge 20170731 at Thu May 17 19:59:58 2007
 By Aleksey,,,
Copyright  1997, 2001, Berthold LLC. All rights reserved. Akzidenz-Grotesk is a trademark of Berthold Types Limited.
</metadata>
<defs>
<font id="AkzidenzGroteskBQ-BoldItalic" horiz-adv-x="604" >
  <font-face 
    font-family="Akzidenz-Grotesk BQ"
    font-weight="700"
    font-style="italic"
    font-stretch="normal"
    units-per-em="1000"
    panose-1="0 0 0 0 0 0 0 0 0 0"
    ascent="800"
    descent="-200"
    x-height="515"
    cap-height="706"
    bbox="-130 -231 1154.33 947"
    underline-thickness="110"
    underline-position="-506"
    slope="-13"
    unicode-range="U+0020-2122"
  />
<missing-glyph horiz-adv-x="500" 
 />
    <glyph glyph-name=".notdef" horiz-adv-x="500" 
 />
    <glyph glyph-name=".null" horiz-adv-x="0" 
 />
    <glyph glyph-name="nonmarkingreturn" horiz-adv-x="333" 
 />
    <glyph glyph-name="space" unicode=" " horiz-adv-x="292" 
 />
    <glyph glyph-name="exclam" unicode="!" horiz-adv-x="292" 
d="M340 706l-49 -218l-102 -244h-65l8 244l50 218h158zM215 161l-36 -161h-158l36 161h158z" />
    <glyph glyph-name="quotedbl" unicode="&#x22;" horiz-adv-x="318" 
d="M395 743l-103 -304h-37l37 304h103zM233 743l-103 -304h-37l37 304h103z" />
    <glyph glyph-name="numbersign" unicode="#" horiz-adv-x="667" 
d="M669 529l-22 -124h-109l-28 -95h97l-21 -124h-116l-59 -186h-126l60 186h-99l-59 -186h-124l58 186h-94l22 124h112l29 95h-100l22 124h117l56 177h124l-56 -177h100l55 177h125l-55 -177h91zM414 405h-100l-29 -95h99z" />
    <glyph glyph-name="dollar" unicode="$" horiz-adv-x="667" 
d="M666 575l-128 -87q-15 21 -22 28q-24 23 -72 38l-40 -143q38 -11 59 -18t50 -21.5t48 -36t32 -50.5q16 -36 16 -75q0 -58 -34 -110q-25 -39 -64 -65t-80.5 -35.5t-65 -12.5t-44.5 -3h-33l-28 -97h-58l28 104q-73 15 -120 40q-43 24 -97 85l139 83q7 -10 16 -19
q20 -23 41.5 -33t58.5 -19l43 159q-34 11 -50.5 16.5t-44.5 18.5t-47 29.5t-34 38.5q-12 21 -17 35q-8 24 -8 54q0 69 45 124q84 102 263 90h6l16 55h56l-17 -64q39 -9 61 -17q75 -27 126 -92zM386 561q-46 -2 -64 -10q-19 -8 -31.5 -24t-12.5 -35q0 -13 5 -23
q14 -25 68 -41zM439 203q0 15 -9 29q-6 11 -17.5 19t-20 11.5t-26.5 9.5l-41 -149q38 0 66 13q20 9 34 27.5t14 39.5z" />
    <glyph glyph-name="percent" unicode="%" horiz-adv-x="833" 
d="M800 269q0 -36 -8 -74q-4 -16 -10 -34t-21.5 -53t-42.5 -64.5t-61 -43.5q-27 -10 -52 -10q-37 0 -66 19q-65 41 -65 142q0 93 46 177q56 103 145 105q50 2 85 -29q50 -43 50 -135zM700 678l-461 -678h-86l461 678h86zM379 523q0 -36 -8 -75q-3 -13 -6 -23.5t-15 -39.5
t-25.5 -51t-37 -45.5t-51.5 -34.5q-27 -10 -52 -10q-37 0 -66 19q-65 40 -65 141q0 90 46 178q56 102 145 105q48 2 85 -29q50 -43 50 -135zM705 300q0 60 -37 60q-29 0 -53 -49q-45 -97 -45 -194q0 -33 16 -46q10 -7 20 -7q19 0 35 20q19 24 37 78q27 95 27 138zM284 553
q0 29 -10 45t-27 15q-30 0 -52 -48q-19 -40 -32 -95t-13 -99q0 -35 15 -46q9 -7 20 -7q19 0 35 20q22 26 37 78q27 81 27 137z" />
    <glyph glyph-name="ampersand" unicode="&#x26;" horiz-adv-x="708" 
d="M663 307q-18 -36 -28 -53q-30 -53 -92 -124q31 -27 62 -27q12 0 40 7l-26 -110q-36 -3 -74 -3q-24 0 -38 2q-37 7 -73 43q-20 -12 -38 -22q-70 -35 -157 -34q-53 0 -97 14q-59 20 -92 67t-33 110q0 36 14 74q29 80 128 136q20 12 85 41q-21 71 -21 102t15 66
q22 53 73 84.5t111 31.5q41 0 76 -15q28 -11 47.5 -29t28 -38t12 -36t3.5 -30q0 -53 -41 -100q-36 -41 -132 -85q20 -48 31 -72q9 -21 31 -63q43 51 72 109zM465 562q0 19 -15 33t-35 13q-15 0 -26 -7q-28 -15 -28 -48q0 -19 16 -73q5 2 15 6.5t15 7.5q58 29 58 68zM371 145
q-30 56 -43 84q-12 24 -41 94q-40 -18 -64 -37q-51 -41 -51 -95q0 -31 21 -58.5t73 -27.5q11 0 21.5 1.5t20 5t17 6t16 7.5t12.5 7.5t10.5 7t7.5 5.5z" />
    <glyph glyph-name="quotesingle" unicode="'" horiz-adv-x="156" 
d="M233 743l-103 -304h-37l37 304h103z" />
    <glyph glyph-name="parenleft" unicode="(" horiz-adv-x="335" 
d="M453 736q-116 -87 -175 -166q-114 -153 -114 -351q0 -132 50 -241q19 -40 47 -78l-68 -64q-45 56 -63 83q-99 145 -99 311q0 195 120 354q95 128 253 220z" />
    <glyph glyph-name="parenright" unicode=")" horiz-adv-x="335" 
d="M306 412q0 -64 -14 -129q-26 -120 -106 -226q-95 -128 -252 -220l-50 68q115 86 175 166q114 155 114 351q0 133 -50 241q-18 38 -47 78l68 64q44 -53 64 -82q98 -146 98 -311z" />
    <glyph glyph-name="asterisk" unicode="*" horiz-adv-x="411" 
d="M448 496l-104 -11l42 -89l-97 -47l-46 97l-79 -69l-71 81l74 65l-89 50l52 94l93 -51l23 103l105 -24l-23 -103l109 11z" />
    <glyph glyph-name="plus" unicode="+" horiz-adv-x="724" 
d="M658 390l-29 -130h-187l-46 -204h-167l47 204h-183l30 130h182l47 201h166l-47 -201h187z" />
    <glyph glyph-name="comma" unicode="," horiz-adv-x="250" 
d="M175 162q-3 -14 -11 -50t-12 -52.5t-13 -46.5t-18.5 -47.5t-24 -40t-34 -39t-44.5 -30.5q-26 -14 -82 -32l17 73q40 25 54 42t31 61h-60l37 162h160z" />
    <glyph glyph-name="hyphen" unicode="-" horiz-adv-x="376" 
d="M358 380l-33 -143h-299l33 143h299z" />
    <glyph glyph-name="period" unicode="." horiz-adv-x="250" 
d="M175 165l-37 -165h-158l37 165h158z" />
    <glyph glyph-name="slash" unicode="/" horiz-adv-x="458" 
d="M553 706l-480 -706h-143l481 706h142z" />
    <glyph glyph-name="zero" unicode="0" horiz-adv-x="562" 
d="M551 441q0 -35 -6 -77q-23 -164 -102 -267q-85 -111 -203 -111q-54 0 -99 25q-112 62 -111 226q0 63 16 131q43 181 139 265q74 64 154 62q53 0 103 -28q109 -61 109 -226zM398 476q0 51 -13 73q-16 28 -47 28q-25 0 -48 -26q-46 -51 -81 -188q-25 -96 -25 -177
q0 -52 25 -71q15 -11 33 -11q47 0 90 93q35 74 50.5 154t15.5 125z" />
    <glyph glyph-name="one" unicode="1" horiz-adv-x="562" 
d="M472 678l-153 -678h-161l112 494q-48 -12 -73.5 -14.5t-78.5 -2.5l24 109q36 1 55 2t46 8t49 21q30 19 59 61h121z" />
    <glyph glyph-name="two" unicode="2" horiz-adv-x="562" 
d="M554 492q0 -39 -16 -78q-25 -65 -92 -123q-23 -20 -49 -40l-171 -124h279l-29 -127h-487l24 106l291 239q12 10 32 28q62 62 62 114q0 36 -22 60.5t-58 24.5q-55 0 -80 -60q-16 -37 -12 -98l-149 18q2 28 4 43q6 70 49 127q68 93 195 93q19 0 40.5 -3.5t54 -13
t62.5 -33.5t48 -59q24 -45 24 -94z" />
    <glyph glyph-name="three" unicode="3" horiz-adv-x="562" 
d="M564 504q0 -38 -18.5 -72.5t-49.5 -55.5q-20 -13 -65 -28q20 -12 33 -22q54 -46 54 -121t-58 -135q-80 -85 -213 -85q-47 0 -93 13q-89 24 -128 97q-29 54 -26 129l163 17q-5 -20 -5 -39q0 -40 26 -67.5t65 -26.5q28 0 48 12q29 16 39.5 46.5t9.5 49.5q0 29 -15 49
q-16 22 -36 26.5t-53 2.5l22 104q19 -4 37 -4q37 0 63 20q18 14 28.5 40t10.5 51q0 47 -33 64q-19 8 -39 8q-23 0 -42 -11q-46 -24 -52 -98l-155 18q5 40 13.5 64t30.5 50q29 36 81.5 65.5t125.5 29.5q64 0 118 -25q44 -20 71 -54t34.5 -60.5t7.5 -51.5z" />
    <glyph glyph-name="four" unicode="4" horiz-adv-x="562" 
d="M552 279l-26 -113h-99l-38 -166h-158l38 166h-285l30 128l344 384h185l-90 -399h99zM357 530l-222 -251h161z" />
    <glyph glyph-name="five" unicode="5" horiz-adv-x="562" 
d="M536 678l-29 -126h-267l-30 -117q1 1 6.5 4.5t7.5 4.5t8 4.5t9.5 5t10 4.5t11.5 4.5t12 3.5t14 3t15.5 1.5t17.5 0.5q90 0 145 -55q53 -56 53 -147q0 -83 -49 -155q-85 -128 -236 -128q-100 0 -165 61q-32 31 -46 67q-11 29 -15 98l161 7q-2 -58 16 -81q23 -28 57 -28
q27 0 52 20q21 16 39.5 50t18.5 83q0 51 -24.5 74.5t-55.5 23.5q-15 0 -33 -7q-25 -10 -57 -53l-136 23l85 354h404z" />
    <glyph glyph-name="six" unicode="6" horiz-adv-x="562" 
d="M562 514l-150 -20q-1 9 -5 27q-15 53 -62 53t-80 -48q-31 -44 -51 -133q12 15 22 25q42 42 105 42q34 0 69 -15q35 -16 58.5 -41.5t33 -54t12.5 -47.5t3 -36q0 -31 -5 -54q-26 -103 -89 -163q-67 -64 -162 -64q-106 0 -169 90q-50 72 -50 186q0 97 38 199q63 166 185 215
q49 20 104 20q123 0 170 -101q18 -38 23 -80zM355 252q0 44 -18 70q-16 23 -44 23q-15 0 -32 -11q-27 -18 -43 -57.5t-16 -74.5q0 -55 31 -84q14 -11 31 -11q21 0 39 16q18 15 35 50t17 79z" />
    <glyph glyph-name="seven" unicode="7" horiz-adv-x="562" 
d="M586 678l-27 -120q-60 -64 -99 -111q-73 -90 -125.5 -185t-73.5 -153q-12 -31 -31 -109h-180q38 136 95 237q32 57 75 115.5t73 94.5t90 104h-323l28 127h498z" />
    <glyph glyph-name="eight" unicode="8" horiz-adv-x="562" 
d="M542 516q0 -85 -62 -129q-20 -14 -61 -28q26 -13 36 -20q65 -43 65 -129q0 -56 -31 -109q-34 -58 -94.5 -87t-132.5 -29q-74 0 -127 30q-105 57 -104 173q0 50 22 93.5t63 66.5q21 12 75 25l-33 22q-46 38 -46 107q0 46 25 88q23 39 72.5 72t125.5 33q49 0 92 -16
q36 -13 60.5 -35t35.5 -46.5t15 -44t4 -37.5zM389 510q0 50 -29 70q-12 9 -32 8q-17 -1 -29 -11q-39 -29 -39 -93q1 -39 18.5 -58.5t39.5 -19.5q23 3 37 15q16 14 25.5 40t8.5 49zM354 204q0 22 -6 38q-6 17 -24 33.5t-49 15.5q-24 -1 -42 -14q-20 -14 -32 -44t-12 -58
q0 -45 25.5 -64t51.5 -19q23 0 42 12q46 32 46 100z" />
    <glyph glyph-name="nine" unicode="9" horiz-adv-x="562" 
d="M535 418q0 -38 -8 -91q-5 -29 -15 -64t-41.5 -100t-73.5 -104q-39 -36 -85 -54q-49 -20 -104 -20q-123 0 -170 101q-12 25 -24 79l151 20q1 -8 5 -26q14 -53 62 -53q46 0 79 48q31 44 52 132l-7 -9q-8 -9 -15 -15q-42 -42 -105 -42q-37 0 -69 15q-35 16 -58.5 41.5
t-33 53.5t-12.5 47t-3 37q0 30 5 54q4 18 12 40.5t29 59.5t48 63q66 63 162 63q63 0 105 -28.5t64 -61.5q50 -71 50 -186zM375 478q0 57 -31 83q-14 11 -31 11q-21 0 -39 -15t-35 -50t-17 -80q0 -44 18 -70q15 -23 43 -23q16 0 33 12q27 18 43 57t16 75z" />
    <glyph glyph-name="colon" unicode=":" horiz-adv-x="292" 
d="M294 515l-35 -158h-158l35 158h158zM215 165l-36 -165h-159l37 165h158z" />
    <glyph glyph-name="semicolon" unicode=";" horiz-adv-x="292" 
d="M298 515l-37 -160h-157l37 160h157zM216 162q-3 -14 -10.5 -50.5t-11.5 -52.5t-13 -46.5t-18.5 -47.5t-24 -39.5t-34 -39t-44.5 -30.5q-26 -14 -82 -32l17 73q40 25 54 42.5t30 60.5h-59l37 162h159z" />
    <glyph glyph-name="less" unicode="&#x3c;" horiz-adv-x="724" 
d="M653 621l-41 -167l-345 -133l283 -145l-37 -155l-411 236l37 153z" />
    <glyph glyph-name="equal" unicode="=" horiz-adv-x="724" 
d="M697 483l-30 -131h-526l30 131h526zM647 266l-30 -131h-526l30 131h526z" />
    <glyph glyph-name="greater" unicode="&#x3e;" horiz-adv-x="724" 
d="M629 381l-37 -152l-514 -211l41 166l345 133l-283 145l37 155z" />
    <glyph glyph-name="question" unicode="?" horiz-adv-x="562" 
d="M596 536q0 -59 -34 -105q-30 -42 -98 -73q-6 -3 -38 -17t-51.5 -24.5t-34.5 -22.5q-17 -14 -36 -48h-140q6 39 24 67q7 11 17.5 21.5t19 17.5t26.5 19.5t28 18.5t37.5 23t41.5 25q18 11 27 17.5t20.5 19.5t16.5 27q3 6 3 20q0 24 -20 45t-62 21q-25 0 -45.5 -9.5
t-31.5 -20t-20 -29.5t-11 -25.5t-6 -20.5l-155 37q24 62 42 90q72 106 237 106q93 0 161 -40q82 -48 82 -140zM297 158l-35 -158h-160l37 158h158z" />
    <glyph glyph-name="at" unicode="@" horiz-adv-x="842" 
d="M806 435q0 -141 -77.5 -254t-172.5 -113q-37 0 -60.5 18t-28.5 50q-57 -68 -128 -68q-61 0 -97 42.5t-36 116.5q0 117 69 207t158 90q25 0 48 -9q30 -12 55 -51l12 40h90l-39 -159q-34 -140 -34 -167q0 -26 19 -26q24 0 59 43q36 45 57.5 108.5t21.5 125.5q0 95 -58 150
t-158 55q-152 0 -267.5 -122t-115.5 -283q0 -124 73 -194q39 -37 97 -58t122 -21q180 0 332 146l44 -62q-69 -61 -124 -94q-120 -69 -255 -69q-82 0 -156.5 28.5t-124.5 78.5q-90 88 -90 238q0 99 38 190t102 157t152 105.5t183 39.5q131 0 210.5 -76t79.5 -203zM499 351v2
q0 37 -17.5 59.5t-46.5 22.5q-57 0 -95 -77q-31 -62 -31 -120q0 -38 16 -59t45 -21q44 0 82 52q20 26 33.5 67t13.5 74z" />
    <glyph glyph-name="A" unicode="A" horiz-adv-x="708" 
d="M635 0h-172l-9 140h-260l-78 -140h-185l431 706h198zM446 268l-19 290l-161 -290h180z" />
    <glyph glyph-name="B" unicode="B" horiz-adv-x="708" 
d="M679 539q0 -103 -87 -147q-19 -10 -57 -20q47 -20 71 -41q48 -41 48 -118q0 -30 -10 -60q-29 -89 -119 -129q-56 -24 -133 -24h-393l160 706h318q96 0 144 -38q18 -12 32 -35q26 -39 26 -94zM507 514q0 26 -14 42q-10 12 -20 15q-17 8 -44 8h-128l-34 -151h131
q69 0 94 35q15 21 15 51zM471 228q0 52 -47 67q-15 5 -39 5h-147l-38 -170h153q37 0 61 7.5t41 32.5q16 25 16 58z" />
    <glyph glyph-name="C" unicode="C" horiz-adv-x="729" 
d="M738 523l-169 -38q-12 30 -15 36q-12 23 -40 44t-73 21q-77 0 -132 -69q-69 -86 -69 -207q1 -92 41.5 -137t93.5 -45t101 43q35 31 66 96l147 -82q-25 -45 -39 -63q-106 -140 -279 -141q-112 0 -197 62q-120 87 -120 266q0 55 11 102q16 72 57.5 138.5t99.5 108.5
q92 65 215 65q103 -1 181 -47q41 -22 68 -55q28 -34 52 -98z" />
    <glyph glyph-name="D" unicode="D" horiz-adv-x="750" 
d="M725 426q0 -136 -65 -246.5t-183 -152.5q-75 -27 -218 -27h-259l161 706h279q10 0 55 -5q89 -12 142 -55q88 -69 88 -220zM545 426q0 66 -31 101q-21 24 -47 33q-30 11 -78 11h-88l-98 -435h78q112 0 164 44q38 33 69.5 96t30.5 150z" />
    <glyph glyph-name="E" unicode="E" horiz-adv-x="667" 
d="M669 706l-31 -135h-335l-31 -137h323l-29 -129h-323l-39 -171h385l-29 -134h-560l161 706h508z" />
    <glyph glyph-name="F" unicode="F" horiz-adv-x="625" 
d="M670 706l-29 -132h-335l-35 -154h323l-31 -135h-323l-65 -285h-175l161 706h509z" />
    <glyph glyph-name="G" unicode="G" horiz-adv-x="812" 
d="M752 382l-86 -382h-158l13 59l-7 -7q-8 -7 -18.5 -16.5t-17.5 -14.5q-56 -40 -134 -40q-58 1 -114.5 24t-94.5 63q-82 87 -82 233q0 165 100 289q109 135 296 135q79 0 151 -29t114 -86q20 -28 38 -83l-168 -44q-11 36 -19 48q-13 21 -43 38t-74 17q-85 0 -142 -74
q-31 -40 -48 -97.5t-17 -111.5q0 -41 10 -75q15 -52 53.5 -82t93.5 -30q39 0 75 16.5t57 47.5q15 22 29 67h-147l30 135h310z" />
    <glyph glyph-name="H" unicode="H" horiz-adv-x="750" 
d="M774 706l-160 -706h-176l71 313h-263l-71 -313h-175l161 706h175l-58 -257h262l58 257h176z" />
    <glyph glyph-name="I" unicode="I" horiz-adv-x="313" 
d="M336 706l-158 -706h-176l158 706h176z" />
    <glyph glyph-name="J" unicode="J" horiz-adv-x="396" 
d="M420 706l-118 -527q-11 -47 -24 -76.5t-42 -54.5q-34 -30 -70 -39t-87 -9h-136l34 147h44q55 0 80 18q30 22 39 74l105 467h175z" />
    <glyph glyph-name="K" unicode="K" horiz-adv-x="729" 
d="M778 706l-309 -282l204 -424h-185l-144 313l-135 -123l-42 -190h-168l159 706h167l-65 -290l308 290h210z" />
    <glyph glyph-name="L" unicode="L" horiz-adv-x="562" 
d="M506 143l-33 -143h-472l159 706h175l-127 -563h298z" />
    <glyph glyph-name="M" unicode="M" horiz-adv-x="896" 
d="M917 706l-159 -706h-164l126 546l-264 -546h-148l-20 554l-121 -554h-165l158 706h261l12 -463l219 463h265z" />
    <glyph glyph-name="N" unicode="N" horiz-adv-x="708" 
d="M733 706l-161 -706h-172l-139 453l-100 -453h-162l162 706h174l141 -455l96 455h161z" />
    <glyph glyph-name="O" unicode="O" horiz-adv-x="792" 
d="M769 423q0 -115 -56 -223q-18 -35 -47 -73q-84 -104 -203 -133q-44 -11 -101 -11q-159 0 -243 91q-71 78 -71 216q0 56 13 108q40 157 147 245q46 38 110 60q60 22 137 22q147 0 234 -87q80 -81 80 -215zM593 424q0 47 -15 79q-18 39 -58 59.5t-87 18.5q-24 -1 -48 -9
q-82 -27 -125 -131q-34 -81 -34 -159q0 -40 12 -71q17 -43 52.5 -66.5t82.5 -22.5q61 0 111 40t79.5 116.5t29.5 145.5z" />
    <glyph glyph-name="P" unicode="P" horiz-adv-x="688" 
d="M696 495q0 -128 -95 -202q-39 -31 -86 -45q-52 -15 -133 -15h-154l-53 -233h-175l159 706h304q90 0 145 -35q30 -19 46 -40q42 -51 42 -136zM519 489q0 26 -11 47q-24 44 -95 44h-106l-50 -220h125q56 0 89 26q22 17 35 45.5t13 57.5z" />
    <glyph glyph-name="Q" unicode="Q" horiz-adv-x="812" 
d="M819 100l-64 -129q-17 0 -40 5q-48 11 -129 73q-32 -20 -48 -28q-79 -38 -177 -38q-151 0 -234 83q-79 77 -79 224q0 56 13 105q7 30 19.5 64t47 90t80.5 94q100 82 247 82q151 0 238 -91q76 -80 76 -210q0 -114 -50 -214q-4 -7 -33 -58q22 -14 33 -20q47 -28 100 -32z
M593 424q0 47 -15 79q-18 39 -58 59.5t-87 18.5q-24 -1 -48 -9q-82 -27 -125 -131q-34 -81 -34 -159q0 -40 12 -71q17 -43 52.5 -66.5t82.5 -22.5q61 0 111 40t79.5 116.5t29.5 145.5z" />
    <glyph glyph-name="R" unicode="R" horiz-adv-x="708" 
d="M705 501q0 -65 -30 -118q-20 -34 -47 -56q-30 -22 -102 -47l115 -280h-192l-93 253h-123l-58 -253h-175l160 706h311q29 0 44 -1q67 -7 112 -38q78 -55 78 -166zM530 497q0 30 -15 49q-14 17 -33 24t-56 7h-119l-44 -193h148q17 0 38 4q44 10 66 50q15 28 15 59z" />
    <glyph glyph-name="S" unicode="S" horiz-adv-x="667" 
d="M669 576l-147 -84q-8 24 -18 38q-21 30 -61.5 45t-81.5 15q-27 0 -48 -7q-26 -10 -39 -27t-13 -32q0 -12 7 -25q5 -8 12 -14t20.5 -12t23.5 -9.5t31.5 -11t33.5 -11.5q58 -20 105 -42q125 -57 125 -179q0 -97 -78 -164q-86 -74 -231 -74q-100 0 -170.5 29.5t-109.5 70.5
q-17 17 -46 63l155 97q5 -19 17 -38q52 -80 160 -80q46 0 78 18q42 23 42 63q-2 38 -57 62q-26 11 -86 31.5t-90 34.5q-119 57 -119 167q0 58 36 113q75 111 261 111q145 0 226 -72q24 -22 62 -76z" />
    <glyph glyph-name="T" unicode="T" horiz-adv-x="625" 
d="M683 706l-35 -137h-183l-128 -569h-177l128 569h-194l35 137h554z" />
    <glyph glyph-name="U" unicode="U" horiz-adv-x="729" 
d="M754 706l-104 -464q-24 -107 -70 -160q-42 -49 -108.5 -73.5t-137.5 -24.5q-58 0 -111 15q-106 30 -145 110q-19 38 -19 94q0 39 15 110l88 393h177l-96 -431q-7 -25 -7 -53q0 -20 7 -35q9 -20 34 -36t64 -16q79 0 116 81q14 32 19 55l102 435h176z" />
    <glyph glyph-name="V" unicode="V" horiz-adv-x="667" 
d="M756 706l-373 -706h-206l-85 706h175l47 -516l257 516h185z" />
    <glyph glyph-name="W" unicode="W" horiz-adv-x="979" 
d="M1064 706l-352 -706h-200l12 456l-202 -456h-200l-23 706h170v-508l226 508h168l-8 -511l237 511h172z" />
    <glyph glyph-name="X" unicode="X" horiz-adv-x="708" 
d="M776 706l-308 -344l177 -362h-186l-112 236l-202 -236h-216l342 382l-161 324h189l94 -201l176 201h207z" />
    <glyph glyph-name="Y" unicode="Y" horiz-adv-x="667" 
d="M754 706l-333 -408l-67 -298h-175l71 320l-153 386h175l98 -254l185 254h199z" />
    <glyph glyph-name="Z" unicode="Z" horiz-adv-x="667" 
d="M698 706l-34 -145l-433 -424h365l-31 -137h-583l33 145l432 423h-340l32 138h559z" />
    <glyph glyph-name="bracketleft" unicode="[" horiz-adv-x="292" 
d="M398 779l-19 -84h-91l-174 -755h91l-19 -84h-224l213 923h223z" />
    <glyph glyph-name="backslash" unicode="\" horiz-adv-x="458" 
d="M389 0h-141l-155 706h143z" />
    <glyph glyph-name="bracketright" unicode="]" horiz-adv-x="292" 
d="M335 779l-213 -922h-223l19 84h91l174 754h-91l20 84h223z" />
    <glyph glyph-name="asciicircum" unicode="^" horiz-adv-x="724" 
d="M649 281h-162l-59 279l-180 -279h-178l302 425h156z" />
    <glyph glyph-name="underscore" unicode="_" horiz-adv-x="498" 
d="M419 -121l-25 -110h-520l26 110h519z" />
    <glyph glyph-name="grave" unicode="`" horiz-adv-x="313" 
d="M286 580h-94l-165 162h165z" />
    <glyph glyph-name="a" unicode="a" 
d="M551 390q0 -30 -10 -72l-61 -271q-3 -12 -3 -25q0 -6 3 -22h-148q-5 22 -5 24q0 3 9 48q-9 -17 -20 -30q-52 -57 -151 -57q-29 0 -51 6q-48 12 -76 50t-28 90q0 33 11 60q31 79 139 112q51 14 229 25q10 38 10 54q0 52 -72 52q-54 0 -78 -39q-8 -15 -13 -33l-154 4
q14 42 26.5 66.5t39.5 46.5q63 53 198 53q101 0 152 -36q26 -18 39 -42q14 -27 14 -64zM366 232q-8 0 -23.5 -1t-23.5 -1q-84 -4 -124 -32q-30 -20 -30 -50q0 -12 5 -23q11 -30 59 -30q58 0 96 45q26 30 41 92z" />
    <glyph glyph-name="b" unicode="b" horiz-adv-x="625" 
d="M579 312q0 -103 -60 -198q-82 -129 -211 -129q-84 0 -127 46q-3 3 -18 26l-13 -57h-153l159 706h156l-51 -225q41 26 69.5 37.5t67.5 11.5q44 0 79 -17q34 -16 57 -45.5t31.5 -63.5t11 -54.5t2.5 -37.5zM423 317q0 24 -8 48q-10 24 -32.5 38t-48.5 13q-26 -2 -55 -23
t-49 -64q-29 -58 -29 -122q0 -52 27.5 -77t59.5 -25t63 26q35 29 53.5 82t18.5 104z" />
    <glyph glyph-name="c" unicode="c" horiz-adv-x="582" 
d="M566 356l-138 -30q-7 25 -15 40q-27 45 -86 45q-37 0 -65 -21q-34 -24 -55 -72.5t-21 -93.5q0 -78 54 -104q24 -11 51 -11q26 0 46 9t33 27t16.5 25t10.5 23l140 -43q-24 -45 -42 -68q-80 -97 -213 -97q-60 0 -113 22q-67 29 -104 88t-37 135q0 69 32.5 135t85.5 107
q78 60 183 60q129 0 196 -88q20 -28 41 -88z" />
    <glyph glyph-name="d" unicode="d" horiz-adv-x="625" 
d="M658 706l-160 -706h-154l7 36q-4 -3 -12 -8.5t-12 -8.5q-52 -33 -114 -33q-64 0 -111 39q-73 60 -73 178q0 111 58 202q32 51 76.5 81.5t76.5 38t63 7.5q66 0 112 -34q18 -14 33 -36l55 244h155zM411 309q0 25 -6 43q-10 29 -33 44.5t-52 14.5t-54 -19q-40 -27 -61 -79.5
t-21 -106.5q0 -43 17 -69q22 -34 68 -34q62 0 101 59q41 62 41 147z" />
    <glyph glyph-name="e" unicode="e" 
d="M559 298q0 -24 -4 -68h-375q-6 -84 46 -112q25 -14 58 -14q59 0 97 40q9 10 25 36l129 -45q-19 -31 -34 -51q-77 -99 -221 -99q-63 0 -111 20q-67 28 -103.5 89.5t-36.5 138.5q0 38 8 70q14 57 48.5 108t82.5 81q66 41 154 41q124 0 189 -81q28 -36 38 -74q10 -34 10 -80
zM421 327q0 24 -5 39q-8 22 -31.5 40.5t-61.5 18.5q-41 0 -76 -29q-26 -23 -47 -69h221z" />
    <glyph glyph-name="f" unicode="f" horiz-adv-x="333" 
d="M433 710l-22 -102h-45q-28 0 -43 -10q-23 -16 -34 -80h92l-22 -93h-91l-96 -425h-154l94 425h-71l21 93h73q5 30 12 56q30 113 114 140q32 10 71 10q19 0 41.5 -3t40.5 -7z" />
    <glyph glyph-name="g" unicode="g" horiz-adv-x="625" 
d="M606 515l-100 -441q-27 -122 -57 -166q-67 -102 -241 -102q-72 0 -121 18q-35 12 -59 29q-57 40 -57 102q0 8 1.5 18.5t3.5 18.5l1 8h160q-5 -19 -5 -30q0 -17 9.5 -30t21 -18.5t27.5 -8.5t21.5 -3.5t10.5 -0.5q33 0 57 12t40.5 41t22 50t11.5 56q-1 -1 -10.5 -8
t-14.5 -11q-47 -32 -103 -32q-43 0 -83.5 17.5t-65.5 48.5q-46 56 -46 147q0 97 56 183q19 32 52 61q39 34 88 49q33 12 73 12q70 0 116 -37q11 -8 30 -31l12 48h149zM409 318q0 47 -26 74q-28 28 -70 26q-68 -4 -105 -85q-26 -58 -26 -105q0 -49 26 -76q25 -27 69 -27
q31 0 56 17q32 21 50.5 65t22 69.5t3.5 41.5z" />
    <glyph glyph-name="h" unicode="h" 
d="M552 394q0 -27 -8 -59l-78 -335h-154l62 274q13 59 13 72q0 41 -30 56q-14 7 -31 7q-21 0 -43 -14q-43 -28 -61 -106l-66 -289h-155l161 706h155l-57 -252l6 6l9 9t9.5 9t12 10t13.5 9.5t16 9.5l17.5 7.5t20 7t21.5 4t24 1.5q43 0 76 -18q67 -35 67 -115z" />
    <glyph glyph-name="i" unicode="i" horiz-adv-x="292" 
d="M316 706l-26 -117h-155l27 117h154zM273 515l-117 -515h-155l117 515h155z" />
    <glyph glyph-name="j" unicode="j" horiz-adv-x="313" 
d="M338 706l-27 -117h-155l27 117h155zM294 515l-121 -524q-3 -11 -9 -31q-27 -80 -75 -112q-44 -28 -136 -28q-25 0 -73 2l29 124q37 -3 57.5 -0.5t34.5 16.5q15 15 21 42l117 511h155z" />
    <glyph glyph-name="k" unicode="k" horiz-adv-x="583" 
d="M630 515l-234 -194l140 -321h-166l-94 226l-87 -72l-34 -154h-154l160 706h153l-80 -357l192 166h204z" />
    <glyph glyph-name="l" unicode="l" horiz-adv-x="292" 
d="M314 706l-158 -706h-154l157 706h155z" />
    <glyph glyph-name="m" unicode="m" horiz-adv-x="917" 
d="M859 393q0 -47 -15 -99l-65 -294h-156l66 289q13 58 13 66q0 20 -13.5 38t-47.5 18q-23 0 -44 -12q-26 -15 -38 -39.5t-21 -61.5l-70 -298h-155l70 306q9 39 9 52q0 31 -19.5 42.5t-39.5 11.5q-22 0 -44 -12q-45 -26 -60 -90l-72 -310h-156l118 515h156l-16 -72
q18 22 27 31q54 56 135 56q73 0 111 -47q2 -2 21 -34q18 23 33 36q51 45 124 45q60 0 104 -36q45 -39 45 -101z" />
    <glyph glyph-name="n" unicode="n" 
d="M551 394q0 -25 -8 -57l-76 -337h-155l68 304q6 36 6 48q0 32 -19.5 44.5t-39.5 12.5t-40 -11q-47 -28 -65 -109l-66 -289h-155l118 515h154l-14 -62q67 75 150 75q33 0 60 -11q82 -32 82 -123z" />
    <glyph glyph-name="o" unicode="o" horiz-adv-x="625" 
d="M581 291q0 -117 -78 -206q-87 -100 -225 -100q-103 0 -165 52q-40 33 -62 85.5t-22 109.5q0 109 75 198q86 103 228 103q63 0 113 -22q66 -28 101 -87t35 -133zM423 294q0 42 -12 66q-10 20 -33 36.5t-60 15.5q-50 -3 -84 -43q-49 -61 -49 -143q0 -52 27 -86
q26 -33 76 -33q58 0 95 51q40 56 40 136z" />
    <glyph glyph-name="p" unicode="p" horiz-adv-x="625" 
d="M583 301q0 -134 -84 -230q-33 -36 -66 -55q-52 -30 -118 -30q-75 0 -119 36q-13 12 -28 32l-55 -242h-154l160 703h138l-11 -51q59 65 139 65q85 0 142 -59q56 -59 56 -169zM430 294q0 90 -52 115q-22 11 -42 10q-49 0 -85 -45q-9 -12 -19 -31q-12 -27 -21.5 -68
t-9.5 -69q1 -59 31 -84t65 -25q50 0 83 44q50 66 50 153z" />
    <glyph glyph-name="q" unicode="q" horiz-adv-x="625" 
d="M615 515l-159 -703h-155l49 221q-65 -48 -136 -48q-76 0 -130 59q-53 59 -53 152q0 128 76 231q80 104 198 104q69 0 112 -34q17 -14 34 -36l13 54h151zM414 306q-1 56 -29.5 81t-62.5 23q-60 -3 -96 -62q-39 -62 -39 -141q0 -66 37 -91q20 -14 49 -14q60 0 100 62
q41 64 41 142z" />
    <glyph glyph-name="r" unicode="r" horiz-adv-x="396" 
d="M440 521l-31 -134q-93 -4 -132 -31q-21 -15 -34 -35q-20 -30 -33 -88l-53 -233h-154l117 515h153l-16 -75q21 26 35 37q55 45 117 46q11 0 31 -2z" />
    <glyph glyph-name="s" unicode="s" horiz-adv-x="542" 
d="M521 408l-117 -57q-20 28 -29 36q-36 33 -97 33q-31 0 -48.5 -11.5t-17.5 -28.5q0 -10 5 -17.5t20 -14t23 -9t33 -9.5q40 -11 64 -20q101 -37 121 -97q7 -19 7 -46q0 -66 -54 -116q-71 -67 -202 -67q-141 0 -219 90q-17 20 -32 47l129 64q12 -22 19 -30q39 -47 114 -47
q25 0 50 8q19 6 28 19q6 9 6 19t-6 18q-11 16 -70 34q-86 27 -120.5 44.5t-56.5 52.5q-20 33 -20 68q0 38 23 74q57 89 206 89q140 0 212 -83q15 -19 29 -43z" />
    <glyph glyph-name="t" unicode="t" horiz-adv-x="354" 
d="M367 518l-21 -93h-89l-49 -215q-7 -31 -7 -45q0 -13 6 -25q11 -21 52 -21h30l-27 -118q-60 -8 -90 -8q-60 0 -97.5 26.5t-38.5 86.5q0 21 8 55l58 264h-70l21 93h69l33 143h156l-33 -143h89z" />
    <glyph glyph-name="u" unicode="u" 
d="M584 515l-117 -515h-154l15 67q-18 -19 -29.5 -29.5t-46 -26t-72.5 -15.5q-60 0 -102 34t-42 93q0 25 9 66l74 326h154l-68 -303q-4 -16 -4 -34q0 -46 34 -58q16 -4 25 -4q24 0 47 14q26 15 38 40t21 64l63 281h155z" />
    <glyph glyph-name="v" unicode="v" horiz-adv-x="521" 
d="M570 515l-301 -515h-160l-61 515h154l21 -352l175 352h172z" />
    <glyph glyph-name="w" unicode="w" horiz-adv-x="792" 
d="M838 515l-283 -515h-154l-5 316l-158 -316h-154l-32 515h142l8 -336l163 336h144l8 -336l158 336h163z" />
    <glyph glyph-name="x" unicode="x" horiz-adv-x="521" 
d="M566 515l-227 -253l114 -262h-162l-56 156l-129 -156h-173l241 272l-101 243h162l48 -132l106 132h177z" />
    <glyph glyph-name="y" unicode="y" horiz-adv-x="500" 
d="M563 515l-336 -572q-15 -26 -40 -57q-33 -40 -75.5 -55.5t-101.5 -15.5q-26 0 -78 4l28 125q49 -7 53 -7q23 0 40 7t23.5 13t15.5 18l-53 540h156l16 -360l181 360h171z" />
    <glyph glyph-name="z" unicode="z" horiz-adv-x="521" 
d="M532 515l-25 -110l-312 -291h259l-26 -114h-458l25 114l314 291h-249l25 110h447z" />
    <glyph glyph-name="braceleft" unicode="{" horiz-adv-x="317" 
d="M420 782l-19 -84h-16q-29 0 -45 -15q-12 -12 -17 -22q-7 -17 -20 -71l-33 -142q-15 -63 -33 -89q-27 -37 -81 -47q57 -20 57 -81q0 -34 -8 -67l-28 -120q-12 -53 -12 -66q0 -43 49 -43h11l-19 -83h-64q-54 0 -84 28t-30 79q0 25 13 80l31 129q7 30 7 50q0 27 -15.5 39.5
t-53.5 16.5l20 87q55 1 76 21t35 85l33 148q13 57 27 89q11 24 33 44q23 20 47 27t75 7h64z" />
    <glyph glyph-name="bar" unicode="|" horiz-adv-x="256" 
d="M303 779l-213 -922h-133l213 922h133z" />
    <glyph glyph-name="braceright" unicode="}" horiz-adv-x="317" 
d="M307 360l-20 -87q-55 -1 -75.5 -21t-35.5 -85l-34 -148q-13 -57 -27 -89q-12 -26 -32 -44q-23 -20 -47.5 -27t-75.5 -7h-64l19 84h16q29 0 46 15q10 10 16 22q7 17 20 71l33 142q15 63 33 88q26 38 81 48q-57 20 -57 81q0 29 9 67l27 120q12 53 12 66q0 43 -48 43h-12
l19 83h64q55 0 84.5 -28t29.5 -79q0 -25 -13 -80l-30 -129q-8 -34 -8 -50q0 -27 15.5 -39.5t54.5 -16.5z" />
    <glyph glyph-name="asciitilde" unicode="~" horiz-adv-x="724" 
d="M665 308q-40 -46 -77 -70q-45 -29 -92 -29q-41 0 -120 38l-35 17q-65 31 -102 31q-18 0 -33 -6q-30 -11 -73 -62l-10 -12l-47 133q35 42 58 61q46 38 106 38q21 0 41 -5q18 -4 73 -29l61 -28q54 -25 78 -25q34 0 67 23q25 17 59 56z" />
    <glyph glyph-name="exclamdown" unicode="&#xa1;" horiz-adv-x="292" 
d="M297 706l-36 -159h-159l37 159h158zM194 463l-9 -244l-50 -219h-159l51 219l102 244h65z" />
    <glyph glyph-name="cent" unicode="&#xa2;" horiz-adv-x="562" 
d="M566 356l-138 -30q-8 30 -19.5 47.5t-37.5 28.5l-82 -293q26 0 45.5 8t32.5 24.5t18 25.5t12 26l140 -43l-5 -8q-4 -8 -9 -17.5t-13 -21.5t-15 -21q-80 -97 -214 -97q-16 0 -26 1l-27 -100l-58 2l30 108q-84 25 -127 87.5t-45 140.5q-2 84 41 158q46 79 115.5 115
t146.5 35q12 0 19 -1l21 77l56 -2l-23 -84q92 -27 135 -100q7 -12 27 -66zM316 410q-43 -3 -74 -38.5t-43 -74.5t-13 -71q0 -77 49 -104z" />
    <glyph glyph-name="sterling" unicode="&#xa3;" horiz-adv-x="750" 
d="M700 232q-6 -39 -11.5 -63.5t-17 -58.5t-31.5 -58.5t-48 -40.5q-40 -23 -89 -23q-25 0 -57 9q-19 5 -38.5 14.5t-35 19t-55.5 35.5l-30 -24q-75 -55 -151 -55q-32 0 -61 10q-44 16 -60.5 48t-16.5 62q0 28 15 56q36 66 135 66q30 0 102 -16q-3 56 -21 107h-147l19 87
l93 1q-11 55 -11 78q0 46 21.5 89t58.5 71q69 52 189 52q150 0 211 -88q17 -26 37 -87l-146 -56q-5 27 -12 43q-13 28 -40 45t-59 17q-42 0 -68.5 -29.5t-26.5 -71.5q0 -20 12 -64h164l-20 -87h-111q15 -52 15 -77t-22 -81q56 -38 88 -38q22 0 37 9.5t22.5 28.5t11 33.5
t6.5 37.5zM230 122q-49 21 -74 21q-26 0 -40 -12.5t-14 -27.5q0 -7 5 -14q11 -21 38 -21q31 0 62 27q12 10 23 27z" />
    <glyph glyph-name="currency" unicode="&#xa4;" horiz-adv-x="700" 
d="M705 549l-88 -76q24 -52 24 -100q0 -106 -62 -189l71 -84l-111 -93l-71 84q-66 -33 -134 -33q-46 0 -78.5 10.5t-72.5 37.5l-90 -76l-85 101l90 76q-26 58 -26 108q0 102 62 178l-69 83l109 93l69 -82q65 34 138 34q77 0 150 -47l90 76zM491 355q0 55 -34 90t-89 35
q-61 0 -103 -45t-42 -111q0 -54 34 -89.5t86 -35.5q61 0 104.5 45.5t43.5 110.5z" />
    <glyph glyph-name="yen" unicode="&#xa5;" horiz-adv-x="667" 
d="M734 695l-207 -250h72l-26 -102h-131l-41 -50l-2 -13h162l-26 -103h-160l-41 -177h-175l40 177h-159l25 103h158l7 34l-11 29h-140l24 102h75l-101 250h175l97 -250h2l184 250h199z" />
    <glyph glyph-name="brokenbar" unicode="&#xa6;" horiz-adv-x="256" 
d="M302 778l-92 -402h-134l93 402h133zM182 257l-92 -401h-134l92 401h134z" />
    <glyph glyph-name="section" unicode="&#xa7;" horiz-adv-x="625" 
d="M613 629l-92 -86q-92 69 -157 69q-54 0 -54 -38q0 -11 7 -21t20 -18.5t24.5 -14.5t27 -13t20.5 -9q37 -19 63.5 -35.5t55.5 -41t44.5 -56.5t15.5 -69q0 -87 -75 -144q-11 -8 -60 -33q23 -54 23 -82q0 -54 -39 -94.5t-95 -57.5q-40 -13 -86 -13h-6q-139 0 -245 94l93 91
q44 -34 79 -50.5t80 -16.5q42 0 61 24q7 10 7 18q0 22 -30 42t-72.5 39t-84.5 42t-72 62t-30 90q0 41 20.5 78t55.5 62q20 14 70 35q-24 45 -24 78q0 46 31 88q57 75 184 75q73 0 125 -21.5t115 -72.5zM460 262q0 17 -7 31.5t-25 28.5t-26.5 19.5t-36 19t-28.5 13.5
q-58 30 -97 53q-17 -8 -26.5 -14t-22 -15.5t-18.5 -22.5t-6 -29t7.5 -30t24 -26.5t27 -19t33.5 -18l27 -13.5q78 -42 105 -59q69 32 69 82z" />
    <glyph glyph-name="dieresis" unicode="&#xa8;" horiz-adv-x="313" 
d="M371 694l-26 -116h-163l26 116h163zM128 694l-24 -116h-162l25 116h161z" />
    <glyph glyph-name="copyright" unicode="&#xa9;" horiz-adv-x="823" 
d="M779 360q0 -155 -102 -259t-255 -104q-148 0 -251.5 104t-103.5 252q0 149 103.5 252.5t252.5 103.5q146 0 251 -102.5t105 -246.5zM730 347q0 136 -88.5 228t-219.5 92q-127 0 -216.5 -92.5t-89.5 -222.5t89 -221.5t217 -91.5q126 0 217 91t91 217zM626 481l-85 -71
q-21 30 -28 37q-26 29 -69 29q-49 0 -83 -43.5t-34 -106.5q0 -48 24.5 -74.5t68.5 -26.5q25 0 43 8t48 32l55 -88q-43 -35 -77.5 -49.5t-78.5 -14.5q-90 0 -147 57.5t-57 148.5q0 111 69.5 186.5t170.5 75.5q59 0 98 -21.5t82 -78.5z" />
    <glyph glyph-name="ordfeminine" unicode="&#xaa;" horiz-adv-x="375" 
d="M403 626q0 -15 -6 -45l-38 -169q-2 -12 -2 -17q0 -4 2 -12h-92q-3 7 -3 15q0 5 1 9.5t2 10.5t2 10q-10 -18 -17 -24q-32 -30 -90 -30q-50 0 -73 26.5t-24 58.5q-2 37 24 70q28 33 73 43t140 15q6 25 6 34q0 33 -45 33q-20 0 -33 -9.5t-16 -15.5t-8 -20l-96 2
q0 2 2.5 10.5t8.5 21t12 20.5q41 53 139 53q131 3 131 -90zM288 527q-32 0 -48 -2q-78 -9 -78 -49q0 -34 40 -34q10 0 19 2t16 5.5t13 8.5t10.5 9.5t8.5 11.5t6.5 12t5 12t3.5 10t2 9z" />
    <glyph glyph-name="guillemotleft" unicode="&#xab;" horiz-adv-x="417" 
d="M424 516l-33 -142l-104 -65l72 -72l-28 -122l-121 127l37 162zM240 517l-32 -139l-103 -67l71 -71l-28 -123l-120 128l36 158z" />
    <glyph glyph-name="logicalnot" unicode="&#xac;" horiz-adv-x="724" 
d="M663 390l-83 -366h-167l54 232h-400l30 134h566z" />
    <glyph glyph-name="registered" unicode="&#xae;" horiz-adv-x="819" 
d="M778 360q0 -155 -102 -259t-255 -104q-149 0 -252 103.5t-103 252.5t104 252.5t252 103.5q146 0 251 -102.5t105 -246.5zM729 347q0 136 -88.5 228t-219.5 92q-127 0 -216.5 -92.5t-89.5 -222.5q0 -131 89 -222t217 -91q126 0 217 91t91 217zM615 450q0 -51 -23.5 -84
t-73.5 -54l70 -175h-116l-55 158h-53l-32 -158h-106l88 442h112q60 0 81 -2.5t44 -13.5q64 -29 64 -113zM504 442q0 47 -52 47h-49l-20 -105h54q35 0 51 13.5t16 44.5z" />
    <glyph glyph-name="macron" unicode="&#xaf;" horiz-adv-x="313" 
d="M368 667l-20 -89h-403l19 89h404z" />
    <glyph glyph-name="degree" unicode="&#xb0;" horiz-adv-x="354" 
d="M396 573q0 -71 -50.5 -122t-121.5 -51t-121.5 51t-50.5 122q0 72 50 122t122 50t122 -50t50 -122zM281 575q0 23 -16.5 39t-39.5 16t-39.5 -16t-16.5 -39t16.5 -39.5t39.5 -16.5t39.5 16.5t16.5 39.5z" />
    <glyph glyph-name="plusminus" unicode="&#xb1;" horiz-adv-x="724" 
d="M680 504l-29 -130h-187l-43 -190h-166l43 190h-183l30 130h182l43 185h166l-43 -185h187zM596 131l-30 -131h-536l30 131h536z" />
    <glyph glyph-name="twosuperior" unicode="&#xb2;" horiz-adv-x="354" 
d="M382 557q-1 -79 -97 -148l-107 -77h174l-19 -80h-303l14 67l182 149q58 48 59 88q0 22 -13.5 38t-35.5 16q-25 0 -42 -21.5t-17 -58.5q0 -13 1 -19l-94 11q4 46 11 66q15 41 52 70t96 28q39 -1 68 -14.5t43.5 -34.5t21 -41t6.5 -39z" />
    <glyph glyph-name="threesuperior" unicode="&#xb3;" horiz-adv-x="354" 
d="M379 566q-1 -70 -83 -96q55 -37 55 -89q0 -33 -20 -64q-21 -33 -61 -54t-96 -20q-77 3 -112.5 42t-35.5 88v3q0 11 1 16l102 11q-3 -12 -3 -24q0 -25 16 -42t41 -17q29 0 45 20t15 48q0 17 -11 32.5t-39 15.5h-15l14 65q12 -3 25 -3q20 0 34 10t19.5 24t7 23t1.5 16
q0 17 -10 27.5t-18 12.5t-16 2q-53 0 -60 -68l-97 11q12 51 30 75q23 29 60 42t70 13q71 -1 106.5 -39t34.5 -81z" />
    <glyph glyph-name="acute" unicode="&#xb4;" horiz-adv-x="313" 
d="M286 742l-165 -162h-94l94 162h165z" />
    <glyph glyph-name="mu" unicode="&#xb5;" horiz-adv-x="637" 
d="M597 515l-80 -361q-3 -12 -3 -24q0 -26 25 -26q12 0 31 8l-26 -112q-46 -12 -84 -12q-40 0 -71 21q-19 13 -30 57q-18 -31 -35 -46q-32 -29 -73 -29q-58 0 -70 57l-58 -264h-156l163 731h155l-56 -242q-1 -5 -4 -21t-6 -27q-8 -39 -8 -57q0 -30 16 -48.5t43 -18.5
q32 0 56 29q21 25 37 71q11 29 25 92l52 222h157z" />
    <glyph glyph-name="paragraph" unicode="&#xb6;" horiz-adv-x="638" 
d="M663 706l-19 -83h-35l-182 -790h-89l183 790h-114l-182 -790h-89l108 468q-112 54 -112 177q0 57 25 105.5t70 79.5q36 24 80 33.5t117 9.5h239z" />
    <glyph glyph-name="periodcentered" unicode="&#xb7;" horiz-adv-x="250" 
d="M236 427l-37 -165h-158l37 165h158z" />
    <glyph glyph-name="cedilla" unicode="&#xb8;" horiz-adv-x="313" 
d="M265 -117q0 -24 -19 -48q-39 -48 -131 -48q-34 0 -67 3l11 45q54 -6 73 9q16 13 9.5 25t-25.5 12q-27 0 -49 -9l8 35l95 111h46l-56 -88q30 5 44 5q15 0 24 -3q37 -13 37 -49z" />
    <glyph glyph-name="onesuperior" unicode="&#xb9;" horiz-adv-x="354" 
d="M331 676l-96 -424h-100l70 309q-46 -11 -81 -11h-14l15 68q55 1 81.5 13t49.5 45h75z" />
    <glyph glyph-name="ordmasculine" unicode="&#xba;" horiz-adv-x="354" 
d="M405 565q0 -59 -29 -102.5t-65 -64.5q-43 -25 -99 -25q-45 1 -77 17.5t-47 41.5t-21.5 47t-6.5 42q-2 51 23 96q52 97 166 99q26 0 55 -8q34 -11 57 -32.5t31 -46.5t10.5 -38.5t2.5 -25.5zM306 570q-1 39 -21 55t-45 15q-19 0 -35 -11q-19 -13 -33.5 -41t-14.5 -63
q0 -8 1.5 -17t7 -24.5t20 -25t35.5 -9.5q44 0 65 40t20 81z" />
    <glyph glyph-name="guillemotright" unicode="&#xbb;" horiz-adv-x="417" 
d="M394 387l-36 -158l-176 -115l32 140l103 67l-72 70l29 123zM211 389l-36 -161l-177 -113l33 142l102 64l-71 73l28 121z" />
    <glyph glyph-name="onequarter" unicode="&#xbc;" horiz-adv-x="833" 
d="M804 174l-16 -70h-62l-23 -104h-99l24 104h-178l18 80l215 240h116l-56 -250h61zM700 678l-461 -678h-86l461 678h86zM331 676l-96 -424h-100l70 309q-46 -11 -81 -11h-14l15 68q55 1 81.5 13t49.5 45h75zM683 331l-139 -157h100z" />
    <glyph glyph-name="onehalf" unicode="&#xbd;" horiz-adv-x="833" 
d="M801 305q-2 -78 -98 -148l-106 -77h174l-19 -80h-303l14 67l182 149q59 48 59 88q0 22 -13.5 37.5t-35.5 15.5q-25 1 -42 -20.5t-17 -59.5q0 -12 1 -19l-94 12q4 46 11 66q15 41 52 70t96 28q39 -1 68 -14.5t43.5 -34.5t21 -41t6.5 -39zM677 678l-461 -678h-87l461 678
h87zM331 676l-96 -424h-100l70 309q-46 -11 -81 -11h-14l15 68q55 1 81.5 13t49.5 45h75z" />
    <glyph glyph-name="threequarters" unicode="&#xbe;" horiz-adv-x="833" 
d="M804 174l-16 -70h-62l-23 -104h-99l24 104h-178l18 80l215 240h116l-56 -250h61zM727 678l-461 -678h-87l461 678h87zM379 566q-1 -70 -83 -96q55 -37 55 -89q0 -33 -20 -64q-21 -33 -61 -54t-96 -20q-77 3 -112.5 42t-35.5 88v3q0 11 1 16l102 11q-3 -12 -3 -24
q0 -25 16 -42t41 -17q29 0 45 20t15 48q0 17 -11 32.5t-39 15.5h-15l14 65q12 -3 25 -3q20 0 34 10t19.5 24t7 23t1.5 16q0 17 -10 27.5t-18 12.5t-16 2q-53 0 -60 -68l-97 11q12 51 30 75q23 29 60 42t70 13q71 -1 106.5 -39t34.5 -81zM683 331l-139 -157h100z" />
    <glyph glyph-name="questiondown" unicode="&#xbf;" horiz-adv-x="562" 
d="M488 706l-36 -158h-158l35 158h159zM517 187q-23 -62 -43 -90q-72 -106 -236 -106q-96 0 -161 39q-83 52 -83 141q0 56 35 104q30 42 98 74q8 4 29.5 13t34.5 15t30.5 16t28.5 20q20 16 37 48h140q-11 -46 -25 -67q-7 -11 -17 -21.5t-18.5 -18t-27 -20t-28 -18.5
t-37.5 -23t-41 -25q-54 -33 -64 -63q-3 -6 -3 -20q0 -24 20 -45.5t62 -21.5q90 0 113 105z" />
    <glyph glyph-name="Agrave" unicode="&#xc0;" horiz-adv-x="708" 
d="M545 780h-101l-163 131h188zM635 0h-172l-9 140h-260l-78 -140h-185l431 706h198zM446 268l-19 290l-161 -290h180z" />
    <glyph glyph-name="Aacute" unicode="&#xc1;" horiz-adv-x="708" 
d="M664 911l-162 -131h-101l75 131h188zM635 0h-172l-9 140h-260l-78 -140h-185l431 706h198zM446 268l-19 290l-161 -290h180z" />
    <glyph glyph-name="Acircumflex" unicode="&#xc2;" horiz-adv-x="708" 
d="M661 782h-115l-49 77l-70 -77h-161l136 116h192zM635 0h-172l-9 140h-260l-78 -140h-185l431 706h198zM446 268l-19 290l-161 -290h180z" />
    <glyph glyph-name="Atilde" unicode="&#xc3;" horiz-adv-x="708" 
d="M695 900q-18 -47 -30 -64q-39 -56 -111 -56q-15 0 -32.5 3t-26.5 5.5t-33 10t-28 8.5q-40 12 -62 12q-8 0 -14.5 -2t-10 -4.5t-7.5 -7t-5.5 -7t-4 -7t-2.5 -5.5h-71q12 33 24 54q38 65 111 65q48 0 117 -26q53 -16 68 -16q12 0 20.5 3.5t14 12t6.5 11t4 11.5zM635 0h-172
l-9 140h-260l-78 -140h-185l431 706h198zM446 268l-19 290l-161 -290h180z" />
    <glyph glyph-name="Adieresis" unicode="&#xc4;" horiz-adv-x="708" 
d="M714 897l-25 -114h-161l25 114h161zM454 897l-26 -114h-161l26 114h161zM635 0h-172l-9 140h-260l-78 -140h-185l431 706h198zM446 268l-19 291l-161 -291h180z" />
    <glyph glyph-name="Aring" unicode="&#xc5;" horiz-adv-x="708" 
d="M590 862q0 -20 -11 -39q-25 -46 -92 -46q-46 0 -74 24q-29 26 -29 61q0 31 25.5 58t77.5 27q53 0 78 -27t25 -58zM635 0h-172l-9 140h-260l-78 -140h-185l430 706h199zM533 862q0 8 -5 18q-11 20 -42 20q-25 0 -35.5 -11.5t-10.5 -26.5q0 -17 13 -28q10 -10 34 -10
q24 1 35 12t11 26zM446 268l-20 290l-161 -290h181z" />
    <glyph glyph-name="AE" unicode="&#xc6;" horiz-adv-x="1062" 
d="M1059 706l-30 -135h-303l-31 -137h292l-28 -129h-293l-38 -170h359l-31 -135h-531l37 165h-210l-118 -165h-203l541 706h587zM558 588l-213 -295h147z" />
    <glyph glyph-name="Ccedilla" unicode="&#xc7;" horiz-adv-x="729" 
d="M738 523l-169 -38q-36 99 -123 101q-61 2 -109.5 -41t-72.5 -106t-24 -129q0 -86 38.5 -133t94.5 -49q75 0 132 74q18 24 37 65l147 -82q-32 -58 -63 -91q-104 -113 -255 -113h-6l-33 -51q29 5 44 5q32 0 46.5 -16.5t14.5 -35.5q0 -24 -18 -47q-40 -51 -139 -49
q-30 0 -60 3l10 45q28 -2 37 -2q19 0 34 9t13 20q-2 19 -26 19q-20 0 -49 -9l7 35l69 79q-38 6 -67 17q-85 32 -139.5 107t-54.5 198q0 107 45 201t134 154.5t204 59.5q64 0 133.5 -24t115.5 -78q25 -29 52 -98z" />
    <glyph glyph-name="Egrave" unicode="&#xc8;" horiz-adv-x="667" 
d="M534 780h-100l-164 131h188zM669 706l-31 -135h-335l-31 -137h323l-29 -129h-323l-39 -171h385l-29 -134h-560l161 706h508z" />
    <glyph glyph-name="Eacute" unicode="&#xc9;" horiz-adv-x="667" 
d="M617 911l-162 -131h-101l75 131h188zM669 706l-31 -135h-335l-31 -137h323l-29 -129h-323l-39 -171h385l-29 -134h-560l161 706h508z" />
    <glyph glyph-name="Ecircumflex" unicode="&#xca;" horiz-adv-x="667" 
d="M640 782h-115l-49 77l-70 -77h-161l137 116h192zM669 706l-31 -135h-335l-31 -137h323l-29 -129h-323l-39 -171h385l-29 -134h-560l161 706h508z" />
    <glyph glyph-name="Edieresis" unicode="&#xcb;" horiz-adv-x="667" 
d="M681 897l-26 -114h-161l25 114h162zM421 897l-26 -114h-161l25 114h162zM669 706l-31 -135h-335l-31 -137h323l-29 -129h-323l-39 -171h385l-29 -134h-560l161 706h508z" />
    <glyph glyph-name="Igrave" unicode="&#xcc;" horiz-adv-x="313" 
d="M341 780h-100l-163 131h187zM336 706l-158 -706h-176l158 706h176z" />
    <glyph glyph-name="Iacute" unicode="&#xcd;" horiz-adv-x="313" 
d="M450 911l-162 -131h-101l76 131h187zM336 706l-158 -706h-176l158 706h176z" />
    <glyph glyph-name="Icircumflex" unicode="&#xce;" horiz-adv-x="313" 
d="M463 782h-115l-49 77l-70 -77h-161l137 116h191zM336 706l-158 -706h-176l158 706h176z" />
    <glyph glyph-name="Idieresis" unicode="&#xcf;" horiz-adv-x="313" 
d="M504 897l-26 -114h-161l25 114h162zM244 897l-26 -114h-161l25 114h162zM336 706l-158 -706h-176l158 706h176z" />
    <glyph glyph-name="Eth" unicode="&#xd0;" horiz-adv-x="750" 
d="M725 426q0 -55 -13 -112t-40.5 -114t-78 -103.5t-117.5 -69.5q-75 -27 -217 -27h-259l74 328h-67l22 96h68l64 282h279q65 0 119 -18q164 -53 166 -262zM545 426q0 41 -13 70.5t-29 43.5t-41.5 21.5t-39 8.5t-33.5 1h-88l-33 -147h180l-22 -96h-180l-43 -192h78
q93 0 139 26q50 29 87.5 101t37.5 163z" />
    <glyph glyph-name="Ntilde" unicode="&#xd1;" horiz-adv-x="708" 
d="M695 900q-18 -47 -30 -64q-39 -56 -111 -56q-15 0 -32.5 3t-26.5 5.5t-33 10t-28 8.5q-40 12 -62 12q-8 0 -14.5 -2t-10 -4.5t-7.5 -7t-5.5 -7t-4 -7t-2.5 -5.5h-71q12 33 24 54q38 65 111 65q48 0 117 -26q53 -16 68 -16q12 0 20.5 3.5t14 12t6.5 11t4 11.5zM733 706
l-161 -706h-172l-139 453l-100 -453h-162l162 706h174l141 -455l96 455h161z" />
    <glyph glyph-name="Ograve" unicode="&#xd2;" horiz-adv-x="792" 
d="M597 780h-101l-163 131h188zM769 423q0 -115 -56 -223q-18 -35 -47 -73q-84 -104 -203 -133q-44 -11 -101 -11q-159 0 -243 91q-71 78 -71 216q0 56 13 108q40 157 147 245q46 38 110 60q60 22 137 22q147 0 234 -87q80 -81 80 -215zM593 424q0 47 -15 79
q-18 39 -58 59.5t-87 18.5q-24 -1 -48 -9q-82 -27 -125 -131q-34 -81 -34 -159q0 -40 12 -71q17 -43 52.5 -66.5t82.5 -22.5q61 0 111 40t79.5 116.5t29.5 145.5z" />
    <glyph glyph-name="Oacute" unicode="&#xd3;" horiz-adv-x="792" 
d="M680 911l-163 -131h-101l76 131h188zM769 423q0 -115 -56 -223q-18 -35 -47 -73q-84 -104 -203 -133q-44 -11 -101 -11q-159 0 -243 91q-71 78 -71 216q0 56 13 108q40 157 147 245q46 38 110 60q60 22 137 22q147 0 234 -87q80 -81 80 -215zM593 424q0 47 -15 79
q-18 39 -58 59.5t-87 18.5q-24 -1 -48 -9q-82 -27 -125 -131q-34 -81 -34 -159q0 -40 12 -71q17 -43 52.5 -66.5t82.5 -22.5q61 0 111 40t79.5 116.5t29.5 145.5z" />
    <glyph glyph-name="Ocircumflex" unicode="&#xd4;" horiz-adv-x="792" 
d="M702 782h-115l-49 77l-69 -77h-161l136 116h192zM769 423q0 -115 -56 -223q-18 -35 -47 -73q-84 -104 -203 -133q-44 -11 -101 -11q-159 0 -243 91q-71 78 -71 216q0 56 13 108q40 157 147 245q46 38 110 60q60 22 137 22q147 0 234 -87q80 -81 80 -215zM593 424
q0 47 -15 79q-18 39 -58 59.5t-87 18.5q-24 -1 -48 -9q-82 -27 -125 -131q-34 -81 -34 -159q0 -40 12 -71q17 -43 52.5 -66.5t82.5 -22.5q61 0 111 40t79.5 116.5t29.5 145.5z" />
    <glyph glyph-name="Otilde" unicode="&#xd5;" horiz-adv-x="792" 
d="M737 900q-16 -43 -30 -64q-39 -56 -111 -56q-15 0 -32.5 3t-26.5 5.5t-33 10t-28 8.5q-40 12 -62 12q-15 0 -25.5 -7.5t-12.5 -11.5t-6 -14h-71q13 38 23 54q38 65 112 65q13 0 29 -2.5t30.5 -6t26 -7t20.5 -7t10 -3.5q48 -16 68 -16q13 0 21.5 3.5t14 12t6.5 11t4 11.5z
M769 423q0 -115 -56 -223q-18 -35 -47 -73q-84 -104 -203 -133q-44 -11 -101 -11q-159 0 -243 91q-71 78 -71 216q0 56 13 108q40 157 147 245q46 38 110 60q60 22 137 22q147 0 234 -87q80 -81 80 -215zM593 424q0 47 -15 79q-18 39 -58 59.5t-87 18.5q-24 -1 -48 -9
q-82 -27 -125 -131q-34 -81 -34 -159q0 -40 12 -71q17 -43 52.5 -66.5t82.5 -22.5q61 0 111 40t79.5 116.5t29.5 145.5z" />
    <glyph glyph-name="Odieresis" unicode="&#xd6;" horiz-adv-x="792" 
d="M742 898l-26 -115h-161l25 115h162zM482 898l-26 -115h-162l26 115h162zM769 423q0 -115 -56 -223q-18 -35 -47 -73q-84 -104 -203 -133q-44 -11 -101 -11q-159 0 -243 91q-71 78 -71 216q0 56 13 108q40 157 147 245q46 38 110 60q60 22 137 22q147 0 234 -87
q80 -81 80 -215zM593 424q0 47 -15 79q-18 39 -58 59.5t-87 18.5q-24 -1 -48 -9q-82 -27 -125 -131q-34 -81 -34 -159q0 -40 12 -71q17 -43 52.5 -66.5t82.5 -22.5q61 0 111 40t79.5 116.5t29.5 145.5z" />
    <glyph glyph-name="multiply" unicode="&#xd7;" horiz-adv-x="724" 
d="M634 462l-167 -136l119 -148l-126 -102l-120 147l-166 -135l-81 100l166 135l-118 146l126 102l118 -145l168 136z" />
    <glyph glyph-name="Oslash" unicode="&#xd8;" horiz-adv-x="792" 
d="M770 421q0 -156 -95 -283q-115 -156 -313 -156q-81 0 -148 28q-10 4 -42 20l-68 -79l-54 47l66 80q-18 23 -26 36q-41 66 -41 172q0 173 106 301q112 138 302 138q99 0 175 -43l54 64l56 -47l-51 -61q22 -27 39 -53q40 -66 40 -164zM530 562q-48 24 -88 24
q-82 0 -138 -64q-34 -39 -54.5 -96t-24 -89t-3.5 -57q0 -22 10 -67zM597 421q0 48 -17 88l-306 -360q18 -12 28 -17q32 -17 76 -17q61 0 113 45q29 26 47 57q59 95 59 204z" />
    <glyph glyph-name="Ugrave" unicode="&#xd9;" horiz-adv-x="729" 
d="M550 780h-101l-163 131h188zM754 706l-104 -464q-24 -107 -70 -160q-42 -49 -108.5 -73.5t-137.5 -24.5q-58 0 -111 15q-106 30 -145 110q-19 38 -19 94q0 39 15 110l88 393h177l-96 -431q-7 -25 -7 -53q0 -20 7 -35q9 -20 34 -36t64 -16q79 0 116 81q14 32 19 55
l102 435h176z" />
    <glyph glyph-name="Uacute" unicode="&#xda;" horiz-adv-x="729" 
d="M664 911l-162 -131h-101l75 131h188zM754 706l-104 -464q-24 -107 -70 -160q-42 -49 -108.5 -73.5t-137.5 -24.5q-58 0 -111 15q-106 30 -145 110q-19 38 -19 94q0 39 15 110l88 393h177l-96 -431q-7 -25 -7 -53q0 -20 7 -35q9 -20 34 -36t64 -16q79 0 116 81
q14 32 19 55l102 435h176z" />
    <glyph glyph-name="Ucircumflex" unicode="&#xdb;" horiz-adv-x="729" 
d="M671 782h-115l-49 77l-69 -77h-161l136 116h192zM754 706l-104 -464q-24 -107 -70 -160q-42 -49 -108.5 -73.5t-137.5 -24.5q-58 0 -111 15q-106 30 -145 110q-19 38 -19 94q0 39 15 110l88 393h177l-96 -431q-7 -25 -7 -53q0 -20 7 -35q9 -20 34 -36t64 -16q79 0 116 81
q14 32 19 55l102 435h176z" />
    <glyph glyph-name="Udieresis" unicode="&#xdc;" horiz-adv-x="729" 
d="M712 896l-26 -115h-161l25 115h162zM451 896l-26 -115h-161l26 115h161zM754 706l-104 -464q-24 -107 -70 -160q-42 -49 -108.5 -73.5t-137.5 -24.5q-58 0 -111 15q-106 30 -145 110q-19 38 -19 94q0 39 15 110l88 393h177l-96 -431q-7 -25 -7 -53q0 -20 7 -35
q9 -20 34 -36t64 -16q79 0 116 81q14 32 19 55l102 435h176z" />
    <glyph glyph-name="Yacute" unicode="&#xdd;" horiz-adv-x="667" 
d="M617 911l-162 -131h-101l75 131h188zM754 706l-333 -408l-67 -298h-175l71 320l-153 386h175l98 -254l185 254h199z" />
    <glyph glyph-name="Thorn" unicode="&#xde;" horiz-adv-x="688" 
d="M675 399q1 -86 -47 -156t-140 -96q-51 -15 -127 -15h-155l-31 -132h-175l158 706h175l-21 -100h129q52 0 87 -10q60 -16 103 -63t44 -134zM498 388q0 30 -12 49q-15 24 -36 33.5t-59 9.5h-106l-49 -220h125q30 0 54 8q26 9 44.5 27.5t26 39t10 33t2.5 20.5z" />
    <glyph glyph-name="germandbls" unicode="&#xdf;" horiz-adv-x="625" 
d="M576 550q0 -33 -14.5 -69t-39.5 -54q-16 -12 -57 -24q48 -19 72 -54q30 -41 30 -102q0 -63 -27 -122q-20 -43 -50.5 -72.5t-63 -42.5t-56.5 -18t-45 -5q-34 0 -112 19l26 113q40 -12 63 -12q25 0 46 11q62 33 62 125q0 37 -12 61q-15 29 -41.5 37t-65.5 7l24 108
q16 -8 36 -8q18 0 29 5q26 10 41 40q10 23 10 44q0 40 -22.5 54t-47.5 14q-22 0 -41 -10q-20 -11 -30 -30.5t-20 -62.5l-115 -502h-155l109 482q19 80 38 115q66 121 223 121q95 0 148 -40q22 -17 40 -50q18 -36 18 -78z" />
    <glyph glyph-name="agrave" unicode="&#xe0;" 
d="M465 580h-94l-165 162h165zM551 390q0 -30 -10 -72l-61 -271q-3 -12 -3 -25q0 -6 3 -22h-148q-5 22 -5 24q0 3 9 48q-9 -17 -20 -30q-52 -57 -151 -57q-29 0 -51 6q-48 12 -76 50t-28 90q0 33 11 60q31 79 139 112q51 14 229 25q10 38 10 54q0 52 -72 52q-54 0 -78 -39
q-8 -15 -13 -33l-154 4q14 42 26.5 66.5t39.5 46.5q63 53 198 53q101 0 152 -36q26 -18 39 -42q14 -27 14 -64zM366 232q-8 0 -23.5 -1t-23.5 -1q-84 -4 -124 -32q-30 -20 -30 -50q0 -12 5 -23q11 -30 59 -30q58 0 96 45q26 30 41 92z" />
    <glyph glyph-name="aacute" unicode="&#xe1;" 
d="M551 742l-165 -162h-94l94 162h165zM551 390q0 -30 -10 -72l-61 -271q-3 -12 -3 -25q0 -6 3 -22h-148q-5 22 -5 24q0 3 9 48q-9 -17 -20 -30q-52 -57 -151 -57q-29 0 -51 6q-48 12 -76 50t-28 90q0 33 11 60q31 79 139 112q51 14 229 25q10 38 10 54q0 52 -72 52
q-54 0 -78 -39q-8 -15 -13 -33l-154 4q14 42 26.5 66.5t39.5 46.5q63 53 198 53q101 0 152 -36q26 -18 39 -42q14 -27 14 -64zM366 232q-8 0 -23.5 -1t-23.5 -1q-84 -4 -124 -32q-30 -20 -30 -50q0 -12 5 -23q11 -30 59 -30q58 0 96 45q26 30 41 92z" />
    <glyph glyph-name="acircumflex" unicode="&#xe2;" 
d="M541 580h-110l-47 74l-70 -74h-137l126 126h169zM551 390q0 -30 -10 -72l-61 -271q-3 -12 -3 -25q0 -6 3 -22h-148q-5 22 -5 24q0 3 9 48q-9 -17 -20 -30q-52 -57 -151 -57q-29 0 -51 6q-48 12 -76 50t-28 90q0 33 11 60q31 79 139 112q51 14 229 25q10 38 10 54
q0 52 -72 52q-54 0 -78 -39q-8 -15 -13 -33l-154 4q14 42 26.5 66.5t39.5 46.5q63 53 198 53q101 0 152 -36q26 -18 39 -42q14 -27 14 -64zM366 232q-8 0 -23.5 -1t-23.5 -1q-84 -4 -124 -32q-30 -20 -30 -50q0 -12 5 -23q11 -30 59 -30q58 0 96 45q26 30 41 92z" />
    <glyph glyph-name="atilde" unicode="&#xe3;" 
d="M579 700q-8 -22 -13 -33q-31 -71 -77 -90q-20 -9 -43 -9q-31 0 -77 23q-47 25 -65 25q-7 0 -12.5 -1.5t-9.5 -3t-7.5 -5t-6 -5.5t-5 -6.5t-3 -6.5t-2.5 -6t-2 -5l-70 1q7 27 15 47q39 84 111 83q35 0 80 -22q50 -25 67 -25q7 0 18 4q17 7 28 35h74zM551 390
q0 -30 -10 -72l-61 -271q-3 -12 -3 -25q0 -6 3 -22h-148q-5 22 -5 24q0 3 9 48q-9 -17 -20 -30q-52 -57 -151 -57q-29 0 -51 6q-48 12 -76 50t-28 90q0 33 11 60q31 79 139 112q51 14 229 25q10 38 10 54q0 52 -72 52q-54 0 -78 -39q-8 -15 -13 -33l-154 4q14 42 26.5 66.5
t39.5 46.5q63 53 198 53q101 0 152 -36q26 -18 39 -42q14 -27 14 -64zM366 232q-8 0 -23.5 -1t-23.5 -1q-84 -4 -124 -32q-30 -20 -30 -50q0 -12 5 -23q11 -30 59 -30q58 0 96 45q26 30 41 92z" />
    <glyph glyph-name="adieresis" unicode="&#xe4;" 
d="M588 692l-26 -116h-162l26 116h162zM345 692l-24 -116h-161l25 116h160zM551 390q0 -30 -10 -72l-61 -271q-3 -12 -3 -25q0 -6 3 -22h-148q-5 22 -5 24q0 3 9 48q-9 -17 -20 -30q-52 -57 -151 -57q-29 0 -51 6q-48 12 -76 50t-28 90q0 33 11 60q31 79 139 112
q51 14 229 25q10 38 10 54q0 52 -72 52q-54 0 -78 -39q-8 -15 -13 -33l-154 4q14 42 26.5 66.5t39.5 46.5q63 53 198 53q101 0 152 -36q26 -18 39 -42q14 -27 14 -64zM366 232q-8 0 -23.5 -1t-23.5 -1q-84 -4 -124 -32q-30 -20 -30 -50q0 -12 5 -23q11 -30 59 -30
q58 0 96 45q26 30 41 92z" />
    <glyph glyph-name="aring" unicode="&#xe5;" 
d="M488 672q0 -45 -32 -76.5t-76 -30.5q-46 0 -77 31t-31 77q0 45 32 76.5t76 31.5q45 0 76.5 -32t31.5 -77zM551 390q0 -30 -10 -72l-61 -271q-3 -12 -3 -25q0 -6 3 -22h-148q-5 22 -5 24q0 3 9 48q-9 -17 -20 -30q-52 -57 -151 -57q-29 0 -51 6q-48 12 -76 50t-28 90
q0 33 11 60q31 79 139 112q51 14 229 25q10 38 10 54q0 52 -72 52q-54 0 -78 -39q-8 -15 -13 -33l-154 4q14 42 26.5 66.5t39.5 46.5q63 53 198 53q101 0 152 -36q26 -18 39 -42q14 -27 14 -64zM421 673q0 17 -12 29t-29 12t-30 -12.5t-12 -29.5q0 -16 13 -29q13 -12 29 -12
q17 0 29 12.5t12 29.5zM366 232q-8 0 -23.5 -1t-23.5 -1q-84 -4 -124 -32q-30 -20 -30 -50q0 -12 5 -23q11 -30 59 -30q58 0 96 45q26 30 41 92z" />
    <glyph glyph-name="ae" unicode="&#xe6;" horiz-adv-x="938" 
d="M892 296q0 -23 -4 -67h-371q0 -23 1 -35.5t5 -28.5t13.5 -27t25.5 -20q26 -16 60 -16q56 1 96 45q3 3 21 32l129 -45q-21 -36 -34 -52q-79 -97 -215 -97q-105 0 -164 49q-13 10 -48 51q-9 -12 -27 -28q-85 -73 -208 -73q-34 0 -65 9q-46 14 -72 50t-26 85q0 93 81 144
q43 27 105 37t189 17q10 43 10 54q-1 54 -71 54q-53 0 -78 -45q-10 -18 -10 -28l-154 5q21 66 50 97q64 69 200 69q87 0 137 -28q22 -12 29 -19q77 47 158 47q61 0 115 -24t85 -71q37 -53 37 -141zM755 325q-2 28 -9 45q-26 55 -88 54q-24 0 -46 -11q-28 -13 -43.5 -33
t-31.5 -55h218zM360 229q-78 0 -120 -11q-17 -4 -34 -12q-42 -20 -42 -60q0 -17 8 -29q16 -22 50 -22q81 0 118 73q11 22 20 61z" />
    <glyph glyph-name="ccedilla" unicode="&#xe7;" horiz-adv-x="582" 
d="M566 356l-138 -30q-4 15 -8 24.5t-14.5 25.5t-29 25t-44.5 10q-47 1 -82 -32t-49 -74t-15 -79q-1 -63 30 -89.5t72 -27.5q26 0 45.5 7.5t32.5 24.5t18 25.5t13 26.5l140 -43q-25 -48 -45 -72q-79 -93 -204 -93l-35 -55q27 5 44 5q32 0 46.5 -16.5t14.5 -35.5
q0 -21 -18.5 -46.5t-58.5 -39.5q-29 -10 -80 -10q-30 0 -60 3l10 45q28 -2 36 -2q20 0 34.5 9t13.5 20q-2 19 -26 19q-20 0 -49 -9l7 35l70 81q-28 3 -60 16.5t-67 39.5t-58 73t-24 107q-3 78 39 153q44 81 114.5 118.5t149.5 36.5q69 -1 120 -27.5t79 -67.5q16 -24 36 -81z
" />
    <glyph glyph-name="egrave" unicode="&#xe8;" 
d="M444 580h-94l-165 162h165zM559 298q0 -24 -4 -68h-375q-6 -84 46 -112q25 -14 58 -14q59 0 97 40q9 10 25 36l129 -45q-19 -31 -34 -51q-77 -99 -221 -99q-63 0 -111 20q-67 28 -103.5 89.5t-36.5 138.5q0 38 8 70q14 57 48.5 108t82.5 81q66 41 154 41q124 0 189 -81
q28 -36 38 -74q10 -34 10 -80zM421 327q0 24 -5 39q-8 22 -31.5 40.5t-61.5 18.5q-41 0 -76 -29q-26 -23 -47 -69h221z" />
    <glyph glyph-name="eacute" unicode="&#xe9;" 
d="M535 742l-165 -162h-94l94 162h165zM559 298q0 -24 -4 -68h-375q-6 -84 46 -112q25 -14 58 -14q59 0 97 40q9 10 25 36l129 -45q-19 -31 -34 -51q-77 -99 -221 -99q-63 0 -111 20q-67 28 -103.5 89.5t-36.5 138.5q0 38 8 70q14 57 48.5 108t82.5 81q66 41 154 41
q124 0 189 -81q28 -36 38 -74q10 -34 10 -80zM421 327q0 24 -5 39q-8 22 -31.5 40.5t-61.5 18.5q-41 0 -76 -29q-26 -23 -47 -69h221z" />
    <glyph glyph-name="ecircumflex" unicode="&#xea;" 
d="M541 580h-110l-47 74l-70 -74h-137l126 126h169zM559 298q0 -24 -4 -68h-375q-6 -84 46 -112q25 -14 58 -14q59 0 97 40q9 10 25 36l129 -45q-19 -31 -34 -51q-77 -99 -221 -99q-63 0 -111 20q-67 28 -103.5 89.5t-36.5 138.5q0 38 8 70q14 57 48.5 108t82.5 81
q66 41 154 41q124 0 189 -81q28 -36 38 -74q10 -34 10 -80zM421 327q0 24 -5 39q-8 22 -31.5 40.5t-61.5 18.5q-41 0 -76 -29q-26 -23 -47 -69h221z" />
    <glyph glyph-name="edieresis" unicode="&#xeb;" 
d="M596 694l-26 -116h-163l26 116h163zM353 694l-24 -116h-162l25 116h161zM559 298q0 -24 -4 -68h-375q-6 -84 46 -112q25 -14 58 -14q59 0 97 40q9 10 25 36l129 -45q-19 -31 -34 -51q-77 -99 -221 -99q-63 0 -111 20q-67 28 -103.5 89.5t-36.5 138.5q0 38 8 70
q14 57 48.5 108t82.5 81q66 41 154 41q124 0 189 -81q28 -36 38 -74q10 -34 10 -80zM421 327q0 24 -5 39q-8 22 -31.5 40.5t-61.5 18.5q-41 0 -76 -29q-26 -23 -47 -69h221z" />
    <glyph glyph-name="igrave" unicode="&#xec;" horiz-adv-x="292" 
d="M288 580h-94l-165 162h165zM273 515l-117 -515h-156l119 515h154z" />
    <glyph glyph-name="iacute" unicode="&#xed;" horiz-adv-x="292" 
d="M395 742l-166 -162h-93l93 162h166zM273 515l-117 -515h-156l119 515h154z" />
    <glyph glyph-name="icircumflex" unicode="&#xee;" horiz-adv-x="292" 
d="M385 580h-110l-47 74l-71 -74h-136l125 126h170zM273 515l-117 -515h-156l119 515h154z" />
    <glyph glyph-name="idieresis" unicode="&#xef;" horiz-adv-x="292" 
d="M439 694l-26 -116h-162l26 116h162zM196 694l-24 -116h-161l24 116h161zM273 515l-117 -515h-156l119 515h154z" />
    <glyph glyph-name="eth" unicode="&#xf0;" horiz-adv-x="625" 
d="M584 330q0 -89 -28 -156q-33 -79 -102 -134.5t-181 -54.5q-104 1 -173.5 66t-70.5 171q-1 58 19 114.5t67 106.5t114 73q49 17 90 17q63 0 101 -40q-5 24 -10 39t-13.5 31t-12.5 25l-154 -36l-16 55l136 32l-5 7q-3 4 -37 43l122 38q22 -25 39 -48l8 -11l87 21l17 -55
l-72 -17q28 -47 51.5 -123.5t23.5 -163.5zM423 299q-1 63 -32.5 89t-72.5 24q-32 -2 -57 -18q-30 -20 -53 -66.5t-23 -100.5q0 -62 31 -91t72 -30q37 0 65 20.5t42.5 52.5t21 63t6.5 57z" />
    <glyph glyph-name="ntilde" unicode="&#xf1;" 
d="M579 700q-8 -22 -13 -33q-31 -71 -77 -90q-20 -9 -43 -9q-31 0 -77 23q-47 25 -65 25q-7 0 -12.5 -1.5t-9.5 -3t-7.5 -5t-6 -5.5t-5 -6.5t-3 -6.5t-2.5 -6t-2 -5l-70 1q7 27 15 47q39 84 111 83q35 0 80 -22q50 -25 67 -25q7 0 18 4q17 7 28 35h74zM551 394q0 -25 -8 -57
l-76 -337h-155l68 304q6 36 6 48q0 32 -19.5 44.5t-39.5 12.5t-40 -11q-47 -28 -65 -109l-66 -289h-155l118 515h154l-14 -62q67 75 150 75q33 0 60 -11q82 -32 82 -123z" />
    <glyph glyph-name="ograve" unicode="&#xf2;" horiz-adv-x="625" 
d="M454 580h-94l-164 162h164zM581 291q0 -117 -78 -206q-87 -100 -225 -100q-103 0 -165 52q-40 33 -62 85.5t-22 109.5q0 109 75 198q86 103 228 103q63 0 113 -22q66 -28 101 -87t35 -133zM423 294q0 42 -12 66q-10 20 -33 36.5t-60 15.5q-50 -3 -84 -43
q-49 -61 -49 -143q0 -52 27 -86q26 -33 76 -33q58 0 95 51q40 56 40 136z" />
    <glyph glyph-name="oacute" unicode="&#xf3;" horiz-adv-x="625" 
d="M561 742l-165 -162h-93l93 162h165zM581 291q0 -117 -78 -206q-87 -100 -225 -100q-103 0 -165 52q-40 33 -62 85.5t-22 109.5q0 109 75 198q86 103 228 103q63 0 113 -22q66 -28 101 -87t35 -133zM423 294q0 42 -12 66q-10 20 -33 36.5t-60 15.5q-50 -3 -84 -43
q-49 -61 -49 -143q0 -52 27 -86q26 -33 76 -33q58 0 95 51q40 56 40 136z" />
    <glyph glyph-name="ocircumflex" unicode="&#xf4;" horiz-adv-x="625" 
d="M551 580h-110l-46 74l-71 -74h-137l126 126h169zM581 291q0 -117 -78 -206q-87 -100 -225 -100q-103 0 -165 52q-40 33 -62 85.5t-22 109.5q0 109 75 198q86 103 228 103q63 0 113 -22q66 -28 101 -87t35 -133zM423 294q0 42 -12 66q-10 20 -33 36.5t-60 15.5
q-50 -3 -84 -43q-49 -61 -49 -143q0 -52 27 -86q26 -33 76 -33q58 0 95 51q40 56 40 136z" />
    <glyph glyph-name="otilde" unicode="&#xf5;" horiz-adv-x="625" 
d="M590 700q-2 -5 -6.5 -16t-7.5 -17q-31 -70 -77 -90q-22 -9 -43 -9q-35 0 -76 23q-47 25 -66 25q-34 0 -47 -39l-70 1q7 27 15 47q39 84 110 83q37 0 81 -22q53 -25 66 -25q10 0 19 4q14 6 28 35h74zM581 291q0 -117 -78 -206q-87 -100 -225 -100q-103 0 -165 52
q-40 33 -62 85.5t-22 109.5q0 109 75 198q86 103 228 103q63 0 113 -22q66 -28 101 -87t35 -133zM423 294q0 42 -12 66q-10 20 -33 36.5t-60 15.5q-50 -3 -84 -43q-49 -61 -49 -143q0 -52 27 -86q26 -33 76 -33q58 0 95 51q40 56 40 136z" />
    <glyph glyph-name="odieresis" unicode="&#xf6;" horiz-adv-x="625" 
d="M594 694l-26 -116h-162l26 116h162zM351 694l-24 -116h-161l24 116h161zM581 291q0 -117 -78 -206q-87 -100 -225 -100q-103 0 -165 52q-40 33 -62 85.5t-22 109.5q0 109 75 198q86 103 228 103q63 0 113 -22q66 -28 101 -87t35 -133zM423 294q0 42 -12 66
q-10 20 -33 36.5t-60 15.5q-50 -3 -84 -43q-49 -61 -49 -143q0 -52 27 -86q26 -33 76 -33q58 0 95 51q40 56 40 136z" />
    <glyph glyph-name="divide" unicode="&#xf7;" horiz-adv-x="724" 
d="M509 598l-35 -152h-154l35 152h154zM666 392l-31 -139h-566l32 139h565zM417 199l-35 -152h-154l35 152h154z" />
    <glyph glyph-name="oslash" unicode="&#xf8;" horiz-adv-x="625" 
d="M580 291q0 -123 -84 -213q-86 -93 -227 -93q-45 0 -101 20l-48 -71h-74l68 101q-31 31 -44 49q-41 53 -41 141q0 112 68 196q52 65 116 89t114 24q45 0 115 -22l47 70h74l-68 -101q38 -38 48 -54q37 -54 37 -136zM427 297q0 30 -13 67l-175 -257q31 -9 49 -9q35 0 65 21
q29 20 51.5 66t22.5 112zM370 407q-29 12 -49 12q-25 -1 -43 -9q-48 -20 -74 -74.5t-26 -110.5q0 -36 16 -74z" />
    <glyph glyph-name="ugrave" unicode="&#xf9;" 
d="M444 580h-94l-165 162h165zM584 515l-117 -515h-154l15 67q-18 -19 -29.5 -29.5t-46 -26t-72.5 -15.5q-60 0 -102 34t-42 93q0 25 9 66l74 326h154l-68 -303q-4 -16 -4 -34q0 -46 34 -58q16 -4 25 -4q24 0 47 14q26 15 38 40t21 64l63 281h155z" />
    <glyph glyph-name="uacute" unicode="&#xfa;" 
d="M551 742l-165 -162h-94l94 162h165zM584 515l-117 -515h-154l15 67q-18 -19 -29.5 -29.5t-46 -26t-72.5 -15.5q-60 0 -102 34t-42 93q0 25 9 66l74 326h154l-68 -303q-4 -16 -4 -34q0 -46 34 -58q16 -4 25 -4q24 0 47 14q26 15 38 40t21 64l63 281h155z" />
    <glyph glyph-name="ucircumflex" unicode="&#xfb;" 
d="M541 580h-110l-47 74l-70 -74h-137l126 126h169zM584 515l-117 -515h-154l15 67q-18 -19 -29.5 -29.5t-46 -26t-72.5 -15.5q-60 0 -102 34t-42 93q0 25 9 66l74 326h154l-68 -303q-4 -16 -4 -34q0 -46 34 -58q16 -4 25 -4q24 0 47 14q26 15 38 40t21 64l63 281h155z" />
    <glyph glyph-name="udieresis" unicode="&#xfc;" 
d="M592 695l-26 -116h-162l26 116h162zM349 695l-23 -116h-162l24 116h161zM584 515l-117 -515h-154l15 67q-18 -19 -29.5 -29.5t-46 -26t-72.5 -15.5q-60 0 -102 34t-42 93q0 25 9 66l74 326h154l-68 -303q-4 -16 -4 -34q0 -46 34 -58q16 -4 25 -4q24 0 47 14q26 15 38 40
t21 64l63 281h155z" />
    <glyph glyph-name="yacute" unicode="&#xfd;" horiz-adv-x="500" 
d="M499 742l-165 -162h-94l94 162h165zM563 515l-336 -572q-27 -46 -48.5 -70t-64 -41t-105.5 -17q-27 0 -77 4l27 125q42 -7 53 -7q50 0 80 38l-53 540h156l16 -360l181 360h171z" />
    <glyph glyph-name="thorn" unicode="&#xfe;" horiz-adv-x="625" 
d="M583 310q2 -101 -43 -179.5t-105 -113.5q-57 -32 -124 -31q-74 1 -115 37q-10 8 -28 31l-55 -242h-154l200 894h139l-52 -243q57 65 137 66q32 1 64 -9.5t63 -33.5t51.5 -68.5t21.5 -107.5zM430 302q-1 60 -27.5 89.5t-65.5 27.5q-10 0 -30 -6q-36 -14 -55 -38
q-22 -26 -36.5 -81t-14.5 -89q1 -56 29 -81.5t64 -26.5q63 -2 103 71q35 62 33 134z" />
    <glyph glyph-name="ydieresis" unicode="&#xff;" horiz-adv-x="500" 
d="M543 694l-25 -116h-163l26 116h162zM301 694l-25 -116h-161l25 116h161zM563 515l-336 -572q-15 -26 -40 -57q-33 -40 -75.5 -55.5t-101.5 -15.5q-26 0 -78 4l28 125q49 -7 53 -7q23 0 40 7t23.5 13t15.5 18l-53 540h156l16 -360l181 360h171z" />
    <glyph glyph-name="OE" unicode="&#x152;" horiz-adv-x="1083" 
d="M1083 706l-30 -136h-300l-31 -136h287l-28 -128h-288l-40 -171h356l-32 -135h-522l7 28q-35 -16 -53.5 -22.5t-46.5 -12.5t-58 -6q-60 0 -107 22q-60 27 -105 94t-45 180q0 61 15 120q24 89 81 168.5t134 116.5q68 34 159 34q42 0 79.5 -8.5t53 -15t41.5 -20.5l6 28h467z
M565 479q-5 26 -12 41q-15 31 -45 48t-66 17q-79 0 -140 -72q-75 -89 -75 -212q0 -49 12.5 -84t34 -53t43.5 -26t46 -8q21 0 49 8q61 20 96 95z" />
    <glyph glyph-name="oe" unicode="&#x153;" horiz-adv-x="958" 
d="M913 300q0 -12 -5 -70l-362 -1q1 -29 2.5 -44t10.5 -33.5t27 -30.5q28 -17 62 -17q22 0 43 9q24 10 37.5 24.5t30.5 42.5l129 -46q-36 -54 -55 -74q-71 -75 -195 -75q-42 0 -77.5 11t-52 22t-38.5 28q-4 3 -6 5q-26 -20 -41.5 -30t-57 -23.5t-87.5 -13.5q-101 0 -171 59
q-78 66 -78 181q0 121 78 210q36 41 85 64.5t80 28.5t59 5q83 0 144 -41q5 -3 31 -24q22 18 34 26q63 39 135 39q64 0 119 -27q119 -57 119 -205zM775 326q-1 25 -6 38q-10 26 -34 42.5t-52 16.5q-19 0 -45 -12q-27 -14 -41.5 -32.5t-29.5 -52.5h208zM416 292q0 78 -48 106
q-25 14 -50 13q-27 0 -55 -17q-37 -23 -57 -71t-20 -95q0 -80 48 -108q23 -13 49 -13q49 0 85 40q48 54 48 145z" />
    <glyph glyph-name="Scaron" unicode="&#x160;" horiz-adv-x="667" 
d="M672 897l-137 -117h-191l-67 117h115l50 -78l69 78h161zM669 576l-147 -85q-10 30 -19 41q-44 58 -144 58q-42 0 -69 -19t-29 -45q0 -12 6 -22.5t13.5 -17t21.5 -13.5t22 -10t23 -8t16 -5q101 -33 153 -61t79 -74q24 -41 24 -98q-1 -53 -24 -94q-33 -63 -103.5 -101.5
t-174.5 -39.5q-95 -1 -169 26.5t-118 72.5q-19 20 -46 64l155 97q12 -30 20 -42q18 -27 43.5 -44t50.5 -23t36.5 -7.5t21.5 -1.5q54 -1 89 22t36 57q1 24 -25 45q-11 10 -44 23.5t-77 29t-45 15.5q-21 8 -33.5 13t-40.5 22t-44.5 35.5t-30 50t-12.5 68.5q1 61 42 115
q75 104 254 104q145 0 225 -71q24 -21 64 -77z" />
    <glyph glyph-name="scaron" unicode="&#x161;" horiz-adv-x="542" 
d="M545 706l-126 -128h-168l-69 128h110l47 -74l70 74h136zM521 408l-117 -58q-18 28 -33 41q-35 29 -94 29q-29 0 -47 -10.5t-18 -29.5q0 -10 5.5 -17.5t18.5 -13.5t23 -9t31 -8.5t29 -8.5q35 -11 57.5 -20.5t50.5 -27t42.5 -44t15.5 -61.5q1 -76 -68 -130.5t-184 -55.5
q-175 -1 -255 137l129 64q14 -26 29 -41q40 -36 103 -36q14 0 30.5 2.5t35 13.5t19.5 28q1 16 -17 31q-5 5 -26 12t-54.5 17.5t-54.5 18.5q-117 42 -121 136q-1 44 26 82q59 84 198 85q177 1 246 -126z" />
    <glyph glyph-name="Ydieresis" unicode="&#x178;" horiz-adv-x="667" 
d="M681 897l-26 -114h-161l25 114h162zM421 897l-26 -114h-161l25 114h162zM754 706l-333 -408l-67 -298h-175l71 320l-153 386h175l98 -254l185 254h199z" />
    <glyph glyph-name="florin" unicode="&#x192;" horiz-adv-x="333" 
d="M422 682l-23 -102h-15q-61 0 -78 -14t-28 -76h92l-22 -93h-92l-82 -368q-1 -6 -7 -32.5t-8 -34t-8 -29t-11.5 -31t-14.5 -25t-20.5 -26t-25.5 -19.5q-43 -27 -108 -27q-48 0 -101 15l23 102h16q61 0 77 13.5t30 75.5l85 386h-71l21 93h72q14 72 32 110.5t53 64.5
q45 31 113 31q36 0 101 -14z" />
    <glyph glyph-name="circumflex" unicode="&#x2c6;" horiz-adv-x="313" 
d="M339 580h-110l-47 74l-70 -74h-138l126 126h169z" />
    <glyph glyph-name="tilde" unicode="&#x2dc;" horiz-adv-x="313" 
d="M353 700q-8 -22 -13 -33q-31 -71 -77 -90q-20 -9 -43 -9q-31 0 -77 23q-47 25 -65 25q-7 0 -12.5 -1.5t-9.5 -3t-7.5 -5t-6 -5.5t-5 -6.5t-3 -6.5t-2.5 -6t-2 -5l-70 1q7 27 15 47q39 84 111 83q35 0 80 -22q50 -25 67 -25q7 0 18 4q17 7 28 35h74z" />
    <glyph glyph-name="endash" unicode="&#x2013;" horiz-adv-x="626" 
d="M608 380l-33 -143h-549l33 143h549z" />
    <glyph glyph-name="emdash" unicode="&#x2014;" horiz-adv-x="918" 
d="M900 380l-33 -143h-841l33 143h841z" />
    <glyph glyph-name="quoteleft" unicode="&#x2018;" horiz-adv-x="250" 
d="M305 717l-17 -73q-41 -26 -55 -43t-30 -61h60l-37 -161h-159q3 13 10.5 50.5t11.5 52.5t13 46t18.5 47.5t24 39t34 39t44.5 30.5q20 11 82 33z" />
    <glyph glyph-name="quoteright" unicode="&#x2019;" horiz-adv-x="250" 
d="M293 706q-3 -14 -11 -50t-12 -52t-13 -46.5t-18.5 -47.5t-24 -39.5t-34 -39t-44.5 -30.5q-26 -14 -82 -32l17 73q40 25 54 42t31 61h-59l36 161h160z" />
    <glyph glyph-name="quotesinglbase" unicode="&#x201a;" horiz-adv-x="250" 
d="M175 162q-3 -14 -11 -50t-12 -52.5t-13 -46.5t-18.5 -47.5t-24 -40t-34 -39t-44.5 -30.5q-26 -14 -82 -32l17 73q40 25 54 42t31 61h-60l37 162h160z" />
    <glyph glyph-name="quotedblleft" unicode="&#x201c;" horiz-adv-x="479" 
d="M536 715l-17 -73q-41 -26 -55 -43t-30 -61h60l-37 -161h-160q3 14 11 50t12 52t13 46.5t18.5 47.5t24 39.5t34 39t44.5 30.5q20 11 82 33zM304 715l-17 -73q-40 -25 -54 -42.5t-30 -61.5h59l-37 -161h-159q3 13 10.5 50.5t11.5 52.5t13 46t18.5 47.5t24 39t34 39
t44.5 30.5q20 11 82 33z" />
    <glyph glyph-name="quotedblright" unicode="&#x201d;" horiz-adv-x="479" 
d="M529 706q-3 -14 -11 -50t-12 -52t-13 -46.5t-18.5 -47.5t-24 -39.5t-34 -39t-44.5 -30.5q-26 -14 -82 -32l17 73q40 25 54 42t31 61h-59l36 161h160zM296 706q-3 -15 -11 -50t-12 -51.5t-13 -46.5t-18.5 -47.5t-24 -40t-34 -39t-44.5 -30.5q-26 -14 -82 -32l17 73
q40 25 54 42t31 61h-60l37 161h160z" />
    <glyph glyph-name="quotedblbase" unicode="&#x201e;" horiz-adv-x="479" 
d="M401 162q-3 -14 -11 -50t-12 -52.5t-13 -46.5t-18.5 -47.5t-24 -40t-34 -39t-44.5 -30.5q-26 -14 -82 -32l17 73q40 25 54 42t31 61h-59l36 162h160zM175 162q-3 -14 -11 -50t-12 -52.5t-13 -46.5t-18.5 -47.5t-24 -40t-34 -39t-44.5 -30.5q-26 -14 -82 -32l17 73
q40 25 54 42t31 61h-60l37 162h160z" />
    <glyph glyph-name="dagger" unicode="&#x2020;" horiz-adv-x="479" 
d="M529 518l-32 -135h-159l-111 -491h-155l111 491h-159l30 135h160l43 191h155l-43 -191h160z" />
    <glyph glyph-name="daggerdbl" unicode="&#x2021;" horiz-adv-x="479" 
d="M529 516l-32 -136h-159l-29 -130h158l-29 -136h-160l-51 -225h-155l51 225h-159l29 136h161l29 130h-159l30 137h160l43 189h155l-43 -190h160z" />
    <glyph glyph-name="bullet" unicode="&#x2022;" horiz-adv-x="333" 
d="M341 478l-59 -258h-257l59 258h257z" />
    <glyph glyph-name="ellipsis" unicode="&#x2026;" horiz-adv-x="1000" 
d="M871 136l-31 -136h-136l32 136h135zM538 136l-32 -136h-135l31 136h136zM203 136l-32 -136h-135l31 136h136z" />
    <glyph glyph-name="perthousand" unicode="&#x2030;" horiz-adv-x="1188" 
d="M1154 286q2 -45 -8 -90q-11 -49 -33 -94t-65 -79.5t-95 -32.5q-52 3 -89 44t-36 120q0 47 12 86q3 14 11 35.5t28 61.5t57 67.5t83 28.5q37 2 69 -17q62 -37 66 -130zM800 286q2 -47 -7 -87q-8 -36 -23 -71t-38.5 -68t-58 -52.5t-74.5 -17.5q-52 3 -89 44t-36 120
q0 47 12 86q3 14 11 35.5t28 61.5t57 67.5t83 28.5q35 1 69 -18q62 -37 66 -129zM700 678l-461 -678h-86l461 678h86zM379 540q2 -50 -8 -92q-18 -80 -67.5 -143.5t-125.5 -60.5q-52 2 -89 42.5t-36 120.5q1 48 11 85q58 192 180 195q39 2 69 -17q29 -17 45.5 -50.5
t18.5 -50t2 -29.5zM1059 300q0 60 -37 60q-11 0 -21 -7q-23 -16 -43 -68q-33 -88 -33 -167q0 -52 33 -54q17 -1 35 17q16 16 36 70.5t27 107.5q3 18 3 41zM705 300q0 60 -37 60q-10 0 -21 -7q-23 -16 -43 -68q-34 -88 -34 -167q0 -52 34 -54q21 -1 40 25t31 65t18.5 64
t8.5 40q3 18 3 42zM284 553q0 60 -37 60q-11 0 -21 -7q-23 -16 -43 -68q-33 -88 -33 -167q0 -51 33 -53q21 -2 40.5 24t31.5 65.5t18 64t8 40.5q3 15 3 41z" />
    <glyph glyph-name="guilsinglleft" unicode="&#x2039;" horiz-adv-x="229" 
d="M238 516l-32 -142l-104 -65l72 -72l-28 -122l-121 127l37 162z" />
    <glyph glyph-name="guilsinglright" unicode="&#x203a;" horiz-adv-x="229" 
d="M208 387l-35 -158l-176 -115l32 140l103 67l-72 70l29 123z" />
    <glyph glyph-name="Euro" unicode="&#x20ac;" horiz-adv-x="749" 
d="M740 608l-74 -128q-75 84 -175 84q-62 0 -107.5 -31.5t-68.5 -88.5h333l-45 -78l-309 1q-6 -21 -6 -40h292l-43 -75h-249q8 -63 53.5 -96t110.5 -33q61 0 107 19t95 61l-35 -184q-84 -37 -189 -37q-135 0 -225.5 69.5t-98.5 200.5h-97l47 75h47q0 23 5 39h-74l47 78h47
q40 125 134 189.5t227 64.5q160 0 251 -90z" />
    <glyph glyph-name="trademark" unicode="&#x2122;" horiz-adv-x="736" 
d="M760 706l-70 -331h-81l57 252l-120 -252h-70l-12 256l-52 -256h-81l72 331h124l9 -212l100 212h124zM364 706l-14 -68h-91l-57 -263h-85l57 263h-95l15 68h270z" />
    </font>
</defs>
</svg>
