<?xml version="1.0" standalone="no"?>
<!DOCTYPE svg PUBLIC "-//W3C//DTD SVG 1.1//EN" "http://www.w3.org/Graphics/SVG/1.1/DTD/svg11.dtd" >
<svg xmlns="http://www.w3.org/2000/svg" xmlns:xlink="http://www.w3.org/1999/xlink" version="1.1">
<metadata>
Created by FontForge 20170731 at Thu May 17 19:59:58 2007
 By Aleksey,,,
Copyright  1997, 2001, Berthold LLC. All rights reserved. Akzidenz-Grotesk is a trademark of Berthold Types Limited.
</metadata>
<defs>
<font id="AkzidenzGroteskBQ-BoldExtIt" horiz-adv-x="854" >
  <font-face 
    font-family="Akzidenz-Grotesk BQ Extended"
    font-weight="700"
    font-style="italic"
    font-stretch="normal"
    units-per-em="1000"
    panose-1="0 0 0 0 0 0 0 0 0 0"
    ascent="800"
    descent="-200"
    x-height="530"
    cap-height="706"
    bbox="-142 -246 1763 956"
    underline-thickness="141"
    underline-position="-596"
    slope="-13"
    unicode-range="U+0020-2122"
  />
<missing-glyph horiz-adv-x="500" 
 />
    <glyph glyph-name=".notdef" horiz-adv-x="500" 
 />
    <glyph glyph-name=".null" horiz-adv-x="0" 
 />
    <glyph glyph-name="nonmarkingreturn" horiz-adv-x="333" 
 />
    <glyph glyph-name="space" unicode=" " horiz-adv-x="390" 
 />
    <glyph glyph-name="exclam" unicode="!" horiz-adv-x="375" 
d="M415 706l-48 -198l-74 -246h-191l41 258l43 186h229zM274 183l-42 -183h-190l42 183h190z" />
    <glyph glyph-name="quotedbl" unicode="&#x22;" horiz-adv-x="356" 
d="M450 741l-117 -288h-43l7 288h153zM261 741l-117 -288h-44l8 288h153z" />
    <glyph glyph-name="numbersign" unicode="#" horiz-adv-x="692" 
d="M732 530l-28 -124h-137l-30 -96h133l-28 -124h-144l-59 -186h-126l60 186h-129l-59 -186h-123l57 186h-129l28 124h141l30 96h-135l28 124h146l56 176h124l-55 -176h128l55 176h125l-55 -176h126zM441 406h-127l-31 -96h128z" />
    <glyph glyph-name="dollar" unicode="$" horiz-adv-x="833" 
d="M838 485l-238 -13q-12 24 -14 27q-20 30 -79 48l-29 -125q5 -1 44 -8.5t59 -12.5q35 -7 59 -14.5t53.5 -20.5t50.5 -34t33 -50q12 -30 12 -62q0 -45 -23 -86q-52 -97 -197 -131q-73 -17 -193 -17l-32 -138h-65l32 141q-7 1 -20.5 3t-20.5 3q-166 31 -232 116
q-22 28 -48 99l247 12q9 -39 30 -57q25 -21 78 -33l35 154q-1 0 -26.5 4.5t-31.5 5.5t-30.5 6t-34.5 8t-30.5 8.5t-32.5 11t-26.5 12.5t-25.5 15q-60 44 -60 120q0 60 46 113q29 34 70.5 56.5t96 32t88.5 12.5t93 5l18 73h65l-18 -76q47 -5 73.5 -9.5t63 -18t67.5 -35.5
q35 -24 55 -53q19 -27 38 -92zM442 552q-47 -2 -73 -11q-7 -2 -16 -6t-20.5 -17.5t-11.5 -30.5t10 -27q15 -15 84 -28zM548 204q0 34 -37 53q-10 5 -67 18l-34 -147q52 2 84 13q54 20 54 63z" />
    <glyph glyph-name="percent" unicode="%" horiz-adv-x="1250" 
d="M1200 252q0 -87 -49 -156q-76 -105 -231 -105q-132 0 -190 75q-37 46 -37 124q0 94 54 162q39 48 98.5 74.5t121.5 26.5q102 0 167.5 -51t65.5 -150zM915 681l-447 -681h-120l447 681h120zM569 490q0 -87 -49 -156q-76 -105 -231 -105q-132 0 -190 75q-37 46 -37 124
q0 94 54 162q39 48 98.5 74.5t121.5 26.5q102 0 167.5 -51t65.5 -150zM1050 259q0 44 -20 69q-23 28 -66 26q-40 0 -70 -32q-51 -54 -51 -146q0 -22 4 -35q5 -21 23.5 -38.5t54.5 -17.5q35 0 62 20q31 23 47 67t16 87zM419 497q0 43 -21 68q-23 29 -65 27q-39 0 -71 -32
q-51 -54 -51 -146q0 -15 5 -35q17 -57 77 -56q36 0 62 19q31 23 47.5 67.5t16.5 87.5z" />
    <glyph glyph-name="ampersand" unicode="&#x26;" 
d="M824 287q-4 -6 -11.5 -18t-13.5 -21.5t-11 -17.5q-24 -34 -48 -56t-67 -54l82 -120h-220l-28 34q-46 -18 -67 -25.5t-73.5 -16t-116.5 -8.5q-39 0 -63 3q-98 14 -152 85q-40 51 -40 109q0 56 39 104q26 32 68 55.5t72 33.5t84 24q-1 1 -5.5 9t-7.5 14t-7.5 16.5t-7.5 20
t-5 22.5t-2 25q0 92 97 139q62 30 165 30q105 0 167 -27q34 -15 56 -38q30 -33 30 -80q0 -36 -21 -72q-19 -31 -55 -56t-63.5 -36.5t-72.5 -26.5l62 -92q24 19 34 30t27 37zM550 515q0 15 -12.5 29.5t-39.5 13.5q-29 0 -47 -16.5t-17 -44.5q0 -27 21 -56q41 16 60 26t28 25
q7 12 7 23zM426 151l-94 135l-13 -4q-13 -3 -28 -8.5t-26 -12.5q-42 -27 -42 -65q0 -25 25.5 -47.5t70.5 -22.5q36 0 107 25z" />
    <glyph glyph-name="quotesingle" unicode="'" horiz-adv-x="167" 
d="M261 741l-117 -288h-44l8 288h153z" />
    <glyph glyph-name="parenleft" unicode="(" horiz-adv-x="375" 
d="M456 665q-63 -72 -99 -133q-56 -97 -86 -218t-30 -238q0 -107 36 -221l-126 -71q-55 118 -83.5 209t-28.5 191q0 239 178 439q51 57 133 127z" />
    <glyph glyph-name="parenright" unicode=")" horiz-adv-x="375" 
d="M316 350q0 -89 -23 -169.5t-67.5 -150t-96.5 -127t-124 -119.5l-106 85q63 71 98 132q56 95 86.5 217.5t30.5 239.5q0 107 -36 221l126 71q55 -118 83.5 -209t28.5 -191z" />
    <glyph glyph-name="asterisk" unicode="*" horiz-adv-x="411" 
d="M443 496l-104 -11l41 -89l-96 -47l-46 97l-79 -69l-71 81l74 65l-89 50l52 94l93 -51l23 103l105 -24l-23 -103l109 11z" />
    <glyph glyph-name="plus" unicode="+" horiz-adv-x="772" 
d="M707 384l-37 -163h-196l-46 -194h-205l45 194h-198l38 163h198l45 193h205l-44 -193h195z" />
    <glyph glyph-name="comma" unicode="," horiz-adv-x="333" 
d="M250 183l-44 -187q-16 -69 -48.5 -109t-97.5 -59q-40 -12 -90 -12q-6 0 -17.5 0.5t-16.5 0.5l18 82q53 4 79.5 26t38.5 75h-94l42 183h230z" />
    <glyph glyph-name="hyphen" unicode="-" horiz-adv-x="415" 
d="M408 403l-41 -175h-356l41 175h356z" />
    <glyph glyph-name="period" unicode="." horiz-adv-x="333" 
d="M252 184l-42 -184h-230l42 184h230z" />
    <glyph glyph-name="slash" unicode="/" horiz-adv-x="354" 
d="M432 706l-296 -706h-198l297 706h197z" />
    <glyph glyph-name="zero" unicode="0" 
d="M824 388q0 -83 -31.5 -160.5t-89.5 -131.5q-46 -43 -124.5 -77t-187.5 -34q-111 0 -185.5 37t-110.5 88q-25 32 -38 80q-14 48 -14 100q0 104 49.5 196.5t135.5 145.5q93 58 229 64q157 4 254 -68q113 -83 113 -240zM593 401q0 58 -26 96q-33 48 -100 48q-75 0 -127 -63
q-31 -39 -48.5 -96t-17.5 -111q0 -74 39 -112q32 -32 91 -32q49 0 87 27q50 36 76 105t26 138z" />
    <glyph glyph-name="one" unicode="1" 
d="M660 681l-157 -681h-233l109 472q-58 -17 -85 -22t-84 -8l34 148q60 9 123 30q45 17 65 28q23 12 56 33h172z" />
    <glyph glyph-name="two" unicode="2" 
d="M811 514q0 -31 -14 -63q-25 -60 -81 -100q-59 -46 -234 -118q-18 -7 -46.5 -19t-35 -14.5t-21.5 -10t-25 -14t-27 -18.5h427l-36 -157h-693l36 156q4 4 16 18t15.5 18t14.5 15t17.5 15.5t19 14t25 16t29.5 16t38 18.5l248 114q63 29 83 51q16 16 15 36q0 17 -9 26
q-24 32 -90 32q-102 0 -132 -63q-15 -30 -15 -61l-211 3q4 31 7 43q18 106 102 164q95 66 261 66q175 0 254 -60q62 -46 62 -124z" />
    <glyph glyph-name="three" unicode="3" 
d="M786 529q0 -39 -26 -76q-21 -30 -55 -47t-107 -37q52 -17 83.5 -35t53.5 -54q22 -40 22 -76q0 -41 -24.5 -79t-61.5 -64q-49 -34 -127.5 -53t-115.5 -21t-69 -2q-154 0 -244 48q-41 21 -66 55q-28 35 -35 107l213 15q14 -35 40 -51q40 -24 105 -24q54 0 93 17
q23 10 35 21q22 22 22 45q0 18 -10 32q-10 15 -30.5 22t-35 8t-43.5 1q-44 0 -120 -6l31 134q28 1 86 3q32 1 49 3t44 10.5t43 23.5q21 19 21 42q0 15 -10 28q-21 30 -81 30q-39 0 -83.5 -11t-63.5 -35q-11 -12 -15 -33h-212q15 91 74 140q66 56 189 76q59 11 144 11
q53 0 94 -6q15 -2 32.5 -6t51.5 -16t62 -37t40 -60q7 -21 7 -43z" />
    <glyph glyph-name="four" unicode="4" 
d="M813 282l-36 -158h-139l-29 -124h-230l29 124h-399l36 160l438 397h284l-92 -399h138zM499 511l-249 -229h194z" />
    <glyph glyph-name="five" unicode="5" 
d="M842 681l-46 -156h-439l-31 -109q2 1 15.5 5.5t17 6t16.5 5.5t20 5.5t20.5 4t25 3.5t27 2t32.5 1q97 0 165.5 -27t100.5 -67q37 -45 37 -109q0 -40 -16 -80q-41 -104 -169 -150q-87 -32 -223 -32q-193 0 -289 66q-27 19 -46 44q-26 35 -34 99l240 8q3 -17 11 -27
q30 -41 126 -41q49 0 84 14q68 28 68 85q0 24 -16 46q-31 42 -113 42q-67 0 -100 -17q-14 -7 -30 -25l-215 9l104 394h657z" />
    <glyph glyph-name="six" unicode="6" 
d="M834 512l-244 -8q-9 16 -15 21q-24 22 -78 22q-90 0 -149 -54q-29 -25 -43 -51q-15 -28 -29 -92q20 23 35 35q30 24 88.5 44t132.5 20q148 0 220 -75q26 -29 38 -60q13 -32 13 -70q0 -99 -88 -173q-103 -86 -304 -86q-137 0 -226 47q-43 21 -75 57q-68 75 -68 197
q0 82 36.5 160t97.5 135q126 116 356 116q199 0 268 -93q24 -32 34 -92zM560 228q0 17 -8 32q-27 52 -123 49q-76 -2 -119 -31q-35 -26 -35 -61q0 -42 42 -65q38 -20 97 -20q35 0 63 8q83 22 83 88z" />
    <glyph glyph-name="seven" unicode="7" 
d="M862 680q-5 -46 -16 -87q-11 -37 -29.5 -71.5t-34 -57t-48.5 -54t-48 -44t-58.5 -47t-55.5 -44.5q-146 -118 -188 -224q-7 -17 -17 -51h-266q20 67 34 96q36 78 101 140t159 127q124 84 144 113q9 12 20 42h-442l38 162h707z" />
    <glyph glyph-name="eight" unicode="8" 
d="M826 509q0 -61 -42 -103q-17 -17 -40 -28.5t-38 -15.5t-47 -12q40 -10 59 -19q71 -35 71 -116q0 -42 -22 -81q-24 -43 -72.5 -74.5t-94 -45.5t-101 -21.5t-77 -8t-38.5 -0.5h-1q-21 0 -43 1.5t-74.5 7.5t-103 25t-84.5 48q-58 47 -58 118q0 61 48 106q19 18 45 31t43 18
t52 14q-29 12 -47 25q-51 38 -51 101q0 68 56 122q22 21 57 40q106 56 268 56q125 0 217 -38q85 -35 108 -97q10 -22 10 -53zM593 486q0 33 -34 50q-31 15 -90 14q-58 0 -89 -18q-32 -18 -32 -51q0 -35 36 -51q31 -14 91 -14q47 0 74 13q23 10 33.5 26.5t10.5 30.5zM544 221
q0 32 -26 50q-34 25 -110 22q-68 0 -108 -26q-32 -21 -32 -56q0 -17 10 -33q29 -43 121 -43q61 0 93 15q28 12 40.5 33t11.5 38z" />
    <glyph glyph-name="nine" unicode="9" 
d="M824 389q0 -152 -95 -262q-124 -142 -357 -142q-162 0 -262 63q-34 22 -59 51q-23 28 -40 81l257 7q4 -17 18 -28q30 -26 93 -26t115 28.5t77 81.5q10 22 18 70q-28 -23 -46 -32q-77 -41 -190 -41q-110 0 -189 44q-100 58 -100 163q0 106 93 174q102 75 284 75
q175 0 270 -66q39 -26 65 -63q48 -71 48 -178zM597 464q0 21 -14 41q-31 42 -124 42q-76 -1 -107 -18q-45 -23 -45 -67q0 -29 23 -49q38 -32 119 -32q78 0 117 28q31 21 31 55z" />
    <glyph glyph-name="colon" unicode=":" horiz-adv-x="375" 
d="M373 530l-42 -183h-230l42 183h230zM293 183l-43 -183h-229l42 183h230z" />
    <glyph glyph-name="semicolon" unicode=";" horiz-adv-x="375" 
d="M372 531l-42 -184h-231l43 184h230zM292 183l-44 -187q-16 -69 -49 -109t-97 -59q-43 -12 -88 -12q-6 0 -18.5 0.5t-18.5 0.5l19 82q53 5 79 26.5t38 74.5h-93l42 183h230z" />
    <glyph glyph-name="less" unicode="&#x3c;" horiz-adv-x="772" 
d="M709 613l-45 -195l-331 -105l282 -114l-45 -189l-493 220l44 181z" />
    <glyph glyph-name="equal" unicode="=" horiz-adv-x="772" 
d="M732 522l-38 -164h-584l38 164h584zM670 251l-38 -164h-585l38 164h585z" />
    <glyph glyph-name="greater" unicode="&#x3e;" horiz-adv-x="772" 
d="M704 392l-43 -181l-588 -202l45 195l330 105l-281 114l45 189z" />
    <glyph glyph-name="question" unicode="?" horiz-adv-x="708" 
d="M731 536q0 -31 -14 -65q-28 -69 -112 -107l-129 -59q-24 -10 -32.5 -18.5t-16.5 -23.5h-215q8 32 19 51t33 36q17 13 38.5 24.5t52.5 25.5t42 19q27 11 49 29q6 4 13.5 11t16 22.5t8.5 31.5q0 28 -26 49.5t-75 21.5q-35 0 -65 -11q-36 -14 -54 -43t-32 -76l-194 11
q2 12 11 47q21 67 66 115t118.5 72.5t195.5 24.5q111 0 184 -30q37 -15 67 -40q27 -27 41 -63q10 -30 10 -55zM410 184l-41 -184h-217l42 184h216z" />
    <glyph glyph-name="at" unicode="@" horiz-adv-x="923" 
d="M887 423q0 -92 -39 -175t-103.5 -133t-136.5 -50q-37 0 -63 18.5t-31 49.5q-63 -67 -136 -67q-68 0 -109.5 44.5t-41.5 116.5q0 115 76.5 205t174.5 90q29 0 51 -9q34 -13 61 -51l12 40h112l-53 -196q-22 -83 -22 -112q0 -23 18 -23q20 0 50 40q72 92 72 205
q0 98 -62.5 151.5t-177.5 53.5q-162 0 -273.5 -109t-111.5 -267q0 -128 77 -197q90 -79 235 -79q176 0 348 140l59 -73q-72 -58 -140 -93q-135 -68 -274 -68q-188 0 -301 99.5t-113 266.5q0 203 143 337t359 134q157 0 248.5 -78t91.5 -211zM548 344v2q0 34 -18 54.5
t-48 20.5q-57 0 -96 -71q-31 -55 -31 -109q0 -35 16.5 -54.5t45.5 -19.5q45 0 83 48q20 25 34 62t14 67z" />
    <glyph glyph-name="A" unicode="A" horiz-adv-x="896" 
d="M822 0h-257l-13 113h-284l-65 -113h-277l476 706h297zM534 270l-30 251l-145 -251h175z" />
    <glyph glyph-name="B" unicode="B" horiz-adv-x="896" 
d="M878 557q0 -60 -45 -108q-15 -17 -36.5 -31t-36 -20.5t-44.5 -17.5q56 -12 83 -36q43 -39 43 -110q0 -70 -41 -130q-43 -62 -106.5 -83t-151.5 -21h-545l164 706h474q151 0 206 -55q36 -36 36 -94zM622 497q0 12 -7 24q-12 23 -50 23h-207l-25 -109h204q50 0 72 27
q13 17 13 35zM589 229q0 13 -6 25q-14 28 -56 28h-230l-28 -124h224q63 6 85 37q11 18 11 34z" />
    <glyph glyph-name="C" unicode="C" horiz-adv-x="917" 
d="M915 492l-225 -23q-6 27 -14 43t-27 31q-40 34 -109 34t-123 -27q-62 -31 -96 -94t-34 -136q0 -84 48.5 -131t133.5 -47q57 0 99.5 20t63.5 44q16 18 32 53l223 -25q-17 -51 -52 -93q-52 -64 -148.5 -113t-237.5 -49q-198 0 -303 96q-40 37 -64 91t-28.5 87t-4.5 63
q0 153 110 269q139 146 383 146q199 0 303 -102q45 -45 62 -97q5 -16 8 -40z" />
    <glyph glyph-name="D" unicode="D" horiz-adv-x="938" 
d="M931 399q0 -112 -58.5 -207.5t-157.5 -141.5q-108 -50 -256 -50h-461l163 706h378q40 0 79 -3q125 -8 206 -72q107 -85 107 -232zM685 395q0 85 -57 124q-45 31 -140 31h-110l-92 -394h145q2 0 16.5 1t32 2.5t32.5 4.5q43 8 74.5 28.5t44 38t24.5 41.5q30 60 30 123z" />
    <glyph glyph-name="E" unicode="E" 
d="M891 706l-36 -155h-478l-27 -118h456l-36 -156h-456l-28 -117h513l-37 -160h-762l163 706h728z" />
    <glyph glyph-name="F" unicode="F" horiz-adv-x="750" 
d="M838 706l-37 -158h-427l-32 -137h403l-37 -158h-403l-59 -253h-248l164 706h676z" />
    <glyph glyph-name="G" unicode="G" horiz-adv-x="958" 
d="M917 480l-234 -5q-7 36 -37 60q-41 32 -112 32q-92 0 -152 -48q-39 -31 -61.5 -77.5t-27 -75.5t-4.5 -56q0 -82 48 -128q48 -44 137 -44q75 0 121 28q24 13 38 30q15 18 28 55h-197l33 141h417l-90 -392h-179l10 46l-36 -21q-94 -47 -205 -47q-119 0 -197 44t-117 103
q-52 78 -52 187q0 121 68 222q25 38 66 74q137 121 363 121q157 0 260 -70q48 -32 75 -74q23 -36 37 -105z" />
    <glyph glyph-name="H" unicode="H" horiz-adv-x="958" 
d="M981 706l-165 -706h-253l62 272h-310l-63 -272h-253l164 706h253l-60 -259h310l60 259h255z" />
    <glyph glyph-name="I" unicode="I" horiz-adv-x="396" 
d="M416 706l-163 -706h-253l163 706h253z" />
    <glyph glyph-name="J" unicode="J" horiz-adv-x="479" 
d="M509 706l-110 -478q-22 -97 -65 -147q-41 -48 -100.5 -64.5t-137.5 -16.5h-155l36 161h76q55 0 76 28q13 17 18 42l111 475h251z" />
    <glyph glyph-name="K" unicode="K" horiz-adv-x="896" 
d="M936 706l-352 -286l251 -420h-274l-154 276l-126 -103l-41 -173h-242l164 706h239l-60 -262l287 262h308z" />
    <glyph glyph-name="L" unicode="L" horiz-adv-x="708" 
d="M652 162l-37 -162h-617l163 706h253l-126 -544h364z" />
    <glyph glyph-name="M" unicode="M" horiz-adv-x="1083" 
d="M1105 706l-164 -706h-229l132 550l-277 -550h-189l-25 553l-120 -553h-234l163 706h346l15 -480l231 480h351z" />
    <glyph glyph-name="N" unicode="N" horiz-adv-x="938" 
d="M960 706l-164 -706h-227l-236 443l-100 -443h-235l164 706h228l239 -447l103 447h228z" />
    <glyph glyph-name="O" unicode="O" horiz-adv-x="979" 
d="M953 416q0 -87 -36.5 -171t-100.5 -142q-133 -123 -365 -123q-177 0 -281 76q-59 43 -91 109t-32 141q0 104 57 201q36 62 89 107t101.5 66.5t106.5 34t90.5 14t66.5 1.5q245 -5 342 -141q53 -72 53 -173zM705 404q0 75 -36 117q-44 53 -130 52q-102 -3 -167 -71
q-74 -80 -74 -190q1 -80 46.5 -129t124.5 -49q87 0 151 58q85 77 85 212z" />
    <glyph glyph-name="P" unicode="P" horiz-adv-x="875" 
d="M891 508q0 -53 -21.5 -103.5t-59.5 -83.5q-80 -69 -235 -69h-267l-59 -252h-250l163 706h460q50 0 91 -7q83 -14 131 -66q47 -52 47 -125zM641 491q0 26 -16 40q-18 17 -63 17h-185l-32 -139h189q65 0 91 34q16 21 16 48z" />
    <glyph glyph-name="Q" unicode="Q" horiz-adv-x="979" 
d="M956 11l-135 -138l-205 125q-126 -21 -181 -21q-163 0 -274 84q-41 32 -65 68q-49 71 -49 174q0 91 40 174.5t109 141.5q135 112 359 112q159 0 261 -70q138 -95 138 -257q0 -51 -15.5 -102t-30 -76.5t-28.5 -45.5q-21 -30 -69 -82zM706 402q0 52 -17 87q-15 31 -52 56.5
t-97 26.5q-56 2 -102 -20q-64 -30 -103 -97.5t-39 -139.5q0 -52 19 -91q18 -38 53 -60t58.5 -26.5t45.5 -4.5q96 0 162 75q72 82 72 194z" />
    <glyph glyph-name="R" unicode="R" horiz-adv-x="875" 
d="M873 506q0 -57 -28 -108t-76 -82q-23 -14 -81 -37l116 -279h-254l-93 247h-155l-57 -247h-247l164 706h446q58 0 107 -11q105 -21 141 -104q17 -40 17 -85zM622 492q0 17 -8 30q-18 28 -69 28h-172l-32 -140h174q67 0 94 41q13 16 13 41z" />
    <glyph glyph-name="S" unicode="S" horiz-adv-x="812" 
d="M799 522l-227 -18q0 20 -6 31q-23 39 -118 39q-76 0 -100 -31q-10 -11 -10 -24q2 -16 10 -26q17 -19 67 -34l174 -49q60 -17 101 -44q70 -49 70 -136q0 -44 -23.5 -95t-83.5 -91q-101 -67 -284 -67t-278 67q-20 13 -38 35q-24 31 -31 60.5t-8 76.5l229 10q1 -23 6 -34
q24 -59 135 -59q62 0 95 19q34 19 34 55q0 32 -36 48q-4 2 -73 22l-134 39q-1 1 -14.5 5t-31 10.5t-28.5 12.5q-14 7 -27.5 17.5t-31.5 29t-29 46.5t-11 61q0 43 23 92t83 85q93 55 277 55q107 0 182 -26q96 -33 126 -106q11 -27 11 -76z" />
    <glyph glyph-name="T" unicode="T" horiz-adv-x="771" 
d="M861 706l-37 -159h-255l-127 -547h-252l127 547h-262l36 159h770z" />
    <glyph glyph-name="U" unicode="U" horiz-adv-x="958" 
d="M988 706l-104 -449q-19 -71 -50 -119q-41 -66 -114.5 -103.5t-140 -47t-154.5 -9.5q-252 0 -337 95q-41 46 -41 124q0 37 11 92l96 417h252l-96 -420l-1 -8q-1 -7 -2 -17t-1 -18q0 -48 27 -75q35 -35 114 -35q95 0 146 63q33 42 57 145l84 365h254z" />
    <glyph glyph-name="V" unicode="V" horiz-adv-x="875" 
d="M968 706l-493 -706h-235l-153 706h261l61 -451l276 451h283z" />
    <glyph glyph-name="W" unicode="W" horiz-adv-x="1083" 
d="M1173 706l-307 -706h-285l5 517l-224 -517h-286l23 706h219l-36 -524l222 524h242l-10 -526l202 526h235z" />
    <glyph glyph-name="X" unicode="X" horiz-adv-x="875" 
d="M956 706l-368 -350l222 -356h-264l-120 200l-194 -200h-309l393 374l-212 332h279l99 -175l168 175h306z" />
    <glyph glyph-name="Y" unicode="Y" 
d="M954 706l-438 -498l-47 -208h-254l50 213l-174 493h263l79 -295l221 295h300z" />
    <glyph glyph-name="Z" unicode="Z" horiz-adv-x="833" 
d="M886 706l-37 -157l-532 -386h459l-37 -163h-781l37 162l523 385h-429l38 159h759z" />
    <glyph glyph-name="bracketleft" unicode="[" horiz-adv-x="375" 
d="M475 748l-32 -138h-106l-158 -684h107l-32 -140h-299l222 962h298z" />
    <glyph glyph-name="backslash" unicode="\" horiz-adv-x="360" 
d="M458 760l-32 -138h-113l-161 -693h111l-32 -140h-278l228 971h277z" />
    <glyph glyph-name="bracketright" unicode="]" horiz-adv-x="360" 
d="M394 760l-228 -971h-277l31 138h114l161 693h-111l32 140h278z" />
    <glyph glyph-name="asciicircum" unicode="^" horiz-adv-x="772" 
d="M687 286l-204 1l-50 198l-139 -199h-217l311 420h183z" />
    <glyph glyph-name="underscore" unicode="_" horiz-adv-x="500" 
d="M412 -105l-33 -141h-519l32 141h520z" />
    <glyph glyph-name="grave" unicode="`" horiz-adv-x="375" 
d="M368 611h-181l-180 121h276z" />
    <glyph glyph-name="a" unicode="a" horiz-adv-x="833" 
d="M777 382q0 -37 -13 -93l-46 -200q-5 -18 -5 -38q0 -7 11 -51h-247q-3 28 1 59q-54 -29 -61 -33q-89 -42 -199 -42q-43 0 -77 8q-17 4 -34 11t-43.5 23.5t-43 46t-16.5 68.5q0 25 8 49q23 65 84 96q12 6 27 11.5t33.5 9t34 6.5t38.5 5.5t36.5 4t38.5 2.5t34.5 1.5t34 1.5
t28.5 1q22 1 67 2.5t67 2.5q4 29 -7 46q-20 33 -101 33q-74 0 -101 -19q-8 -6 -21 -27h-228q23 62 41 84q26 32 68 53t95 29t91 10.5t89 2.5q188 0 256 -43q60 -38 60 -121zM512 235q-84 5 -161 -7q-55 -8 -76 -20q-26 -13 -26 -38q0 -11 9 -24q19 -23 65 -23q119 0 170 72
q10 13 19 40z" />
    <glyph glyph-name="b" unicode="b" horiz-adv-x="833" 
d="M787 313q0 -85 -39 -160q-29 -56 -72 -93t-90.5 -51.5t-77.5 -19t-60 -4.5q-103 0 -172 44q-14 8 -41 33l-14 -62h-232l163 706h233l-53 -225q24 16 37 24q71 40 175 40q102 0 167 -56q76 -66 76 -176zM543 281q0 33 -13 57q-28 51 -109 51q-90 -2 -125 -73
q-15 -33 -15 -66q0 -37 17 -61q30 -47 103 -47q30 0 57 10q38 15 61.5 50.5t23.5 78.5z" />
    <glyph glyph-name="c" unicode="c" horiz-adv-x="812" 
d="M787 347l-230 -15q-5 33 -26 49q-32 24 -86 24q-106 0 -155 -78q-22 -38 -22 -75t20 -68q36 -54 122 -54q79 0 119 47q8 8 22 35l234 -11q-14 -28 -22 -41q-38 -68 -105 -109q-108 -66 -274 -66q-226 0 -313 129q-46 66 -46 140q0 52 26.5 110.5t96.5 106.5
q110 75 287 75q156 0 249 -53q59 -33 86 -83q11 -22 17 -63z" />
    <glyph glyph-name="d" unicode="d" horiz-adv-x="833" 
d="M864 706l-165 -706h-232l10 44q-26 -19 -39 -25q-60 -34 -148 -34q-116 0 -190.5 67.5t-74.5 183.5q0 110 72 194q37 45 105.5 80t168.5 35q95 0 160 -36q15 -8 46 -30l54 227h233zM533 286q0 28 -9.5 49t-22.5 31t-31 16t-29 7.5t-23 1.5q-60 0 -99 -29
q-54 -43 -54 -113q0 -43 21 -71q31 -41 101 -41q63 0 101 38q20 20 32.5 51t12.5 60z" />
    <glyph glyph-name="e" unicode="e" horiz-adv-x="833" 
d="M790 219h-520q12 -35 21 -49q34 -48 114 -48q43 0 74 18q18 12 34 25l243 -15q-13 -24 -23.5 -39.5t-38 -39t-65.5 -41.5q-94 -44 -242 -44q-133 0 -220 43q-41 19 -73 51q-22 22 -39 53q-29 56 -29 117q0 67 33 125t90 98q101 72 270 72q180 0 274 -78q46 -36 70 -89
q21 -46 27 -159zM558 323q-7 20 -14 31q-34 50 -119 50q-77 0 -118 -46q-8 -9 -21 -35h272z" />
    <glyph glyph-name="f" unicode="f" horiz-adv-x="437" 
d="M509 706l-29 -127q-5 0 -14 1t-16.5 1.5t-14.5 0.5q-27 0 -43 -11q-17 -13 -23 -40l-6 -26h100l-32 -136h-91l-85 -369h-231l85 369h-80l31 135h80l17 71q2 10 10 30q17 49 61 76q44 25 133 25h148z" />
    <glyph glyph-name="g" unicode="g" horiz-adv-x="812" 
d="M802 530l-109 -471q-1 -6 -17 -53q-38 -108 -129 -154q-84 -44 -238 -44q-103 0 -177 25.5t-109 66.5q-24 29 -42 100h230q10 -27 27 -39q30 -20 79 -20q82 0 116 48q13 20 24 57l10 44q-6 -3 -17.5 -9.5t-17.5 -9.5q-69 -32 -161 -32q-136 0 -199 78q-24 26 -35 64
q-11 35 -11 74q0 57 25 113q10 22 24 43t39.5 46.5t56 44t76 31t98.5 12.5t99.5 -14t62.5 -24t50 -33l13 56h232zM514 306q0 40 -22 62q-30 30 -93 28q-35 0 -64 -12q-31 -14 -50 -43t-19 -63q0 -30 14 -50.5t36 -28t35 -9.5t25 -2q36 0 63 11q33 14 54 43t21 64z" />
    <glyph glyph-name="h" unicode="h" horiz-adv-x="792" 
d="M733 369q0 -47 -14 -105l-61 -264h-231l57 248q10 45 10 61q0 37 -22.5 57t-60.5 20q-57 0 -94 -45q-28 -35 -45 -110l-54 -231h-230l164 706h229l-55 -243q28 23 46 36t64.5 29.5t98.5 16.5q86 0 138 -41q60 -46 60 -135z" />
    <glyph glyph-name="i" unicode="i" horiz-adv-x="354" 
d="M383 706l-28 -123h-231l28 123h231zM342 530l-122 -530h-231l123 530h230z" />
    <glyph glyph-name="j" unicode="j" horiz-adv-x="354" 
d="M383 706l-28 -122h-232l29 122h231zM342 530l-132 -569q-13 -58 -48 -93q-48 -50 -154 -50h-142l34 141q47 0 61 7q21 12 32 59l118 505h231z" />
    <glyph glyph-name="k" unicode="k" horiz-adv-x="771" 
d="M820 530l-274 -200l157 -330h-247l-90 199l-121 -85l-26 -114h-231l163 706h231l-78 -338l217 162h299z" />
    <glyph glyph-name="l" unicode="l" horiz-adv-x="354" 
d="M383 706l-163 -706h-232l163 706h232z" />
    <glyph glyph-name="m" unicode="m" horiz-adv-x="1146" 
d="M1093 388q0 -31 -17 -109l-64 -279h-227l63 276q9 36 9 50q0 61 -71 61q-37 0 -60 -19q-31 -24 -41 -76l-68 -292h-230l65 282q8 37 8 45q0 16 -7 30q-16 30 -62 30q-50 0 -78 -38q-19 -25 -34 -91l-60 -258h-229l123 530h227l-15 -71q18 17 36 30q80 56 173 56
q97 0 144 -58q10 -11 22 -33q25 23 48 40q74 50 164 50q79 0 130 -39.5t51 -116.5z" />
    <glyph glyph-name="n" unicode="n" horiz-adv-x="792" 
d="M735 374q0 -33 -10 -80l-67 -294h-232l62 270q5 25 5 35q0 29 -19 55t-67 26q-47 0 -81 -33q-34 -34 -49 -97l-59 -256h-229l123 530h228l-16 -74q23 22 37 32q77 56 182 56q54 0 97 -18q95 -40 95 -152z" />
    <glyph glyph-name="o" unicode="o" 
d="M808 291q0 -130 -108 -214q-117 -91 -313 -91q-143 0 -231 46q-44 22 -72 54q-58 70 -58 168q0 154 146 235q106 59 282 57q164 -2 254 -62q34 -24 53 -48q20 -26 33 -62q14 -43 14 -83zM563 283q0 46 -21.5 72.5t-47.5 37.5q-24 10 -65 10q-59 0 -100 -27
q-30 -20 -48 -55t-18 -72q0 -46 26 -76q37 -43 110 -43q67 0 107 32q27 21 42 54t15 67z" />
    <glyph glyph-name="p" unicode="p" horiz-adv-x="833" 
d="M787 301q0 -64 -26 -123.5t-72 -103.5q-94 -89 -242 -89q-135 0 -212 76l-57 -244h-231l165 713h231l-10 -46q16 12 30 20q69 41 162 41q99 -1 162 -46q100 -69 100 -198zM546 283q0 50 -30.5 76t-81.5 27q-44 0 -76.5 -15t-48.5 -38.5t-23 -45t-7 -40.5q0 -47 29 -74
q33 -29 92 -29q36 0 61 10q38 15 61.5 51.5t23.5 77.5z" />
    <glyph glyph-name="q" unicode="q" horiz-adv-x="833" 
d="M821 530l-164 -712h-231l49 215q-7 -3 -20.5 -9.5t-19.5 -9.5q-63 -29 -138 -29q-60 0 -114 20q-74 28 -114.5 88.5t-40.5 141.5q0 61 26 123t71 104q91 84 244 84q106 0 169 -41q15 -10 39 -34l14 59h230zM533 282q0 46 -28 74q-32 32 -93 32q-36 0 -65 -13
q-36 -16 -58 -49.5t-22 -73.5q0 -27 11 -52q27 -59 110 -59q34 0 56 9q40 14 64.5 50.5t24.5 81.5z" />
    <glyph glyph-name="r" unicode="r" horiz-adv-x="479" 
d="M531 541l-48 -208q-39 11 -78 11q-64 0 -96 -32q-13 -13 -24 -41q-15 -42 -65 -271h-231l122 530h230l-19 -83q24 28 38 40q62 57 135 57q18 0 36 -3z" />
    <glyph glyph-name="s" unicode="s" horiz-adv-x="708" 
d="M691 368l-221 -9q-3 18 -7 25q-21 34 -103 34q-34 0 -49 -5q-32 -11 -32 -36q0 -5 5 -13q11 -17 38 -21l112 -18q89 -14 128 -28q54 -21 76 -67q14 -32 14 -60q0 -24 -8 -47q-21 -62 -101 -99q-89 -40 -245 -40q-128 0 -215 37q-53 25 -76 54q-21 26 -32 90l239 9
q7 -35 40 -47q34 -12 86 -12q23 0 40 6q29 10 29 36q0 8 -4 16q-8 14 -42 21l-123 24q-31 6 -50.5 11t-46.5 15.5t-46.5 27t-31.5 39.5q-15 27 -15 57q0 34 18 65q38 69 147 96q66 16 187 16q134 0 209 -45q33 -19 52 -45q18 -26 28 -87z" />
    <glyph glyph-name="t" unicode="t" horiz-adv-x="437" 
d="M447 506l-31 -136h-90l-37 -159l-1 -3q0 -4 -1 -9t-1 -9q0 -19 10 -29q13 -18 82 -16l-34 -144q-89 -5 -160 -1t-102 24q-41 26 -41 84q0 25 6 49l48 213h-75l32 136h75l36 148h228l-34 -148h90z" />
    <glyph glyph-name="u" unicode="u" horiz-adv-x="792" 
d="M780 530l-123 -530h-224l16 72q-28 -22 -42 -32q-74 -54 -172 -54q-129 0 -176 86q-23 43 -23 93q0 40 6 61l69 304h226l-61 -268q-5 -22 -5 -50q0 -20 7 -33q18 -35 73 -35q44 0 78 24q53 39 75 134l53 228h223z" />
    <glyph glyph-name="v" unicode="v" horiz-adv-x="750" 
d="M801 530l-374 -530h-256l-121 530h236l51 -335l207 335h257z" />
    <glyph glyph-name="w" unicode="w" horiz-adv-x="1062" 
d="M1107 530l-292 -530h-257l-24 341l-178 -341h-269l-30 530h232l-5 -314l161 314h254l23 -312l133 312h252z" />
    <glyph glyph-name="x" unicode="x" horiz-adv-x="771" 
d="M815 530l-315 -264l192 -266h-242l-96 141l-158 -141h-277l332 281l-187 249h257l78 -121l136 121h280z" />
    <glyph glyph-name="y" unicode="y" horiz-adv-x="688" 
d="M735 530l-287 -452q-44 -70 -59.5 -93.5t-40 -55.5t-45.5 -50q-74 -63 -209 -63q-36 0 -146 9l38 161q50 -5 89 -5q51 0 51 24q0 12 -1 18l-68 507h231l10 -385l193 385h244z" />
    <glyph glyph-name="z" unicode="z" horiz-adv-x="750" 
d="M762 530l-33 -144l-395 -239h340l-34 -147h-674l32 139l384 244h-300l34 147h646z" />
    <glyph glyph-name="braceleft" unicode="{" horiz-adv-x="354" 
d="M483 766l-15 -68q-71 -19 -88 -30q-12 -8 -23 -25q-14 -22 -32 -97l-21 -90q-21 -88 -44 -124q-14 -20 -32 -31q-28 -19 -72 -27q41 -19 57.5 -42.5t16.5 -63.5q0 -34 -10 -75l-21 -90q-10 -40 -10 -73q0 -29 17 -45q15 -15 66 -33l-16 -69h-46q-95 0 -139 22
q-26 13 -41.5 39t-15.5 57q0 30 10 70l29 126q7 29 7 59q0 33 -13 53q-10 17 -40 31l16 69q38 12 52 23q40 30 67 149l25 109q11 46 17 64q14 45 53 75q18 14 41 22q48 15 150 15h55z" />
    <glyph glyph-name="bar" unicode="|" horiz-adv-x="287" 
d="M334 759l-225 -972h-168l226 972h167z" />
    <glyph glyph-name="braceright" unicode="}" horiz-adv-x="354" 
d="M334 309l-16 -69q-38 -12 -52 -23q-40 -30 -67 -149l-25 -109q-11 -46 -17 -64q-14 -46 -53 -74q-18 -14 -41 -22q-48 -15 -150 -15h-55l15 67q71 19 89 31q9 6 22 24q18 29 33 97l20 90q21 90 44 124q12 18 32 32q24 17 72 26q-42 20 -58 43t-16 64q0 33 10 74l21 90
q10 42 10 74q0 28 -17 45q-15 15 -66 32l16 69h46q96 0 139 -21q57 -29 57 -97q0 -28 -10 -70l-29 -126q-7 -28 -7 -59q0 -33 13 -53q10 -17 40 -31z" />
    <glyph glyph-name="asciitilde" unicode="~" horiz-adv-x="772" 
d="M721 274q-48 -43 -110 -71q-58 -26 -109 -26q-45 0 -118 29l-41 16q-57 22 -96 22q-33 0 -61.5 -12t-68.5 -46l-12 -10l-53 149q50 42 90 64q58 33 125 33q45 0 120 -28l47 -18q58 -22 85 -22q19 0 37 5q16 3 41 15q28 14 73 48z" />
    <glyph glyph-name="exclamdown" unicode="&#xa1;" horiz-adv-x="375" 
d="M354 706l-43 -181h-189l42 181h190zM294 447l-42 -267l-43 -180h-229l42 181l81 266h191z" />
    <glyph glyph-name="cent" unicode="&#xa2;" horiz-adv-x="812" 
d="M787 347l-230 -15q-4 30 -21 45t-61 25l-64 -272q76 0 118 46q9 10 22 36l234 -11q-28 -56 -52.5 -86.5t-74.5 -61.5q-108 -68 -265 -68q-10 0 -16 1l-23 -99h-65l24 104q-7 0 -37.5 5.5t-81.5 24.5t-82 46q-43 37 -65 89t-22 98q0 77 46.5 143t129.5 104q47 21 96 30
q69 15 137 15h9l20 85h65l-21 -89q210 -21 266 -138q10 -23 14 -57zM409 402q-41 -7 -68 -23q-36 -22 -54.5 -57t-18.5 -70q0 -46 25 -74.5t55 -37.5z" />
    <glyph glyph-name="sterling" unicode="&#xa3;" horiz-adv-x="812" 
d="M801 457l-225 -13q7 14 7 44q0 69 -82 69q-59 0 -86 -39q-13 -17 -13 -45q0 -34 36 -103h143l-16 -72h-108l1 -20q0 -19 -1 -19q-3 -56 -48 -120q39 -13 67 -13q36 0 56 20q19 18 33 61h207q-10 -40 -18.5 -66.5t-27 -60.5t-42.5 -54q-49 -42 -130 -42q-29 0 -67 6
q-95 14 -195 56q-38 -21 -62.5 -32.5t-60 -21t-70.5 -9.5q-86 0 -122 56q-21 30 -21 64q0 33 19 61q40 62 132 62q52 0 149 -30q0 28 -2.5 47t-5 27t-10.5 28h-178l16 72h128q-15 26 -22 40t-14 37t-7 46q1 74 59 132q18 17 55 35q81 38 227 38q144 0 219 -51q32 -22 51 -55
q12 -20 18.5 -46.5t7.5 -39t3 -49.5zM194 100q-10 7 -14 9q-2 2 -13 7.5t-28.5 11.5t-30.5 6q-20 0 -31 -11t-11 -23q0 -7 4 -13q10 -17 40 -17q32 0 84 30z" />
    <glyph glyph-name="currency" unicode="&#xa4;" horiz-adv-x="765" 
d="M769 546l-97 -79q22 -52 22 -94q0 -102 -60 -184l76 -87l-138 -110l-75 87q-63 -28 -131 -28q-87 0 -156 44l-97 -80l-104 119l97 79q-22 55 -22 102q0 89 58 172l-73 85l136 110l73 -84q71 31 138 31q78 0 151 -45l98 81zM506 353q0 49 -29.5 78.5t-77.5 29.5
q-54 0 -91.5 -39t-37.5 -96q0 -46 29 -77t74 -31h6q54 0 90.5 38.5t36.5 96.5z" />
    <glyph glyph-name="yen" unicode="&#xa5;" 
d="M954 695l-260 -291h135l-26 -113h-210l-67 -76h262l-26 -112h-270l-23 -103h-254l25 103h-241l26 112h237l-27 76h-195l27 113h128l-104 291h263l79 -291l221 291h300z" />
    <glyph glyph-name="brokenbar" unicode="&#xa6;" horiz-adv-x="287" 
d="M334 760l-94 -409h-168l95 409h167zM203 197l-94 -409h-168l95 409h167z" />
    <glyph glyph-name="section" unicode="&#xa7;" horiz-adv-x="729" 
d="M751 554l-221 -13q-11 23 -13 25q-20 26 -74 26q-81 0 -81 -57q0 -16 15.5 -29t26.5 -17.5t32 -12.5q44 -15 87 -27q83 -25 110 -43q32 -20 48 -51q14 -25 14 -61q0 -41 -24.5 -77.5t-62.5 -57.5q-21 -12 -53 -23q25 -30 36 -52.5t11 -54.5v-5q0 -54 -30.5 -94.5t-79 -62
t-99.5 -31.5t-103 -10q-203 0 -282 92q-38 44 -49 113l225 12q13 -39 24 -51q28 -33 78 -33q26 0 50 13.5t24 37.5q0 22 -13.5 33.5t-37.5 19.5l-127 44q-55 19 -90 41t-57 62q-17 32 -17 66q0 31 18 62q22 38 54 57t83 35q-27 28 -40.5 53t-13.5 59q0 54 36 95
q79 89 287 89q202 0 274 -87q20 -24 35 -85zM479 261q0 34 -44 52q-27 11 -156 49q-44 -23 -44 -66q0 -24 22 -43q9 -7 35.5 -17.5t48.5 -17.5t57.5 -17.5t37.5 -11.5q43 43 43 72z" />
    <glyph glyph-name="dieresis" unicode="&#xa8;" horiz-adv-x="375" 
d="M476 732l-27 -122h-207l28 122h206zM133 731l-26 -121h-208l28 121h206z" />
    <glyph glyph-name="copyright" unicode="&#xa9;" horiz-adv-x="760" 
d="M747 351q0 -149 -104.5 -251.5t-252.5 -102.5q-149 0 -252 104t-103 254q0 149 103 251.5t253 102.5q149 0 252.5 -102.5t103.5 -250.5v-5zM692 352q0 130 -87 219.5t-214 89.5q-124 0 -212 -90t-88 -218q0 -129 87.5 -218.5t212.5 -89.5t213 89.5t88 217.5zM625 423
l-125 -15q-23 62 -96 62q-56 0 -90.5 -35t-34.5 -90q0 -46 28.5 -73.5t76.5 -27.5q65 0 97 53l120 -23q-65 -136 -226 -136q-97 0 -157 55.5t-60 144.5q0 101 71.5 168t178.5 67q75 0 134 -35q65 -39 83 -115z" />
    <glyph glyph-name="ordfeminine" unicode="&#xaa;" horiz-adv-x="542" 
d="M564 610q0 -16 -9 -61l-29 -130q-4 -16 -4 -25q0 -7 7 -33h-160q0 3 -0.5 9.5t-0.5 9.5q0 6 2 20q-76 -47 -163 -49q-68 -1 -107 28t-39 73q0 8 2 18t8 25.5t20.5 30t35.5 24.5q49 23 280 28q0 2 0.5 5t0.5 5q0 42 -67 42q-49 2 -67 -11q-6 -3 -9 -6q-2 -2 -4.5 -7
t-3.5 -6h-148q12 37 26 53q52 65 226 63q132 0 171 -32q32 -27 32 -74zM391 514h-15q-152 0 -155 -41q0 -11 5 -16q15 -16 40 -16q75 -1 112 44q13 18 13 29z" />
    <glyph glyph-name="guillemotleft" unicode="&#xab;" horiz-adv-x="542" 
d="M549 550l-44 -192l-115 -59l85 -69l-40 -172l-173 139l53 232zM305 547l-43 -190l-111 -58l82 -66l-41 -174l-172 139l52 228z" />
    <glyph glyph-name="logicalnot" unicode="&#xac;" horiz-adv-x="772" 
d="M707 384l-83 -357h-204l44 194h-417l38 163h622z" />
    <glyph glyph-name="registered" unicode="&#xae;" horiz-adv-x="760" 
d="M747 351q0 -149 -104.5 -251.5t-252.5 -102.5q-149 0 -252 104t-103 254q0 149 103 251.5t253 102.5q149 0 252.5 -102.5t103.5 -250.5v-5zM692 352q0 130 -87 219.5t-214 89.5q-124 0 -212 -90t-88 -218q0 -129 87.5 -218.5t212.5 -89.5t213 89.5t88 217.5zM607 453
q0 -67 -34 -108q-31 -37 -95 -46l83 -146h-127l-74 143h-31l-32 -143h-114l94 417h159q92 0 129 -25q42 -30 42 -92zM485 440q0 23 -13 32t-47 9h-54l-21 -94h75q28 0 42 11q18 12 18 42z" />
    <glyph glyph-name="macron" unicode="&#xaf;" horiz-adv-x="375" 
d="M473 702l-22 -92h-549l22 92h549z" />
    <glyph glyph-name="degree" unicode="&#xb0;" horiz-adv-x="354" 
d="M396 573q0 -71 -50.5 -122t-121.5 -51t-121.5 51t-50.5 122q0 72 50 122t122 50t122 -50t50 -122zM281 575q0 23 -16.5 39t-39.5 16t-39.5 -16t-16.5 -39t16.5 -39.5t39.5 -16.5t39.5 16.5t16.5 39.5z" />
    <glyph glyph-name="plusminus" unicode="&#xb1;" horiz-adv-x="772" 
d="M746 557l-37 -163h-196l-43 -181h-205l42 181h-198l38 163h198l40 173l205 -1l-39 -172h195zM657 164l-38 -164h-600l38 164h600z" />
    <glyph glyph-name="twosuperior" unicode="&#xb2;" horiz-adv-x="562" 
d="M560 571q0 -29 -22 -64q-20 -29 -52.5 -50t-92.5 -48q-44 -20 -69 -29q-2 -1 -14.5 -5.5t-19.5 -8.5q-21 -9 -45 -26h278l-24 -102h-450l24 101q19 22 29.5 32t31.5 24t53 29l160 74q1 1 9 4.5t12 5.5t12 6.5t12.5 8t9.5 8.5t7.5 11t2.5 12q1 19 -17.5 28.5t-47.5 9.5
q-52 0 -71 -21t-25 -59l-137 2q9 62 29 91q58 89 216 86q155 -2 191 -76q10 -18 10 -44z" />
    <glyph glyph-name="threesuperior" unicode="&#xb3;" horiz-adv-x="562" 
d="M554 578q-5 -30 -14 -43q-15 -23 -37.5 -33.5t-71.5 -23.5q43 -14 62 -27.5t31 -37.5q11 -20 11 -44q0 -27 -19 -55q-24 -34 -73 -54.5t-88.5 -26t-78.5 -5.5q-150 0 -202 67q-18 24 -22 69l138 10q6 -15 18 -27q12 -11 31 -16t33 -5h13q41 0 69.5 14.5t27.5 39.5
q-2 41 -68 41q-31 1 -87 -5l20 88q10 0 38 1t37.5 2t27 3.5t27 7.5t16.5 13q12 13 12 26q-1 19 -17 29t-43 9q-23 0 -52 -7.5t-43 -22.5q-3 -3 -9 -22h-138q9 52 37 81q64 67 228 67q138 0 176 -69q10 -19 10 -44z" />
    <glyph glyph-name="acute" unicode="&#xb4;" horiz-adv-x="375" 
d="M367 732l-178 -122h-181l85 122h274z" />
    <glyph glyph-name="mu" unicode="&#xb5;" horiz-adv-x="823" 
d="M802 530l-102 -440q-5 -23 -5 -40q0 -21 11 -50h-227q-8 20 -8 51q0 11 1 21q-29 -44 -58.5 -62.5t-71.5 -18.5q-36 0 -65 12q-16 8 -33 25l-48 -211h-226l163 713h230l-61 -268q-6 -30 -6 -45q0 -34 20 -53.5t55 -19.5q52 0 90 41t56 118l53 227h232z" />
    <glyph glyph-name="paragraph" unicode="&#xb6;" horiz-adv-x="623" 
d="M651 706l-22 -96h-36l-179 -777h-102l180 777h-111l-179 -777h-103l106 459q-37 21 -55 39q-56 53 -56 140q0 59 26.5 110t73.5 82q65 43 202 43h255z" />
    <glyph glyph-name="periodcentered" unicode="&#xb7;" horiz-adv-x="333" 
d="M301 402l-43 -184h-230l43 184h230z" />
    <glyph glyph-name="cedilla" unicode="&#xb8;" horiz-adv-x="375" 
d="M329 -128q0 -29 -19 -55q-45 -62 -145 -62q-49 0 -119 23l25 53q37 -10 66 -10q17 0 30 3q12 3 22 12.5t10 20.5q-1 12 -11 19.5t-21 7.5q-13 0 -37 -14l-31 38q24 23 71 68.5t70 68.5l52 -4l-59 -87q22 -2 36 -6q60 -18 60 -76z" />
    <glyph glyph-name="onesuperior" unicode="&#xb9;" horiz-adv-x="562" 
d="M464 681l-103 -443h-151l71 307q-54 -18 -110 -20l22 96q85 12 158 60h113z" />
    <glyph glyph-name="ordmasculine" unicode="&#xba;" horiz-adv-x="521" 
d="M566 549q-1 -83 -73.5 -140t-200.5 -57q-116 0 -174 45t-60 123q-1 39 13 71.5t33 51.5t46 33.5t43 20t33 9.5q46 10 110 10q87 -2 137 -24q93 -42 93 -143zM407 544q0 29 -20 54.5t-67 24.5q-41 0 -67 -19q-41 -30 -41 -80q-1 -38 23.5 -58t61.5 -21q57 -1 83 30.5
t27 68.5z" />
    <glyph glyph-name="guillemotright" unicode="&#xbb;" horiz-adv-x="542" 
d="M522 411l-53 -226l-234 -122l44 190l110 58l-81 65l40 176zM279 412l-53 -230l-235 -123l45 193l114 60l-85 69l40 171z" />
    <glyph glyph-name="onequarter" unicode="&#xbc;" horiz-adv-x="1250" 
d="M1190 183l-24 -102h-90l-18 -81h-150l19 81h-260l24 104l285 257h185l-60 -259h89zM865 681l-447 -681h-120l447 681h120zM404 681l-103 -443h-151l71 307q-54 -18 -111 -20l22 96q83 12 159 60h113zM986 332l-162 -149h126z" />
    <glyph glyph-name="onehalf" unicode="&#xbd;" horiz-adv-x="1250" 
d="M1189 333q-2 -81 -121 -141q-16 -8 -37 -17q-14 -7 -78 -33q-30 -12 -37 -15q-15 -7 -42 -25h278l-24 -102h-450l23 101q20 23 29.5 33t30.5 23.5t54 28.5l161 74q63 28 64 57q1 18 -19.5 28t-44.5 10q-28 0 -47 -6.5t-28.5 -19t-13.5 -25t-7 -30.5l-137 2q9 59 23 84
q53 93 222 93q94 -1 148 -30.5t53 -89.5zM855 681l-447 -681h-120l447 681h120zM404 681l-103 -443h-151l71 307q-54 -18 -111 -20l22 96q83 12 159 60h113z" />
    <glyph glyph-name="threequarters" unicode="&#xbe;" horiz-adv-x="1250" 
d="M1190 183l-24 -102h-90l-18 -81h-150l19 81h-260l24 104l285 257h185l-60 -259h89zM915 681l-447 -681h-120l447 681h120zM485 578q-5 -28 -14 -43q-15 -23 -37.5 -33.5t-70.5 -23.5q42 -14 61 -27.5t31 -37.5q11 -20 11 -44q0 -27 -19 -55q-24 -34 -73 -54.5t-88.5 -26
t-77.5 -5.5q-151 0 -203 67q-18 24 -22 69l139 10q7 -17 17 -27q12 -11 31 -16t32 -5h14q41 0 69.5 14.5t27.5 39.5q-2 41 -68 41q-31 1 -87 -5l20 88q10 0 38 1t37.5 2t27 3.5t27 7.5t16.5 13q12 13 12 26q0 18 -16.5 28.5t-43.5 9.5q-23 0 -52 -7.5t-43 -22.5
q-3 -3 -9 -22h-138q9 52 37 81q64 67 228 67q138 0 176 -69q10 -19 10 -44zM986 332l-162 -149h126z" />
    <glyph glyph-name="questiondown" unicode="&#xbf;" horiz-adv-x="708" 
d="M574 706l-42 -183h-216l41 183h217zM688 243q-5 -25 -12 -46q-20 -68 -65 -116t-118.5 -72.5t-195.5 -24.5q-111 0 -184 30q-37 15 -67 40q-29 26 -42 63q-9 30 -9 55q0 31 14 65q30 68 112 107l129 60q24 12 32.5 19.5t15.5 22.5l216 -1q-15 -58 -52 -87
q-17 -13 -39 -25t-53 -25t-42 -19q-31 -15 -48 -29q-5 -4 -12.5 -11t-16.5 -22.5t-9 -31.5q0 -28 26 -49.5t75 -21.5q35 0 65 11q25 10 43 31t25.5 38.5t17.5 49.5z" />
    <glyph glyph-name="Agrave" unicode="&#xc0;" horiz-adv-x="896" 
d="M686 775h-180l-180 122h277zM822 0h-257l-13 113h-284l-65 -113h-277l476 706h297zM534 270l-30 251l-145 -251h175z" />
    <glyph glyph-name="Aacute" unicode="&#xc1;" horiz-adv-x="896" 
d="M781 897l-179 -121h-179l85 121h273zM822 0h-257l-13 113h-284l-65 -113h-277l476 706h297zM534 270l-30 251l-145 -251h175z" />
    <glyph glyph-name="Acircumflex" unicode="&#xc2;" horiz-adv-x="896" 
d="M793 776h-185l-35 70l-68 -70h-188l119 121h305zM822 0h-257l-13 113h-284l-65 -113h-277l476 706h297zM534 270l-30 251l-145 -251h175z" />
    <glyph glyph-name="Atilde" unicode="&#xc3;" horiz-adv-x="896" 
d="M835 898q-13 -36 -26.5 -57.5t-38.5 -39.5q-20 -14 -46 -22q-28 -7 -58 -7q-69 0 -129 15l-15 3q-15 2 -35 5t-34 3q-37 0 -60 -25h-88q18 34 28 50q49 74 145 74q45 0 130 -17q54 -11 82 -11q30 0 47 13q9 7 13 16h85zM822 0h-257l-13 113h-284l-65 -113h-277l476 706
h297zM534 270l-30 251l-145 -251h175z" />
    <glyph glyph-name="Adieresis" unicode="&#xc4;" horiz-adv-x="896" 
d="M857 897l-28 -122h-206l29 122h205zM515 897l-28 -121h-206l27 121h207zM822 0h-257l-14 113h-283l-65 -113h-277l475 706h297zM533 270l-29 251l-146 -251h175z" />
    <glyph glyph-name="Aring" unicode="&#xc5;" horiz-adv-x="896" 
d="M706 862q0 -33 -21 -60q-41 -49 -137 -49q-40 0 -65 9q-13 4 -24.5 11.5t-24 26.5t-12.5 45q0 25 10 45.5t26 32t28.5 17.5t23.5 9q30 7 68 7q32 0 61 -9q67 -22 67 -85zM821 0h-256l-14 113h-283l-65 -113h-277l476 706h297zM619 854q0 6 -5 14q-13 17 -47 16
q-24 0 -33 -4q-25 -9 -25 -30q0 -8 6 -15q11 -15 48 -15q19 0 31 4q25 9 25 30zM533 270l-29 251l-146 -251h175z" />
    <glyph glyph-name="AE" unicode="&#xc6;" horiz-adv-x="1042" 
d="M1044 706l-36 -159h-218l-27 -116h220l-37 -159h-220l-26 -114h284l-37 -158h-509l28 123h-205l-80 -123h-255l488 706h630zM567 560h-21l-184 -284h140z" />
    <glyph glyph-name="Ccedilla" unicode="&#xc7;" horiz-adv-x="917" 
d="M915 492l-225 -23q-5 28 -15 44q-38 64 -131 64q-159 2 -227 -128q-31 -58 -30 -132q1 -84 51.5 -130t133.5 -45q53 1 96 20t66 46q13 15 30 51l223 -25q-32 -87 -111 -150q-25 -20 -52.5 -36t-54 -26.5t-49 -18t-47.5 -12t-38.5 -6.5t-31.5 -4t-19 -2l-18 -25
q52 -4 75 -27.5t21 -57.5q-2 -32 -26 -61q-46 -53 -137 -53q-48 0 -120 23l25 53q36 -10 67 -10h4q21 0 39.5 10t17.5 27q-1 10 -9.5 18.5t-23.5 7.5q-12 0 -35 -14l-32 38q19 19 75 73q-141 14 -221 65t-114 140q-21 55 -23 124q-2 180 141 304q130 113 338 117
q201 4 310 -96q62 -56 77 -143z" />
    <glyph glyph-name="Egrave" unicode="&#xc8;" 
d="M665 775h-180l-179 122h276zM891 706l-36 -155h-478l-27 -118h456l-36 -156h-456l-28 -117h513l-37 -160h-762l163 706h728z" />
    <glyph glyph-name="Eacute" unicode="&#xc9;" 
d="M760 897l-179 -121h-179l85 121h273zM891 706l-36 -155h-478l-27 -118h456l-36 -156h-456l-28 -117h513l-37 -160h-762l163 706h728z" />
    <glyph glyph-name="Ecircumflex" unicode="&#xca;" 
d="M773 776h-186l-35 70l-68 -70h-188l119 121h305zM891 706l-36 -155h-478l-27 -118h456l-36 -156h-456l-28 -117h513l-37 -160h-762l163 706h728z" />
    <glyph glyph-name="Edieresis" unicode="&#xcb;" 
d="M837 898l-28 -121h-206l28 121h206zM495 898l-29 -121h-206l28 121h207zM891 706l-36 -155h-478l-27 -118h456l-36 -156h-456l-28 -117h513l-37 -160h-762l163 706h728z" />
    <glyph glyph-name="Igrave" unicode="&#xcc;" horiz-adv-x="396" 
d="M436 775h-180l-180 122h277zM416 706l-163 -706h-253l163 706h253z" />
    <glyph glyph-name="Iacute" unicode="&#xcd;" horiz-adv-x="396" 
d="M531 897l-179 -121h-179l85 121h273zM416 706l-163 -706h-253l163 706h253z" />
    <glyph glyph-name="Icircumflex" unicode="&#xce;" horiz-adv-x="396" 
d="M543 776h-185l-35 70l-68 -70h-188l119 121h305zM416 706l-163 -706h-253l163 706h253z" />
    <glyph glyph-name="Idieresis" unicode="&#xcf;" horiz-adv-x="396" 
d="M608 898l-28 -121h-206l28 121h206zM266 898l-29 -121h-206l28 121h207zM416 706l-163 -706h-253l163 706h253z" />
    <glyph glyph-name="Eth" unicode="&#xd0;" horiz-adv-x="938" 
d="M931 394q-2 -132 -78 -231q-41 -54 -93.5 -89t-112.5 -50t-106 -19.5t-106 -4.5h-437l75 328h-72l25 89h68l67 289h378q50 0 82.5 -2.5t81.5 -13t91 -36.5t76 -68q61 -76 61 -192zM684 404q-2 51 -26 85q-27 37 -68.5 49t-101.5 12h-110l-32 -133h201l-23 -89h-198
l-40 -172h148q94 0 143 26.5t80 91.5q29 64 27 130z" />
    <glyph glyph-name="Ntilde" unicode="&#xd1;" horiz-adv-x="938" 
d="M856 898q-13 -36 -26.5 -57.5t-38.5 -39.5q-23 -15 -46 -22q-28 -7 -58 -7q-69 0 -129 15l-15 3q-15 2 -35.5 5t-33.5 3q-37 0 -60 -25h-88q18 34 28 50q49 74 144 74q46 0 131 -17q54 -11 81 -11q32 0 47 13q7 6 14 16h85zM960 706l-164 -706h-227l-236 443l-100 -443
h-235l164 706h228l239 -447l103 447h228z" />
    <glyph glyph-name="Ograve" unicode="&#xd2;" horiz-adv-x="979" 
d="M728 775h-181l-179 122h277zM953 416q0 -87 -36.5 -171t-100.5 -142q-133 -123 -365 -123q-177 0 -281 76q-59 43 -91 109t-32 141q0 104 57 201q36 62 89 107t101.5 66.5t106.5 34t90.5 14t66.5 1.5q245 -5 342 -141q53 -72 53 -173zM705 404q0 75 -36 117
q-44 53 -130 52q-102 -3 -167 -71q-74 -80 -74 -190q1 -80 46.5 -129t124.5 -49q87 0 151 58q85 77 85 212z" />
    <glyph glyph-name="Oacute" unicode="&#xd3;" horiz-adv-x="979" 
d="M822 897l-178 -121h-179l84 121h273zM953 416q0 -87 -36.5 -171t-100.5 -142q-133 -123 -365 -123q-177 0 -281 76q-59 43 -91 109t-32 141q0 104 57 201q36 62 89 107t101.5 66.5t106.5 34t90.5 14t66.5 1.5q245 -5 342 -141q53 -72 53 -173zM705 404q0 75 -36 117
q-44 53 -130 52q-102 -3 -167 -71q-74 -80 -74 -190q1 -80 46.5 -129t124.5 -49q87 0 151 58q85 77 85 212z" />
    <glyph glyph-name="Ocircumflex" unicode="&#xd4;" horiz-adv-x="979" 
d="M835 776h-186l-35 70l-68 -70h-188l119 121h305zM953 416q0 -87 -36.5 -171t-100.5 -142q-133 -123 -365 -123q-177 0 -281 76q-59 43 -91 109t-32 141q0 104 57 201q36 62 89 107t101.5 66.5t106.5 34t90.5 14t66.5 1.5q245 -5 342 -141q53 -72 53 -173zM705 404
q0 75 -36 117q-44 53 -130 52q-102 -3 -167 -71q-74 -80 -74 -190q1 -80 46.5 -129t124.5 -49q87 0 151 58q85 77 85 212z" />
    <glyph glyph-name="Otilde" unicode="&#xd5;" horiz-adv-x="979" 
d="M877 898q-13 -36 -26.5 -57.5t-38.5 -39.5q-23 -15 -47 -22q-26 -7 -57 -7q-69 0 -129 15l-15 3q-15 2 -35.5 5t-33.5 3q-37 0 -60 -25h-88q18 34 28 50q14 21 27.5 34.5t44.5 26.5t72 13q46 0 131 -17q54 -11 81 -11q32 0 47 13q8 6 14 16h85zM953 416q0 -87 -36.5 -171
t-100.5 -142q-133 -123 -365 -123q-177 0 -281 76q-59 43 -91 109t-32 141q0 104 57 201q36 62 89 107t101.5 66.5t106.5 34t90.5 14t66.5 1.5q245 -5 342 -141q53 -72 53 -173zM705 404q0 75 -36 117q-44 53 -130 52q-104 -3 -167 -71q-74 -80 -74 -190q1 -80 46.5 -129
t124.5 -49q87 0 151 58q85 77 85 212z" />
    <glyph glyph-name="Odieresis" unicode="&#xd6;" horiz-adv-x="979" 
d="M898 897l-28 -121h-205l28 121h205zM556 897l-28 -121h-207l29 121h206zM953 416q0 -87 -36.5 -171t-100.5 -142q-133 -123 -365 -123q-177 0 -281 76q-59 43 -91 109t-32 141q0 104 57 201q36 62 89 107t101.5 66.5t106.5 34t90.5 14t66.5 1.5q245 -5 342 -141
q53 -72 53 -173zM705 404q0 75 -36 117q-44 53 -130 52q-102 -3 -167 -71q-74 -80 -74 -190q1 -80 46.5 -129t124.5 -49q87 0 151 58q85 77 85 212z" />
    <glyph glyph-name="multiply" unicode="&#xd7;" horiz-adv-x="772" 
d="M676 414l-157 -112l126 -126l-153 -120l-134 131l-163 -117l-106 123l152 108l-125 125l153 121l134 -130l168 120z" />
    <glyph glyph-name="Oslash" unicode="&#xd8;" horiz-adv-x="979" 
d="M966 709l-99 -84q26 -32 38 -49q47 -67 47 -164q0 -162 -113 -284q-140 -151 -389 -151q-68 0 -123.5 12t-80.5 23.5t-66 34.5l-109 -91l-41 49l98 84q-34 42 -39 50q-44 70 -44 166t47 185q18 34 42 64.5t64 63.5t88.5 56.5t118.5 39t150 15.5q114 0 197 -32
q35 -14 63 -31l110 93zM652 530q-38 29 -66 37q-22 5 -48 5q-52 0 -98 -20q-68 -29 -108 -92t-39 -137q0 -40 18 -81zM706 396q0 34 -17 80l-343 -289q17 -15 27 -23t37.5 -18t59.5 -10q45 0 98 23t92 84q46 73 46 153z" />
    <glyph glyph-name="Ugrave" unicode="&#xd9;" horiz-adv-x="958" 
d="M718 775h-181l-179 122h276zM988 706l-104 -449q-19 -71 -50 -119q-41 -66 -114.5 -103.5t-140 -47t-154.5 -9.5q-252 0 -337 95q-41 46 -41 124q0 37 11 92l96 417h252l-96 -420l-1 -8q-1 -7 -2 -17t-1 -18q0 -48 27 -75q35 -35 114 -35q95 0 146 63q33 42 57 145
l84 365h254z" />
    <glyph glyph-name="Uacute" unicode="&#xda;" horiz-adv-x="958" 
d="M812 897l-179 -121h-179l85 121h273zM988 706l-104 -449q-19 -71 -50 -119q-41 -66 -114.5 -103.5t-140 -47t-154.5 -9.5q-252 0 -337 95q-41 46 -41 124q0 37 11 92l96 417h252l-96 -420l-1 -8q-1 -7 -2 -17t-1 -18q0 -48 27 -75q35 -35 114 -35q95 0 146 63
q33 42 57 145l84 365h254z" />
    <glyph glyph-name="Ucircumflex" unicode="&#xdb;" horiz-adv-x="958" 
d="M825 776h-186l-35 70l-68 -70h-188l119 121h305zM988 706l-104 -449q-19 -71 -50 -119q-41 -66 -114.5 -103.5t-140 -47t-154.5 -9.5q-252 0 -337 95q-41 46 -41 124q0 37 11 92l96 417h252l-96 -420l-1 -8q-1 -7 -2 -17t-1 -18q0 -48 27 -75q35 -35 114 -35q95 0 146 63
q33 42 57 145l84 365h254z" />
    <glyph glyph-name="Udieresis" unicode="&#xdc;" horiz-adv-x="958" 
d="M887 897l-28 -121h-206l29 121h205zM545 897l-28 -121h-206l28 121h206zM988 706l-104 -449q-19 -71 -50 -119q-41 -66 -114.5 -103.5t-140 -47t-154.5 -9.5q-252 0 -337 95q-41 46 -41 124q0 37 11 92l96 417h252l-96 -420l-1 -8q-1 -7 -2 -17t-1 -18q0 -48 27 -75
q35 -35 114 -35q95 0 146 63q33 42 57 145l84 365h254z" />
    <glyph glyph-name="Yacute" unicode="&#xdd;" 
d="M760 897l-179 -121h-179l85 121h273zM954 706l-438 -498l-47 -208h-254l50 213l-174 493h263l79 -295l221 295h300z" />
    <glyph glyph-name="Thorn" unicode="&#xde;" horiz-adv-x="875" 
d="M866 393q-2 -37 -19.5 -85t-45.5 -80q-54 -60 -175 -80q-35 -5 -76 -5h-267l-34 -143h-250l163 706h251l-25 -109h209q87 0 142 -19.5t90 -63.5q39 -51 37 -121zM616 385q-3 54 -79 54h-185l-32 -138h192q62 0 89 35q15 20 15 49z" />
    <glyph glyph-name="germandbls" unicode="&#xdf;" horiz-adv-x="792" 
d="M750 252q0 -68 -31 -125q-29 -54 -92.5 -95.5t-167.5 -41.5q-54 0 -153 19l30 130q1 0 8.5 -2l15 -4t18.5 -4t20 -2q29 0 54 15q24 14 38 43t16.5 46t2.5 31q0 34 -15 51q-7 8 -21 15q-15 6 -41 6h-50l26 111q63 -2 89 27q17 20 17 49q0 35 -20 52t-55 17q-85 0 -106 -95
l-113 -495h-232l119 509q10 44 21 72.5t35 57t60 47.5q79 42 213 42q187 0 260 -55q50 -39 50 -106q0 -38 -18 -72t-49 -54q-18 -13 -62 -28q24 -7 36.5 -11.5t29.5 -15t30 -25.5q37 -41 37 -109z" />
    <glyph glyph-name="agrave" unicode="&#xe0;" horiz-adv-x="833" 
d="M622 611h-182l-180 121h277zM777 382q0 -37 -13 -93l-46 -200q-5 -18 -5 -38q0 -7 11 -51h-247q-3 28 1 59q-54 -29 -61 -33q-89 -42 -199 -42q-43 0 -77 8q-17 4 -34 11t-43.5 23.5t-43 46t-16.5 68.5q0 25 8 49q23 65 84 96q12 6 27 11.5t33.5 9t34 6.5t38.5 5.5
t36.5 4t38.5 2.5t34.5 1.5t34 1.5t28.5 1q22 1 67 2.5t67 2.5q4 29 -7 46q-20 33 -101 33q-74 0 -101 -19q-8 -6 -21 -27h-228q23 62 41 84q26 32 68 53t95 29t91 10.5t89 2.5q188 0 256 -43q60 -38 60 -121zM512 235q-84 5 -161 -7q-55 -8 -76 -20q-26 -13 -26 -38
q0 -11 9 -24q19 -23 65 -23q119 0 170 72q10 13 19 40z" />
    <glyph glyph-name="aacute" unicode="&#xe1;" horiz-adv-x="833" 
d="M706 732l-178 -122h-180l84 122h274zM777 382q0 -37 -13 -93l-46 -200q-5 -18 -5 -38q0 -7 11 -51h-247q-3 28 1 59q-54 -29 -61 -33q-89 -42 -199 -42q-43 0 -77 8q-17 4 -34 11t-43.5 23.5t-43 46t-16.5 68.5q0 25 8 49q23 65 84 96q12 6 27 11.5t33.5 9t34 6.5
t38.5 5.5t36.5 4t38.5 2.5t34.5 1.5t34 1.5t28.5 1q22 1 67 2.5t67 2.5q4 29 -7 46q-20 33 -101 33q-74 0 -101 -19q-8 -6 -21 -27h-228q23 62 41 84q26 32 68 53t95 29t91 10.5t89 2.5q188 0 256 -43q60 -38 60 -121zM512 235q-84 5 -161 -7q-55 -8 -76 -20
q-26 -13 -26 -38q0 -11 9 -24q19 -23 65 -23q119 0 170 72q10 13 19 40z" />
    <glyph glyph-name="acircumflex" unicode="&#xe2;" horiz-adv-x="833" 
d="M719 611h-186l-35 70l-68 -70h-188l118 121h306zM777 382q0 -37 -13 -93l-46 -200q-5 -18 -5 -38q0 -7 11 -51h-247q-3 28 1 59q-54 -29 -61 -33q-89 -42 -199 -42q-43 0 -77 8q-17 4 -34 11t-43.5 23.5t-43 46t-16.5 68.5q0 25 8 49q23 65 84 96q12 6 27 11.5t33.5 9
t34 6.5t38.5 5.5t36.5 4t38.5 2.5t34.5 1.5t34 1.5t28.5 1q22 1 67 2.5t67 2.5q4 29 -7 46q-20 33 -101 33q-74 0 -101 -19q-8 -6 -21 -27h-228q23 62 41 84q26 32 68 53t95 29t91 10.5t89 2.5q188 0 256 -43q60 -38 60 -121zM512 235q-84 5 -161 -7q-55 -8 -76 -20
q-26 -13 -26 -38q0 -11 9 -24q19 -23 65 -23q119 0 170 72q10 13 19 40z" />
    <glyph glyph-name="atilde" unicode="&#xe3;" horiz-adv-x="833" 
d="M744 730q-10 -26 -16 -39t-19 -29.5t-31 -28.5q-27 -17 -46 -22q-26 -7 -58 -7q-46 0 -128 15l-15 3q-15 2 -35.5 4.5t-34.5 2.5q-35 0 -59 -24h-88q14 29 28 50t27.5 34.5t44.5 26.5t72 13q40 0 130 -18q62 -11 82 -10q32 0 47 13q6 4 14 16h85zM777 382q0 -37 -13 -93
l-46 -200q-5 -18 -5 -38q0 -7 11 -51h-247q-3 28 1 59q-54 -29 -61 -33q-89 -42 -199 -42q-43 0 -77 8q-17 4 -34 11t-43.5 23.5t-43 46t-16.5 68.5q0 25 8 49q23 65 84 96q12 6 27 11.5t33.5 9t34 6.5t38.5 5.5t36.5 4t38.5 2.5t34.5 1.5t34 1.5t28.5 1q22 1 67 2.5t67 2.5
q4 29 -7 46q-20 33 -101 33q-74 0 -101 -19q-8 -6 -21 -27h-228q23 62 41 84q26 32 68 53t95 29t91 10.5t89 2.5q188 0 256 -43q60 -38 60 -121zM512 235q-84 5 -161 -7q-55 -8 -76 -20q-26 -13 -26 -38q0 -11 9 -24q19 -23 65 -23q119 0 170 72q10 13 19 40z" />
    <glyph glyph-name="adieresis" unicode="&#xe4;" horiz-adv-x="833" 
d="M782 732l-28 -122h-206l28 122h206zM439 732l-27 -121h-207l28 121h206zM777 382q0 -37 -13 -93l-46 -200q-5 -18 -5 -38q0 -7 11 -51h-247q-3 28 1 59q-54 -29 -61 -33q-89 -42 -199 -42q-43 0 -77 8q-17 4 -34 11t-43.5 23.5t-43 46t-16.5 68.5q0 25 8 49q23 65 84 96
q12 6 27 11.5t33.5 9t34 6.5t38.5 5.5t36.5 4t38.5 2.5t34.5 1.5t34 1.5t28.5 1q22 1 67 2.5t67 2.5q4 29 -7 46q-20 33 -101 33q-74 0 -101 -19q-8 -6 -21 -27h-228q23 62 41 84q26 32 68 53t95 29t91 10.5t89 2.5q188 0 256 -43q60 -38 60 -121zM512 235q-84 5 -161 -7
q-55 -8 -76 -20q-26 -13 -26 -38q0 -11 9 -24q19 -23 65 -23q119 0 170 72q10 13 19 40z" />
    <glyph glyph-name="aring" unicode="&#xe5;" horiz-adv-x="833" 
d="M626 686q0 -33 -21 -60q-41 -50 -137 -50q-40 0 -65 9q-61 24 -61 83q0 26 10 46t26.5 31.5t28 17.5t23.5 9q27 8 68 7q35 0 61 -8q67 -22 67 -85zM777 382q0 -37 -13 -93l-46 -200q-5 -18 -5 -38q0 -7 11 -51h-247q-3 28 1 59q-54 -29 -61 -33q-89 -42 -199 -42
q-43 0 -77 8q-17 4 -34 11t-43.5 23.5t-43 46t-16.5 68.5q0 25 8 49q23 65 84 96q12 6 27 11.5t33.5 9t34 6.5t38.5 5.5t36.5 4t38.5 2.5t34.5 1.5t34 1.5t28.5 1q22 1 67 2.5t67 2.5q4 29 -7 46q-20 33 -101 33q-74 0 -101 -19q-8 -6 -21 -27h-228q23 62 41 84q26 32 68 53
t95 29t91 10.5t89 2.5q188 0 256 -43q60 -38 60 -121zM539 677q0 7 -5 14q-11 17 -47 17q-21 0 -33 -5q-25 -9 -25 -29q0 -8 6 -15q10 -15 48 -15q19 0 31 4q25 10 25 29zM512 235q-84 5 -161 -7q-55 -8 -76 -20q-26 -13 -26 -38q0 -11 9 -24q19 -23 65 -23q119 0 170 72
q10 13 19 40z" />
    <glyph glyph-name="ae" unicode="&#xe6;" horiz-adv-x="1104" 
d="M1055 306q0 -28 -7 -84h-423q9 -46 19 -59q29 -42 104 -42q32 0 57.5 9t34.5 16t25 22l185 -18q-26 -59 -75 -96q-91 -68 -227 -68q-71 0 -126.5 16.5t-84.5 38.5q-15 10 -31 28q-38 -31 -54 -40q-75 -43 -195 -43q-132 0 -200 56q-55 45 -55 118q0 58 38 99q10 11 28 23
q28 19 68 29.5t68.5 13t76.5 4.5q46 3 92 3q12 0 36 -0.5t36 -0.5q5 20 5 31q0 26 -24 40q-21 12 -60 12q-50 0 -71 -15q-10 -7 -21 -23h-215q3 7 13 34q25 58 74 90q75 47 219 47q102 0 162 -33q19 -11 40 -30q14 11 32 21q73 40 180 40q96 0 160 -31q33 -15 58 -41
q58 -58 58 -167zM883 327q0 1 -0.5 7.5t-2 14.5t-4.5 14q-24 55 -102 55q-80 0 -113 -56q-7 -10 -15 -35h237zM423 222q-99 0 -127 -2q-61 -4 -79 -30q-8 -12 -8 -23q0 -14 9 -26q18 -26 68 -26q31 0 61 11q35 14 49 34t27 62z" />
    <glyph glyph-name="ccedilla" unicode="&#xe7;" horiz-adv-x="812" 
d="M787 347l-230 -15q-3 22 -11 33q-28 42 -105 40q-48 -1 -84.5 -18t-54.5 -43t-26.5 -51t-7.5 -47q3 -59 44.5 -87.5t97.5 -28.5q77 0 119 46q9 10 22 36l234 -11q-1 -3 -8 -16.5t-19.5 -35t-24.5 -35.5q-15 -18 -33 -33.5t-36.5 -27t-38.5 -21t-38.5 -16t-37.5 -12
t-34.5 -8.5t-30.5 -5t-24 -3t-16 -2h-8l-22 -32q96 -8 96 -82q0 -33 -26 -64q-48 -53 -138 -53q-47 0 -119 23l25 53q36 -10 66 -10h5q21 0 39.5 10t17.5 27q-1 10 -9.5 18.5t-23.5 7.5q-8 0 -36 -14l-31 38q20 20 80 78h-11t-11 1q-25 1 -45 5q-154 22 -223 122
q-45 64 -45 139q0 38 13 76.5t42 79t85 73.5t133 50q66 15 140 15q37 0 78.5 -5t93.5 -18.5t95.5 -43t65.5 -71.5q10 -21 16 -62z" />
    <glyph glyph-name="egrave" unicode="&#xe8;" horiz-adv-x="833" 
d="M622 611h-182l-180 121h277zM790 219h-520q12 -35 21 -49q34 -48 114 -48q43 0 74 18q18 12 34 25l243 -15q-13 -24 -23.5 -39.5t-38 -39t-65.5 -41.5q-94 -44 -242 -44q-133 0 -220 43q-41 19 -73 51q-22 22 -39 53q-29 56 -29 117q0 67 33 125t90 98q101 72 270 72
q180 0 274 -78q46 -36 70 -89q21 -46 27 -159zM558 323q-7 20 -14 31q-34 50 -119 50q-77 0 -118 -46q-8 -9 -21 -35h272z" />
    <glyph glyph-name="eacute" unicode="&#xe9;" horiz-adv-x="833" 
d="M706 732l-178 -122h-180l84 122h274zM790 219h-520q12 -35 21 -49q34 -48 114 -48q43 0 74 18q18 12 34 25l243 -15q-13 -24 -23.5 -39.5t-38 -39t-65.5 -41.5q-94 -44 -242 -44q-133 0 -220 43q-41 19 -73 51q-22 22 -39 53q-29 56 -29 117q0 67 33 125t90 98
q101 72 270 72q180 0 274 -78q46 -36 70 -89q21 -46 27 -159zM558 323q-7 20 -14 31q-34 50 -119 50q-77 0 -118 -46q-8 -9 -21 -35h272z" />
    <glyph glyph-name="ecircumflex" unicode="&#xea;" horiz-adv-x="833" 
d="M719 611h-186l-35 70l-68 -70h-188l118 121h306zM790 219h-520q12 -35 21 -49q34 -48 114 -48q43 0 74 18q18 12 34 25l243 -15q-13 -24 -23.5 -39.5t-38 -39t-65.5 -41.5q-94 -44 -242 -44q-133 0 -220 43q-41 19 -73 51q-22 22 -39 53q-29 56 -29 117q0 67 33 125
t90 98q101 72 270 72q180 0 274 -78q46 -36 70 -89q21 -46 27 -159zM558 323q-7 20 -14 31q-34 50 -119 50q-77 0 -118 -46q-8 -9 -21 -35h272z" />
    <glyph glyph-name="edieresis" unicode="&#xeb;" horiz-adv-x="833" 
d="M781 732l-27 -122h-207l29 122h205zM439 731l-28 -121h-206l27 121h207zM790 219h-520q12 -35 21 -49q34 -48 114 -48q43 0 74 18q18 12 34 25l243 -15q-13 -24 -23.5 -39.5t-38 -39t-65.5 -41.5q-94 -44 -242 -44q-133 0 -220 43q-41 19 -73 51q-22 22 -39 53
q-29 56 -29 117q0 67 33 125t90 98q101 72 270 72q180 0 274 -78q46 -36 70 -89q21 -46 27 -159zM558 323q-7 20 -14 31q-34 50 -119 50q-77 0 -118 -46q-8 -9 -21 -35h272z" />
    <glyph glyph-name="igrave" unicode="&#xec;" horiz-adv-x="354" 
d="M382 611h-181l-180 121h276zM342 530l-122 -530h-231l122 530h231z" />
    <glyph glyph-name="iacute" unicode="&#xed;" horiz-adv-x="354" 
d="M466 732l-178 -122h-180l85 122h273zM342 530l-122 -530h-231l122 530h231z" />
    <glyph glyph-name="icircumflex" unicode="&#xee;" horiz-adv-x="354" 
d="M479 611h-186l-35 70l-68 -70h-187l118 121h305zM342 530l-122 -530h-231l122 530h231z" />
    <glyph glyph-name="idieresis" unicode="&#xef;" horiz-adv-x="354" 
d="M541 732l-27 -122h-206l28 122h205zM199 731l-28 -121h-206l28 121h206zM342 530l-122 -530h-231l122 530h231z" />
    <glyph glyph-name="eth" unicode="&#xf0;" 
d="M811 338q0 -79 -28 -141.5t-73 -100.5t-86 -59t-84 -33q-60 -17 -154 -18q-88 0 -147 16q-98 28 -155.5 98.5t-57.5 162.5q0 47 17 89t40.5 69t55 49t54.5 33t44 18q75 25 150 25q79 0 129 -29q22 -14 34 -26q-35 68 -72 109l-222 -33l-26 64l187 26q-26 29 -44 44
l207 29q14 -9 48 -43l119 16l31 -63l-88 -14q32 -38 54 -69.5t44.5 -93t22.5 -125.5zM563 281q0 46 -30.5 84.5t-103.5 37.5q-62 0 -103 -29q-25 -17 -44 -49.5t-19 -74.5q0 -60 39 -90t97 -30q46 0 80.5 16t51 41.5t24.5 48.5t8 45z" />
    <glyph glyph-name="ntilde" unicode="&#xf1;" horiz-adv-x="792" 
d="M723 730q-13 -36 -26.5 -57.5t-39.5 -39.5q-27 -17 -46 -22q-26 -7 -57 -7q-39 0 -129 15l-15 3q-15 2 -35.5 4.5t-34.5 2.5q-35 0 -59 -24h-88q21 40 28 50q14 21 27.5 34.5t44.5 26.5t72 13t131 -18q61 -11 81 -10q32 0 47 13q6 4 14 16h85zM735 374q0 -33 -10 -80
l-67 -294h-232l62 270q5 25 5 35q0 29 -19 55t-67 26q-47 0 -81 -33q-34 -34 -49 -97l-59 -256h-229l123 530h228l-16 -74q23 22 37 32q77 56 182 56q54 0 97 -18q95 -40 95 -152z" />
    <glyph glyph-name="ograve" unicode="&#xf2;" 
d="M632 611h-181l-180 121h276zM808 291q0 -130 -108 -214q-117 -91 -313 -91q-143 0 -231 46q-44 22 -72 54q-58 70 -58 168q0 154 146 235q106 59 282 57q164 -2 254 -62q34 -24 53 -48q20 -26 33 -62q14 -43 14 -83zM563 283q0 46 -21.5 72.5t-47.5 37.5q-24 10 -65 10
q-59 0 -100 -27q-30 -20 -48 -55t-18 -72q0 -46 26 -76q37 -43 110 -43q67 0 107 32q27 21 42 54t15 67z" />
    <glyph glyph-name="oacute" unicode="&#xf3;" 
d="M716 732l-178 -122h-180l85 122h273zM808 291q0 -130 -108 -214q-117 -91 -313 -91q-143 0 -231 46q-44 22 -72 54q-58 70 -58 168q0 154 146 235q106 59 282 57q164 -2 254 -62q34 -24 53 -48q20 -26 33 -62q14 -43 14 -83zM563 283q0 46 -21.5 72.5t-47.5 37.5
q-24 10 -65 10q-59 0 -100 -27q-30 -20 -48 -55t-18 -72q0 -46 26 -76q37 -43 110 -43q67 0 107 32q27 21 42 54t15 67z" />
    <glyph glyph-name="ocircumflex" unicode="&#xf4;" 
d="M729 611h-186l-35 70l-68 -70h-187l118 121h305zM808 291q0 -130 -108 -214q-117 -91 -313 -91q-143 0 -231 46q-44 22 -72 54q-58 70 -58 168q0 154 146 235q106 59 282 57q164 -2 254 -62q34 -24 53 -48q20 -26 33 -62q14 -43 14 -83zM563 283q0 46 -21.5 72.5
t-47.5 37.5q-24 10 -65 10q-59 0 -100 -27q-30 -20 -48 -55t-18 -72q0 -46 26 -76q37 -43 110 -43q67 0 107 32q27 21 42 54t15 67z" />
    <glyph glyph-name="otilde" unicode="&#xf5;" 
d="M754 730q-13 -37 -26.5 -58.5t-38.5 -38.5q-23 -16 -46 -22q-28 -7 -58 -7q-39 0 -129 15l-15 3q-15 2 -35.5 4.5t-33.5 2.5q-36 0 -60 -24h-88q18 34 28 50q49 74 144 74q41 0 131 -18q56 -10 81 -10q34 2 47 13q6 4 14 16h85zM808 291q0 -130 -108 -214
q-117 -91 -313 -91q-143 0 -231 46q-44 22 -72 54q-58 70 -58 168q0 154 146 235q106 59 282 57q164 -2 254 -62q34 -24 53 -48q20 -26 33 -62q14 -43 14 -83zM563 283q0 46 -21.5 72.5t-47.5 37.5q-24 10 -65 10q-59 0 -100 -27q-30 -20 -48 -55t-18 -72q0 -46 26 -76
q37 -43 110 -43q67 0 107 32q27 21 42 54t15 67z" />
    <glyph glyph-name="odieresis" unicode="&#xf6;" 
d="M804 731l-28 -121h-205l28 121h205zM462 731l-28 -120h-206l28 120h206zM808 291q0 -130 -108 -214q-117 -91 -313 -91q-143 0 -231 46q-44 22 -72 54q-58 70 -58 168q0 154 146 235q106 59 282 57q164 -2 254 -62q34 -24 53 -48q20 -26 33 -62q14 -43 14 -83zM563 283
q0 46 -21.5 72.5t-47.5 37.5q-24 10 -65 10q-59 0 -100 -27q-30 -20 -48 -55t-18 -72q0 -46 26 -76q37 -43 110 -43q67 0 107 32q27 21 42 54t15 67z" />
    <glyph glyph-name="divide" unicode="&#xf7;" horiz-adv-x="772" 
d="M550 609l-41 -179h-184l41 179h184zM708 386l-38 -164h-600l38 164h600zM452 178l-41 -179h-184l41 179h184z" />
    <glyph glyph-name="oslash" unicode="&#xf8;" 
d="M830 501l-78 -52q10 -11 19 -25q36 -54 36 -132q0 -105 -64 -179q-111 -128 -362 -128q-64 0 -115 10.5t-72 20t-63 31.5l-89 -58l-29 45l75 49q-16 20 -23 31q-39 57 -39 130q0 72 32 131q91 170 388 170q133 0 213 -32q20 -9 50 -26l91 59zM533 373q-43 35 -103 35
q-48 0 -84 -15.5t-54.5 -40t-27 -48.5t-8.5 -46t12 -58zM572 275q0 21 -8 53l-263 -171q52 -32 105 -32q37 0 67 10q36 11 67.5 44.5t31.5 95.5z" />
    <glyph glyph-name="ugrave" unicode="&#xf9;" horiz-adv-x="792" 
d="M601 611h-182l-179 121h276zM780 530l-123 -530h-224l16 72q-28 -22 -42 -32q-74 -54 -172 -54q-129 0 -176 86q-23 43 -23 93q0 40 6 61l69 304h226l-61 -268q-5 -22 -5 -50q0 -20 7 -33q18 -35 73 -35q44 0 78 24q53 39 75 134l53 228h223z" />
    <glyph glyph-name="uacute" unicode="&#xfa;" horiz-adv-x="792" 
d="M685 732l-178 -122h-180l84 122h274zM780 530l-123 -530h-224l16 72q-28 -22 -42 -32q-74 -54 -172 -54q-129 0 -176 86q-23 43 -23 93q0 40 6 61l69 304h226l-61 -268q-5 -22 -5 -50q0 -20 7 -33q18 -35 73 -35q44 0 78 24q53 39 75 134l53 228h223z" />
    <glyph glyph-name="ucircumflex" unicode="&#xfb;" horiz-adv-x="792" 
d="M698 611h-186l-35 70l-68 -70h-188l119 121h305zM780 530l-123 -530h-224l16 72q-28 -22 -42 -32q-74 -54 -172 -54q-129 0 -176 86q-23 43 -23 93q0 40 6 61l69 304h226l-61 -268q-5 -22 -5 -50q0 -20 7 -33q18 -35 73 -35q44 0 78 24q53 39 75 134l53 228h223z" />
    <glyph glyph-name="udieresis" unicode="&#xfc;" horiz-adv-x="792" 
d="M760 731l-28 -121h-206l28 121h206zM417 731l-27 -121h-207l28 121h206zM780 530l-123 -530h-224l16 72q-28 -22 -42 -32q-74 -54 -172 -54q-129 0 -176 86q-23 43 -23 93q0 40 6 61l69 304h226l-61 -268q-5 -22 -5 -50q0 -20 7 -33q18 -35 73 -35q44 0 78 24
q53 39 75 134l53 228h223z" />
    <glyph glyph-name="yacute" unicode="&#xfd;" horiz-adv-x="688" 
d="M633 732l-178 -122h-180l84 122h274zM735 530l-287 -452q-85 -133 -115 -168q-43 -48 -94 -70q-58 -25 -153 -24q-34 0 -138 9l38 161q55 -5 91 -5q49 0 49 24q0 6 -0.5 11t-0.5 7l-68 507h231l10 -385l193 385h244z" />
    <glyph glyph-name="thorn" unicode="&#xfe;" horiz-adv-x="833" 
d="M787 297q-1 -15 -3 -32.5t-13 -54.5t-28.5 -69t-54 -67t-85.5 -57q-68 -30 -149 -32q-72 -1 -129.5 21t-89.5 55l-57 -244h-231l206 889h231l-52 -222q93 63 199 61q75 -1 133 -31q66 -35 95.5 -94.5t27.5 -122.5zM546 285q-1 40 -26 70t-86 31q-41 0 -72 -12
q-27 -11 -45.5 -30.5t-25.5 -40t-9.5 -32.5t-2.5 -21q-1 -44 29 -76t98 -30q97 3 131 89q9 20 9 52z" />
    <glyph glyph-name="ydieresis" unicode="&#xff;" horiz-adv-x="688" 
d="M708 732l-27 -122h-207l29 122h205zM366 731l-28 -121h-206l28 121h206zM735 530l-287 -452q-44 -70 -59.5 -93.5t-40 -55.5t-45.5 -50q-74 -63 -209 -63q-36 0 -146 9l38 161q50 -5 89 -5q51 0 51 24q0 12 -1 18l-68 507h231l10 -385l193 385h244z" />
    <glyph glyph-name="OE" unicode="&#x152;" horiz-adv-x="1125" 
d="M1126 706l-36 -157h-218l-27 -120h223l-35 -155h-225l-27 -117h285l-36 -157h-520l3 14q-64 -26 -129 -26q-121 0 -209 65q-121 89 -121 267q0 175 128 291q127 116 333 116q89 0 155 -33l3 12h453zM635 540q-55 24 -105 24q-42 0 -82 -10q-92 -25 -139 -114
q-32 -62 -32 -125q0 -82 44 -126q41 -43 131 -43q46 0 97 21z" />
    <glyph glyph-name="oe" unicode="&#x153;" horiz-adv-x="1125" 
d="M1077 306q0 -26 -9 -83h-418q2 -30 7.5 -44.5t17.5 -26.5q32 -30 93 -30q28 0 50.5 7.5t30 12.5t23.5 18l191 -13q-24 -43 -50 -66q-40 -38 -110 -66.5t-165 -28.5q-117 0 -180 47q-13 10 -34 32q-1 0 -6.5 -5t-14 -12t-14.5 -11q-77 -52 -186 -52q-71 0 -136.5 26.5
t-101.5 80.5q-40 59 -40 141q0 53 20 107q14 36 37 68.5t61.5 65.5t100 52.5t138.5 19.5q107 0 166 -38q12 -8 35 -31q28 20 43 28q72 41 174 41q130 0 202 -61q28 -26 45 -56q30 -55 30 -123zM906 328q-4 29 -9 40q-10 20 -35 35.5t-64 15.5q-75 0 -110 -54q-7 -12 -17 -37
h235zM455 318q0 27 -7 48q-19 50 -77 50q-50 0 -83 -35q-50 -53 -50 -140q0 -60 27 -86t63 -25q36 0 64 23q24 19 43.5 62.5t19.5 102.5z" />
    <glyph glyph-name="Scaron" unicode="&#x160;" horiz-adv-x="812" 
d="M777 897l-118 -120h-305l-52 120h186l34 -70l68 70h187zM799 522l-227 -18v4q0 20 -10 33q-26 33 -114 33q-47 0 -79 -14t-31 -42q0 -38 77 -59l173 -49q34 -9 55.5 -17t50 -29t45.5 -51q21 -37 21 -80q1 -73 -48 -135q-93 -116 -327 -121q-113 -2 -198 22.5t-126 70.5
q-21 23 -32 50.5t-12.5 45t-2.5 50.5l229 11q2 -27 7 -37q27 -57 135 -57q58 0 93 18t35 55q0 7 -1.5 12.5t-3.5 10t-7 9t-8.5 7.5t-11 6.5t-12 5.5t-14.5 5t-15.5 5t-17.5 5t-18 5l-134 39q-81 25 -120 61q-52 47 -53 117q-1 73 45 129q88 107 337 107q235 0 301 -114
q19 -34 19 -94z" />
    <glyph glyph-name="scaron" unicode="&#x161;" horiz-adv-x="708" 
d="M682 732l-119 -121h-305l-53 121h187l34 -69l68 69h188zM691 368l-221 -9q-3 18 -7 25q-21 34 -103 34q-34 0 -49 -5q-32 -11 -32 -36q0 -5 5 -13q11 -17 38 -21l112 -18q89 -14 128 -28q54 -21 76 -67q14 -32 14 -60q0 -24 -8 -47q-21 -62 -101 -99q-89 -40 -245 -40
q-128 0 -215 37q-53 25 -76 54q-21 26 -32 90l239 9q7 -35 40 -47q34 -12 86 -12q23 0 40 6q29 10 29 36q0 8 -4 16q-8 14 -42 21l-123 24q-31 6 -50.5 11t-46.5 15.5t-46.5 27t-31.5 39.5q-15 27 -15 57q0 34 18 65q38 69 147 96q66 16 187 16q134 0 209 -45q33 -19 52 -45
q18 -26 28 -87z" />
    <glyph glyph-name="Ydieresis" unicode="&#x178;" 
d="M837 898l-28 -121h-206l28 121h206zM495 898l-29 -121h-206l28 121h207zM954 706l-438 -498l-47 -208h-254l50 213l-174 493h263l79 -295l221 295h300z" />
    <glyph glyph-name="florin" unicode="&#x192;" horiz-adv-x="437" 
d="M501 695l-29 -128q-24 3 -40 3q-36 0 -51 -12.5t-21 -38.5l-6 -26h100l-31 -135h-91l-83 -358q-1 -5 -5.5 -24t-6 -25t-6 -23t-8 -23t-10 -20t-12.5 -20l-16 -16t-21 -15t-25 -11t-31 -9q-27 -6 -78 -6h-157l29 128q32 -4 40 -4q11 0 20 1t15.5 4.5t12 5.5t9.5 8t6 8.5
t4.5 10t3.5 10t3 11t2 9.5l82 357h-80l31 136h81l17 70q17 71 61 101.5t142 30.5h149z" />
    <glyph glyph-name="circumflex" unicode="&#x2c6;" horiz-adv-x="375" 
d="M426 611h-186l-35 70l-68 -70h-188l118 121h305z" />
    <glyph glyph-name="tilde" unicode="&#x2dc;" horiz-adv-x="375" 
d="M453 730q-25 -70 -65 -97q-25 -17 -46 -22q-28 -7 -58 -7q-39 0 -129 15l-15 3q-15 2 -35.5 4.5t-33.5 2.5q-36 0 -60 -24h-89q18 34 28 50q49 74 144 74q41 0 131 -18q56 -10 81 -10q35 2 48 13q4 3 13 16h86z" />
    <glyph glyph-name="endash" unicode="&#x2013;" horiz-adv-x="682" 
d="M674 403l-40 -175h-623l40 175h623z" />
    <glyph glyph-name="emdash" unicode="&#x2014;" horiz-adv-x="1017" 
d="M1010 403l-41 -175h-958l41 175h958z" />
    <glyph glyph-name="quoteleft" unicode="&#x2018;" horiz-adv-x="333" 
d="M372 707l-19 -82q-53 -4 -79 -26t-38 -75h94l-43 -183h-230l45 188q17 69 49.5 108.5t96.5 58.5q40 12 92 12q21 0 32 -1z" />
    <glyph glyph-name="quoteright" unicode="&#x2019;" horiz-adv-x="333" 
d="M371 706l-45 -187q-17 -69 -49.5 -109t-96.5 -59q-39 -12 -90 -12q-6 0 -17 0.5t-17 0.5l19 82q53 4 79 26t38 75h-94l43 183h230z" />
    <glyph glyph-name="quotesinglbase" unicode="&#x201a;" horiz-adv-x="333" 
d="M250 183l-44 -187q-16 -69 -48.5 -109t-97.5 -59q-40 -12 -90 -12q-6 0 -17.5 0.5t-16.5 0.5l18 82q53 4 79.5 26t38.5 75h-94l42 183h230z" />
    <glyph glyph-name="quotedblleft" unicode="&#x201c;" horiz-adv-x="646" 
d="M683 707l-18 -82q-53 -4 -79.5 -26t-38.5 -75h94l-42 -183h-230l44 187q16 69 48.5 109t97.5 59q41 12 93 12q5 0 15.5 -0.5t15.5 -0.5zM372 707l-19 -82q-53 -4 -79 -26t-38 -75h94l-42 -183h-230l44 187q16 69 48.5 109t97.5 59q41 12 93 12q5 0 15.5 -0.5t15.5 -0.5z
" />
    <glyph glyph-name="quotedblright" unicode="&#x201d;" horiz-adv-x="646" 
d="M684 706l-44 -187q-16 -69 -48.5 -109t-97.5 -59q-40 -12 -90 -12q-6 0 -17.5 0.5t-16.5 0.5l19 82q53 4 79 26t38 75h-94l42 183h230zM373 706l-44 -187q-16 -69 -48.5 -109t-97.5 -59q-40 -12 -90 -12q-6 0 -17.5 0.5t-16.5 0.5l18 82q53 4 79.5 26t38.5 75h-94l42 183
h230z" />
    <glyph glyph-name="quotedblbase" unicode="&#x201e;" horiz-adv-x="646" 
d="M561 183l-44 -187q-16 -69 -48.5 -109t-97.5 -59q-40 -12 -90 -12q-6 0 -17.5 0.5t-16.5 0.5l18 82q53 4 79.5 26t38.5 75h-94l42 183h230zM250 183l-44 -187q-16 -69 -48.5 -109t-97.5 -59q-40 -12 -90 -12q-6 0 -17.5 0.5t-16.5 0.5l18 82q53 4 79.5 26t38.5 75h-94
l42 183h230z" />
    <glyph glyph-name="dagger" unicode="&#x2020;" horiz-adv-x="667" 
d="M696 529l-35 -154h-190l-112 -485h-245l111 485h-191l36 154h191l41 177h246l-42 -177h190z" />
    <glyph glyph-name="daggerdbl" unicode="&#x2021;" horiz-adv-x="667" 
d="M696 529l-35 -154h-190l-33 -141h190l-35 -153h-190l-44 -191h-245l43 191h-191l36 154h191l32 140h-191l36 154h191l41 177h246l-42 -177h190z" />
    <glyph glyph-name="bullet" unicode="&#x2022;" horiz-adv-x="333" 
d="M354 478l-62 -263h-285l62 263h285z" />
    <glyph glyph-name="ellipsis" unicode="&#x2026;" horiz-adv-x="1000" 
d="M871 145l-34 -145h-135l34 145h135zM539 145l-34 -145h-135l34 145h135zM204 145l-33 -145h-135l33 145h135z" />
    <glyph glyph-name="perthousand" unicode="&#x2030;" horiz-adv-x="1813" 
d="M1763 252q0 -87 -49 -156q-76 -105 -231 -105q-132 0 -190 75q-37 46 -37 124q0 94 54 162q39 48 98.5 74.5t121.5 26.5q102 0 167.5 -51t65.5 -150zM1200 252q0 -87 -49 -156q-76 -105 -231 -105q-132 0 -190 75q-37 46 -37 124q0 94 54 162q39 48 98.5 74.5t121.5 26.5
q102 0 167.5 -51t65.5 -150zM915 681l-447 -681h-120l447 681h120zM569 490q0 -87 -49 -156q-76 -105 -231 -105q-132 0 -190 75q-37 46 -37 124q0 94 54 162q39 48 98.5 74.5t121.5 26.5q102 0 167.5 -51t65.5 -150zM1613 259q0 44 -20 69q-23 28 -66 26q-40 0 -70 -32
q-51 -54 -51 -146q0 -22 4 -35q5 -21 23.5 -38.5t54.5 -17.5q35 0 62 20q31 23 47 67t16 87zM1050 259q0 44 -20 69q-23 28 -66 26q-40 0 -70 -32q-51 -54 -51 -146q0 -22 4 -35q5 -21 23.5 -38.5t54.5 -17.5q35 0 62 20q31 23 47 67t16 87zM419 497q0 43 -21 68
q-23 29 -65 27q-39 0 -71 -32q-51 -54 -51 -146q0 -15 5 -35q17 -57 77 -56q36 0 62 19q31 23 47.5 67.5t16.5 87.5z" />
    <glyph glyph-name="guilsinglleft" unicode="&#x2039;" horiz-adv-x="292" 
d="M303 550l-45 -192l-114 -59l85 -69l-41 -172l-172 139l52 232z" />
    <glyph glyph-name="guilsinglright" unicode="&#x203a;" horiz-adv-x="292" 
d="M275 412l-53 -230l-234 -123l44 193l115 60l-85 69l40 171z" />
    <glyph glyph-name="Euro" unicode="&#x20ac;" horiz-adv-x="869" 
d="M889 621l-94 -153q-71 83 -198 83q-164 0 -218 -115h397l-45 -77h-380q-4 -23 -5 -38h363l-44 -77h-316q26 -110 186 -110q152 0 259 91l-48 -206q-92 -39 -248 -39q-204 0 -299 86q-81 73 -87 178h-92l46 77h44q0 15 4 38h-69l47 77h42q101 260 465 260q186 0 290 -75z
" />
    <glyph glyph-name="trademark" unicode="&#x2122;" horiz-adv-x="752" 
d="M797 706l-76 -332h-100l56 230l-113 -230h-83l-5 229l-50 -229h-102l76 332h147l1 -213l98 213h151zM368 706l-17 -73h-85l-59 -259h-107l59 259h-88l17 73h280z" />
    </font>
</defs>
</svg>
