<?xml version="1.0" standalone="no"?>
<!DOCTYPE svg PUBLIC "-//W3C//DTD SVG 1.1//EN" "http://www.w3.org/Graphics/SVG/1.1/DTD/svg11.dtd" >
<svg xmlns="http://www.w3.org/2000/svg" xmlns:xlink="http://www.w3.org/1999/xlink" version="1.1">
<metadata>
Created by FontForge 20170731 at Thu May 17 19:59:58 2007
 By Aleksey,,,
Copyright  1997, 2001, Berthold LLC. All rights reserved. Akzidenz-Grotesk is a trademark of Berthold Types Limited.
</metadata>
<defs>
<font id="AkzidenzGroteskBQ-BoldExt" horiz-adv-x="833" >
  <font-face 
    font-family="Akzidenz-Grotesk BQ Extended"
    font-weight="700"
    font-stretch="normal"
    units-per-em="1000"
    panose-1="0 0 0 0 0 0 0 0 0 0"
    ascent="800"
    descent="-200"
    x-height="530"
    cap-height="706"
    bbox="-110 -258.016 1792 926.075"
    underline-thickness="141"
    underline-position="-596"
    unicode-range="U+0020-2122"
  />
<missing-glyph horiz-adv-x="500" 
 />
    <glyph glyph-name=".notdef" horiz-adv-x="500" 
 />
    <glyph glyph-name=".null" horiz-adv-x="0" 
 />
    <glyph glyph-name="nonmarkingreturn" horiz-adv-x="333" 
 />
    <glyph glyph-name="space" unicode=" " horiz-adv-x="375" 
 />
    <glyph glyph-name="exclam" unicode="!" horiz-adv-x="333" 
d="M301 570q0 -61 -10 -181l-11 -127h-188l-9 127q-1 14 -5 54.5t-5 61.5q-2 44 -2 64v137h230v-136zM280 0h-188v185h188v-185z" />
    <glyph glyph-name="quotedbl" unicode="&#x22;" horiz-adv-x="356" 
d="M350 741l-54 -288h-43l-57 288h154zM160 741l-54 -288h-43l-57 288h154z" />
    <glyph glyph-name="numbersign" unicode="#" horiz-adv-x="692" 
d="M677 406h-137l-8 -96h133v-124h-144l-16 -186h-126l17 186h-128l-17 -186h-123l15 186h-129v124h140l8 96h-135v124h145l15 176h124l-14 -176h128l15 176h125l-15 -176h127v-124zM414 406h-127l-9 -96h128z" />
    <glyph glyph-name="dollar" unicode="$" horiz-adv-x="854" 
d="M813 223q0 -55 -27 -101q-23 -39 -61.5 -68t-81.5 -43t-66 -19.5t-42 -7.5q-34 -4 -70 -6v-138h-91v137q-233 9 -322 127q-29 39 -43 100l244 11q3 -23 17 -43q29 -37 104 -51v160q-174 18 -221 32q-34 9 -56 24q-65 42 -65 129q0 70 47 124q30 34 83 57t80 28t51 8
q25 3 79 5v116h92v-115q43 -4 61 -7q194 -31 249 -155q9 -20 16 -53l-235 -12q-2 16 -6 27q-18 42 -85 52v-127q95 -8 137 -13q96 -11 149 -48q63 -46 63 -130zM374 424l-1 119q-2 0 -13 -1.5t-28 -6t-27 -10.5q-31 -19 -31 -51q0 -24 24 -34q16 -6 76 -16zM571 202
q0 20 -11 34q-20 23 -96 34v-151q20 3 37 8q10 2 23 7.5t30 24t17 43.5z" />
    <glyph glyph-name="percent" unicode="%" horiz-adv-x="1250" 
d="M1229 222q0 -123 -78 -183q-64 -51 -193 -51q-185 0 -233 134q-16 45 -16 96q0 110 65 171q69 63 184 63q65 0 102 -9q27 -7 51.5 -19t53.5 -36t46.5 -67t17.5 -99zM916 676l-494 -706l-88 62l495 704zM541 487q0 -123 -78 -183q-64 -51 -193 -51q-185 0 -233 134
q-16 45 -16 96q0 110 65 171q69 63 184 63q65 0 102 -9q27 -7 51.5 -19t53.5 -36t46.5 -67t17.5 -99zM1060 216q0 83 -41 110q-22 14 -53 14q-28 -1 -41 -9q-49 -25 -49 -115q0 -76 36 -105q20 -16 54 -16q37 0 58 19q36 29 36 102zM373 481q0 84 -42 110q-20 14 -52 14
q-28 -1 -41 -9q-50 -25 -50 -115q0 -75 37 -105q20 -16 53 -16q36 0 59 19q36 29 36 102z" />
    <glyph glyph-name="ampersand" unicode="&#x26;" horiz-adv-x="854" 
d="M852 0h-251l-32 34q-104 -43 -196 -50q-32 -3 -64 -3q-53 0 -109 13q-17 4 -32.5 9t-46.5 21.5t-53 36.5t-39.5 55t-17.5 77q0 55 31 99q20 27 54 48.5t55.5 29.5t67.5 22q4 2 6.5 2.5t5.5 1.5q-43 57 -43 109q0 22 5 37q16 63 78 95q66 33 187 33q57 0 99 -8
q86 -18 121 -61.5t35 -96.5q0 -65 -44 -106q-37 -34 -131 -62l87 -89q23 25 42 66l180 -25q-6 -14 -20 -42q-30 -57 -97 -116zM529 507q0 20 -15 36.5t-48 16.5q-30 0 -44.5 -14.5t-14.5 -31.5q0 -22 25 -54q9 -11 18 -17q15 3 26 7q53 19 53 57zM464 145l-136 146
q-24 -8 -40 -15.5t-30.5 -24.5t-14.5 -39q0 -21 12 -40q29 -45 107 -45q43 0 102 18z" />
    <glyph glyph-name="quotesingle" unicode="'" horiz-adv-x="166" 
d="M160 741l-54 -288h-43l-57 288h154z" />
    <glyph glyph-name="parenleft" unicode="(" horiz-adv-x="375" 
d="M375 -135l-114 -88q-225 228 -225 493q0 182 123 353q51 71 99 120l114 -86q-62 -88 -86 -182t-24 -215q0 -226 113 -395z" />
    <glyph glyph-name="parenright" unicode=")" horiz-adv-x="375" 
d="M338 251q0 -244 -222 -473l-114 87q61 87 85.5 180.5t24.5 212.5q0 232 -113 399l113 87q105 -103 165.5 -230t60.5 -263z" />
    <glyph glyph-name="asterisk" unicode="*" horiz-adv-x="411" 
d="M394 534l-99 -34l61 -78l-85 -67l-66 85l-61 -85l-87 64l57 79l-98 29l31 104l101 -30v105h108v-105l103 35z" />
    <glyph glyph-name="plus" unicode="+" horiz-adv-x="772" 
d="M686 222h-196v-194h-205v194h-199v163h199v193h205v-193h196v-163z" />
    <glyph glyph-name="comma" unicode="," horiz-adv-x="313" 
d="M271 15q0 -94 -62.5 -147t-158.5 -53h-10v82q48 5 66.5 28.5t24.5 74.5h-91v184h231v-169z" />
    <glyph glyph-name="hyphen" unicode="-" horiz-adv-x="415" 
d="M386 228h-357v175h357v-175z" />
    <glyph glyph-name="period" unicode="." horiz-adv-x="313" 
d="M271 0h-230v184h230v-184z" />
    <glyph glyph-name="slash" unicode="/" horiz-adv-x="479" 
d="M461 706l-278 -706h-187l277 706h188z" />
    <glyph glyph-name="zero" unicode="0" horiz-adv-x="854" 
d="M827 335q0 -131 -58 -213q-22 -31 -59 -61q-105 -81 -282 -81q-72 0 -131 13q-18 4 -36 9.5t-50.5 19.5t-59 33t-54 51t-44.5 71q-27 65 -27 156q0 119 48 200q24 41 55.5 70t92.5 54t144 33q37 3 76 3q118 -4 188 -30q26 -9 56 -27q94 -57 126 -171q15 -56 15 -130z
M583 345q0 39 -7 70q-28 134 -153 130q-41 -1 -68 -16q-29 -16 -48.5 -44t-26 -61.5t-8 -49t-1.5 -30.5q0 -32 4 -60q24 -149 151 -149q58 0 91 27q15 12 28 30q38 56 38 153z" />
    <glyph glyph-name="one" unicode="1" horiz-adv-x="854" 
d="M561 0h-234v474q-3 -1 -15 -4.5t-14 -4.5t-12 -4t-13.5 -3.5t-12.5 -2.5t-14.5 -3t-15.5 -2.5t-19.5 -2.5t-21.5 -2t-26 -2l1 144q58 6 105 23q14 6 27.5 12t22.5 11t20.5 12t16.5 10.5t16 12t14 10.5h175v-678z" />
    <glyph glyph-name="two" unicode="2" horiz-adv-x="854" 
d="M779 0h-707v139q13 24 20.5 37t29 37.5t51.5 47.5q62 49 193 108q43 19 97 45q33 13 50 32q16 18 16 39q-1 60 -110 60q-90 0 -112 -58q-6 -15 -7 -45l-208 5q4 56 13.5 91t38.5 68q23 28 56 45q73 38 244 38q173 0 250 -53q74 -52 74 -143q0 -80 -77 -140
q-40 -30 -161 -82q-86 -37 -139 -66q-44 -24 -73 -48q42 2 62 2h399v-159z" />
    <glyph glyph-name="three" unicode="3" horiz-adv-x="854" 
d="M803 206q0 -113 -101 -168q-99 -54 -299 -54q-29 0 -85 2q-114 6 -179 34t-101 78q-21 29 -31 57q-5 13 -12 49l225 10q12 -36 55 -58q43 -20 121 -20q83 -2 121 24q28 19 28 55q0 19 -11 36q-23 32 -106 32h-150v129h56q62 0 92 2q47 2 63 9q41 18 41 57q0 27 -17 43
q-26 25 -92 25q-107 0 -144 -40q-7 -8 -13 -22l-229 11q14 62 44 98q83 101 335 101q24 0 70 -2q145 -6 210 -41q51 -28 71.5 -70.5t20.5 -79.5q0 -53 -38 -90q-10 -10 -23.5 -18t-25 -13t-25 -9.5t-21.5 -6.5t-18 -4l-10 -2q38 -4 73 -17q15 -5 29.5 -13t33.5 -23.5
t30.5 -41.5t11.5 -59z" />
    <glyph glyph-name="four" unicode="4" horiz-adv-x="854" 
d="M817 123h-119v-123h-225v123h-444v148l399 406h271v-395h118v-159zM473 282v215l-213 -215h213z" />
    <glyph glyph-name="five" unicode="5" horiz-adv-x="854" 
d="M811 244q0 -63 -34 -117q-70 -114 -265 -137q-56 -6 -111 -6q-240 0 -328 109q-29 36 -39 99l240 8q3 -10 8 -17q15 -22 52 -34.5t54 -13.5t30 -1q56 0 101.5 24t45.5 76q0 35 -28 57t-59 28t-65 6q-66 0 -110 -24q-11 -5 -22 -15l-210 5l34 387h674l-14 -155h-475
l-9 -102q112 42 219 42q189 0 269 -99q42 -51 42 -120z" />
    <glyph glyph-name="six" unicode="6" horiz-adv-x="854" 
d="M819 231q0 -79 -51 -138q-93 -105 -319 -105q-176 0 -276 64q-92 58 -121 169q-15 55 -15 115q0 130 64 222q85 119 285 135q35 3 70 3q146 -1 235 -47q28 -14 50 -36q36 -33 61 -99l-254 -10q-4 8 -11 13q-35 31 -100 31q-74 0 -117 -46q-11 -12 -24 -36
q-11 -25 -15 -42q-6 -24 -8 -61q37 37 85 58q68 31 164 31q117 0 192 -41q105 -59 105 -180zM580 227q-3 39 -28 59q-32 24 -104 27q-80 3 -123 -28q-30 -21 -30 -58t26 -58q37 -31 123 -31q70 0 103 24q12 10 21 23q12 20 12 42z" />
    <glyph glyph-name="seven" unicode="7" horiz-adv-x="854" 
d="M810 677l-7 -78q-4 -47 -14.5 -75t-39.5 -62q-28 -35 -98 -95q-40 -36 -80 -74q-60 -55 -93 -97q-34 -44 -50 -85.5t-33 -110.5h-268q6 46 24 105q36 111 110 180q46 42 124 92q6 4 24.5 15t28.5 18l42 30q28 20 37.5 36.5t12.5 39.5h-467v161h747z" />
    <glyph glyph-name="eight" unicode="8" horiz-adv-x="854" 
d="M813 197q0 -92 -85 -148q-79 -51 -232 -59q-28 -2 -84 -2q-151 0 -237 36q-39 18 -68 42q-65 55 -65 131q0 62 43 103q37 36 119 56q-36 6 -71 26q-69 41 -69 107q0 43 24 81q75 121 352 121q178 0 271 -58q83 -51 83 -139q0 -56 -45 -93q-12 -12 -40 -27l-57 -20
q85 -18 125 -60q16 -19 23 -34q13 -30 13 -63zM551 482q0 12 -5 23q-11 24 -39.5 32.5t-83.5 9.5q-48 0 -75 -11q-43 -16 -43 -56q0 -19 9 -32q21 -35 115 -35q62 0 93 18q29 18 29 51zM566 213q0 24 -14 42q-26 36 -120 36q-91 1 -122 -28q-21 -19 -21 -49q0 -29 20 -49
q28 -30 110 -30q88 0 123 27q24 18 24 51z" />
    <glyph glyph-name="nine" unicode="9" horiz-adv-x="854" 
d="M811 356q0 -90 -27 -160q-9 -22 -21.5 -43.5t-35 -49t-58.5 -51.5t-81 -40q-74 -27 -204 -27q-178 0 -269 61q-54 37 -75 90q-6 14 -11 35l263 6q4 -9 20 -21q32 -23 80 -23q41 0 73 11.5t50.5 31.5t28.5 38t15 38q8 27 8 55q-22 -19 -37 -30q-72 -48 -197 -48
q-62 0 -116 13q-129 29 -169 121q-17 36 -17 85q0 69 46 131t157 90q90 21 190 21q37 0 84 -5q163 -15 241 -117q62 -80 62 -212zM559 457q0 42 -32 63q-34 22 -125 22q-67 0 -103 -26q-12 -9 -21 -26t-8 -32q3 -45 41 -65q33 -18 98 -18q81 0 119 24q31 21 31 58z" />
    <glyph glyph-name="colon" unicode=":" horiz-adv-x="354" 
d="M313 345h-232v183h232v-183zM311 0h-231v184h231v-184z" />
    <glyph glyph-name="semicolon" unicode=";" horiz-adv-x="354" 
d="M310 346h-232v185h232v-185zM310 15q0 -41 -19 -88q-25 -59 -83.5 -85.5t-129.5 -26.5v82q48 5 66.5 28.5t24.5 74.5h-91v184h232v-169z" />
    <glyph glyph-name="less" unicode="&#x3c;" horiz-adv-x="772" 
d="M648 12l-541 210v182l541 210v-188l-307 -106l307 -113v-195z" />
    <glyph glyph-name="equal" unicode="=" horiz-adv-x="772" 
d="M678 359h-584v164h584v-164zM678 88h-584v163h584v-163z" />
    <glyph glyph-name="greater" unicode="&#x3e;" horiz-adv-x="772" 
d="M665 221l-541 -210v187l307 106l-307 113v196l541 -210v-182z" />
    <glyph glyph-name="question" unicode="?" horiz-adv-x="771" 
d="M750 515q0 -60 -46 -105q-31 -31 -112 -72q-34 -16 -50 -26q-39 -24 -39 -52h-215q0 48 10 75t44 49q12 8 22 13t30 13.5t38 17.5q32 16 39 21q31 24 31 56q0 21 -13 41q-27 36 -94 36q-24 0 -49 -5q-85 -21 -81 -126l-202 12q2 37 8 70q21 92 95 138q80 51 254 51
q45 0 78.5 -2.5t76.5 -11t78 -28t59 -50.5q38 -46 38 -115zM504 0h-215v184h215v-184z" />
    <glyph glyph-name="at" unicode="@" horiz-adv-x="922" 
d="M877 36q-69 -58 -134 -93q-130 -68 -274 -68q-196 0 -315 107t-119 284q0 194 135.5 320t344.5 126q162 0 258.5 -84t96.5 -226q0 -136 -77.5 -236.5t-181.5 -100.5q-37 0 -63.5 18t-34.5 50q-58 -67 -132 -67q-71 0 -115.5 48.5t-44.5 125.5q0 113 70.5 197.5
t165.5 84.5q28 0 52 -9q20 -8 32.5 -18t30.5 -33l11 40h111l-42 -196q-17 -80 -17 -109q0 -26 19 -26t49 40q61 84 61 188q0 85 -40 136q-66 86 -211 86q-156 0 -261 -102t-105 -254q0 -136 88 -216t238 -80q180 0 341 140zM536 338v6q0 35 -19.5 56t-49.5 21
q-47 0 -82.5 -52.5t-35.5 -120.5q0 -37 17.5 -59t47.5 -22q47 0 84.5 53t37.5 118z" />
    <glyph glyph-name="A" unicode="A" horiz-adv-x="896" 
d="M898 0h-275l-38 115h-270l-38 -115h-278l305 706h288zM532 271l-83 239l-81 -239h164z" />
    <glyph glyph-name="B" unicode="B" horiz-adv-x="938" 
d="M914 208q0 -73 -41 -123q-43 -52 -111.5 -68.5t-157.5 -16.5h-543v706h593q70 0 121 -14t79 -60q24 -38 24 -91q0 -60 -30 -98q-35 -44 -105 -61q83 -13 119 -44q52 -43 52 -130zM636 492q0 17 -8 30q-15 25 -60 25h-252v-110h234q21 0 30 0.5t25.5 7t23.5 19.5
q7 14 7 28zM663 226q0 58 -64 58h-285v-123h266q22 0 35 3q48 10 48 62z" />
    <glyph glyph-name="C" unicode="C" horiz-adv-x="938" 
d="M937 229q-25 -82 -80 -138q-114 -115 -361 -115q-156 0 -262 50q-25 12 -48.5 26.5t-53.5 43t-51.5 62.5t-36.5 85t-15 110q0 121 64 213q118 170 411 170q256 0 360 -115q39 -42 60 -108l-234 -41q-11 22 -21 35q-54 70 -160 68q-99 0 -160 -64q-55 -59 -55 -157
q0 -86 46 -144q57 -74 162 -74q63 0 106.5 23.5t65.5 52.5q12 17 22 42z" />
    <glyph glyph-name="D" unicode="D" horiz-adv-x="917" 
d="M887 345q0 -143 -75 -231q-28 -35 -79 -64q-47 -25 -90 -36q-56 -14 -133 -14h-448v706h401q42 0 84 -3q190 -16 278 -144q62 -89 62 -214zM640 351q0 99 -65 149q-50 38 -145 38h-121v-378h129q22 0 44 3q100 13 135 86q23 47 23 102z" />
    <glyph glyph-name="E" unicode="E" 
d="M814 0h-754v706h745v-158h-492v-116h455v-159h-455v-113h501v-160z" />
    <glyph glyph-name="F" unicode="F" horiz-adv-x="750" 
d="M753 547h-439v-135h403v-158h-403v-254h-253v706h692v-159z" />
    <glyph glyph-name="G" unicode="G" horiz-adv-x="1000" 
d="M950 0h-219v78q-29 -27 -64 -46q-98 -53 -235 -53q-164 0 -275 86q-46 36 -71 75q-57 83 -57 204q0 149 94 252q132 142 395 142q164 0 271 -52q44 -22 73 -51q30 -27 47 -55l18 -36l-250 -27q-57 62 -155 62q-85 0 -142 -41q-34 -25 -62.5 -71t-28.5 -116q0 -86 47 -140
q59 -71 172 -71q77 0 130 33.5t70 70.5q0 1 5 19h-184v160h421v-423z" />
    <glyph glyph-name="H" unicode="H" horiz-adv-x="938" 
d="M878 0h-256v271h-309v-271h-254v706h255v-257h308v257h256v-706z" />
    <glyph glyph-name="I" unicode="I" horiz-adv-x="375" 
d="M314 0h-253v706h253v-706z" />
    <glyph glyph-name="J" unicode="J" horiz-adv-x="458" 
d="M394 222q0 -111 -56 -165q-36 -35 -84 -46t-114 -11h-145v167h58q53 0 70 18q17 17 17 55v466h254v-484z" />
    <glyph glyph-name="K" unicode="K" 
d="M871 0h-304l-185 267l-88 -84v-183h-234v706h235v-264l237 264h307l-277 -267z" />
    <glyph glyph-name="L" unicode="L" horiz-adv-x="688" 
d="M675 0h-615v706h254v-534h361v-172z" />
    <glyph glyph-name="M" unicode="M" horiz-adv-x="1146" 
d="M1085 0h-249v452l-167 -452h-195l-166 450v-450h-248v706h335l178 -461l178 461h334v-706z" />
    <glyph glyph-name="N" unicode="N" horiz-adv-x="917" 
d="M857 0h-210l-335 378v-378h-250v706h209l337 -372v372h249v-706z" />
    <glyph glyph-name="O" unicode="O" horiz-adv-x="1000" 
d="M969 356q0 -196 -156 -302q-54 -37 -115 -54q-82 -24 -203 -24q-186 0 -298 67q-50 29 -89 76q-78 95 -78 228q0 203 153 306q112 77 304 79q63 0 95 -3q224 -18 323 -159q64 -95 64 -214zM709 354q0 61 -19.5 104.5t-44.5 65.5q-25 25 -68 40q-33 11 -75 11
q-53 0 -91 -16q-60 -25 -90.5 -81.5t-30.5 -124.5q0 -46 14 -86q15 -44 41.5 -73.5t58.5 -41.5t54.5 -16t44.5 -4q57 0 95 17q56 25 83.5 82t27.5 123z" />
    <glyph glyph-name="P" unicode="P" 
d="M837 481q0 -125 -90 -185q-32 -21 -79 -32.5t-79.5 -13t-84.5 -1.5h-191v-249h-252v706h484q49 0 73 -2q70 -4 118 -26.5t76 -78.5q25 -52 25 -118zM584 477q0 18 -9 36q-19 33 -78 33h-184v-138h165q43 0 57 4q49 13 49 65z" />
    <glyph glyph-name="Q" unicode="Q" horiz-adv-x="1000" 
d="M1006 57l-90 -174l-228 116q-85 -23 -188 -23q-199 0 -312 73q-25 16 -48.5 38t-50.5 58.5t-43 90t-16 115.5q0 121 62 213q65 96 170 132t242 36q227 0 346 -101q73 -61 101 -150q18 -59 18 -132q0 -108 -53 -191q-13 -20 -32 -42zM710 348q0 48 -17 96q-14 42 -40.5 71
t-57 40.5t-52.5 15.5t-42 4q-83 0 -139 -54q-69 -66 -69 -176q0 -48 15 -90q15 -40 42 -67t59 -38t53 -14.5t40 -3.5q97 0 153 59q55 57 55 157z" />
    <glyph glyph-name="R" unicode="R" horiz-adv-x="875" 
d="M872 0h-279l-146 257h-134v-257h-254v706h520q88 0 146 -18t97 -79q36 -58 36 -127q0 -123 -96 -176q-22 -13 -66 -24zM606 481q0 21 -11 36q-20 29 -72 29h-210v-130h190q68 0 89 25q14 17 14 40z" />
    <glyph glyph-name="S" unicode="S" horiz-adv-x="812" 
d="M784 228q0 -76 -47 -134q-92 -115 -358 -115q-226 0 -312 98q-44 48 -57 134l249 6q5 -29 32 -49q41 -31 125 -31q52 0 82 15q40 21 40 56q0 34 -40 51q-18 8 -108 24q-141 28 -166 35q-111 31 -151 93q-28 43 -28 98q0 56 31 104q76 123 325 123q137 0 220 -28
q37 -12 69 -36q67 -49 82 -142l-247 -14q-8 21 -9 23q-25 43 -116 43q-66 0 -95 -24q-16 -13 -16 -34q0 -19 16 -32t53.5 -23.5t118 -26.5t114.5 -24q105 -25 146 -69q47 -47 47 -121z" />
    <glyph glyph-name="T" unicode="T" horiz-adv-x="771" 
d="M763 548h-250v-548h-254v548h-251v158h755v-158z" />
    <glyph glyph-name="U" unicode="U" horiz-adv-x="958" 
d="M897 336q0 -53 -1 -75.5t-7 -64.5t-22.5 -72.5t-44.5 -56.5q-98 -92 -342 -92q-85 0 -147 8q-170 21 -235 120q-37 56 -37 150v453h252v-401q0 -46 8.5 -77t36.5 -56q44 -40 122 -40q76 0 119 37q19 17 30 42q16 34 16 98v397h252v-370z" />
    <glyph glyph-name="V" unicode="V" horiz-adv-x="854" 
d="M865 706l-322 -706h-235l-320 706h265l172 -426l175 426h265z" />
    <glyph glyph-name="W" unicode="W" horiz-adv-x="1083" 
d="M1094 706l-170 -706h-271l-110 440l-112 -440h-273l-171 706h247l78 -455l105 455h258l96 -453l77 453h246z" />
    <glyph glyph-name="X" unicode="X" horiz-adv-x="938" 
d="M943 0h-315l-159 245l-159 -245h-313l313 383l-266 323h316l110 -192l109 192h315l-263 -324z" />
    <glyph glyph-name="Y" unicode="Y" horiz-adv-x="875" 
d="M884 706l-320 -496v-210h-251v210l-324 496h295l154 -281l154 281h292z" />
    <glyph glyph-name="Z" unicode="Z" 
d="M811 555l-449 -388h448v-167h-804v149l468 398h-430v159h767v-151z" />
    <glyph glyph-name="bracketleft" unicode="[" horiz-adv-x="360" 
d="M348 -211h-277v971h277v-138h-113v-693h113v-140z" />
    <glyph glyph-name="backslash" unicode="\" horiz-adv-x="479" 
d="M461 0h-188l-277 706h187z" />
    <glyph glyph-name="bracketright" unicode="]" horiz-adv-x="360" 
d="M290 -211h-278v138h114v693h-114v140h278v-971z" />
    <glyph glyph-name="asciicircum" unicode="^" horiz-adv-x="772" 
d="M691 286l-213 1l-96 198l-94 -199h-207l214 420h183z" />
    <glyph glyph-name="underscore" unicode="_" horiz-adv-x="500" 
d="M510 -246h-520v141h520v-141z" />
    <glyph glyph-name="grave" unicode="`" horiz-adv-x="375" 
d="M348 599h-181l-140 139h267z" />
    <glyph glyph-name="a" unicode="a" horiz-adv-x="792" 
d="M769 0h-245q-7 29 -9 51q-149 -66 -263 -66q-119 0 -176 50t-57 120q0 52 27 89q19 27 49 42.5t49 20.5q84 25 367 31q0 28 -11 43q-25 32 -103 32q-90 0 -119 -30q-5 -5 -10 -18h-227q18 102 93 141q82 42 255 42q115 0 192 -15q83 -18 116 -52q43 -43 43 -127v-277
q0 -33 6.5 -47.5t22.5 -29.5zM514 243q-17 -1 -49 -2.5t-58.5 -3t-49.5 -3.5q-71 -6 -88 -27q-11 -11 -11 -29q0 -12 7 -23q19 -30 75 -30q57 0 110 29q27 16 39 30q17 19 25 59z" />
    <glyph glyph-name="b" unicode="b" horiz-adv-x="792" 
d="M767 269q0 -84 -35 -146q-37 -65 -108.5 -98.5t-152.5 -33.5q-44 0 -85 11t-58 20t-43 25v-47h-237v706h236l1 -222q31 22 46 29q62 33 158 33q105 0 179 -55q99 -75 99 -222zM528 270q0 52 -27 78.5t-59 34.5q-18 4 -41 3q-28 0 -50 -9q-33 -13 -51 -43t-18 -66
q1 -54 35.5 -88t87.5 -34q25 0 49 9q74 29 74 115z" />
    <glyph glyph-name="c" unicode="c" horiz-adv-x="812" 
d="M804 197q-10 -38 -32 -72q-62 -97 -205 -128q-63 -14 -153 -14q-147 0 -244 49q-46 23 -79 57q-24 25 -45.5 70.5t-21.5 104.5q0 84 50 153q100 137 357 137q163 0 263 -69q61 -42 85 -98q2 -4 4 -9t4.5 -11.5t3.5 -9.5l-233 -21q-12 36 -50.5 56t-80.5 20
q-66 0 -109.5 -39.5t-42.5 -104.5q0 -31 12 -61q14 -34 49 -59.5t95 -25.5q73 0 114 43q12 12 25 41z" />
    <glyph glyph-name="d" unicode="d" horiz-adv-x="792" 
d="M743 0h-236v52q-25 -19 -38 -25q-72 -39 -162 -39q-110 0 -188 62q-38 33 -60 77q-33 63 -33 136q0 90 45 161q18 29 43.5 53.5t78.5 47t118 22.5q50 0 92.5 -13.5t59.5 -24.5t44 -32v229h236v-706zM507 268q0 32 -10 54q-30 65 -111 65q-56 0 -90 -31.5t-34 -87.5
q0 -30 10 -54q14 -34 44 -52t68 -18q54 0 88.5 35t34.5 89z" />
    <glyph glyph-name="e" unicode="e" horiz-adv-x="812" 
d="M796 232h-526q3 -16 11 -34q15 -33 46 -52t51.5 -23t38.5 -4q58 0 97 29q10 7 22 19l246 -12q-26 -52 -76 -90q-18 -16 -51 -32q-100 -48 -249 -48q-227 0 -325 120q-55 67 -55 163q0 92 53 159q23 28 54 50q99 69 275 68q215 0 313 -103q47 -50 64 -113q9 -33 11 -97z
M548 324q-31 85 -135 85q-75 0 -113 -45q-11 -14 -22 -40h270z" />
    <glyph glyph-name="f" unicode="f" horiz-adv-x="396" 
d="M398 578q-25 3 -52 2q-28 -2 -39 -15q-10 -12 -10 -40v-17h100v-137h-90v-371h-235v371h-77v137h79v61q0 71 36 105q16 15 39.5 22.5t39.5 8.5t45 1h164v-128z" />
    <glyph glyph-name="g" unicode="g" horiz-adv-x="792" 
d="M742 44q0 -29 -4 -53q-10 -78 -73 -126q-99 -75 -290 -75q-122 0 -201 36.5t-112 91.5q-19 31 -28 84h239q2 -30 20 -48q28 -29 89 -29q96 0 118 59q7 18 7 50q0 9 -0.5 27.5t-0.5 27.5q-2 -1 -8.5 -5.5t-14 -8.5t-15.5 -8q-72 -32 -169 -32q-49 0 -94 13
q-21 6 -40.5 14.5t-47.5 27.5t-48 43t-34.5 63t-14.5 86q0 82 37 135.5t80 79.5q71 43 174 43q90 0 159 -36q12 -6 36 -22v48h236v-486zM507 289q0 33 -19 57q-14 17 -42.5 29.5t-68.5 11.5q-60 -2 -87.5 -33.5t-27.5 -67.5q0 -20 9 -38q11 -24 40 -43t76 -19
q49 0 84.5 27.5t35.5 75.5z" />
    <glyph glyph-name="h" unicode="h" horiz-adv-x="812" 
d="M763 0h-236v258q0 53 -8 72q-12 30 -41 45t-64 15q-62 0 -96 -34q-15 -18 -21 -32q-13 -33 -13 -83v-241h-233v706h237v-242q30 27 50 40q69 43 168 43q73 0 127.5 -23t81.5 -51q11 -11 26 -37q22 -45 22 -141v-295z" />
    <glyph glyph-name="i" unicode="i" horiz-adv-x="333" 
d="M283 582h-235v124h235v-124zM283 0h-234v530h234v-530z" />
    <glyph glyph-name="j" unicode="j" horiz-adv-x="333" 
d="M287 582h-238v124h238v-124zM287 4q0 -120 -80 -164q-23 -13 -53.5 -18.5t-70 -5.5h-95.5v143h14q15 0 24 4q23 9 23 43v524h238v-526z" />
    <glyph glyph-name="k" unicode="k" horiz-adv-x="750" 
d="M768 0h-261l-130 196l-95 -82v-114h-234v706h233v-346l182 170h297l-224 -195z" />
    <glyph glyph-name="l" unicode="l" horiz-adv-x="333" 
d="M285 0h-237v706h237v-706z" />
    <glyph glyph-name="m" unicode="m" horiz-adv-x="1146" 
d="M1093 0h-229v287q0 34 -5 47q-18 47 -80 47q-91 -4 -91 -115v-266h-227v258q0 66 -14 88q-24 40 -78 40q-64 0 -84 -54q-6 -14 -6 -38v-294h-228v530h222v-88q8 16 16 26q56 65 180 68q108 1 163 -52q7 -7 13 -15t9.5 -14t5.5 -8q32 36 87.5 62.5t125.5 26.5
q56 0 115.5 -22.5t87.5 -75.5q17 -32 17 -85v-353z" />
    <glyph glyph-name="n" unicode="n" horiz-adv-x="812" 
d="M766 0h-237v262q0 31 -8 53q-25 74 -112 74q-54 0 -81 -27.5t-36 -60.5q-5 -17 -5 -45v-256h-238v530h238v-67q28 20 42 28q84 49 188 49q100 0 161 -36q29 -19 40 -31q22 -23 33 -52q15 -39 15 -143v-278z" />
    <glyph glyph-name="o" unicode="o" 
d="M809 266q0 -162 -161 -237q-98 -43 -231 -43q-169 0 -273 65q-41 26 -65 56q-54 64 -54 158q0 136 112 210q100 66 263 69q89 0 159 -14q124 -24 192 -103q58 -66 58 -161zM565 268q0 43 -17 72q-41 70 -141 65q-33 -2 -56 -10q-40 -15 -61 -49t-21 -78q0 -58 32 -93
q41 -46 121 -46q42 0 78.5 20t53.5 56q11 26 11 63z" />
    <glyph glyph-name="p" unicode="p" horiz-adv-x="792" 
d="M766 260q0 -98 -52 -168q-81 -111 -239 -111q-47 0 -89 12t-60 22.5t-44 28.5v-229h-234v715h234v-53q20 17 35 26q63 40 157 40q135 0 217 -82q75 -76 75 -201zM527 265q0 60 -42 93q-34 28 -86 25q-34 -2 -59 -15.5t-36.5 -33t-16.5 -36.5t-5 -33q0 -23 9 -46
q12 -31 37.5 -49t43.5 -21.5t35 -3.5q39 0 66 16q54 31 54 104z" />
    <glyph glyph-name="q" unicode="q" horiz-adv-x="792" 
d="M742 -188h-235v238q-34 -22 -40 -26q-63 -34 -150 -34q-78 0 -144 28q-148 66 -148 253q0 79 32 139q37 68 109.5 102t154.5 34q89 0 151 -39q16 -10 37 -29v52h233v-718zM507 267q0 35 -16 63q-33 58 -111 54q-34 -5 -48 -12q-23 -10 -42 -36t-19 -69q0 -30 14 -57
q32 -61 108 -61q50 0 83 33q31 29 31 85z" />
    <glyph glyph-name="r" unicode="r" horiz-adv-x="458" 
d="M467 331q-38 4 -56 4q-13 0 -35 -2q-64 -5 -84 -47q-9 -18 -9 -49v-237h-235v530h236v-84q42 66 127 88q21 5 56 6v-209z" />
    <glyph glyph-name="s" unicode="s" horiz-adv-x="729" 
d="M707 175q0 -59 -48 -106q-89 -86 -289 -86q-113 0 -201 23q-82 21 -118 60q-32 34 -37 95l238 11q5 -18 13 -28q31 -35 109 -35q55 0 78 18q15 11 15 29q0 15 -13 23q-8 5 -27 10t-37 7.5t-52 7.5t-55 9q-61 10 -106 23q-79 21 -108 53q-30 32 -30 87q0 87 97 134
q83 38 234 38q216 0 296 -97q19 -23 30 -47q4 -10 10 -33l-234 -10q-2 9 -6 16q-25 43 -111 42q-38 0 -61 -11.5t-23 -31.5q0 -12 10 -20q19 -16 139 -29q78 -10 116 -16q86 -17 111 -31q60 -34 60 -105z" />
    <glyph glyph-name="t" unicode="t" horiz-adv-x="396" 
d="M382 0h-153q-42 0 -75 4q-50 7 -75 37q-21 25 -20 82l5 248h-75v137h76l3 179h227v-179h87v-137h-86v-175q0 -11 3 -20q8 -26 55 -26h28v-150z" />
    <glyph glyph-name="u" unicode="u" horiz-adv-x="812" 
d="M764 0h-229l-1 72q-25 -22 -40 -32q-80 -52 -195 -52q-154 0 -216 95q-20 34 -27 65q-6 25 -6 60v322h237v-264q0 -37 5 -53q21 -70 112 -70q62 0 95 37q29 32 29 101v249h236v-530z" />
    <glyph glyph-name="v" unicode="v" horiz-adv-x="729" 
d="M731 530l-244 -530h-243l-248 530h257l112 -301l111 301h255z" />
    <glyph glyph-name="w" unicode="w" horiz-adv-x="1083" 
d="M1086 530l-191 -530h-233l-117 331l-132 -331h-237l-177 530h258l50 -305l124 305h238l108 -305l61 305h248z" />
    <glyph glyph-name="x" unicode="x" 
d="M836 0h-286l-135 162l-132 -162h-287l280 278l-257 252h287l111 -140l113 140h286l-258 -254z" />
    <glyph glyph-name="y" unicode="y" horiz-adv-x="708" 
d="M713 530l-251 -550q-25 -54 -46 -81q-23 -30 -47.5 -48t-54.5 -25t-48.5 -8.5t-53.5 -1.5h-13h-124v150h109q48 0 48 31q0 13 -10 33l-226 500h258l100 -313l100 313h259z" />
    <glyph glyph-name="z" unicode="z" horiz-adv-x="729" 
d="M695 381l-349 -231h346v-150h-670v151l349 231h-322v148h646v-149z" />
    <glyph glyph-name="braceleft" unicode="{" horiz-adv-x="354" 
d="M363 -218h-46q-82 0 -123 9t-66 32q-16 15 -27 39t-12 46q0 1 -0.5 8.5t-0.5 19.5v25l-1 135q0 55 -13 84q-10 22 -24 34.5t-42 24.5v69q27 11 43 25q21 21 28.5 51t7.5 96v109q0 98 40 135q26 23 64 32t117 9h55v-68q-54 -17 -74 -34q-19 -16 -26.5 -42t-7.5 -76v-90
q0 -78 -15 -111q-11 -23 -26 -36q-19 -18 -65 -35q3 -1 5.5 -2t5.5 -2q45 -14 64 -39q31 -38 31 -138v-90q0 -62 13 -89q11 -23 30.5 -36t64.5 -26v-69z" />
    <glyph glyph-name="bar" unicode="|" horiz-adv-x="288" 
d="M226 760l-1 -972h-164v972h165z" />
    <glyph glyph-name="braceright" unicode="}" horiz-adv-x="354" 
d="M344 238q-27 -11 -43 -25q-21 -20 -28.5 -50t-7.5 -97v-108q0 -99 -40 -135q-25 -24 -63 -32.5t-118 -8.5h-55v68q54 15 75 34q19 16 26 41.5t7 76.5v89q0 80 15 111q9 20 26 36q19 18 65 35q-6 3 -11 4q-44 16 -64 39q-31 38 -31 138v90q0 61 -13 90q-11 22 -30.5 35
t-64.5 26v69h46q82 0 123 -9t66 -32q16 -15 27 -38q12 -27 12 -46q1 -5 1 -53l1 -136q0 -55 13 -84q10 -21 24.5 -34t41.5 -25v-69z" />
    <glyph glyph-name="asciitilde" unicode="~" horiz-adv-x="772" 
d="M726 276q-30 -28 -50 -41.5t-55 -30.5q-58 -26 -108 -26q-43 0 -120 30l-42 16q-59 22 -97 22q-34 0 -62 -12.5t-64 -45.5l-12 -11l-69 150q48 43 85 64q57 33 123 33q46 0 122 -29l48 -18q60 -22 87 -22q14 0 37 5q24 7 40 16q25 12 69 47z" />
    <glyph glyph-name="exclamdown" unicode="&#xa1;" horiz-adv-x="333" 
d="M241 521h-188v185h188v-185zM263 0h-231v137q0 47 11 181l10 127h188l9 -128q1 -14 5 -54.5t5 -61.5q0 -8 1 -21t1.5 -23.5t0.5 -19.5v-137z" />
    <glyph glyph-name="cent" unicode="&#xa2;" 
d="M812 196q-16 -43 -32 -69q-26 -42 -63.5 -70.5t-83 -42.5t-79 -20t-78.5 -9v-137h-89v136q-38 0 -99 12q-151 31 -214 126q-39 61 -39 139q0 116 73 187t193 94q21 4 86 9v119h90v-119q165 -10 252 -88q52 -46 71 -108l-232 -20q-22 57 -92 71v-279q29 4 50.5 18t31 26.5
t19.5 32.5zM387 131v273q-100 -30 -100 -136q0 -109 100 -137z" />
    <glyph glyph-name="sterling" unicode="&#xa3;" horiz-adv-x="812" 
d="M796 200q-1 -41 -3.5 -66t-15.5 -58t-38 -54q-51 -44 -142 -44q-98 0 -237 63q-90 -64 -198 -64q-93 0 -133 52q-21 29 -21 69q0 38 19 68q36 57 120 57q19 0 47 -4q28 -5 101 -29q-3 32 -11.5 50.5t-30.5 50.5h-179v73h116q-67 79 -67 146q0 48 34 90q70 88 276 88
q43 0 64 -1q90 -5 142 -26.5t83 -60.5q27 -33 35.5 -67.5t12.5 -88.5l-216 -11q0 2 -0.5 13t-0.5 14.5t-1 13t-2.5 14.5t-3.5 12.5t-6 13t-9 10.5q-23 23 -72 23q-91 0 -90 -69q0 -30 36 -85q3 -6 11 -18l8 -12h152v-74h-110q15 -36 15 -63q0 -50 -31 -92q43 -15 73 -15
q50 0 67 42q5 13 6 39h200zM247 95q-47 28 -90 28q-25 0 -34 -12q-5 -9 -5 -17q0 -31 49 -31q40 0 80 32z" />
    <glyph glyph-name="currency" unicode="&#xa4;" horiz-adv-x="752" 
d="M734 119l-125 -119l-88 85q-72 -34 -143 -34q-74 0 -142 34l-89 -84l-127 118l89 83q-36 62 -36 136q0 77 37 138l-90 83l126 118l90 -82q61 34 144 34q73 0 141 -34l90 83l123 -120l-86 -80q36 -71 36 -138t-37 -137zM499 339q0 53 -34.5 89.5t-85.5 36.5q-52 0 -87 -36
t-35 -89q0 -52 35.5 -88t86.5 -36q50 0 85 35.5t35 87.5z" />
    <glyph glyph-name="yen" unicode="&#xa5;" horiz-adv-x="875" 
d="M884 689l-186 -281h118v-114h-193l-49 -73h242v-113h-252v-108h-251v108h-255v113h244l-49 73h-195v114h119l-188 281h295l117 -208q27 -48 37 -82q21 57 44 97l110 193h292z" />
    <glyph glyph-name="brokenbar" unicode="&#xa6;" horiz-adv-x="287" 
d="M225 351h-164v409h164v-409zM225 -212h-164v410h164v-410z" />
    <glyph glyph-name="section" unicode="&#xa7;" horiz-adv-x="729" 
d="M707 296q0 -36 -19.5 -69.5t-50.5 -53.5q-9 -6 -48 -22q86 -41 86 -128q0 -47 -35 -96q-72 -100 -279 -100q-319 0 -337 202l229 15q10 -79 108 -79q75 0 75 48q0 8 -2.5 15t-9 12.5t-11.5 9t-15 7t-15 5t-16 4t-14 3.5q-6 2 -43 11t-58 15t-58 17.5t-60.5 21t-47 22.5
t-34.5 26q-31 35 -31 91q0 91 104 147q-69 52 -69 125q0 52 38 98q71 87 272 87q203 0 279 -77q38 -39 49 -103l-226 -13q1 30 -26 45t-60 15q-29 0 -55 -12.5t-26 -38.5q0 -12 14 -26q16 -15 158.5 -51.5t181.5 -68.5q52 -43 52 -104zM492 261q0 27 -26 48q-9 7 -27.5 15
t-46 15.5t-46.5 12t-49 11t-33 7.5q-32 -26 -32 -64q0 -25 19 -43q26 -24 213 -65q28 36 28 63z" />
    <glyph glyph-name="dieresis" unicode="&#xa8;" horiz-adv-x="375" 
d="M464 614h-207v124h207v-124zM118 614h-207v124h207v-124z" />
    <glyph glyph-name="copyright" unicode="&#xa9;" horiz-adv-x="760" 
d="M747 355q0 -151 -103.5 -254t-253.5 -103q-148 0 -251.5 103.5t-103.5 252.5t103.5 252.5t252.5 103.5t252.5 -103t103.5 -252zM691 353q0 130 -87 219.5t-214 89.5q-124 0 -212 -90.5t-88 -218.5t87.5 -217.5t212.5 -89.5t213 89.5t88 217.5zM609 421l-113 -16
q-25 60 -97 60q-53 0 -84.5 -30.5t-31.5 -80.5t30.5 -80.5t82.5 -30.5q75 0 99 58l110 -21q-22 -67 -77.5 -104t-134.5 -37q-99 0 -162 60t-63 155q0 94 65 154.5t166 60.5q80 0 136.5 -39.5t73.5 -108.5z" />
    <glyph glyph-name="ordfeminine" unicode="&#xaa;" horiz-adv-x="500" 
d="M467 388h-149l-11 29q-76 -37 -140 -37t-97.5 28t-35.5 70q-6 110 216 108h10h47q-6 25 -16.5 35t-41.5 10q-33 0 -47 -6.5t-23 -26.5h-131q4 42 21 63q41 48 180 48q75 0 119.5 -11t64.5 -42q14 -22 14 -50v-158q0 -40 20 -60zM309 526q-58 0 -87 -3q-47 -3 -47 -30
q0 -15 14.5 -23t31.5 -8q54 0 88 64z" />
    <glyph glyph-name="guillemotleft" unicode="&#xab;" horiz-adv-x="521" 
d="M487 64l-206 133v226l206 133v-184l-93 -61l93 -64v-183zM247 375l-95 -64l93 -63v-183l-206 133v228l208 131v-182z" />
    <glyph glyph-name="logicalnot" unicode="&#xac;" horiz-adv-x="772" 
d="M677 27h-205v194h-417v163h622v-357z" />
    <glyph glyph-name="registered" unicode="&#xae;" horiz-adv-x="760" 
d="M747 355q0 -151 -103.5 -254t-253.5 -103q-148 0 -251.5 103.5t-103.5 252.5t103.5 252.5t252.5 103.5t252.5 -103t103.5 -252zM691 353q0 130 -87 219.5t-214 89.5q-124 0 -212 -90.5t-88 -218.5t87.5 -217.5t212.5 -89.5t213 89.5t88 217.5zM590 426q0 -101 -97 -133
l89 -147h-127l-81 142h-32v-143h-114v416h211q53 0 89 -18q28 -13 45 -45.5t17 -71.5zM475 425q0 26 -15.5 36.5t-55.5 10.5h-63v-94h61q41 0 57 10.5t16 36.5z" />
    <glyph glyph-name="macron" unicode="&#xaf;" horiz-adv-x="375" 
d="M464 614h-553v97h553v-97z" />
    <glyph glyph-name="degree" unicode="&#xb0;" horiz-adv-x="354" 
d="M349 573q0 -71 -50.5 -122t-121.5 -51t-121.5 51t-50.5 122q0 72 50 122t122 50t122 -50t50 -122zM233 575q0 23 -16.5 39t-39.5 16t-39 -16t-16 -39t16.5 -39.5t38.5 -16.5q23 0 39.5 16.5t16.5 39.5z" />
    <glyph glyph-name="plusminus" unicode="&#xb1;" horiz-adv-x="772" 
d="M686 394h-197v-181h-205v181h-198v163h199v173l204 -1v-172h197v-163zM686 0h-600v164h600v-164z" />
    <glyph glyph-name="twosuperior" unicode="&#xb2;" horiz-adv-x="562" 
d="M508 270h-456v102q37 52 73 79.5t125 68.5q58 27 61 29q27 18 26 33q-1 31 -67 31q-28 0 -43.5 -12.5t-19 -24t-4.5 -29.5l-139 3q0 39 10 69q14 45 45.5 64.5t78.5 27.5q33 7 82 7q50 0 77 -5q11 -1 19.5 -2t33.5 -8.5t42 -19t32.5 -34.5t16.5 -54q1 -18 -4 -34.5
t-11.5 -28t-21 -24.5t-23 -20t-29 -18t-28.5 -14.5t-31 -13t-27 -11.5q-44 -19 -92 -47h274v-114z" />
    <glyph glyph-name="threesuperior" unicode="&#xb3;" horiz-adv-x="562" 
d="M539 405q0 -147 -258 -147q-30 0 -45.5 0.5t-50.5 4.5t-57 11.5t-47 24t-40 40.5q-11 19 -25 71l153 6q9 -18 21 -28q26 -21 82 -21q95 -2 92 44q-1 34 -55 34h-111v95h36h16q26 0 39.5 0.5t32 3.5t26.5 11t8 22q0 35 -60 35t-91 -25q-3 -2 -10 -13l-152 6q9 47 22 64
q54 74 234 74q140 0 190 -42q10 -9 23 -28q17 -28 17 -54q0 -41 -26 -66q-3 -2 -8.5 -5.5t-11.5 -6.5t-7 -4l-12 -6l-12 -5q52 -12 75 -52q12 -20 12 -44z" />
    <glyph glyph-name="acute" unicode="&#xb4;" horiz-adv-x="375" 
d="M344 738l-136 -139h-177l50 139h263z" />
    <glyph glyph-name="mu" unicode="&#xb5;" horiz-adv-x="815" 
d="M793 0h-245q-9 31 -13 73q-25 -34 -45 -49q-41 -31 -98 -31t-105 37v-232h-237v732h237v-264q0 -62 27 -90q31 -33 89 -33q64 0 98 39q27 31 27 99v249h236v-453q0 -31 5 -44.5t24 -32.5z" />
    <glyph glyph-name="paragraph" unicode="&#xb6;" horiz-adv-x="623" 
d="M541 610h-36v-776h-101v776h-111v-777h-102v463q-46 17 -67 33q-34 25 -53.5 67.5t-19.5 93.5q0 103 67 164q27 26 64 38q43 14 114 14h245v-96z" />
    <glyph glyph-name="periodcentered" unicode="&#xb7;" horiz-adv-x="313" 
d="M271 250h-230v184h230v-184z" />
    <glyph glyph-name="cedilla" unicode="&#xb8;" horiz-adv-x="375" 
d="M329 -144q0 -29 -17 -52q-44 -63 -147 -62q-53 0 -119 25l23 55q51 -14 73 -14q38 0 56 17q9 9 9 19q-2 28 -38 28q-17 0 -39 -12l-33 36l113 135h71l-47 -79q25 -6 39 -12q56 -28 56 -84z" />
    <glyph glyph-name="onesuperior" unicode="&#xb9;" horiz-adv-x="562" 
d="M385 265h-162v298q-42 -12 -99 -16v103l8 1q9 1 12 1.5l12 2t15 3.5t15.5 5t18 7t18 9t19.5 12t20 15h123v-441z" />
    <glyph glyph-name="ordmasculine" unicode="&#xba;" horiz-adv-x="521" 
d="M486 546q-1 -73 -59.5 -117.5t-166.5 -44.5q-37 0 -72.5 7.5t-72 24.5t-58.5 51t-22 81q1 71 55.5 115.5t159.5 46.5q38 1 85 -7q45 -8 77 -27t47 -43t21 -45t6 -42zM336 548q0 35 -21.5 52t-55.5 16q-17 0 -33 -6q-39 -16 -39 -62q0 -34 21.5 -50.5t55.5 -16.5
q31 0 51.5 18t20.5 49z" />
    <glyph glyph-name="guillemotright" unicode="&#xbb;" horiz-adv-x="521" 
d="M482 195l-207 -132v182l93 65l-92 63v183l206 -134v-227zM241 197l-207 -133v183l93 63l-92 63v184l206 -133v-227z" />
    <glyph glyph-name="onequarter" unicode="&#xbc;" horiz-adv-x="1250" 
d="M1216 80h-68v-80h-154v81h-278v99l256 261h176v-251h68v-110zM903 676l-494 -706l-88 62l495 704zM385 265h-162v298q-42 -12 -99 -16v103l8 1q9 1 12 1.5l12 2t15 3.5t15.5 5t18 7t18 9t19.5 12t20 15h123v-441zM994 190v120l-117 -120h117z" />
    <glyph glyph-name="onehalf" unicode="&#xbd;" horiz-adv-x="1250" 
d="M1196 0h-456v102q28 40 46 58q40 39 154 92q54 24 57 26q29 19 28 34q-1 31 -67 31q-21 0 -35.5 -6.5t-20.5 -17.5t-8.5 -20t-2.5 -21l-140 2q0 37 11 69q15 45 46 64.5t78 28.5q46 7 81 7q38 0 78 -5l7 -1q8 -1 15 -2.5t19 -4t22 -7t22 -10.5t21.5 -15t18 -20t13 -26
t5.5 -33q1 -40 -20 -71q-7 -9 -16.5 -18t-22 -17.5t-22.5 -14.5t-26 -13.5t-23.5 -10.5t-23.5 -10t-19 -8q-45 -19 -94 -48h275v-114zM885 676l-494 -706l-87 62l495 704zM385 265h-162v298q-42 -12 -99 -16v103l8 1q9 1 12 1.5l12 2t15 3.5t15.5 5t18 7t18 9t19.5 12t20 15
h123v-441z" />
    <glyph glyph-name="threequarters" unicode="&#xbe;" horiz-adv-x="1250" 
d="M1216 80h-68v-80h-154v81h-278v99l256 261h176v-251h68v-110zM956 676l-494 -706l-88 62l495 704zM539 405q0 -147 -258 -147q-30 0 -45.5 0.5t-50.5 4.5t-57 11.5t-47 24t-40 40.5q-11 19 -25 71l153 6q9 -18 21 -28q26 -21 82 -21q95 -2 92 44q-1 34 -55 34h-111v95h36
h16q26 0 39.5 0.5t32 3.5t26.5 11t8 22q0 35 -60 35t-91 -25q-3 -2 -10 -13l-152 6q9 47 22 64q54 74 234 74q140 0 190 -42q10 -9 23 -28q17 -28 17 -54q0 -41 -26 -66q-3 -2 -8.5 -5.5t-11.5 -6.5t-7 -4l-12 -6l-12 -5q52 -12 75 -52q12 -20 12 -44zM994 190v120
l-117 -120h117z" />
    <glyph glyph-name="questiondown" unicode="&#xbf;" horiz-adv-x="771" 
d="M481 522h-215v184h215v-184zM707 243q-2 -37 -8 -70q-21 -92 -95 -138q-80 -51 -254 -51q-45 0 -78.5 2.5t-77 11t-78 28t-58.5 50.5q-38 46 -38 115q0 60 46 105q31 31 112 72q34 16 50 26q37 23 39 52h215q0 -47 -10 -74t-44 -49q-10 -7 -90 -45q-32 -16 -39 -21
q-31 -24 -31 -56q0 -21 13 -41q27 -36 94 -36q24 0 49 5q85 19 81 126z" />
    <glyph glyph-name="Agrave" unicode="&#xc0;" horiz-adv-x="896" 
d="M569 758h-181l-139 138h267zM898 0h-275l-38 115h-270l-38 -115h-278l305 706h288zM532 271l-83 239l-81 -239h164z" />
    <glyph glyph-name="Aacute" unicode="&#xc1;" horiz-adv-x="896" 
d="M645 896l-136 -138h-177l49 138h264zM898 0h-275l-38 115h-270l-38 -115h-278l305 706h288zM532 271l-83 239l-81 -239h164z" />
    <glyph glyph-name="Acircumflex" unicode="&#xc2;" horiz-adv-x="896" 
d="M698 773h-190l-60 83l-61 -83h-188l91 123h321zM898 0h-275l-38 115h-270l-38 -115h-278l305 706h288zM532 271l-83 239l-81 -239h164z" />
    <glyph glyph-name="Atilde" unicode="&#xc3;" horiz-adv-x="896" 
d="M712 894q-6 -42 -9 -50q-13 -38 -49.5 -70.5t-100.5 -32.5q-40 0 -80 10q-50 12 -76 17q-41 9 -49 9q-25 0 -35 -18q-1 -2 -3 -10h-128q6 42 18 70t40 50q41 33 112 33q34 0 82 -12q2 -1 31 -8t53 -12t32 -5q21 0 30 16q3 4 5 13h127zM898 0h-275l-38 115h-270l-38 -115
h-278l305 706h288zM532 271l-83 239l-81 -239h164z" />
    <glyph glyph-name="Adieresis" unicode="&#xc4;" horiz-adv-x="896" 
d="M725 773h-207v123h207v-123zM379 773h-207v123h207v-123zM899 0h-275l-39 115h-269l-39 -115h-278l306 706h287zM532 271l-83 239l-81 -239h164z" />
    <glyph glyph-name="Aring" unicode="&#xc5;" horiz-adv-x="896" 
d="M585 824q0 -24 -12 -45q-34 -57 -127 -57q-67 0 -101.5 32t-34.5 70q0 26 15 49q15 22 45 35.5t47 15.5t30 2q82 2 121 -49q17 -23 17 -53zM898 0h-275l-38 115h-270l-38 -115h-278l305 706h288zM510 823q0 9 -6 17q-14 22 -58 22q-39 0 -56 -19q-7 -7 -7 -19q0 -9 6 -17
q15 -22 58 -22q6 0 15 1l8 1q40 10 40 36zM532 271l-83 239l-81 -239h164z" />
    <glyph glyph-name="AE" unicode="&#xc6;" horiz-adv-x="1125" 
d="M1104 0h-574v113h-230l-58 -113h-249l393 706h711v-159h-321v-114h274v-160h-274v-113h328v-160zM530 269v290l-150 -290h150z" />
    <glyph glyph-name="Ccedilla" unicode="&#xc7;" horiz-adv-x="938" 
d="M937 229q-30 -90 -86 -144q-114 -109 -355 -109h-7l-15 -24q94 -28 96 -96q0 -48 -45 -81t-119 -33q-53 0 -119 25l22 55q42 -14 73 -14q27 0 46 9.5t19 26.5q0 28 -38 28q-20 0 -38 -12l-34 36l72 85q-5 1 -26.5 3.5t-47 7.5t-49.5 13q-44 15 -84 38.5t-81.5 63.5
t-66.5 103.5t-25 142.5q0 135 79 232q121 151 395 151q259 0 364 -118q38 -43 57 -105l-234 -42q-11 22 -17 31q-53 73 -163 73q-60 0 -112 -27q-106 -57 -104 -200q1 -71 32 -119t75 -72q41 -21 101 -21q58 0 103.5 22.5t69.5 54.5q5 7 10 17t8 17l3 7z" />
    <glyph glyph-name="Egrave" unicode="&#xc8;" 
d="M553 758h-181l-140 138h267zM814 0h-754v706h745v-158h-492v-116h455v-159h-455v-113h501v-160z" />
    <glyph glyph-name="Eacute" unicode="&#xc9;" 
d="M630 896l-136 -138h-178l50 138h264zM814 0h-754v706h745v-158h-492v-116h455v-159h-455v-113h501v-160z" />
    <glyph glyph-name="Ecircumflex" unicode="&#xca;" 
d="M682 773h-189l-60 83l-61 -83h-188l90 123h321zM814 0h-754v706h745v-158h-492v-116h455v-159h-455v-113h501v-160z" />
    <glyph glyph-name="Edieresis" unicode="&#xcb;" 
d="M709 773h-207v123h207v-123zM362 773h-207v123h207v-123zM814 0h-754v706h745v-158h-492v-116h455v-159h-455v-113h501v-160z" />
    <glyph glyph-name="Igrave" unicode="&#xcc;" horiz-adv-x="375" 
d="M308 758h-181l-139 138h267zM314 0h-253v706h253v-706z" />
    <glyph glyph-name="Iacute" unicode="&#xcd;" horiz-adv-x="375" 
d="M385 896l-136 -138h-178l50 138h264zM314 0h-253v706h253v-706z" />
    <glyph glyph-name="Icircumflex" unicode="&#xce;" horiz-adv-x="375" 
d="M437 773h-189l-61 83l-60 -83h-188l90 123h321zM314 0h-253v706h253v-706z" />
    <glyph glyph-name="Idieresis" unicode="&#xcf;" horiz-adv-x="375" 
d="M464 773h-206v123h206v-123zM118 773h-207v123h207v-123zM314 0h-253v706h253v-706z" />
    <glyph glyph-name="Eth" unicode="&#xd0;" horiz-adv-x="917" 
d="M887 346q0 -17 -1 -32t-6 -46t-14 -57t-27.5 -58.5t-44 -57.5t-66.5 -47.5t-91 -34.5q-56 -13 -127 -13h-448v308h-62v98h62v300h400q54 0 93 -4t92.5 -17t99.5 -45.5t80 -82.5q60 -87 60 -211zM640 351q0 62 -27 106q-51 81 -183 81h-121v-132h211v-98h-211v-148h128
q75 0 117.5 22.5t64.5 70.5q21 42 21 98z" />
    <glyph glyph-name="Ntilde" unicode="&#xd1;" horiz-adv-x="917" 
d="M722 893q0 -25 -8 -49q-13 -37 -50 -70t-101 -33q-40 0 -80 10q-50 12 -75 17q-41 9 -49 9q-25 0 -36 -18q-1 -2 -3 -10h-128q6 41 18.5 69t40.5 51q42 33 111 33q29 0 83 -12q3 -1 31.5 -8t52 -12t31.5 -5q21 0 31 16q2 5 4 13zM857 0h-210l-335 378v-378h-250v706h209
l337 -372v372h249v-706z" />
    <glyph glyph-name="Ograve" unicode="&#xd2;" horiz-adv-x="1000" 
d="M621 758h-181l-139 138h267zM969 356q0 -196 -156 -302q-54 -37 -115 -54q-82 -24 -203 -24q-186 0 -298 67q-50 29 -89 76q-78 95 -78 228q0 203 153 306q112 77 304 79q63 0 95 -3q224 -18 323 -159q64 -95 64 -214zM709 354q0 61 -19.5 104.5t-44.5 65.5
q-25 25 -68 40q-33 11 -75 11q-53 0 -91 -16q-60 -25 -90.5 -81.5t-30.5 -124.5q0 -46 14 -86q15 -44 41.5 -73.5t58.5 -41.5t54.5 -16t44.5 -4q57 0 95 17q56 25 83.5 82t27.5 123z" />
    <glyph glyph-name="Oacute" unicode="&#xd3;" horiz-adv-x="1000" 
d="M697 896l-136 -138h-177l49 138h264zM969 356q0 -196 -156 -302q-54 -37 -115 -54q-82 -24 -203 -24q-186 0 -298 67q-50 29 -89 76q-78 95 -78 228q0 203 153 306q112 77 304 79q63 0 95 -3q224 -18 323 -159q64 -95 64 -214zM709 354q0 61 -19.5 104.5t-44.5 65.5
q-25 25 -68 40q-33 11 -75 11q-53 0 -91 -16q-60 -25 -90.5 -81.5t-30.5 -124.5q0 -46 14 -86q15 -44 41.5 -73.5t58.5 -41.5t54.5 -16t44.5 -4q57 0 95 17q56 25 83.5 82t27.5 123z" />
    <glyph glyph-name="Ocircumflex" unicode="&#xd4;" horiz-adv-x="1000" 
d="M750 773h-190l-60 83l-61 -83h-187l90 123h321zM969 356q0 -196 -156 -302q-54 -37 -115 -54q-82 -24 -203 -24q-186 0 -298 67q-50 29 -89 76q-78 95 -78 228q0 203 153 306q112 77 304 79q63 0 95 -3q224 -18 323 -159q64 -95 64 -214zM709 354q0 61 -19.5 104.5
t-44.5 65.5q-25 25 -68 40q-33 11 -75 11q-53 0 -91 -16q-60 -25 -90.5 -81.5t-30.5 -124.5q0 -46 14 -86q15 -44 41.5 -73.5t58.5 -41.5t54.5 -16t44.5 -4q57 0 95 17q56 25 83.5 82t27.5 123z" />
    <glyph glyph-name="Otilde" unicode="&#xd5;" horiz-adv-x="1000" 
d="M764 893q0 -25 -9 -49q-13 -38 -49.5 -70.5t-100.5 -32.5q-40 0 -80 10q-50 12 -76 17q-41 9 -48 9q-26 0 -36 -18q-1 -2 -3 -10h-128q6 42 18.5 69.5t40.5 50.5q42 33 111 33q34 0 82 -12q112 -25 116 -25q21 0 30 16q3 4 5 13zM969 356q0 -196 -156 -302
q-54 -37 -115 -54q-82 -24 -203 -24q-186 0 -298 67q-50 29 -89 76q-78 95 -78 228q0 203 153 306q112 77 304 79q63 0 95 -3q224 -18 323 -159q64 -95 64 -214zM709 354q0 61 -19.5 104.5t-44.5 65.5q-25 25 -68 40q-33 11 -75 11q-53 0 -91 -16q-60 -25 -90.5 -81.5
t-30.5 -124.5q0 -46 14 -86q15 -44 41.5 -73.5t58.5 -41.5t54.5 -16t44.5 -4q57 0 95 17q56 25 83.5 82t27.5 123z" />
    <glyph glyph-name="Odieresis" unicode="&#xd6;" horiz-adv-x="1000" 
d="M776 769h-207v125h207v-125zM430 769h-207v125h207v-125zM969 356q0 -196 -156 -302q-54 -37 -115 -54q-82 -24 -203 -24q-186 0 -298 67q-50 29 -89 76q-78 95 -78 228q0 203 153 306q112 77 304 79q63 0 95 -3q224 -18 323 -159q64 -95 64 -214zM709 354
q0 61 -19.5 104.5t-44.5 65.5q-25 25 -68 40q-33 11 -75 11q-53 0 -91 -16q-60 -25 -90.5 -81.5t-30.5 -124.5q0 -46 14 -86q15 -44 41.5 -73.5t58.5 -41.5t54.5 -16t44.5 -4q57 0 95 17q56 25 83.5 82t27.5 123z" />
    <glyph glyph-name="multiply" unicode="&#xd7;" horiz-adv-x="772" 
d="M679 179l-145 -143l-157 138l-143 -141l-128 113l143 140l-154 136l146 144l154 -136l140 138l128 -113l-141 -138z" />
    <glyph glyph-name="Oslash" unicode="&#xd8;" horiz-adv-x="1000" 
d="M968 358q0 -171 -124 -278q-58 -50 -137 -76q-82 -28 -202 -28q-151 0 -250 44q-24 10 -64 37l-125 -104l-41 48l115 98q-28 31 -33 37q-78 96 -78 227q0 132 86 231q37 40 76 65q117 74 308 74q148 0 244 -42q17 -7 63 -35l121 99l41 -51l-106 -90q24 -24 39 -44
q67 -88 67 -212zM648 524q-61 50 -150 50q-91 0 -145 -42q-73 -59 -73 -172q0 -53 15 -94q1 -4 13 -27zM719 353q0 52 -16 91q-6 14 -15 27l-340 -285q8 -7 21 -16q54 -37 130 -37q94 0 155 56q65 59 65 164z" />
    <glyph glyph-name="Ugrave" unicode="&#xd9;" horiz-adv-x="958" 
d="M600 758h-181l-139 138h267zM897 336q0 -53 -1 -75.5t-7 -64.5t-22.5 -72.5t-44.5 -56.5q-98 -92 -342 -92q-85 0 -147 8q-170 21 -235 120q-37 56 -37 150v453h252v-401q0 -46 8.5 -77t36.5 -56q44 -40 122 -40q76 0 119 37q19 17 30 42q16 34 16 98v397h252v-370z" />
    <glyph glyph-name="Uacute" unicode="&#xda;" horiz-adv-x="958" 
d="M676 896l-136 -138h-177l50 138h263zM897 336q0 -53 -1 -75.5t-7 -64.5t-22.5 -72.5t-44.5 -56.5q-98 -92 -342 -92q-85 0 -147 8q-170 21 -235 120q-37 56 -37 150v453h252v-401q0 -46 8.5 -77t36.5 -56q44 -40 122 -40q76 0 119 37q19 17 30 42q16 34 16 98v397h252
v-370z" />
    <glyph glyph-name="Ucircumflex" unicode="&#xdb;" horiz-adv-x="958" 
d="M729 773h-189l-61 83l-60 -83h-188l90 123h321zM897 336q0 -53 -1 -75.5t-7 -64.5t-22.5 -72.5t-44.5 -56.5q-98 -92 -342 -92q-85 0 -147 8q-170 21 -235 120q-37 56 -37 150v453h252v-401q0 -46 8.5 -77t36.5 -56q44 -40 122 -40q76 0 119 37q19 17 30 42q16 34 16 98
v397h252v-370z" />
    <glyph glyph-name="Udieresis" unicode="&#xdc;" horiz-adv-x="958" 
d="M756 771h-207v125h207v-125zM409 771h-206v125h206v-125zM897 336q0 -53 -1 -75.5t-7 -64.5t-22.5 -72.5t-44.5 -56.5q-98 -92 -342 -92q-85 0 -147 8q-170 21 -235 120q-37 56 -37 150v453h252v-401q0 -46 8.5 -77t36.5 -56q44 -40 122 -40q76 0 119 37q19 17 30 42
q16 34 16 98v397h252v-370z" />
    <glyph glyph-name="Yacute" unicode="&#xdd;" horiz-adv-x="875" 
d="M635 896l-136 -138h-178l50 138h264zM884 706l-320 -496v-210h-251v210l-324 496h295l154 -281l154 281h292z" />
    <glyph glyph-name="Thorn" unicode="&#xde;" 
d="M836 376q0 -107 -61 -166q-41 -40 -103.5 -55t-167.5 -15h-191v-140h-252v706h252v-109h232q47 0 76 -1.5t77 -14.5t75 -39q24 -22 41 -56q22 -47 22 -110zM584 368q0 69 -87 69h-184v-138h164q18 0 27.5 0.5t27.5 4t27 10t17 20.5t8 34z" />
    <glyph glyph-name="germandbls" unicode="&#xdf;" horiz-adv-x="771" 
d="M753 213q0 -57 -23 -107q-57 -121 -218 -120q-56 0 -161 21v128q38 -10 63 -10q73 1 88 65q5 20 5 41q0 62 -31 86q-26 19 -82 19h-42v108h24q15 0 30 4q48 10 48 63q0 49 -38 66q-16 8 -43 8q-35 0 -56 -16q-31 -24 -31 -106v-463h-237v450q0 43 1.5 67t11.5 57t30 59
q19 26 47 45q75 47 229 47q70 0 136 -10q72 -10 113 -39q48 -34 60 -96q3 -15 3 -36q0 -50 -24 -84q-12 -15 -23 -23q-30 -18 -39 -21q-12 -4 -31 -7q55 -5 83 -17q53 -22 80 -70.5t27 -108.5z" />
    <glyph glyph-name="agrave" unicode="&#xe0;" horiz-adv-x="792" 
d="M517 599h-181l-139 139h267zM769 0h-245q-7 29 -9 51q-149 -66 -263 -66q-119 0 -176 50t-57 120q0 52 27 89q19 27 49 42.5t49 20.5q84 25 367 31q0 28 -11 43q-25 32 -103 32q-90 0 -119 -30q-5 -5 -10 -18h-227q18 102 93 141q82 42 255 42q115 0 192 -15
q83 -18 116 -52q43 -43 43 -127v-277q0 -33 6.5 -47.5t22.5 -29.5zM514 243q-17 -1 -49 -2.5t-58.5 -3t-49.5 -3.5q-71 -6 -88 -27q-11 -11 -11 -29q0 -12 7 -23q19 -30 75 -30q57 0 110 29q27 16 39 30q17 19 25 59z" />
    <glyph glyph-name="aacute" unicode="&#xe1;" horiz-adv-x="792" 
d="M593 738l-136 -139h-177l49 139h264zM769 0h-245q-7 29 -9 51q-149 -66 -263 -66q-119 0 -176 50t-57 120q0 52 27 89q19 27 49 42.5t49 20.5q84 25 367 31q0 28 -11 43q-25 32 -103 32q-90 0 -119 -30q-5 -5 -10 -18h-227q18 102 93 141q82 42 255 42q115 0 192 -15
q83 -18 116 -52q43 -43 43 -127v-277q0 -33 6.5 -47.5t22.5 -29.5zM514 243q-17 -1 -49 -2.5t-58.5 -3t-49.5 -3.5q-71 -6 -88 -27q-11 -11 -11 -29q0 -12 7 -23q19 -30 75 -30q57 0 110 29q27 16 39 30q17 19 25 59z" />
    <glyph glyph-name="acircumflex" unicode="&#xe2;" horiz-adv-x="792" 
d="M645 614h-189l-60 83l-61 -83h-188l90 124h322zM769 0h-245q-7 29 -9 51q-149 -66 -263 -66q-119 0 -176 50t-57 120q0 52 27 89q19 27 49 42.5t49 20.5q84 25 367 31q0 28 -11 43q-25 32 -103 32q-90 0 -119 -30q-5 -5 -10 -18h-227q18 102 93 141q82 42 255 42
q115 0 192 -15q83 -18 116 -52q43 -43 43 -127v-277q0 -33 6.5 -47.5t22.5 -29.5zM514 243q-17 -1 -49 -2.5t-58.5 -3t-49.5 -3.5q-71 -6 -88 -27q-11 -11 -11 -29q0 -12 7 -23q19 -30 75 -30q57 0 110 29q27 16 39 30q17 19 25 59z" />
    <glyph glyph-name="atilde" unicode="&#xe3;" horiz-adv-x="792" 
d="M660 735q-5 -37 -9 -50q-13 -37 -49.5 -69.5t-100.5 -33.5q-14 0 -33 2.5t-32.5 5t-14.5 2.5q-50 12 -76 18q-37 8 -49 8q-26 0 -35 -18q-1 -2 -4 -10h-128q7 42 19 69.5t40 50.5q42 34 112 34q30 0 82 -13q1 0 31 -7.5t53.5 -12t31.5 -4.5q22 0 30 15q3 4 5 13h127z
M769 0h-245q-7 29 -9 51q-149 -66 -263 -66q-119 0 -176 50t-57 120q0 52 27 89q19 27 49 42.5t49 20.5q84 25 367 31q0 28 -11 43q-25 32 -103 32q-90 0 -119 -30q-5 -5 -10 -18h-227q18 102 93 141q82 42 255 42q115 0 192 -15q83 -18 116 -52q43 -43 43 -127v-277
q0 -33 6.5 -47.5t22.5 -29.5zM514 243q-17 -1 -49 -2.5t-58.5 -3t-49.5 -3.5q-71 -6 -88 -27q-11 -11 -11 -29q0 -12 7 -23q19 -30 75 -30q57 0 110 29q27 16 39 30q17 19 25 59z" />
    <glyph glyph-name="adieresis" unicode="&#xe4;" horiz-adv-x="792" 
d="M670 617h-206v124h206v-124zM325 617h-208v124h208v-124zM769 0h-245q-7 29 -9 51q-149 -66 -263 -66q-119 0 -176 50t-57 120q0 52 27 89q19 27 49 42.5t49 20.5q84 25 367 31q0 28 -11 43q-25 32 -103 32q-90 0 -119 -30q-5 -5 -10 -18h-227q18 102 93 141
q82 42 255 42q115 0 192 -15q83 -18 116 -52q43 -43 43 -127v-277q0 -33 6.5 -47.5t22.5 -29.5zM514 243q-17 -1 -49 -2.5t-58.5 -3t-49.5 -3.5q-71 -6 -88 -27q-11 -11 -11 -29q0 -12 7 -23q19 -30 75 -30q57 0 110 29q27 16 39 30q17 19 25 59z" />
    <glyph glyph-name="aring" unicode="&#xe5;" horiz-adv-x="792" 
d="M533 677q0 -29 -21 -54q-41 -53 -125 -51q-86 0 -124 59q-15 24 -15 52q0 19 9 37q13 27 46 48t87 21q46 0 80 -16q26 -13 43 -36q20 -28 20 -60zM769 0h-245q-7 29 -9 51q-149 -66 -263 -66q-119 0 -176 50t-57 120q0 52 27 89q19 27 49 42.5t49 20.5q84 25 367 31
q0 28 -11 43q-25 32 -103 32q-90 0 -119 -30q-5 -5 -10 -18h-227q18 102 93 141q82 42 255 42q115 0 192 -15q83 -18 116 -52q43 -43 43 -127v-277q0 -33 6.5 -47.5t22.5 -29.5zM455 681q0 25 -24.5 35.5t-51.5 8.5q-28 -1 -42 -15t-14 -30q0 -18 17.5 -31t49.5 -13
q31 0 48 13.5t17 31.5zM514 243q-17 -1 -49 -2.5t-58.5 -3t-49.5 -3.5q-71 -6 -88 -27q-11 -11 -11 -29q0 -12 7 -23q19 -30 75 -30q57 0 110 29q27 16 39 30q17 19 25 59z" />
    <glyph glyph-name="ae" unicode="&#xe6;" horiz-adv-x="1125" 
d="M1106 156q-18 -47 -56 -86q-38 -38 -99 -59t-93 -24t-61 -3q-140 0 -220 60q-13 10 -29 26l-17 17q-24 -24 -47 -40q-92 -63 -226 -63q-192 0 -231 118q-10 30 -10 61q0 91 89 132q30 14 77.5 21.5t72 8.5t80.5 3q124 3 125 3q-6 35 -13 47q-25 44 -95 44q-58 0 -81 -33
q-7 -9 -10 -21l-210 5q11 49 25 72q59 101 256 101q132 0 201 -42q14 -8 45 -35q87 81 220 81q23 0 45 -1.5t62.5 -12t72.5 -28.5t63 -55t46 -88q14 -47 14 -136h-425q8 -28 13 -37q31 -65 102 -65q50 0 81 31q2 2 18 26zM892 325l-2 5q-1 5 -3 11t-4 11q-27 59 -90 59
q-76 0 -109 -86h208zM466 233q-14 -1 -42.5 -1h-42.5q-20 0 -58 -2q-66 -2 -83 -33q-7 -13 -7 -28q0 -16 7 -26q16 -28 60 -28q38 0 78.5 23.5t65.5 55.5q13 16 22 39z" />
    <glyph glyph-name="ccedilla" unicode="&#xe7;" horiz-adv-x="812" 
d="M804 198q-11 -41 -33 -74q-92 -141 -341 -141l-19 -31q94 -28 96 -96q0 -48 -45 -81t-119 -33q-53 0 -119 25l22 55q46 -14 74 -14q27 0 46 9.5t19 26.5q0 28 -38 28q-18 0 -39 -12l-33 36l75 90q-224 20 -296 157q-30 55 -30 121q0 93 59 164q102 126 347 126
q49 0 96.5 -7.5t103 -27t99 -61t62.5 -101.5l-233 -21q-9 31 -45 53.5t-86 22.5q-67 0 -109.5 -39t-42.5 -106q0 -68 45 -106.5t111 -38.5q74 0 114 43q15 15 25 41z" />
    <glyph glyph-name="egrave" unicode="&#xe8;" horiz-adv-x="812" 
d="M527 599h-181l-139 139h267zM796 232h-526q3 -16 11 -34q15 -33 46 -52t51.5 -23t38.5 -4q58 0 97 29q10 7 22 19l246 -12q-26 -52 -76 -90q-18 -16 -51 -32q-100 -48 -249 -48q-227 0 -325 120q-55 67 -55 163q0 92 53 159q23 28 54 50q99 69 275 68q215 0 313 -103
q47 -50 64 -113q9 -33 11 -97zM548 324q-31 85 -135 85q-75 0 -113 -45q-11 -14 -22 -40h270z" />
    <glyph glyph-name="eacute" unicode="&#xe9;" horiz-adv-x="812" 
d="M603 738l-136 -139h-177l50 139h263zM796 232h-526q3 -16 11 -34q15 -33 46 -52t51.5 -23t38.5 -4q58 0 97 29q10 7 22 19l246 -12q-26 -52 -76 -90q-18 -16 -51 -32q-100 -48 -249 -48q-227 0 -325 120q-55 67 -55 163q0 92 53 159q23 28 54 50q99 69 275 68
q215 0 313 -103q47 -50 64 -113q9 -33 11 -97zM548 324q-31 85 -135 85q-75 0 -113 -45q-11 -14 -22 -40h270z" />
    <glyph glyph-name="ecircumflex" unicode="&#xea;" horiz-adv-x="812" 
d="M656 614h-189l-61 83l-60 -83h-188l90 124h321zM796 232h-526q3 -16 11 -34q15 -33 46 -52t51.5 -23t38.5 -4q58 0 97 29q10 7 22 19l246 -12q-26 -52 -76 -90q-18 -16 -51 -32q-100 -48 -249 -48q-227 0 -325 120q-55 67 -55 163q0 92 53 159q23 28 54 50q99 69 275 68
q215 0 313 -103q47 -50 64 -113q9 -33 11 -97zM548 324q-31 85 -135 85q-75 0 -113 -45q-11 -14 -22 -40h270z" />
    <glyph glyph-name="edieresis" unicode="&#xeb;" horiz-adv-x="812" 
d="M683 614h-207v124h207v-124zM337 614h-207v124h207v-124zM796 232h-526q3 -16 11 -34q15 -33 46 -52t51.5 -23t38.5 -4q58 0 97 29q10 7 22 19l246 -12q-26 -52 -76 -90q-18 -16 -51 -32q-100 -48 -249 -48q-227 0 -325 120q-55 67 -55 163q0 92 53 159q23 28 54 50
q99 69 275 68q215 0 313 -103q47 -50 64 -113q9 -33 11 -97zM548 324q-31 85 -135 85q-75 0 -113 -45q-11 -14 -22 -40h270z" />
    <glyph glyph-name="igrave" unicode="&#xec;" horiz-adv-x="333" 
d="M288 599h-181l-140 139h267zM283 0h-234v530h234v-530z" />
    <glyph glyph-name="iacute" unicode="&#xed;" horiz-adv-x="333" 
d="M364 738l-136 -139h-178l50 139h264zM283 0h-234v530h234v-530z" />
    <glyph glyph-name="icircumflex" unicode="&#xee;" horiz-adv-x="333" 
d="M416 614h-189l-60 83l-61 -83h-188l90 124h321zM283 0h-234v530h234v-530z" />
    <glyph glyph-name="idieresis" unicode="&#xef;" horiz-adv-x="333" 
d="M444 614h-207v124h207v-124zM97 614h-207v124h207v-124zM283 0h-234v530h234v-530z" />
    <glyph glyph-name="eth" unicode="&#xf0;" 
d="M810 293q0 -141 -108 -228q-37 -30 -90 -51q-77 -28 -193 -28q-191 0 -292 76t-102 201q0 74 34.5 131.5t89.5 88.5t113.5 46.5t115.5 15.5q79 0 147 -32q-25 39 -73 87l-205 -25l-24 62l164 20q-11 9 -29.5 24t-29.5 24l214 25q28 -22 55 -47l125 16l29 -63l-94 -11
q153 -164 153 -332zM566 266q0 68 -42.5 103.5t-108.5 35.5q-41 0 -69 -12q-77 -34 -77 -124q0 -70 42.5 -105t110.5 -35q62 0 103 37.5t41 99.5z" />
    <glyph glyph-name="ntilde" unicode="&#xf1;" horiz-adv-x="812" 
d="M670 735q0 -23 -9 -50q-13 -37 -49.5 -69.5t-100.5 -33.5q-13 0 -32 2.5t-33 5t-15 2.5l-75 18q-32 8 -49 8q-27 0 -36 -18q-3 -8 -3 -10h-128q11 82 59 120q40 34 111 34q24 0 83 -13q1 0 31 -7.5t53 -12t31 -4.5q21 0 31 15q1 3 4 13h127zM766 0h-237v262q0 31 -8 53
q-25 74 -112 74q-54 0 -81 -27.5t-36 -60.5q-5 -17 -5 -45v-256h-238v530h238v-67q28 20 42 28q84 49 188 49q100 0 161 -36q29 -19 40 -31q22 -23 33 -52q15 -39 15 -143v-278z" />
    <glyph glyph-name="ograve" unicode="&#xf2;" 
d="M538 599h-181l-140 139h267zM809 266q0 -162 -161 -237q-98 -43 -231 -43q-169 0 -273 65q-41 26 -65 56q-54 64 -54 158q0 136 112 210q100 66 263 69q89 0 159 -14q124 -24 192 -103q58 -66 58 -161zM565 268q0 43 -17 72q-41 70 -141 65q-33 -2 -56 -10
q-40 -15 -61 -49t-21 -78q0 -58 32 -93q41 -46 121 -46q42 0 78.5 20t53.5 56q11 26 11 63z" />
    <glyph glyph-name="oacute" unicode="&#xf3;" 
d="M614 738l-136 -139h-178l50 139h264zM809 266q0 -162 -161 -237q-98 -43 -231 -43q-169 0 -273 65q-41 26 -65 56q-54 64 -54 158q0 136 112 210q100 66 263 69q89 0 159 -14q124 -24 192 -103q58 -66 58 -161zM565 268q0 43 -17 72q-41 70 -141 65q-33 -2 -56 -10
q-40 -15 -61 -49t-21 -78q0 -58 32 -93q41 -46 121 -46q42 0 78.5 20t53.5 56q11 26 11 63z" />
    <glyph glyph-name="ocircumflex" unicode="&#xf4;" 
d="M666 614h-189l-60 83l-61 -83h-188l90 124h321zM809 266q0 -162 -161 -237q-98 -43 -231 -43q-169 0 -273 65q-41 26 -65 56q-54 64 -54 158q0 136 112 210q100 66 263 69q89 0 159 -14q124 -24 192 -103q58 -66 58 -161zM565 268q0 43 -17 72q-41 70 -141 65
q-33 -2 -56 -10q-40 -15 -61 -49t-21 -78q0 -58 32 -93q41 -46 121 -46q42 0 78.5 20t53.5 56q11 26 11 63z" />
    <glyph glyph-name="otilde" unicode="&#xf5;" 
d="M681 735q-5 -37 -9 -50q-13 -37 -50 -69.5t-101 -33.5q-13 0 -32 2.5t-32.5 5t-14.5 2.5q-12 3 -37.5 9t-38.5 9q-37 8 -49 8q-26 0 -35 -18q-3 -5 -4 -10h-128q7 42 19 69.5t40 50.5q43 34 112 34q30 0 82 -13q1 0 31 -7.5t53 -12t31 -4.5q23 0 31 15q3 7 5 13h127z
M809 266q0 -162 -161 -237q-98 -43 -231 -43q-169 0 -273 65q-41 26 -65 56q-54 64 -54 158q0 136 112 210q100 66 263 69q89 0 159 -14q124 -24 192 -103q58 -66 58 -161zM565 268q0 43 -17 72q-41 70 -141 65q-33 -2 -56 -10q-40 -15 -61 -49t-21 -78q0 -58 32 -93
q41 -46 121 -46q42 0 78.5 20t53.5 56q11 26 11 63z" />
    <glyph glyph-name="odieresis" unicode="&#xf6;" 
d="M692 613h-207v125h207v-125zM345 613h-207v125h207v-125zM809 266q0 -162 -161 -237q-98 -43 -231 -43q-169 0 -273 65q-41 26 -65 56q-54 64 -54 158q0 136 112 210q100 66 263 69q89 0 159 -14q124 -24 192 -103q58 -66 58 -161zM565 268q0 43 -17 72q-41 70 -141 65
q-33 -2 -56 -10q-40 -15 -61 -49t-21 -78q0 -58 32 -93q41 -46 121 -46q42 0 78.5 20t53.5 56q11 26 11 63z" />
    <glyph glyph-name="divide" unicode="&#xf7;" horiz-adv-x="772" 
d="M477 430h-184v179h184v-179zM686 222h-600v164h600v-164zM478 -1h-185v179h185v-179z" />
    <glyph glyph-name="oslash" unicode="&#xf8;" 
d="M807 269q0 -129 -96 -200q-103 -80 -291 -80q-134 0 -214 30q-19 7 -61 30l-79 -53l-30 44l63 45q-15 13 -27 30q-47 62 -47 152q0 106 71 177q102 102 317 102q123 0 212 -33q29 -10 59 -27l79 54l31 -44l-64 -45q77 -80 77 -182zM523 376q-15 10 -19 12q-32 17 -89 17
q-32 0 -55 -5q-15 -3 -30 -10t-33 -21t-29 -39.5t-11 -58.5t17 -67zM576 267q0 28 -16 66l-252 -172q14 -10 24 -15q35 -17 86 -17q63 0 107 31q51 36 51 107z" />
    <glyph glyph-name="ugrave" unicode="&#xf9;" horiz-adv-x="812" 
d="M527 599h-181l-139 139h267zM764 0h-229l-1 72q-25 -22 -40 -32q-80 -52 -195 -52q-154 0 -216 95q-20 34 -27 65q-6 25 -6 60v322h237v-264q0 -37 5 -53q21 -70 112 -70q62 0 95 37q29 32 29 101v249h236v-530z" />
    <glyph glyph-name="uacute" unicode="&#xfa;" horiz-adv-x="812" 
d="M603 738l-136 -139h-177l50 139h263zM764 0h-229l-1 72q-25 -22 -40 -32q-80 -52 -195 -52q-154 0 -216 95q-20 34 -27 65q-6 25 -6 60v322h237v-264q0 -37 5 -53q21 -70 112 -70q62 0 95 37q29 32 29 101v249h236v-530z" />
    <glyph glyph-name="ucircumflex" unicode="&#xfb;" horiz-adv-x="812" 
d="M656 614h-189l-61 83l-60 -83h-188l90 124h321zM764 0h-229l-1 72q-25 -22 -40 -32q-80 -52 -195 -52q-154 0 -216 95q-20 34 -27 65q-6 25 -6 60v322h237v-264q0 -37 5 -53q21 -70 112 -70q62 0 95 37q29 32 29 101v249h236v-530z" />
    <glyph glyph-name="udieresis" unicode="&#xfc;" horiz-adv-x="812" 
d="M683 614h-207v124h207v-124zM337 614h-207v124h207v-124zM764 0h-229l-1 72q-25 -22 -40 -32q-80 -52 -195 -52q-154 0 -216 95q-20 34 -27 65q-6 25 -6 60v322h237v-264q0 -37 5 -53q21 -70 112 -70q62 0 95 37q29 32 29 101v249h236v-530z" />
    <glyph glyph-name="yacute" unicode="&#xfd;" horiz-adv-x="708" 
d="M551 738l-136 -139h-177l50 139h263zM713 530l-251 -550q-25 -54 -46 -81q-23 -30 -47.5 -48t-54.5 -25t-48.5 -8.5t-53.5 -1.5h-13h-124v150h109q48 0 48 31q0 13 -10 33l-226 500h258l100 -313l100 313h259z" />
    <glyph glyph-name="thorn" unicode="&#xfe;" horiz-adv-x="792" 
d="M766 263q1 -130 -83 -206.5t-211 -75.5q-54 1 -98 14.5t-92 48.5v-229h-234v891h234v-229q21 17 45 32q59 34 147 34q82 0 152 -36q138 -71 140 -244zM527 265q0 51 -32.5 84.5t-84.5 33.5q-36 0 -62 -12q-66 -30 -66 -106q0 -54 35.5 -87t88.5 -33q54 0 87.5 33t33.5 87
z" />
    <glyph glyph-name="ydieresis" unicode="&#xff;" horiz-adv-x="708" 
d="M631 614h-207v124h207v-124zM285 614h-207v124h207v-124zM713 530l-251 -550q-25 -54 -46 -81q-23 -30 -47.5 -48t-54.5 -25t-48.5 -8.5t-53.5 -1.5h-13h-124v150h109q48 0 48 31q0 13 -10 33l-226 500h258l100 -313l100 313h259z" />
    <glyph glyph-name="OE" unicode="&#x152;" horiz-adv-x="1125" 
d="M1105 0h-564v31q-24 -12 -36 -17q-81 -31 -157 -31q-139 0 -227 98q-92 99 -92 267q0 192 131 303q92 74 211 74q73 0 141 -30q11 -5 33 -17v28h553v-158h-325v-116h286v-159h-288v-113h334v-160zM542 191v324q-13 15 -33 26q-40 25 -91 25q-45 0 -80 -19
q-40 -21 -71 -71.5t-31 -130.5q0 -123 78 -178q42 -29 92 -29q64 0 107 28q16 11 29 25z" />
    <glyph glyph-name="oe" unicode="&#x153;" horiz-adv-x="1125" 
d="M1101 234h-427q4 -24 8 -34q5 -14 14.5 -28.5t33.5 -31t55 -16.5q53 0 85 42q6 9 11 21l213 -27q-11 -31 -21 -48q-35 -63 -112 -98q-75 -32 -165 -32q-105 0 -176 39q-20 11 -53 40q-15 -15 -39 -31q-79 -49 -188 -49q-143 0 -233 81q-37 33 -58 79q-24 51 -24 117
q0 113 65 188q29 33 68 55t78 30.5t62 11t44 2.5q110 0 184 -45q12 -8 44 -33q27 22 49.5 36.5t70.5 29t105 14.5q62 0 115.5 -16t98.5 -54t68 -95q24 -62 24 -148zM884 327q0 1 -4.5 14t-6.5 17q-29 54 -89 54q-62 0 -95 -62q-1 -2 -9 -23h204zM461 274q0 27 -7 50
q-3 12 -9.5 24t-18.5 26.5t-32.5 23t-47.5 8.5q-55 -1 -84 -47q-22 -34 -22 -93q0 -76 43 -113q28 -23 67 -23q33 0 56 15q55 35 55 129z" />
    <glyph glyph-name="Scaron" unicode="&#x160;" horiz-adv-x="812" 
d="M667 896l-90 -123h-321l-87 123h189l61 -83l60 83h188zM784 229q0 -74 -45 -133q-91 -117 -360 -117q-309 0 -360 184q-6 19 -9 48l249 7q18 -81 156 -81q77 0 107 32q16 17 16 39q0 20 -14 33.5t-26 17.5t-33 9q-12 3 -95 18t-146.5 32.5t-95.5 38.5q-35 23 -57 58
q-26 43 -26 94q0 64 38 114q81 113 318 113q144 0 222 -28q85 -29 125 -100q19 -35 24 -78l-247 -14q-7 21 -13 29q-27 37 -112 37q-14 0 -28.5 -1.5t-35.5 -6.5t-34 -17.5t-13 -31.5q0 -17 10.5 -28t24 -16.5t41.5 -13.5q46 -13 131.5 -29t136.5 -31q151 -45 151 -178z" />
    <glyph glyph-name="scaron" unicode="&#x161;" horiz-adv-x="729" 
d="M615 737l-90 -123h-321l-87 123h189l61 -82l60 82h188zM707 175q0 -59 -48 -106q-89 -86 -289 -86q-113 0 -201 23q-82 21 -118 60q-32 34 -37 95l238 11q5 -18 13 -28q31 -35 109 -35q55 0 78 18q15 11 15 29q0 15 -13 23q-8 5 -27 10t-37 7.5t-52 7.5t-55 9
q-61 10 -106 23q-79 21 -108 53q-30 32 -30 87q0 87 97 134q83 38 234 38q216 0 296 -97q19 -23 30 -47q4 -10 10 -33l-234 -10q-2 9 -6 16q-25 43 -111 42q-38 0 -61 -11.5t-23 -31.5q0 -12 10 -20q19 -16 139 -29q78 -10 116 -16q86 -17 111 -31q60 -34 60 -105z" />
    <glyph glyph-name="Ydieresis" unicode="&#x178;" horiz-adv-x="875" 
d="M714 773h-206v123h206v-123zM368 773h-207v123h207v-123zM884 706l-320 -496v-210h-251v210l-324 496h295l154 -281l154 281h292z" />
    <glyph glyph-name="florin" unicode="&#x192;" horiz-adv-x="437" 
d="M450 689l-15 -128q-44 4 -45 4q-57 0 -61 -51l-2 -27h100l-16 -135h-91l-40 -352q-10 -95 -17 -115q-17 -54 -58 -74t-122 -20h-157l14 128q33 -3 46 -3q12 0 21.5 2.5t15.5 5t11 11t7 11t4 15.5t2 15t2 17l40 358h-80l15 136h80l9 70q3 23 8 39t17.5 37t38.5 34.5
t64 18.5q26 3 60 3h149z" />
    <glyph glyph-name="circumflex" unicode="&#x2c6;" horiz-adv-x="375" 
d="M437 614h-190l-60 83l-61 -83h-188l90 124h321z" />
    <glyph glyph-name="tilde" unicode="&#x2dc;" horiz-adv-x="375" 
d="M453 735q0 -23 -9 -50q-13 -37 -49.5 -69.5t-100.5 -33.5q-13 0 -32 2.5t-33 5t-15 2.5q-50 12 -76 18q-37 8 -48 8q-27 0 -36 -18q-3 -4 -3 -10h-129q11 81 59 120q42 34 111 34q31 0 83 -13q1 0 30.5 -7.5t53 -12t31.5 -4.5q23 0 31 15q4 5 4 13h128z" />
    <glyph glyph-name="endash" unicode="&#x2013;" horiz-adv-x="682" 
d="M653 228h-624v175h624v-175z" />
    <glyph glyph-name="emdash" unicode="&#x2014;" horiz-adv-x="1016" 
d="M986 228h-957v175h957v-175z" />
    <glyph glyph-name="quoteleft" unicode="&#x2018;" horiz-adv-x="313" 
d="M270 343h-228v198q0 50 18.5 85t52.5 52.5t71 25t86 8.5v-81q-31 -5 -36 -7q-32 -12 -43.5 -34.5t-12.5 -59.5h92v-187z" />
    <glyph glyph-name="quoteright" unicode="&#x2019;" horiz-adv-x="313" 
d="M271 547q0 -57 -13 -89q-22 -59 -80.5 -88t-128.5 -29h-8v84q48 4 67.5 26.5t23.5 73.5h-90v181h229v-159z" />
    <glyph glyph-name="quotesinglbase" unicode="&#x201a;" horiz-adv-x="313" 
d="M271 15q0 -94 -62.5 -147t-158.5 -53h-10v82q48 5 66.5 28.5t24.5 74.5h-91v184h231v-169z" />
    <glyph glyph-name="quotedblleft" unicode="&#x201c;" horiz-adv-x="625" 
d="M583 348h-228v175q0 185 227 192v-81q-47 -8 -66.5 -31t-22.5 -71h90v-184zM271 348h-228v179q0 55 13 88q39 97 214 101v-82q-48 -8 -67.5 -30.5t-24.5 -71.5h93v-184z" />
    <glyph glyph-name="quotedblright" unicode="&#x201d;" horiz-adv-x="625" 
d="M582 527q0 -55 -13 -88q-39 -96 -214 -100v82q48 7 67.5 29.5t23.5 71.5h-93v184h229v-179zM270 542q0 -108 -58.5 -153.5t-169.5 -48.5v81q48 7 67.5 30t21.5 71h-89v184h228v-164z" />
    <glyph glyph-name="quotedblbase" unicode="&#x201e;" horiz-adv-x="625" 
d="M582 5q0 -55 -13 -88q-39 -96 -214 -100v81q48 8 67.5 30.5t23.5 71.5h-93v184h229v-179zM270 19q0 -108 -58.5 -153t-169.5 -48v81q48 7 67.5 30t21.5 71h-89v184h228v-165z" />
    <glyph glyph-name="dagger" unicode="&#x2020;" horiz-adv-x="729" 
d="M691 353h-207v-478h-241v478h-205v185h206v168h240v-169h207v-184z" />
    <glyph glyph-name="daggerdbl" unicode="&#x2021;" horiz-adv-x="750" 
d="M699 28h-205v-153h-237v152h-207v181h207v184h-208v182h207v132h237v-132h206v-181h-206v-183h206v-182z" />
    <glyph glyph-name="bullet" unicode="&#x2022;" horiz-adv-x="333" 
d="M309 215h-285v263h285v-263z" />
    <glyph glyph-name="ellipsis" unicode="&#x2026;" horiz-adv-x="1000" 
d="M901 0h-136v145h136v-145zM569 0h-135v145h135v-145zM234 0h-135v145h135v-145z" />
    <glyph glyph-name="perthousand" unicode="&#x2030;" horiz-adv-x="1813" 
d="M1792 222q0 -123 -78 -183q-64 -51 -193 -51q-185 0 -233 134q-16 45 -16 96q0 110 65 171q69 63 184 63q65 0 102 -9q27 -7 51.5 -19t53.5 -36t46.5 -67t17.5 -99zM1229 222q0 -123 -78 -183q-64 -51 -193 -51q-185 0 -233 134q-16 45 -16 96q0 110 65 171q69 63 184 63
q65 0 102 -9q27 -7 51.5 -19t53.5 -36t46.5 -67t17.5 -99zM916 676l-494 -706l-88 62l495 704zM541 487q0 -123 -78 -183q-64 -51 -193 -51q-185 0 -233 134q-16 45 -16 96q0 110 65 171q69 63 184 63q65 0 102 -9q27 -7 51.5 -19t53.5 -36t46.5 -67t17.5 -99zM1623 216
q0 83 -41 110q-22 14 -53 14q-28 -1 -41 -9q-49 -25 -49 -115q0 -76 36 -105q20 -16 54 -16q37 0 58 19q36 29 36 102zM1060 216q0 83 -41 110q-22 14 -53 14q-28 -1 -41 -9q-49 -25 -49 -115q0 -76 36 -105q20 -16 54 -16q37 0 58 19q36 29 36 102zM373 481q0 84 -42 110
q-20 14 -52 14q-28 -1 -41 -9q-50 -25 -50 -115q0 -75 37 -105q20 -16 53 -16q36 0 59 19q36 29 36 102z" />
    <glyph glyph-name="guilsinglleft" unicode="&#x2039;" horiz-adv-x="271" 
d="M242 372l-93 -61l92 -64v-183l-206 133v226l207 133v-184z" />
    <glyph glyph-name="guilsinglright" unicode="&#x203a;" horiz-adv-x="271" 
d="M237 195l-207 -132v182l92 65l-91 63v183l206 -134v-227z" />
    <glyph glyph-name="Euro" unicode="&#x20ac;" horiz-adv-x="842" 
d="M822 620l-88 -166q-71 83 -192 83q-157 0 -199 -122h375l-34 -67h-351q-2 -20 -2 -22v-16h338l-34 -67h-291q26 -60 74 -88t125 -28q144 0 246 90l-1 -189q-113 -52 -282 -52q-117 0 -194 24.5t-136 82.5q-69 67 -85 160h-83l36 67h38v15q0 3 2 23h-62l34 67h37
q60 273 447 273q180 0 282 -68z" />
    <glyph glyph-name="trademark" unicode="&#x2122;" horiz-adv-x="752" 
d="M714 374h-99l3 230l-61 -230h-84l-57 229l2 -229h-101v332h149l49 -213l50 213h149v-332zM289 633h-85v-259h-107v259h-88v73h280v-73z" />
    </font>
</defs>
</svg>
