<?xml version="1.0" standalone="no"?>
<!DOCTYPE svg PUBLIC "-//W3C//DTD SVG 1.1//EN" "http://www.w3.org/Graphics/SVG/1.1/DTD/svg11.dtd" >
<svg xmlns="http://www.w3.org/2000/svg" xmlns:xlink="http://www.w3.org/1999/xlink" version="1.1">
<metadata>
Created by FontForge 20170731 at Thu May 17 19:59:58 2007
 By Aleksey,,,
Copyright  2001, Berthold LLC. All rights reserved. Akzidenz-Grotesk is a trademark of Berthold Types Limited. 
</metadata>
<defs>
<font id="AkzidenzGroteskBQ-BdCndIt" horiz-adv-x="396" >
  <font-face 
    font-family="Akzidenz-Grotesk BQ Condensed"
    font-weight="700"
    font-style="italic"
    font-stretch="condensed"
    units-per-em="1000"
    panose-1="0 0 0 0 0 0 0 0 0 0"
    ascent="800"
    descent="-200"
    x-height="508"
    cap-height="706"
    bbox="-111 -221 1010 919"
    underline-thickness="92"
    underline-position="-452"
    slope="-13"
    unicode-range="U+0020-2122"
  />
<missing-glyph horiz-adv-x="500" 
 />
    <glyph glyph-name=".notdef" horiz-adv-x="500" 
 />
    <glyph glyph-name=".null" horiz-adv-x="0" 
 />
    <glyph glyph-name="nonmarkingreturn" horiz-adv-x="333" 
 />
    <glyph glyph-name="space" unicode=" " horiz-adv-x="229" 
 />
    <glyph glyph-name="exclam" unicode="!" horiz-adv-x="229" 
d="M293 706l-72 -313l-66 -203h-78l30 197l73 319h113zM164 132l-31 -132h-119l31 132h119z" />
    <glyph glyph-name="quotedbl" unicode="&#x22;" horiz-adv-x="306" 
d="M407 740l-109 -288h-25l26 288h108zM245 740l-109 -288h-25l27 288h107z" />
    <glyph glyph-name="numbersign" unicode="#" horiz-adv-x="583" 
d="M618 494l-21 -85h-121l-32 -99h117l-21 -85h-122l-72 -225h-92l71 225h-82l-71 -225h-94l72 225h-118l21 85h124l33 99h-121l20 85h127l68 212h92l-67 -212h82l67 212h91l-66 -212h115zM383 409h-82l-31 -99h82z" />
    <glyph glyph-name="dollar" unicode="$" horiz-adv-x="417" 
d="M452 594q0 -23 -7 -53l-14 -60h-112l16 66q4 15 4 31q0 36 -44 36q-30 0 -45 -19q-11 -14 -19.5 -37t-8.5 -39q0 -26 17 -49l97 -131q19 -26 29 -51q14 -35 14 -71q0 -31 -9 -70q-14 -56 -43 -92q-47 -60 -128 -60h-11l-21 -94h-51l21 94q-55 6 -85 35.5t-30 79.5
q0 21 10 68l13 57h111l-16 -66q-6 -23 -6 -37q0 -19 14 -30.5t37 -11.5q34 0 51 22q14 19 22 56q6 23 6 38q0 34 -28 72l-74 98q-31 42 -42 67q-12 31 -12 63q0 44 20 89.5t51 71.5q42 36 112 36h10l18 81h51l-18 -81q100 -13 100 -109z" />
    <glyph glyph-name="percent" unicode="%" horiz-adv-x="708" 
d="M716 370q0 -30 -7 -58l-46 -199q-15 -64 -44 -89q-32 -29 -87 -29q-112 0 -112 85q0 18 7 52l46 200q14 63 43 89q34 28 88 28q53 0 82.5 -21t29.5 -58zM626 693l-423 -738l-59 22l424 739zM349 592q0 -30 -7 -58l-46 -199q-15 -64 -43 -89q-34 -29 -88 -29
q-112 0 -112 85q0 20 8 52l46 200q15 65 43 89q32 28 87 28q53 0 82.5 -21t29.5 -58zM636 358q0 29 -36 29q-20 0 -29.5 -10.5t-16.5 -39.5l-50 -224q-4 -22 -4 -26q0 -30 36 -30q19 0 28.5 11t16.5 40l51 223q4 15 4 27zM269 580q0 29 -36 29q-20 0 -29 -10.5t-16 -39.5
l-51 -224q-4 -20 -4 -26q0 -29 36 -29q20 0 29.5 10.5t16.5 39.5l50 224q4 20 4 26z" />
    <glyph glyph-name="ampersand" unicode="&#x26;" horiz-adv-x="521" 
d="M516 320q-20 -77 -53 -136q-23 -42 -56 -76q18 -23 62 -23h7l-20 -85q-32 -6 -54 -6q-35 0 -55 10q-11 6 -31 24q-72 -39 -144 -39q-74 0 -118.5 46.5t-44.5 122.5q0 67 42 122q20 25 40 45q33 32 80 67l17 13l-6 27q-11 52 -11 95q0 90 43.5 140.5t120.5 50.5
q60 0 95 -31t35 -86q0 -41 -28 -85q-16 -25 -31.5 -42.5t-58.5 -55.5q-11 -9 -31 -28l5 -22q7 -30 20 -73q15 -53 27 -88q17 29 25 49q9 21 20 64h103zM360 597q0 13 -8 21.5t-22 8.5q-20 0 -32.5 -20.5t-12.5 -56.5q0 -18 7 -54q68 64 68 101zM277 117q-16 41 -29 87
q-16 53 -29 101q-39 -36 -52 -52q-36 -42 -36 -86q0 -35 19.5 -54t55.5 -19q37 0 71 23z" />
    <glyph glyph-name="quotesingle" unicode="'" horiz-adv-x="144" 
d="M245 740l-109 -288h-25l27 288h107z" />
    <glyph glyph-name="parenleft" unicode="(" horiz-adv-x="292" 
d="M403 775l-21 -93l-14 -6q-39 -16 -61 -37q-25 -22 -40 -53.5t-28 -90.5l-89 -385q-7 -32 -7 -59q0 -28 8 -53q5 -16 16 -37q8 -17 36 -54l-20 -88q-42 29 -69 53q-27 26 -44 49q-46 61 -46 123q0 37 13 93l91 390q23 102 74 151q38 36 101 64q13 6 81 27z" />
    <glyph glyph-name="parenright" unicode=")" horiz-adv-x="292" 
d="M306 550q0 -38 -13 -93l-90 -390q-23 -99 -75 -151q-36 -36 -101 -64q-36 -17 -80 -28l-19 -5l21 93l13 5q36 13 62 38q24 22 39 53.5t28 89.5l89 385q8 32 8 60q0 25 -9 53q-7 22 -15 37q-6 13 -37 54l21 88q49 -36 68 -54q18 -16 44 -49q46 -60 46 -122z" />
    <glyph glyph-name="asterisk" unicode="*" horiz-adv-x="378" 
d="M434 520l-103 -10l38 -91l-78 -35l-42 96l-77 -67l-55 67l74 64l-86 51l43 74l89 -51l25 100l84 -21l-25 -101l105 9z" />
    <glyph glyph-name="plus" unicode="+" horiz-adv-x="558" 
d="M508 348l-24 -101h-138l-36 -157h-115l36 157h-141l23 101h141l36 157h115l-36 -157h139z" />
    <glyph glyph-name="comma" unicode="," horiz-adv-x="187" 
d="M133 129l-30 -129l-114 -135h-44l99 135h-58l30 129h117z" />
    <glyph glyph-name="hyphen" unicode="-" horiz-adv-x="314" 
d="M309 341l-23 -99h-249l23 99h249z" />
    <glyph glyph-name="period" unicode="." horiz-adv-x="187" 
d="M133 129l-30 -129h-117l30 129h117z" />
    <glyph glyph-name="slash" unicode="/" horiz-adv-x="250" 
d="M353 706l-292 -706h-99l293 706h98z" />
    <glyph glyph-name="zero" unicode="0" 
d="M439 551q0 -28 -9 -69l-70 -302q-20 -88 -50 -129q-46 -61 -145 -61q-72 0 -112.5 30.5t-40.5 84.5q0 25 9 67l80 345q36 156 188 156q71 0 110.5 -32t39.5 -90zM327 544q0 19 -13 30t-36 11q-26 0 -38.5 -15t-22.5 -56l-82 -352q-7 -29 -7 -46t12.5 -27.5t33.5 -10.5
q26 0 40.5 16t23.5 54l82 354q7 33 7 42z" />
    <glyph glyph-name="one" unicode="1" 
d="M377 665l-154 -665h-117l117 507l-10 -6q-39 -23 -99 -32l23 92q38 9 67 24q43 23 95 80h78z" />
    <glyph glyph-name="two" unicode="2" 
d="M439 557q0 -25 -5 -44l-17 -71q-10 -44 -28 -70q-13 -22 -35 -42q-31 -30 -140 -117q-36 -29 -58 -54q-20 -23 -32 -59h221l-23 -100h-350q10 43 17 67q22 68 57 119q31 43 80 83q32 28 52 44l45 36q30 23 35 28q6 5 15 15q9 9 12 13q13 17 19 46l14 59q5 18 5 33
q0 19 -12.5 30t-34.5 11q-25 0 -39.5 -14.5t-21.5 -48.5l-18 -79h-109l19 81q19 80 60.5 116t115.5 36q73 0 114.5 -31.5t41.5 -86.5z" />
    <glyph glyph-name="three" unicode="3" 
d="M433 564q0 -15 -6 -45l-10 -44q-1 -7 -7 -27q-11 -39 -33 -59q-27 -25 -82 -30q72 -17 72 -84q0 -31 -8 -65l-15 -68q-11 -50 -28 -79q-41 -72 -160 -72q-156 0 -156 110q0 18 8 52l13 56h115l-12 -53q-5 -25 -5 -35q0 -41 47 -41q20 0 32 8q21 14 32 62l14 57q8 31 8 56
q0 28 -16 40.5t-54 12.5h-24l18 78h24q44 0 71 21q19 15 30 61l11 45q3 13 3 25q0 39 -44 39q-27 0 -40 -14.5t-22 -53.5l-12 -51h-110l11 48q2 10 4.5 18.5t4 14t1.5 6.5q11 44 31 70q42 51 145 51q149 0 149 -110z" />
    <glyph glyph-name="four" unicode="4" 
d="M434 668l-103 -449h43l-21 -93h-44l-29 -126h-107l29 126h-199l21 93l272 449h138zM312 561l-190 -342h102z" />
    <glyph glyph-name="five" unicode="5" 
d="M456 665l-23 -100h-216l-34 -136q43 36 101 36q50 0 79 -26t29 -70q0 -28 -11 -73l-26 -110q-9 -42 -12 -50q-12 -52 -33 -83q-40 -62 -151 -62q-158 0 -158 105q0 20 5 45l15 66h115l-12 -50q-6 -28 -6 -37q0 -38 47 -38q23 0 37 11q12 9 17.5 23.5t15.5 57.5l26 117
q8 37 8 44q0 41 -45 41q-52 0 -75 -67h-92l89 356h310z" />
    <glyph glyph-name="six" unicode="6" 
d="M441 565q0 -21 -5 -41l-8 -34h-110l9 36q2 7 2 21q0 39 -46 39q-24 0 -40 -14t-28 -68l-26 -114q43 42 102 42q47 0 74.5 -26t27.5 -71q0 -21 -13 -77l-23 -101q-18 -79 -48 -113q-44 -51 -136 -51q-75 0 -116.5 31t-41.5 88q0 19 5 42l78 337q8 35 15 61q12 46 37 73
q46 50 137 50q154 0 154 -110zM272 295q0 40 -46 40q-27 0 -42.5 -15t-23.5 -51l-25 -109q-5 -25 -5 -36q0 -41 48 -41q27 0 41.5 15.5t22.5 52.5l25 113q5 20 5 31z" />
    <glyph glyph-name="seven" unicode="7" 
d="M486 665l-23 -99q-18 -22 -36 -46q-70 -90 -135 -212q-46 -84 -79 -173q-20 -51 -41 -135h-125q31 119 102.5 256t162.5 253l45 58h-155l-18 -78h-97l40 176h359z" />
    <glyph glyph-name="eight" unicode="8" 
d="M434 564q0 -19 -5 -44l-12 -56q-10 -50 -31.5 -75.5t-63.5 -39.5q55 -25 55 -77q0 -18 -8 -53l-15 -66q-7 -29 -11 -41q-20 -59 -57 -87q-42 -34 -123 -34q-152 0 -152 112q0 19 8 56l18 82q14 68 46 92q22 18 57 25q-47 25 -47 74q0 22 4 39l17 72q31 131 174 131
q71 0 108.5 -28.5t37.5 -81.5zM324 545q0 39 -43 39q-26 0 -38.5 -11.5t-19.5 -41.5l-16 -69q-4 -16 -4 -27q0 -40 45 -40q22 0 36 12t24 57l13 60q3 12 3 21zM266 271q0 41 -49 41t-62 -59l-23 -103q-4 -20 -4 -28q0 -38 47 -38q52 0 65 61l22 102q4 22 4 24z" />
    <glyph glyph-name="nine" unicode="9" 
d="M442 556q0 -19 -5 -41l-78 -337q-8 -34 -15 -62q-12 -46 -37 -73q-46 -50 -138 -50q-153 0 -153 110q0 18 5 41l8 38h110l-8 -39q-3 -12 -3 -22q0 -39 46 -39q24 0 41 15t28 67l25 118q-39 -42 -95 -42q-52 0 -79.5 25.5t-27.5 72.5q0 33 11 76l24 98q12 49 21.5 71.5
t25.5 41.5q45 51 136 51q76 0 117 -31.5t41 -88.5zM327 544q0 41 -48 41q-26 0 -40 -15t-23 -52l-26 -110q-5 -19 -5 -31q0 -40 46 -40q27 0 44 17q13 13 22 49l25 105q5 23 5 36z" />
    <glyph glyph-name="colon" unicode=":" horiz-adv-x="229" 
d="M264 512l-30 -129h-116l29 129h117zM176 129l-30 -129h-117l30 129h117z" />
    <glyph glyph-name="semicolon" unicode=";" horiz-adv-x="229" 
d="M264 512l-30 -129h-116l29 129h117zM176 129l-30 -129l-114 -135h-44l99 135h-58l30 129h117z" />
    <glyph glyph-name="less" unicode="&#x3c;" horiz-adv-x="559" 
d="M522 572l-29 -125l-277 -129l222 -129l-27 -112l-316 193l25 107z" />
    <glyph glyph-name="equal" unicode="=" horiz-adv-x="559" 
d="M531 453l-22 -98h-390l23 98h389zM487 261l-22 -98h-390l22 98h390z" />
    <glyph glyph-name="greater" unicode="&#x3e;" horiz-adv-x="559" 
d="M517 377l-25 -107l-402 -194l29 124l277 129l-222 129l27 113z" />
    <glyph glyph-name="question" unicode="?" horiz-adv-x="417" 
d="M469 608q0 -53 -24 -115q-9 -24 -17 -35q-7 -15 -17 -26l-26 -28l-83 -91q-24 -26 -34 -44q-8 -14 -20 -57l-6 -22h-113l7 32q8 31 16 57q14 36 51 75l78 81q33 35 46 64q7 17 14 49q9 42 9 54q0 35 -40 35q-22 0 -36 -15t-29 -79l-18 -77h-111l17 74q15 66 33 99
q43 79 159 79q69 0 106.5 -28.5t37.5 -81.5zM232 130l-30 -130h-116l30 130h116z" />
    <glyph glyph-name="at" unicode="@" horiz-adv-x="829" 
d="M810 443q0 -93 -36.5 -180.5t-95.5 -141t-122 -53.5q-36 0 -59.5 18t-27.5 50q-59 -68 -128 -68q-60 0 -94.5 41t-34.5 114q0 117 70.5 209t159.5 92q26 0 48 -9q29 -12 53 -51l12 40h90l-41 -159q-37 -144 -37 -168q0 -25 19 -25q23 0 58 43q38 46 60.5 112t22.5 129
q0 96 -56.5 149.5t-157.5 53.5q-99 0 -186.5 -57.5t-140 -153.5t-52.5 -204q0 -122 68 -188q38 -38 94.5 -59t119.5 -21q176 0 331 146l42 -62q-70 -62 -125 -94q-120 -69 -254 -69q-81 0 -154 28.5t-123 78.5q-85 87 -85 231q0 136 63 251t171.5 181.5t236.5 66.5
q130 0 210.5 -74.5t80.5 -196.5zM505 350q0 26 -6 42q-14 43 -57 43q-56 0 -95 -77q-33 -64 -33 -123q0 -37 15.5 -57t43.5 -20q44 0 83 52q20 28 34.5 68t14.5 72z" />
    <glyph glyph-name="A" unicode="A" horiz-adv-x="437" 
d="M398 706l-19 -706h-128l8 115h-120l-44 -115h-134l288 706h149zM290 527l-112 -303h90z" />
    <glyph glyph-name="B" unicode="B" horiz-adv-x="478" 
d="M511 601q0 -25 -6 -50l-10 -45q-14 -65 -37 -90.5t-74 -35.5q66 -15 66 -69q0 -30 -10 -75l-20 -90q-15 -71 -54 -107q-31 -30 -85 -36q-32 -3 -79 -3h-202l163 706h194q67 0 96 -11q58 -21 58 -94zM377 566q0 21 -13 30t-42 9h-52l-41 -178h35q51 0 71 13t28 52l9 42
q5 20 5 32zM321 287q0 21 -13.5 29.5t-46.5 8.5h-56l-52 -223h46q45 0 59 6q29 13 40 65l19 83q4 20 4 31z" />
    <glyph glyph-name="C" unicode="C" horiz-adv-x="458" 
d="M520 608q0 -29 -10 -72l-20 -87h-128l16 72q9 43 9 56q0 44 -54 44q-31 0 -48.5 -18t-27.5 -59l-86 -370q-6 -29 -6 -43q0 -45 54 -45q34 0 51 18.5t28 68.5l21 92h128l-19 -85q-25 -115 -78 -156q-51 -39 -145 -39q-85 0 -129.5 31t-44.5 90q0 31 12 80l81 348
q24 102 76 144.5t153 42.5q167 0 167 -113z" />
    <glyph glyph-name="D" unicode="D" horiz-adv-x="479" 
d="M516 582q0 -27 -15 -91l-69 -301q-2 -6 -5 -18.5t-5 -19.5q-19 -62 -46 -95q-24 -28 -54 -40q-25 -11 -52 -14t-93 -3h-177l163 706h197q156 0 156 -124zM384 558q0 25 -16 35t-56 10h-43l-115 -500h46q45 0 62 11q27 16 40 75l76 330q6 27 6 39z" />
    <glyph glyph-name="E" unicode="E" horiz-adv-x="417" 
d="M505 706l-25 -107h-212l-38 -166h200l-25 -107h-200l-50 -217h222l-25 -109h-352l163 706h342z" />
    <glyph glyph-name="F" unicode="F" 
d="M509 706l-25 -109h-215l-41 -177h202l-24 -105h-202l-73 -315h-131l163 706h346z" />
    <glyph glyph-name="G" unicode="G" horiz-adv-x="488" 
d="M519 611q0 -20 -9 -56l-18 -77h-129l15 68q4 20 4 27q0 46 -56 46q-34 0 -50.5 -19t-28.5 -72l-81 -352q-7 -32 -7 -43q0 -22 14.5 -34.5t39.5 -12.5q32 0 50 19t28 62l25 110h-80l25 106h210l-89 -383h-111l10 42q-17 -18 -32 -29q-40 -28 -99 -28q-60 0 -93 30t-33 85
q0 35 10 78l82 353q24 105 75 147.5t152 42.5q176 0 176 -110z" />
    <glyph glyph-name="H" unicode="H" horiz-adv-x="479" 
d="M542 706l-163 -706h-130l74 323h-119l-74 -323h-130l163 706h130l-64 -277h119l64 277h130z" />
    <glyph glyph-name="I" unicode="I" horiz-adv-x="228" 
d="M292 706l-163 -706h-129l163 706h129z" />
    <glyph glyph-name="J" unicode="J" 
d="M464 706l-126 -546q-19 -82 -48 -117q-47 -59 -151 -59q-75 0 -114 30t-39 87q0 29 9 66l13 57h121l-14 -60q-7 -32 -7 -43q0 -33 39 -33q25 0 37.5 15.5t22.5 57.5l126 545h131z" />
    <glyph glyph-name="K" unicode="K" horiz-adv-x="458" 
d="M566 706l-233 -315l78 -391h-137l-62 345l-80 -345h-132l163 706h132l-64 -275l197 275h138z" />
    <glyph glyph-name="L" unicode="L" horiz-adv-x="375" 
d="M346 107l-25 -107h-321l163 706h130l-138 -599h191z" />
    <glyph glyph-name="M" unicode="M" horiz-adv-x="688" 
d="M751 706l-163 -706h-130l153 612l-255 -612h-121l24 612l-131 -612h-128l163 706h212l-31 -494l198 494h209z" />
    <glyph glyph-name="N" unicode="N" horiz-adv-x="500" 
d="M563 706l-163 -706h-164l-3 529l-111 -529h-122l163 706h167l7 -518l107 518h119z" />
    <glyph glyph-name="O" unicode="O" horiz-adv-x="479" 
d="M513 585q0 -24 -10 -69l-74 -323q-20 -87 -39 -119q-51 -89 -181 -89q-180 0 -180 138q0 32 12 84l75 322q14 61 31 95t43 56q53 42 142 42q87 0 134 -35.5t47 -101.5zM382 573q0 50 -56 50q-36 0 -55 -25q-12 -17 -24 -68l-78 -338q-10 -44 -10 -56q0 -49 59 -49
q36 0 52 22q12 15 25 71l80 344q7 29 7 49z" />
    <glyph glyph-name="P" unicode="P" horiz-adv-x="457" 
d="M512 599q0 -26 -8 -64l-18 -81q-4 -22 -13 -50q-14 -48 -42 -74q-37 -36 -122 -36h-110l-68 -294h-131l163 706h182h45q40 0 72 -16q50 -27 50 -91zM380 563q0 21 -12 30t-41 9h-57l-48 -207h63q38 0 51.5 11.5t22.5 51.5l16 72q5 23 5 33z" />
    <glyph glyph-name="Q" unicode="Q" horiz-adv-x="479" 
d="M513 585q0 -26 -10 -69l-74 -323q-19 -85 -44 -128l71 -87l-86 -72l-75 92q-40 -13 -86 -13q-180 0 -180 138q0 32 12 84l75 322q14 61 31 95t43 56q51 42 142 42q86 0 133.5 -36t47.5 -101zM382 573q0 50 -56 50q-36 0 -55 -25q-12 -17 -24 -68l-78 -338
q-10 -44 -10 -56q0 -49 59 -49q36 0 52 22q12 15 25 71l80 344q7 29 7 49z" />
    <glyph glyph-name="R" unicode="R" horiz-adv-x="479" 
d="M519 595q0 -20 -5 -45l-23 -100q-14 -58 -38.5 -84t-77.5 -36l51 -330h-133l-41 315h-49l-73 -315h-130l163 706h173q57 0 72 -1q49 -2 78 -27q33 -30 33 -83zM387 566q0 21 -13 30t-44 9h-60l-43 -184h52q51 0 68 17q6 6 11 16q9 20 16 50l10 43q3 18 3 19z" />
    <glyph glyph-name="S" unicode="S" horiz-adv-x="448" 
d="M491 605q0 -21 -6 -46l-13 -60h-130l11 49q4 16 4 32q0 42 -51 42q-36 0 -52 -30q-21 -37 -21 -76q0 -37 24 -57l82 -69q46 -40 59 -63q18 -33 18 -78q0 -54 -29 -138q-44 -126 -197 -126q-87 0 -134 33.5t-47 95.5q0 28 11 73l15 62h129l-14 -57q-10 -41 -10 -63
q0 -20 16 -32t42 -12q37 0 53 25q7 14 15 36q16 51 16 82q0 42 -41 74l-70 56q-20 16 -24 20q-17 16 -30 41q-15 30 -15 67q0 93 50 163q50 72 165 72q174 0 174 -116z" />
    <glyph glyph-name="T" unicode="T" 
d="M506 706l-23 -102h-131l-140 -604h-131l140 604h-130l23 102h392z" />
    <glyph glyph-name="U" unicode="U" horiz-adv-x="476" 
d="M540 706l-126 -547q-21 -91 -72.5 -132.5t-143.5 -41.5q-83 0 -126 34.5t-43 100.5q0 24 13 81l116 505h130l-118 -512q-9 -42 -9 -51q0 -47 55 -47q29 0 45 18.5t27 67.5l121 524h131z" />
    <glyph glyph-name="V" unicode="V" horiz-adv-x="417" 
d="M518 706l-296 -706h-131l23 706h134l-39 -467l172 467h137z" />
    <glyph glyph-name="W" unicode="W" horiz-adv-x="708" 
d="M808 706l-299 -706h-137l43 484l-187 -484h-139l34 706h131l-51 -532l198 532h123l-49 -532l197 532h136z" />
    <glyph glyph-name="X" unicode="X" horiz-adv-x="479" 
d="M563 706l-216 -334l74 -372h-137l-33 239l-134 -239h-149l240 380l-67 326h138l29 -193l107 193h148z" />
    <glyph glyph-name="Y" unicode="Y" horiz-adv-x="417" 
d="M528 706l-255 -497l-49 -209h-133l51 218l-29 488h133l-6 -356l148 356h140z" />
    <glyph glyph-name="Z" unicode="Z" horiz-adv-x="417" 
d="M496 706l-16 -70l-333 -526h217l-25 -110h-369l19 82l323 515h-185l26 109h343z" />
    <glyph glyph-name="bracketleft" unicode="[" horiz-adv-x="333" 
d="M447 761l-20 -89h-122l-174 -752h123l-21 -90h-241l215 931h240z" />
    <glyph glyph-name="backslash" unicode="\" horiz-adv-x="312" 
d="M262 0h-91l-59 706h91z" />
    <glyph glyph-name="bracketright" unicode="]" horiz-adv-x="333" 
d="M378 762l-215 -930h-240l21 89h122l173 751h-123l21 90h241z" />
    <glyph glyph-name="asciicircum" unicode="^" horiz-adv-x="559" 
d="M532 358h-116l-42 242l-152 -241h-128l244 348h109z" />
    <glyph glyph-name="underscore" unicode="_" horiz-adv-x="500" 
d="M409 -221h-520l21 92h520z" />
    <glyph glyph-name="grave" unicode="`" horiz-adv-x="208" 
d="M214 574h-86l-134 132h153z" />
    <glyph glyph-name="a" unicode="a" 
d="M391 425q0 -26 -14 -85l-50 -215q-2 -11 -5.5 -25t-4.5 -16q-6 -30 -6 -50t10 -34h-125q-6 8 -6 22q0 11 2 23q-41 -56 -102 -56q-42 0 -64.5 24t-22.5 70q0 50 14.5 95t38.5 69q20 20 56 37q29 15 33 16l114 44l6 24q6 25 6 37q0 32 -38 32q-18 0 -27 -9
q-15 -12 -24 -58l-3 -15h-109l7 31q4 18 13 45q13 39 44 61q41 29 108 29q71 0 110 -25t39 -71zM236 247q-46 -19 -63 -29t-28 -25q-23 -32 -23 -78q0 -33 28 -33q18 0 54 26z" />
    <glyph glyph-name="b" unicode="b" horiz-adv-x="417" 
d="M423 424q0 -16 -10 -60l-46 -204q-19 -87 -41 -119q-37 -52 -105 -52q-67 0 -95 58l-12 -47h-119l162 706h119l-55 -237q44 51 108 51q45 0 69.5 -25t24.5 -71zM295 388q0 37 -39 37q-25 0 -39 -15.5t-22 -50.5l-46 -204q-4 -15 -4 -28q0 -40 41 -40q23 0 37.5 17.5
t23.5 58.5l43 193q5 25 5 32z" />
    <glyph glyph-name="c" unicode="c" 
d="M408 415q0 -19 -9 -59l-9 -39h-117l11 45q6 26 6 39q0 35 -40 35q-25 0 -37.5 -14.5t-21.5 -54.5l-49 -209q-8 -35 -8 -46q0 -16 11.5 -25t31.5 -9q23 0 34.5 14t20.5 51l14 59h117l-9 -40q-21 -97 -53 -130q-42 -44 -126 -44q-156 0 -156 116q0 25 9 67l44 194
q20 88 68 123q42 33 113 33q74 0 114.5 -27.5t40.5 -78.5z" />
    <glyph glyph-name="d" unicode="d" horiz-adv-x="417" 
d="M484 706l-163 -706h-120l12 47q-41 -57 -104 -57q-46 0 -71 24t-25 68q0 27 13 83l47 205q19 78 49 110q38 39 94 39q68 0 93 -55l56 242h119zM289 388q0 41 -44 41q-22 0 -35 -15t-21 -51l-45 -198q-6 -26 -6 -39q0 -35 38 -35q17 0 32 10q20 15 31 62l46 198q4 17 4 27
z" />
    <glyph glyph-name="e" unicode="e" 
d="M398 405q0 -26 -11 -71l-24 -104h-203l-22 -101q-11 -50 36 -50q20 0 31.5 13t18.5 42l8 34h115l-4 -19q-3 -15 -7 -27q-9 -35 -23 -61q-38 -72 -145 -72q-148 0 -148 117q0 29 16 100l34 153q14 65 39 100q45 60 146 60q143 0 143 -114zM281 398q0 33 -36 33
q-21 0 -32 -11.5t-18 -39.5l-16 -69h85l13 61q4 17 4 26z" />
    <glyph glyph-name="f" unicode="f" horiz-adv-x="241" 
d="M349 703l-22 -96q-15 3 -22 3q-23 0 -32 -14q-7 -10 -16 -45l-11 -43h53l-18 -80h-54l-98 -428h-118l98 428h-53l19 80h53l14 60q4 21 9 37q14 56 48 81q32 24 87 24q34 0 63 -7z" />
    <glyph glyph-name="g" unicode="g" horiz-adv-x="417" 
d="M440 508l-116 -506q-17 -75 -34 -107q-41 -78 -163 -78q-150 0 -150 103q0 16 5 38h118q-4 -15 -4 -20q0 -15 11.5 -24t30.5 -9q31 0 46 26q8 16 15 50l12 55q-33 -42 -95 -42q-49 0 -76.5 24t-27.5 65q0 24 11 69l47 203q4 21 12 46q12 43 31 67q38 50 107 50
q65 0 91 -51l9 41h120zM288 386q0 42 -42 42q-23 0 -36 -14t-20 -48l-46 -200q-7 -32 -7 -40q0 -38 41 -38q44 0 59 63l47 206q4 15 4 29z" />
    <glyph glyph-name="h" unicode="h" horiz-adv-x="417" 
d="M419 436q0 -23 -14 -84l-81 -352h-118l84 364q5 23 5 32q0 37 -36 37q-24 0 -38.5 -16t-22.5 -52l-84 -365h-119l162 706h121l-55 -235q43 47 104 47q43 0 67.5 -22t24.5 -60z" />
    <glyph glyph-name="i" unicode="i" horiz-adv-x="208" 
d="M278 706l-28 -120h-120l28 120h120zM232 508l-117 -508h-120l117 508h120z" />
    <glyph glyph-name="j" unicode="j" horiz-adv-x="208" 
d="M276 706l-28 -119h-119l28 119h119zM230 508l-128 -556q-14 -63 -47 -94q-35 -35 -107 -35q-17 0 -47 3l23 99q22 0 32 3q5 2 9.5 4t8 7t5.5 7t4 9.5t2.5 9t3 11t2.5 10.5l120 522h119z" />
    <glyph glyph-name="k" unicode="k" 
d="M454 508l-175 -212l83 -296h-129l-60 261l-60 -261h-118l163 706h118l-85 -369l131 171h132z" />
    <glyph glyph-name="l" unicode="l" horiz-adv-x="208" 
d="M278 706l-163 -706h-120l163 706h120z" />
    <glyph glyph-name="m" unicode="m" horiz-adv-x="623" 
d="M625 436q0 -23 -14 -84l-81 -352h-118l84 364q4 19 4 32q0 37 -34 37q-17 0 -30 -10q-19 -14 -31 -63l-83 -360h-118l84 364q5 23 5 32q0 37 -35 37q-23 0 -37.5 -16t-22.5 -52l-84 -365h-119l117 508h121l-10 -37q43 47 103 47q65 0 86 -52q56 52 120 52q43 0 68 -22
t25 -60z" />
    <glyph glyph-name="n" unicode="n" horiz-adv-x="417" 
d="M419 436q0 -23 -14 -84l-81 -352h-118l84 364q5 23 5 32q0 37 -36 37q-24 0 -38.5 -16t-22.5 -52l-84 -365h-119l117 508h121l-10 -37q43 47 104 47q43 0 67.5 -22t24.5 -60z" />
    <glyph glyph-name="o" unicode="o" 
d="M397 412q0 -22 -6 -50l-51 -222q-18 -80 -59 -116t-114 -36t-112 29.5t-39 85.5q0 20 8 55l50 215q17 76 60.5 112t117.5 36q68 0 106.5 -29t38.5 -80zM281 408q0 33 -35 33q-29 0 -42 -30q-4 -10 -12 -44l-54 -233q-5 -20 -5 -31q0 -32 36 -32q21 0 32.5 13t18.5 46
l54 237q7 28 7 41z" />
    <glyph glyph-name="p" unicode="p" horiz-adv-x="417" 
d="M419 426q0 -27 -13 -83l-47 -205q-19 -78 -49 -110q-38 -39 -94 -39q-68 0 -93 55l-51 -220h-119l158 684h120l-12 -47q41 57 104 57q46 0 71 -24t25 -68zM294 382q0 35 -38 35q-17 0 -32 -10q-20 -15 -31 -62l-46 -198q-4 -17 -4 -27q0 -41 43 -41q23 0 36 15t21 51
l45 199q6 25 6 38z" />
    <glyph glyph-name="q" unicode="q" horiz-adv-x="417" 
d="M439 508l-156 -684h-119l49 215q-44 -51 -107 -51q-45 0 -69.5 25t-24.5 71q0 21 9 60l46 204q19 85 42 119q37 52 104 52q68 0 96 -58l12 47h118zM290 381q0 40 -41 40q-24 0 -38 -17.5t-23 -58.5l-43 -193q-5 -25 -5 -32q0 -37 39 -37q25 0 39 15.5t22 50.5l46 204
q4 22 4 28z" />
    <glyph glyph-name="r" unicode="r" horiz-adv-x="292" 
d="M350 517l-28 -118q-18 8 -38 8q-28 0 -47 -12q-18 -11 -27 -24q-16 -22 -28 -73l-69 -298h-118l118 508h119l-16 -65q39 74 124 74h10z" />
    <glyph glyph-name="s" unicode="s" horiz-adv-x="375" 
d="M384 424q0 -15 -5 -37l-9 -40h-103l8 36q3 13 3 23q0 33 -38 33q-23 0 -36.5 -17t-13.5 -46q0 -22 22 -40l58 -48q61 -51 61 -119q0 -86 -47.5 -132.5t-136.5 -46.5q-139 0 -139 100q0 23 11 71l4 18h110l-6 -24q-7 -27 -7 -45q0 -16 10.5 -25.5t28.5 -9.5
q26 0 42.5 22.5t16.5 57.5q0 17 -9 30t-37 37l-45 38q-53 44 -53 106q0 71 47.5 112.5t128.5 41.5q63 0 98.5 -25t35.5 -71z" />
    <glyph glyph-name="t" unicode="t" horiz-adv-x="255" 
d="M305 508l-18 -79h-59l-63 -271q-7 -33 -7 -42q0 -31 43 -31q2 0 22 2l-20 -86q-31 -6 -53 -6q-114 0 -114 88q0 26 7 55l68 291h-53l18 79h52l44 190h118l-44 -190h59z" />
    <glyph glyph-name="u" unicode="u" horiz-adv-x="417" 
d="M437 508l-117 -508h-121l9 37q-41 -47 -103 -47q-43 0 -67.5 22t-24.5 60q0 28 13 84l82 352h118l-84 -364q-5 -23 -5 -32q0 -37 36 -37q45 0 61 68l84 365h119z" />
    <glyph glyph-name="v" unicode="v" horiz-adv-x="354" 
d="M421 508l-242 -508h-116l6 508h117l-29 -352l143 352h121z" />
    <glyph glyph-name="w" unicode="w" horiz-adv-x="562" 
d="M629 508l-235 -508h-112l23 307l-133 -307h-113l14 508h116l-26 -336l141 336h94l-24 -336l139 336h116z" />
    <glyph glyph-name="x" unicode="x" horiz-adv-x="372" 
d="M410 508l-144 -233l51 -275h-125l-17 205l-99 -205h-126l170 275l-40 233h120l11 -170l79 170h120z" />
    <glyph glyph-name="y" unicode="y" horiz-adv-x="354" 
d="M418 508l-243 -546q-2 -5 -7.5 -16.5t-9.5 -18.5q-24 -48 -44 -68q-36 -36 -106 -36q-40 0 -83 9l39 93q27 -7 42 -7q51 0 75 81l-14 509h116l-8 -327l124 327h119z" />
    <glyph glyph-name="z" unicode="z" horiz-adv-x="354" 
d="M383 508l-22 -95l-242 -314h183l-23 -99h-309l23 99l244 314h-158l23 95h281z" />
    <glyph glyph-name="braceleft" unicode="{" horiz-adv-x="314" 
d="M424 764l-20 -90h-37q-40 0 -56 -37q-8 -17 -21 -72l-30 -131q-14 -63 -33 -88q-15 -20 -37 -30q-23 -11 -66 -16q33 -9 47 -21q33 -25 33 -66q0 -25 -9 -64l-28 -121q-12 -54 -12 -70q0 -40 43 -40h33l-20 -89h-73q-49 0 -75 27t-26 77q0 30 13 84l32 136q7 33 7 51
q0 29 -15.5 41t-57.5 15l20 88h5q43 0 61 9q29 14 48 96l33 143q15 64 26 90q10 24 30 44q21 21 43 27.5t69 6.5h73z" />
    <glyph glyph-name="bar" unicode="|" horiz-adv-x="205" 
d="M289 762l-216 -931h-118l215 931h119z" />
    <glyph glyph-name="braceright" unicode="}" horiz-adv-x="314" 
d="M331 333l-20 -87h-5q-41 0 -60 -10q-17 -8 -27.5 -29t-21.5 -67l-32 -143q-14 -59 -27 -90q-11 -25 -30 -44q-21 -20 -43.5 -27t-68.5 -7h-73l20 90h37q26 0 42 16q18 18 35 93l30 131q14 62 33 89q13 18 38 30q24 11 66 15q-31 8 -48 21q-32 24 -32 66q0 30 8 65l28 121
q12 54 12 69q0 40 -43 40h-33l21 90h73q48 0 74.5 -27.5t26.5 -77.5q0 -25 -14 -84l-31 -135q-8 -38 -8 -52q0 -29 15.5 -41t57.5 -15z" />
    <glyph glyph-name="asciitilde" unicode="~" horiz-adv-x="559" 
d="M521 286q-32 -31 -64 -49q-37 -21 -70 -21q-31 0 -84 27l-23 12q-43 22 -70 22q-20 0 -37.5 -10t-48.5 -38l-9 -8l-24 97q28 28 48 43q40 27 83 27q11 0 29 -4q22 -6 50 -20l41 -20q35 -17 54 -17q24 0 51 15q20 13 50 40z" />
    <glyph glyph-name="exclamdown" unicode="&#xa1;" horiz-adv-x="229" 
d="M277 706l-30 -132h-119l30 132h119zM214 516l-29 -197l-74 -319h-113l73 313l65 203h78z" />
    <glyph glyph-name="cent" unicode="&#xa2;" horiz-adv-x="406" 
d="M414 415q0 -19 -9 -59l-9 -39h-117l11 45q6 26 6 39q0 35 -40 35q-25 0 -37.5 -14.5t-21.5 -54.5l-49 -209q-7 -30 -7 -46q0 -34 42 -34q23 0 34.5 14t20.5 51l14 59h118l-10 -40q-15 -59 -25.5 -85.5t-27.5 -44.5q-41 -43 -125 -44l-22 -94h-51l23 98q-55 10 -81 37
t-26 75q0 25 9 67l44 194q18 81 58.5 118.5t113.5 37.5h4l18 77h51l-18 -80q109 -19 109 -103z" />
    <glyph glyph-name="sterling" unicode="&#xa3;" horiz-adv-x="479" 
d="M505 583q0 -18 -10 -66l-8 -36h-115l10 41q5 20 5 36q0 50 -47 50q-38 0 -60.5 -41t-22.5 -112q0 -39 7 -71l9 -45h106l-15 -61h-84q1 -11 1 -23q0 -41 -13 -73t-48 -75q33 -24 57 -24q22 0 35 17t24 58l10 39h101l-13 -54q-17 -72 -40 -101q-42 -54 -106 -54
q-57 0 -126 52l-11 -10q-5 -5 -26 -20q-31 -21 -68 -21q-36 0 -58.5 21.5t-22.5 55.5q0 41 30 67.5t76 26.5q34 0 79 -22q20 29 20 59q0 29 -15 81h-111l14 61h84l-7 35q-8 44 -8 81q0 70 31 139q28 59 77 86q40 23 106 23q74 0 113.5 -31t39.5 -89zM110 74q-21 20 -42 20
q-13 0 -21 -7.5t-8 -19.5q0 -10 6 -16.5t16 -6.5q19 0 44 25z" />
    <glyph glyph-name="currency" unicode="&#xa4;" horiz-adv-x="700" 
d="M713 553l-86 -77q26 -56 26 -104q0 -56 -20 -111q-16 -47 -48 -83l69 -84l-92 -82l-69 84l-26 -13q-51 -25 -115 -25q-45 0 -76.5 10.5t-74.5 39.5l-88 -76l-79 95l88 77q-25 54 -25 112q0 101 66 185l-68 83l94 81l67 -82q17 9 21 11q52 27 122 27q77 0 149 -50l88 77z
M531 358q0 66 -40 108t-103 42q-71 0 -120 -54t-49 -133q0 -65 39.5 -107.5t100.5 -42.5q71 0 121.5 54.5t50.5 132.5z" />
    <glyph glyph-name="yen" unicode="&#xa5;" horiz-adv-x="417" 
d="M510 665l-162 -314h79l-17 -73h-99l-31 -57h117l-17 -71h-120l-34 -150h-131l34 150h-120l17 71h118l-3 57h-102l17 73h81l-19 314h133l-9 -316l133 316h135z" />
    <glyph glyph-name="brokenbar" unicode="&#xa6;" horiz-adv-x="205" 
d="M289 763l-92 -402h-115l93 402h114zM167 233l-93 -402h-114l92 402h115z" />
    <glyph glyph-name="section" unicode="&#xa7;" horiz-adv-x="437" 
d="M478 608q0 -23 -7 -58l-10 -45l-116 -1l10 47q5 20 5 37q0 41 -48 41q-28 0 -44.5 -19t-16.5 -52q0 -32 37 -73l94 -104q52 -56 52 -111q0 -39 -19 -77q-16 -30 -51 -58q-23 -20 -43 -35q26 -37 26 -82q0 -64 -31 -116q-44 -70 -162 -70q-81 0 -123.5 30.5t-42.5 89.5
q0 23 8 60l12 52h117l-11 -54q-7 -30 -7 -43q0 -42 52 -42q60 0 60 85q0 19 -4 28q-5 16 -45 63l-90 101q-48 53 -48 108q0 39 23 76q25 39 93 86q-21 34 -21 71q0 78 48 126q48 49 145 49q73 0 115.5 -29.5t42.5 -80.5zM322 241q0 25 -21 49l-107 120q-47 -40 -47 -76
q0 -24 31 -59l96 -108l4 4q30 31 34 36q10 16 10 34z" />
    <glyph glyph-name="dieresis" unicode="&#xa8;" horiz-adv-x="208" 
d="M275 715l-28 -120h-116l28 120h116zM78 715l-28 -120h-117l28 120h117z" />
    <glyph glyph-name="copyright" unicode="&#xa9;" horiz-adv-x="819" 
d="M779 360q0 -155 -102 -259t-255 -104q-148 0 -251.5 104t-103.5 252q0 149 103.5 252.5t252.5 103.5q146 0 251 -102.5t105 -246.5zM733 347q0 137 -89 229.5t-221 92.5q-128 0 -219 -93t-91 -224q0 -132 89.5 -223.5t219.5 -91.5q127 0 219 91.5t92 218.5zM582 504
q0 -25 -5 -50l-10 -42h-91l7 31q5 20 5 35q0 29 -37 29q-20 0 -30.5 -11t-16.5 -38l-48 -223q-3 -13 8.5 -21.5t29.5 -8.5q17 0 27.5 10t13 18t7.5 28l10 40h92l-12 -54q-17 -74 -46 -100t-95 -26q-62 0 -96.5 25.5t-34.5 72.5q0 13 13 76l37 172q14 67 50 95t108 28
q55 0 84.5 -22.5t29.5 -63.5z" />
    <glyph glyph-name="ordfeminine" unicode="&#xaa;" horiz-adv-x="282" 
d="M344 658q0 -24 -9 -60l-35 -150q-10 -42 -10 -63q0 -14 6 -24h-87q-4 8 -4 15q0 8 2 17q-29 -39 -68 -39q-64 0 -64 72q0 29 10.5 60t26.5 47q21 23 60 37l81 31l4 17q3 12 3 24q0 21 -26 21q-24 0 -30 -30l-5 -24h-77l5 21q6 25 8 31q9 27 30 43q26 20 76 20
q49 0 76 -17t27 -49zM236 530q-51 -21 -62 -38q-14 -19 -14 -46q0 -22 19 -22q12 0 36 18z" />
    <glyph glyph-name="guillemotleft" unicode="&#xab;" horiz-adv-x="313" 
d="M323 410l-24 -103l-54 -44l35 -41l-22 -94l-81 93l22 92zM178 410l-24 -103l-54 -44l35 -41l-22 -94l-81 93l22 92z" />
    <glyph glyph-name="logicalnot" unicode="&#xac;" horiz-adv-x="559" 
d="M511 348l-65 -285h-115l42 186h-304l23 99h419z" />
    <glyph glyph-name="registered" unicode="&#xae;" horiz-adv-x="819" 
d="M777 360q0 -155 -102 -259t-255 -104q-148 0 -251.5 104t-103.5 252q0 149 103.5 252.5t252.5 103.5q146 0 251 -102.5t105 -246.5zM731 347q0 137 -89 229.5t-221 92.5q-128 0 -219 -93t-91 -224q0 -132 89.5 -223.5t219.5 -91.5q127 0 219 91.5t92 218.5zM585 502
q0 -20 -3 -32l-12 -59q-8 -40 -28 -59.5t-59 -27.5l46 -191h-96l-37 187h-17l-41 -187h-92l98 448h118q57 0 78 -9q45 -17 45 -70zM487 480q2 12 -6.5 18.5t-27.5 6.5h-33l-24 -108h28q26 0 37.5 7.5t15.5 27.5z" />
    <glyph glyph-name="macron" unicode="&#xaf;" horiz-adv-x="208" 
d="M266 677l-20 -83h-304l19 83h305z" />
    <glyph glyph-name="degree" unicode="&#xb0;" horiz-adv-x="354" 
d="M423 591q0 -67 -47 -114.5t-113 -47.5q-67 0 -114.5 47.5t-47.5 114.5t47 114t113 47q68 0 115 -46.5t47 -114.5zM341 593q0 32 -23 55.5t-55 23.5q-33 0 -56.5 -23t-23.5 -56q0 -32 23.5 -55.5t55.5 -23.5q33 0 56 23t23 56z" />
    <glyph glyph-name="plusminus" unicode="&#xb1;" horiz-adv-x="559" 
d="M525 415l-24 -100h-138l-36 -158h-115l36 158h-141l23 100h141l36 157h115l-36 -157h139zM453 101l-23 -101h-395l23 101h395z" />
    <glyph glyph-name="twosuperior" unicode="&#xb2;" horiz-adv-x="319" 
d="M351 592q0 -2 -3 -23l-6 -33q-7 -34 -20 -58q-18 -28 -46 -50l-69 -54q-44 -34 -57 -71h148l-15 -68h-238q11 53 24 82q16 36 45 68q21 23 63 54q49 36 63 52q16 19 21 46l6 31l3 21q0 26 -32 26q-17 0 -25.5 -8.5t-13.5 -30.5l-11 -52h-78l12 53q12 52 40 76t79 24
q53 0 81.5 -22t28.5 -63z" />
    <glyph glyph-name="threesuperior" unicode="&#xb3;" horiz-adv-x="319" 
d="M357 599q0 -7 -4 -27l-6 -29q-8 -40 -28 -57t-55 -20q50 -12 50 -62q0 -15 -5 -37l-10 -46q-7 -33 -19 -52q-29 -48 -107 -48q-52 0 -80 20.5t-28 58.5q0 23 6 44l6 22h76l-5 -27q-3 -15 -3 -26q0 -30 33 -30t43 47l11 52q2 12 2 16q0 39 -49 39h-17l13 52h16q31 0 47 11
q15 11 24 44l7 27q2 10 2 15q0 28 -32 28q-18 0 -27 -9.5t-16 -35.5l-8 -32h-76l7 29q6 26 7 29q8 26 24 45q32 36 97 36q104 0 104 -77z" />
    <glyph glyph-name="acute" unicode="&#xb4;" horiz-adv-x="208" 
d="M222 706l-146 -132h-90l90 132h146z" />
    <glyph glyph-name="mu" unicode="&#xb5;" horiz-adv-x="445" 
d="M455 508l-88 -383q-2 -9 -4.5 -18.5t-4 -15t-1.5 -7.5q-6 -30 -6 -50q0 -22 10 -34h-125q-6 8 -6 22q0 10 2 20q-11 -25 -23 -35t-32 -10q-29 0 -44 28l-46 -201h-119l158 684h118l-81 -355q-5 -25 -5 -32q0 -38 36 -38q44 0 60 69l82 356h119z" />
    <glyph glyph-name="paragraph" unicode="&#xb6;" horiz-adv-x="580" 
d="M624 706l-20 -83h-35l-182 -790h-88l182 790h-91l-183 -790h-89l109 468q-113 54 -113 177q0 57 25 105.5t70 79.5q65 43 198 43h217z" />
    <glyph glyph-name="periodcentered" unicode="&#xb7;" horiz-adv-x="187" 
d="M186 356l-29 -129h-117l29 129h117z" />
    <glyph glyph-name="cedilla" unicode="&#xb8;" horiz-adv-x="208" 
d="M214 -113q0 -37 -29.5 -56.5t-85.5 -19.5q-58 0 -102 16l-3 1l9 29q30 -5 47 -5q46 0 46 29q0 20 -26 28l26 100h45l-14 -60q87 -5 87 -62z" />
    <glyph glyph-name="onesuperior" unicode="&#xb9;" horiz-adv-x="319" 
d="M315 665l-101 -431h-81l76 324q-28 -17 -72 -24l15 63q34 8 56 22t51 46h56z" />
    <glyph glyph-name="ordmasculine" unicode="&#xba;" horiz-adv-x="282" 
d="M353 649q0 -18 -4 -35l-37 -154q-13 -55 -42.5 -80t-81.5 -25q-53 0 -81 20.5t-28 58.5q0 11 6 38l36 150q25 103 128 103q49 0 76.5 -20.5t27.5 -55.5zM268 641q0 23 -26 23q-15 0 -24 -11q-6 -7 -14 -40l-37 -151q-3 -11 -3 -22q0 -22 26 -22t34 31l39 163q5 23 5 29z
" />
    <glyph glyph-name="guillemotright" unicode="&#xbb;" horiz-adv-x="313" 
d="M308 315l-21 -92l-125 -97l24 103l54 44l-35 41l22 94zM163 315l-21 -92l-125 -97l24 103l54 44l-34 41l21 94z" />
    <glyph glyph-name="onequarter" unicode="&#xbc;" horiz-adv-x="708" 
d="M682 443l-68 -294h44l-16 -69h-44l-18 -80h-76l18 80h-145l16 65l192 298h97zM614 692l-423 -738l-59 22l424 739zM301 665l-101 -431h-81l76 324q-27 -17 -72 -24l16 63q34 8 56 22t51 46h55zM596 372l-133 -223h76z" />
    <glyph glyph-name="onehalf" unicode="&#xbd;" horiz-adv-x="708" 
d="M689 359q0 -17 -2 -25l-7 -33q-7 -38 -20 -58q-15 -27 -45 -50l-70 -54q-45 -34 -56 -71h147l-14 -68h-239q13 55 25 82q17 38 45 69q20 22 62 53q49 36 63 52q15 17 21 47l7 30q2 7 2 21q0 26 -31 26q-18 0 -26 -8t-13 -31l-12 -52h-78l12 53q12 52 40.5 76t78.5 24
q110 0 110 -83zM605 692l-422 -738l-59 22l424 739zM302 665l-101 -431h-81l76 324q-29 -17 -72 -24l15 63q34 8 56 22t52 46h55z" />
    <glyph glyph-name="threequarters" unicode="&#xbe;" horiz-adv-x="708" 
d="M689 443l-68 -294h34l-17 -69h-33l-18 -80h-76l18 80h-142l16 65l189 298h97zM636 693l-423 -738l-59 22l424 739zM354 599q0 -12 -3 -27l-7 -29q-10 -42 -27 -57q-20 -17 -55 -20q50 -12 50 -62q0 -15 -5 -37l-11 -46q-7 -33 -19 -52q-29 -48 -106 -48q-52 0 -80 20.5
t-28 58.5q0 16 6 44l5 22h77l-5 -27q-4 -20 -4 -26q0 -30 34 -30q33 0 43 47l11 52q1 6 1 16q0 39 -48 39h-17l12 52h17q29 0 46 11q18 12 25 44l6 27q2 10 2 15q0 28 -31 28q-18 0 -27 -9.5t-16 -35.5l-8 -32h-77l7 29q6 26 7 29q8 26 24 45q32 36 98 36q103 0 103 -77z
M602 372l-129 -223h72z" />
    <glyph glyph-name="questiondown" unicode="&#xbf;" horiz-adv-x="417" 
d="M395 706l-30 -130h-116l30 130h116zM364 241l-17 -74q-15 -66 -32 -99q-42 -79 -159 -79q-70 0 -107 28t-37 81q0 57 23 116q5 13 17 35q8 13 18 25l25 29l83 91q29 33 34 43q13 23 21 57l5 22h113l-7 -32q-5 -27 -16 -56q-15 -37 -51 -76l-77 -81q-34 -37 -46 -63
q-9 -22 -15 -50q-9 -40 -9 -53q0 -35 40 -35q23 0 37 14q12 13 28 79l18 78h111z" />
    <glyph glyph-name="Agrave" unicode="&#xc0;" horiz-adv-x="437" 
d="M391 762h-87l-114 133h148zM398 706l-19 -706h-128l8 115h-120l-44 -115h-134l288 706h149zM290 527l-112 -303h90z" />
    <glyph glyph-name="Aacute" unicode="&#xc1;" horiz-adv-x="437" 
d="M495 897l-144 -134h-92l81 134h155zM398 706l-19 -706h-128l8 115h-120l-44 -115h-134l288 706h149zM290 527l-112 -303h90z" />
    <glyph glyph-name="Acircumflex" unicode="&#xc2;" horiz-adv-x="437" 
d="M474 762h-100l-33 73l-59 -73h-109l110 133h129zM398 706l-19 -706h-128l8 115h-120l-44 -115h-134l288 706h149zM290 527l-112 -303h90z" />
    <glyph glyph-name="Atilde" unicode="&#xc3;" horiz-adv-x="437" 
d="M505 887q-16 -67 -40 -97t-61 -30q-12 0 -24 4q-16 5 -41 18l-23 12q-22 12 -36 12q-30 0 -44 -42h-65q30 124 111 124q14 0 25 -3q31 -10 52 -22l18 -10q15 -9 29 -9q13 0 21 8.5t18 34.5h60zM398 706l-19 -706h-128l8 115h-120l-44 -115h-134l288 706h149zM290 527
l-112 -303h90z" />
    <glyph glyph-name="Adieresis" unicode="&#xc4;" horiz-adv-x="437" 
d="M516 883l-28 -121h-116l28 121h116zM316 883l-28 -121h-117l28 121h117zM398 706l-19 -706h-128l8 115h-120l-44 -115h-134l288 706h149zM290 527l-112 -303h90z" />
    <glyph glyph-name="Aring" unicode="&#xc5;" horiz-adv-x="437" 
d="M424 829q0 -37 -26 -63t-63 -26t-63 26.5t-26 63.5q0 36 26 62.5t62 26.5q38 0 64 -26.5t26 -63.5zM398 706l-19 -706h-128l8 115h-120l-44 -115h-134l288 706h149zM376 829q0 18 -12 31t-29 13q-18 0 -30 -12.5t-12 -30.5t12.5 -30.5t29.5 -12.5t29 12.5t12 29.5z
M290 527l-112 -303h90z" />
    <glyph glyph-name="AE" unicode="&#xc6;" horiz-adv-x="712" 
d="M786 706l-25 -109h-207l-38 -163h205l-25 -106h-204l-51 -219h240l-25 -109h-370l34 146h-131l-83 -146h-151l429 706h402zM417 560l-169 -307h96z" />
    <glyph glyph-name="Ccedilla" unicode="&#xc7;" horiz-adv-x="458" 
d="M520 608q0 -29 -10 -72l-20 -87h-128l16 72q9 43 9 56q0 44 -54 44q-31 0 -48.5 -18t-27.5 -59l-86 -370q-6 -29 -6 -43q0 -45 54 -45q34 0 51 18.5t28 68.5l21 92h128l-19 -85q-25 -115 -78 -156q-51 -38 -141 -40l-8 -35q86 -5 86 -62q0 -76 -114 -76q-58 0 -103 16
l-1 1l9 29q29 -5 46 -5q46 0 46 29q0 19 -26 28l20 78q-37 6 -61 14q-72 26 -72 105q0 31 12 80l81 348q24 102 76 144.5t153 42.5q167 0 167 -113z" />
    <glyph glyph-name="Egrave" unicode="&#xc8;" horiz-adv-x="417" 
d="M408 762h-87l-114 133h147zM505 706l-25 -107h-212l-38 -166h200l-25 -107h-200l-50 -217h222l-25 -109h-352l163 706h342z" />
    <glyph glyph-name="Eacute" unicode="&#xc9;" horiz-adv-x="417" 
d="M504 897l-144 -134h-92l81 134h155zM505 706l-25 -107h-212l-38 -166h200l-25 -107h-200l-50 -217h222l-25 -109h-352l163 706h342z" />
    <glyph glyph-name="Ecircumflex" unicode="&#xca;" horiz-adv-x="417" 
d="M488 762h-100l-34 73l-58 -73h-109l110 133h129zM505 706l-25 -107h-212l-38 -166h200l-25 -107h-200l-50 -217h222l-25 -109h-352l163 706h342z" />
    <glyph glyph-name="Edieresis" unicode="&#xcb;" horiz-adv-x="417" 
d="M530 884l-28 -121h-116l28 121h116zM330 884l-28 -121h-117l28 121h117zM505 706l-25 -107h-212l-38 -166h200l-25 -107h-200l-50 -217h222l-25 -109h-352l163 706h342z" />
    <glyph glyph-name="Igrave" unicode="&#xcc;" horiz-adv-x="228" 
d="M305 762h-87l-114 133h147zM292 706l-163 -706h-129l163 706h129z" />
    <glyph glyph-name="Iacute" unicode="&#xcd;" horiz-adv-x="228" 
d="M398 897l-144 -134h-92l81 134h155zM292 706l-163 -706h-129l163 706h129z" />
    <glyph glyph-name="Icircumflex" unicode="&#xce;" horiz-adv-x="228" 
d="M386 762h-99l-34 73l-58 -73h-110l110 133h129zM292 706l-163 -706h-129l163 706h129z" />
    <glyph glyph-name="Idieresis" unicode="&#xcf;" horiz-adv-x="228" 
d="M425 883l-28 -121h-116l28 121h116zM225 883l-28 -121h-117l28 121h117zM292 706l-163 -706h-129l163 706h129z" />
    <glyph glyph-name="Eth" unicode="&#xd0;" horiz-adv-x="479" 
d="M516 582q0 -27 -15 -91l-69 -301q-2 -6 -5 -18.5t-5 -19.5q-19 -62 -46 -95q-24 -28 -54 -40q-25 -11 -52 -14t-93 -3h-177l92 392h-58l18 75h57l54 239h197q156 0 156 -124zM384 558q0 25 -16 35t-56 10h-43l-30 -136h76l-17 -75h-76l-68 -289h46q45 0 62 11
q27 16 40 75l76 330q6 27 6 39z" />
    <glyph glyph-name="Ntilde" unicode="&#xd1;" horiz-adv-x="500" 
d="M556 886q-15 -67 -38.5 -97t-61.5 -30q-12 0 -24 4q-16 5 -41 18l-23 12q-23 12 -36 12q-30 0 -44 -42h-65q30 124 111 124q14 0 25 -3q8 -3 51 -23l19 -9q18 -9 29 -9q13 0 21 8.5t18 34.5h59zM563 706l-163 -706h-164l-3 529l-111 -529h-122l163 706h167l7 -518
l107 518h119z" />
    <glyph glyph-name="Ograve" unicode="&#xd2;" horiz-adv-x="479" 
d="M406 762h-87l-114 133h148zM513 585q0 -24 -10 -69l-74 -323q-20 -87 -39 -119q-51 -89 -181 -89q-180 0 -180 138q0 32 12 84l75 322q14 61 31 95t43 56q53 42 142 42q87 0 134 -35.5t47 -101.5zM382 573q0 50 -56 50q-36 0 -55 -25q-12 -17 -24 -68l-78 -338
q-10 -44 -10 -56q0 -49 59 -49q36 0 52 22q12 15 25 71l80 344q7 29 7 49z" />
    <glyph glyph-name="Oacute" unicode="&#xd3;" horiz-adv-x="479" 
d="M515 897l-144 -134h-92l81 134h155zM513 585q0 -24 -10 -69l-74 -323q-20 -87 -39 -119q-51 -89 -181 -89q-180 0 -180 138q0 32 12 84l75 322q14 61 31 95t43 56q53 42 142 42q87 0 134 -35.5t47 -101.5zM382 573q0 50 -56 50q-36 0 -55 -25q-12 -17 -24 -68l-78 -338
q-10 -44 -10 -56q0 -49 59 -49q36 0 52 22q12 15 25 71l80 344q7 29 7 49z" />
    <glyph glyph-name="Ocircumflex" unicode="&#xd4;" horiz-adv-x="479" 
d="M499 762h-100l-33 73l-59 -73h-109l110 133h129zM513 585q0 -24 -10 -69l-74 -323q-20 -87 -39 -119q-51 -89 -181 -89q-180 0 -180 138q0 32 12 84l75 322q14 61 31 95t43 56q53 42 142 42q87 0 134 -35.5t47 -101.5zM382 573q0 50 -56 50q-36 0 -55 -25
q-12 -17 -24 -68l-78 -338q-10 -44 -10 -56q0 -49 59 -49q36 0 52 22q12 15 25 71l80 344q7 29 7 49z" />
    <glyph glyph-name="Otilde" unicode="&#xd5;" horiz-adv-x="479" 
d="M528 886q-16 -67 -39.5 -97t-60.5 -30q-12 0 -24 4q-12 3 -41 18l-24 12q-24 12 -35 12q-32 0 -44 -42h-65q30 124 110 124q15 0 26 -3q8 -3 51 -23l19 -9q18 -9 28 -9q14 0 22 8.5t18 34.5h59zM513 585q0 -24 -10 -69l-74 -323q-20 -87 -39 -119q-51 -89 -181 -89
q-180 0 -180 138q0 32 12 84l75 322q14 61 31 95t43 56q53 42 142 42q87 0 134 -35.5t47 -101.5zM382 573q0 50 -56 50q-36 0 -55 -25q-12 -17 -24 -68l-78 -338q-10 -44 -10 -56q0 -49 59 -49q36 0 52 22q12 15 25 71l80 344q7 29 7 49z" />
    <glyph glyph-name="Odieresis" unicode="&#xd6;" horiz-adv-x="479" 
d="M537 883l-28 -121h-116l28 121h116zM337 883l-28 -121h-117l28 121h117zM513 585q0 -24 -10 -69l-74 -323q-20 -87 -39 -119q-51 -89 -181 -89q-180 0 -180 138q0 32 12 84l75 322q14 61 31 95t43 56q53 42 142 42q87 0 134 -35.5t47 -101.5zM382 573q0 50 -56 50
q-36 0 -55 -25q-12 -17 -24 -68l-78 -338q-10 -44 -10 -56q0 -49 59 -49q36 0 52 22q12 15 25 71l80 344q7 29 7 49z" />
    <glyph glyph-name="multiply" unicode="&#xd7;" horiz-adv-x="558" 
d="M464 401l-112 -111l80 -129l-92 -67l-70 116l-102 -101l-63 79l111 110l-79 130l91 66l70 -116l102 102z" />
    <glyph glyph-name="Oslash" unicode="&#xd8;" horiz-adv-x="479" 
d="M562 664l-50 -60q1 -8 1 -17q0 -28 -10 -71l-74 -323q-20 -87 -39 -119q-51 -89 -180 -89q-30 0 -68 7q-31 7 -46.5 14t-37.5 29l-4 4l-28 -35l-51 43l54 65v11q0 33 12 84l75 322q25 111 74 151q51 42 142 42q102 0 152 -52l28 33zM382 572q0 51 -56 51q-36 0 -55 -25
q-8 -12 -11 -22q-3 -7 -7 -23q-3 -9 -12 -48l-43 -186l180 221q4 16 4 32zM344 392l-179 -215q-6 -25 -6 -44q0 -22 15.5 -34t43.5 -12q36 0 52 22q7 10 11 20q6 18 8 27q3 10 12 48z" />
    <glyph glyph-name="Ugrave" unicode="&#xd9;" horiz-adv-x="476" 
d="M424 762h-87l-114 133h147zM540 706l-126 -547q-21 -91 -72.5 -132.5t-143.5 -41.5q-83 0 -126 34.5t-43 100.5q0 24 13 81l116 505h130l-118 -512q-9 -42 -9 -51q0 -47 55 -47q29 0 45 18.5t27 67.5l121 524h131z" />
    <glyph glyph-name="Uacute" unicode="&#xda;" horiz-adv-x="476" 
d="M516 897l-144 -134h-92l81 134h155zM540 706l-126 -547q-21 -91 -72.5 -132.5t-143.5 -41.5q-83 0 -126 34.5t-43 100.5q0 24 13 81l116 505h130l-118 -512q-9 -42 -9 -51q0 -47 55 -47q29 0 45 18.5t27 67.5l121 524h131z" />
    <glyph glyph-name="Ucircumflex" unicode="&#xdb;" horiz-adv-x="476" 
d="M505 762h-99l-34 73l-58 -73h-110l110 133h129zM540 706l-126 -547q-21 -91 -72.5 -132.5t-143.5 -41.5q-83 0 -126 34.5t-43 100.5q0 24 13 81l116 505h130l-118 -512q-9 -42 -9 -51q0 -47 55 -47q29 0 45 18.5t27 67.5l121 524h131z" />
    <glyph glyph-name="Udieresis" unicode="&#xdc;" horiz-adv-x="476" 
d="M543 883l-28 -121h-116l28 121h116zM343 883l-28 -121h-117l28 121h117zM540 706l-126 -547q-21 -91 -72.5 -132.5t-143.5 -41.5q-83 0 -126 34.5t-43 100.5q0 24 13 81l116 505h130l-118 -512q-9 -42 -9 -51q0 -47 55 -47q29 0 45 18.5t27 67.5l121 524h131z" />
    <glyph glyph-name="Yacute" unicode="&#xdd;" horiz-adv-x="417" 
d="M492 897l-145 -134h-92l82 134h155zM528 706l-255 -497l-49 -209h-133l51 218l-29 488h133l-6 -356l148 356h140z" />
    <glyph glyph-name="Thorn" unicode="&#xde;" horiz-adv-x="457" 
d="M480 457q0 -25 -8 -63l-19 -81q-2 -7 -6 -25t-6 -25q-12 -45 -42 -74q-37 -36 -122 -36h-110l-36 -153h-131l163 706h131l-33 -141h56l41 -1q48 -2 72 -15q50 -26 50 -92zM348 422q0 21 -12 30t-41 9h-57l-48 -207h63q37 0 50.5 11.5t22.5 51.5l17 72q5 23 5 33z" />
    <glyph glyph-name="germandbls" unicode="&#xdf;" horiz-adv-x="417" 
d="M448 616q0 -15 -6 -47l-9 -41q-11 -52 -30 -71t-63 -24q39 -7 55.5 -22.5t16.5 -44.5q0 -23 -8 -55l-41 -179q-14 -60 -33 -87q-42 -54 -122 -54q-28 0 -67 9l17 69q11 -2 23 -2q25 0 40 12q5 5 9 10t7 13.5t4 12.5t3.5 15.5t2.5 12.5l39 167q4 17 4 34q0 34 -48 34h-18
l19 81h14q32 0 46 11t21 44l13 55q4 17 4 31q0 35 -43 35q-18 0 -29 -8q-13 -9 -21 -46l-134 -581h-119l131 564q9 37 11 44q14 47 42 74q42 39 122 39q70 0 108.5 -27.5t38.5 -77.5z" />
    <glyph glyph-name="agrave" unicode="&#xe0;" 
d="M322 574h-86l-133 132h153zM391 425q0 -26 -14 -85l-50 -215q-2 -11 -5.5 -25t-4.5 -16q-6 -30 -6 -50t10 -34h-125q-6 8 -6 22q0 11 2 23q-41 -56 -102 -56q-42 0 -64.5 24t-22.5 70q0 50 14.5 95t38.5 69q20 20 56 37q29 15 33 16l114 44l6 24q6 25 6 37q0 32 -38 32
q-18 0 -27 -9q-15 -12 -24 -58l-3 -15h-109l7 31q4 18 13 45q13 39 44 61q41 29 108 29q71 0 110 -25t39 -71zM236 247q-46 -19 -63 -29t-28 -25q-23 -32 -23 -78q0 -33 28 -33q18 0 54 26z" />
    <glyph glyph-name="aacute" unicode="&#xe1;" 
d="M431 706l-146 -132h-90l90 132h146zM391 425q0 -26 -14 -85l-50 -215q-2 -11 -5.5 -25t-4.5 -16q-6 -30 -6 -50t10 -34h-125q-6 8 -6 22q0 11 2 23q-41 -56 -102 -56q-42 0 -64.5 24t-22.5 70q0 50 14.5 95t38.5 69q20 20 56 37q29 15 33 16l114 44l6 24q6 25 6 37
q0 32 -38 32q-18 0 -27 -9q-15 -12 -24 -58l-3 -15h-109l7 31q4 18 13 45q13 39 44 61q41 29 108 29q71 0 110 -25t39 -71zM236 247q-46 -19 -63 -29t-28 -25q-23 -32 -23 -78q0 -33 28 -33q18 0 54 26z" />
    <glyph glyph-name="acircumflex" unicode="&#xe2;" 
d="M408 574h-100l-27 73l-65 -73h-109l117 132h129zM391 425q0 -26 -14 -85l-50 -215q-2 -11 -5.5 -25t-4.5 -16q-6 -30 -6 -50t10 -34h-125q-6 8 -6 22q0 11 2 23q-41 -56 -102 -56q-42 0 -64.5 24t-22.5 70q0 50 14.5 95t38.5 69q20 20 56 37q29 15 33 16l114 44l6 24
q6 25 6 37q0 32 -38 32q-18 0 -27 -9q-15 -12 -24 -58l-3 -15h-109l7 31q4 18 13 45q13 39 44 61q41 29 108 29q71 0 110 -25t39 -71zM236 247q-46 -19 -63 -29t-28 -25q-23 -32 -23 -78q0 -33 28 -33q18 0 54 26z" />
    <glyph glyph-name="atilde" unicode="&#xe3;" 
d="M435 698q-26 -126 -98 -126q-6 0 -18 2q-6 1 -25 10q-5 2 -35 18q-29 14 -45 14q-27 0 -45 -42h-59q14 53 32 79q33 46 79 46q14 0 23 -3q8 -2 17 -6q7 -4 20 -9.5t19 -9.5q27 -15 39 -15q13 0 21.5 9.5t15.5 32.5h59zM391 425q0 -26 -14 -85l-50 -215q-2 -11 -5.5 -25
t-4.5 -16q-6 -30 -6 -50t10 -34h-125q-6 8 -6 22q0 11 2 23q-41 -56 -102 -56q-42 0 -64.5 24t-22.5 70q0 50 14.5 95t38.5 69q20 20 56 37q29 15 33 16l114 44l6 24q6 25 6 37q0 32 -38 32q-18 0 -27 -9q-15 -12 -24 -58l-3 -15h-109l7 31q4 18 13 45q13 39 44 61
q41 29 108 29q71 0 110 -25t39 -71zM236 247q-46 -19 -63 -29t-28 -25q-23 -32 -23 -78q0 -33 28 -33q18 0 54 26z" />
    <glyph glyph-name="adieresis" unicode="&#xe4;" 
d="M448 715l-28 -120h-116l28 120h116zM251 715l-28 -120h-117l28 120h117zM391 425q0 -26 -14 -85l-50 -215q-2 -11 -5.5 -25t-4.5 -16q-6 -30 -6 -50t10 -34h-125q-6 8 -6 22q0 11 2 23q-41 -56 -102 -56q-42 0 -64.5 24t-22.5 70q0 50 14.5 95t38.5 69q20 20 56 37
q29 15 33 16l114 44l6 24q6 25 6 37q0 32 -38 32q-18 0 -27 -9q-15 -12 -24 -58l-3 -15h-109l7 31q4 18 13 45q13 39 44 61q41 29 108 29q71 0 110 -25t39 -71zM236 247q-46 -19 -63 -29t-28 -25q-23 -32 -23 -78q0 -33 28 -33q18 0 54 26z" />
    <glyph glyph-name="aring" unicode="&#xe5;" 
d="M352 663q0 -37 -26.5 -63.5t-63.5 -26.5t-63 25.5t-26 62.5q0 38 26 64.5t64 26.5t63.5 -25.5t25.5 -63.5zM391 425q0 -26 -14 -85l-50 -215q-2 -11 -5.5 -25t-4.5 -16q-6 -30 -6 -50t10 -34h-125q-6 8 -6 22q0 11 2 23q-41 -56 -102 -56q-42 0 -64.5 24t-22.5 70
q0 50 14.5 95t38.5 69q20 20 56 37q29 15 33 16l114 44l6 24q6 25 6 37q0 32 -38 32q-18 0 -27 -9q-15 -12 -24 -58l-3 -15h-109l7 31q4 18 13 45q13 39 44 61q41 29 108 29q71 0 110 -25t39 -71zM303 662q0 18 -11.5 30.5t-28.5 12.5q-18 0 -30 -12.5t-12 -30.5
q0 -17 12 -29.5t29 -12.5t29 12t12 30zM236 247q-46 -19 -63 -29t-28 -25q-23 -32 -23 -78q0 -33 28 -33q18 0 54 26z" />
    <glyph glyph-name="ae" unicode="&#xe6;" horiz-adv-x="583" 
d="M585 405q0 -25 -11 -70l-24 -104h-203l-17 -73q-7 -29 -7 -42q0 -33 37 -33q20 0 31.5 13t19.5 42l8 31h115l-4 -19q-3 -15 -7 -27q-9 -35 -23 -61q-38 -72 -144 -72q-97 0 -132 58q-57 -58 -126 -58q-95 0 -95 95q0 49 14.5 93.5t38.5 68.5q32 32 89 53l114 44l6 24
q6 25 6 37q0 32 -38 32q-18 0 -27 -9q-15 -12 -24 -58l-3 -15h-109l7 31q4 18 13 45q13 39 44 61q41 29 108 29q61 0 103 -21q46 20 95 20q145 0 145 -115zM467 393q0 33 -37 33q-20 0 -32 -12t-18 -39l-14 -63h85l12 55q4 17 4 26zM237 248q-46 -19 -63.5 -29.5
t-28.5 -25.5q-23 -32 -23 -78q0 -32 27 -32q24 0 62 31z" />
    <glyph glyph-name="ccedilla" unicode="&#xe7;" 
d="M408 415q0 -19 -9 -59l-9 -39h-117l11 45q6 26 6 39q0 35 -40 35q-25 0 -37.5 -14.5t-21.5 -54.5l-49 -209q-8 -35 -8 -46q0 -16 11.5 -25t31.5 -9q23 0 34.5 14t20.5 51l14 59h117l-9 -40q-21 -97 -53 -130q-41 -42 -124 -44l-8 -39q86 -5 86 -62q0 -37 -29.5 -56.5
t-85.5 -19.5q-58 0 -102 16l-2 1l9 29q30 -5 47 -5q45 0 45 29q0 20 -25 28l21 82q-114 16 -114 113q0 25 9 67l44 194q20 88 68 123q42 33 113 33q74 0 114.5 -27.5t40.5 -78.5z" />
    <glyph glyph-name="egrave" unicode="&#xe8;" 
d="M322 574h-86l-133 132h153zM398 405q0 -26 -11 -71l-24 -104h-203l-22 -101q-11 -50 36 -50q20 0 31.5 13t18.5 42l8 34h115l-4 -19q-3 -15 -7 -27q-9 -35 -23 -61q-38 -72 -145 -72q-148 0 -148 117q0 29 16 100l34 153q14 65 39 100q45 60 146 60q143 0 143 -114z
M281 398q0 33 -36 33q-21 0 -32 -11.5t-18 -39.5l-16 -69h85l13 61q4 17 4 26z" />
    <glyph glyph-name="eacute" unicode="&#xe9;" 
d="M431 706l-146 -132h-90l90 132h146zM398 405q0 -26 -11 -71l-24 -104h-203l-22 -101q-11 -50 36 -50q20 0 31.5 13t18.5 42l8 34h115l-4 -19q-3 -15 -7 -27q-9 -35 -23 -61q-38 -72 -145 -72q-148 0 -148 117q0 29 16 100l34 153q14 65 39 100q45 60 146 60
q143 0 143 -114zM281 398q0 33 -36 33q-21 0 -32 -11.5t-18 -39.5l-16 -69h85l13 61q4 17 4 26z" />
    <glyph glyph-name="ecircumflex" unicode="&#xea;" 
d="M414 574h-100l-27 73l-65 -73h-109l117 132h129zM398 405q0 -26 -11 -71l-24 -104h-203l-22 -101q-11 -50 36 -50q20 0 31.5 13t18.5 42l8 34h115l-4 -19q-3 -15 -7 -27q-9 -35 -23 -61q-38 -72 -145 -72q-148 0 -148 117q0 29 16 100l34 153q14 65 39 100q45 60 146 60
q143 0 143 -114zM281 398q0 33 -36 33q-21 0 -32 -11.5t-18 -39.5l-16 -69h85l13 61q4 17 4 26z" />
    <glyph glyph-name="edieresis" unicode="&#xeb;" 
d="M450 715l-28 -120h-116l28 120h116zM253 715l-28 -120h-117l28 120h117zM398 405q0 -26 -11 -71l-24 -104h-203l-22 -101q-11 -50 36 -50q20 0 31.5 13t18.5 42l8 34h115l-4 -19q-3 -15 -7 -27q-9 -35 -23 -61q-38 -72 -145 -72q-148 0 -148 117q0 29 16 100l34 153
q14 65 39 100q45 60 146 60q143 0 143 -114zM281 398q0 33 -36 33q-21 0 -32 -11.5t-18 -39.5l-16 -69h85l13 61q4 17 4 26z" />
    <glyph glyph-name="igrave" unicode="&#xec;" horiz-adv-x="208" 
d="M252 574h-86l-133 132h153zM232 508l-117 -508h-120l117 508h120z" />
    <glyph glyph-name="iacute" unicode="&#xed;" horiz-adv-x="208" 
d="M345 706l-146 -132h-90l90 132h146zM232 508l-117 -508h-120l117 508h120z" />
    <glyph glyph-name="icircumflex" unicode="&#xee;" horiz-adv-x="208" 
d="M330 574h-100l-27 73l-65 -73h-109l117 132h129zM232 508l-117 -508h-120l117 508h120z" />
    <glyph glyph-name="idieresis" unicode="&#xef;" horiz-adv-x="208" 
d="M365 715l-28 -120h-116l28 120h116zM168 715l-28 -120h-117l28 120h117zM232 508l-117 -508h-120l117 508h120z" />
    <glyph glyph-name="eth" unicode="&#xf0;" 
d="M402 660l-53 -33q51 -80 51 -173q0 -50 -13 -109l-47 -205q-18 -80 -59 -116t-114 -36t-112 29.5t-39 85.5q0 20 8 55l46 198q18 76 57 109q45 38 99 38q40 0 66 -23q-8 54 -27 95l-76 -46l-27 44l78 48l-4 5q-48 60 -53 65l71 45q39 -28 66 -66l57 35zM277 392
q0 32 -35 32q-24 0 -34 -15q-5 -7 -8 -14q-3 -9 -12 -44l-50 -217q-5 -20 -5 -31q0 -32 36 -32q21 0 32.5 13t18.5 46l50 220q7 28 7 42z" />
    <glyph glyph-name="ntilde" unicode="&#xf1;" horiz-adv-x="417" 
d="M451 698q-26 -126 -98 -126q-6 0 -18 2q-6 1 -25 10q-5 2 -35 18q-29 14 -45 14q-27 0 -45 -42h-59q14 53 32 79q33 46 79 46q14 0 23 -3q8 -2 17 -6q7 -4 20 -9.5t19 -9.5q27 -15 39 -15q13 0 21.5 9.5t15.5 32.5h59zM419 436q0 -23 -14 -84l-81 -352h-118l84 364
q5 23 5 32q0 37 -36 37q-24 0 -38.5 -16t-22.5 -52l-84 -365h-119l117 508h121l-10 -37q43 47 104 47q43 0 67.5 -22t24.5 -60z" />
    <glyph glyph-name="ograve" unicode="&#xf2;" 
d="M330 574h-86l-133 132h153zM397 412q0 -22 -6 -50l-51 -222q-18 -80 -59 -116t-114 -36t-112 29.5t-39 85.5q0 20 8 55l50 215q17 76 60.5 112t117.5 36q68 0 106.5 -29t38.5 -80zM281 408q0 33 -35 33q-29 0 -42 -30q-4 -10 -12 -44l-54 -233q-5 -20 -5 -31
q0 -32 36 -32q21 0 32.5 13t18.5 46l54 237q7 28 7 41z" />
    <glyph glyph-name="oacute" unicode="&#xf3;" 
d="M435 706l-146 -132h-90l90 132h146zM397 412q0 -22 -6 -50l-51 -222q-18 -80 -59 -116t-114 -36t-112 29.5t-39 85.5q0 20 8 55l50 215q17 76 60.5 112t117.5 36q68 0 106.5 -29t38.5 -80zM281 408q0 33 -35 33q-29 0 -42 -30q-4 -10 -12 -44l-54 -233q-5 -20 -5 -31
q0 -32 36 -32q21 0 32.5 13t18.5 46l54 237q7 28 7 41z" />
    <glyph glyph-name="ocircumflex" unicode="&#xf4;" 
d="M413 574h-100l-27 73l-65 -73h-109l117 132h129zM397 412q0 -22 -6 -50l-51 -222q-18 -80 -59 -116t-114 -36t-112 29.5t-39 85.5q0 20 8 55l50 215q17 76 60.5 112t117.5 36q68 0 106.5 -29t38.5 -80zM281 408q0 33 -35 33q-29 0 -42 -30q-4 -10 -12 -44l-54 -233
q-5 -20 -5 -31q0 -32 36 -32q21 0 32.5 13t18.5 46l54 237q7 28 7 41z" />
    <glyph glyph-name="otilde" unicode="&#xf5;" 
d="M435 698q-26 -126 -98 -126q-6 0 -18 2q-6 1 -25 10q-5 2 -35 18q-29 14 -45 14q-27 0 -45 -42h-59q14 53 32 79q33 46 79 46q14 0 23 -3q8 -2 17 -6q7 -4 20 -9.5t19 -9.5q27 -15 39 -15q13 0 21.5 9.5t15.5 32.5h59zM397 412q0 -22 -6 -50l-51 -222q-18 -80 -59 -116
t-114 -36t-112 29.5t-39 85.5q0 20 8 55l50 215q17 76 60.5 112t117.5 36q68 0 106.5 -29t38.5 -80zM281 408q0 33 -35 33q-29 0 -42 -30q-4 -10 -12 -44l-54 -233q-5 -20 -5 -31q0 -32 36 -32q21 0 32.5 13t18.5 46l54 237q7 28 7 41z" />
    <glyph glyph-name="odieresis" unicode="&#xf6;" 
d="M454 715l-28 -120h-116l28 120h116zM257 715l-28 -120h-117l28 120h117zM397 412q0 -22 -6 -50l-51 -222q-18 -80 -59 -116t-114 -36t-112 29.5t-39 85.5q0 20 8 55l50 215q17 76 60.5 112t117.5 36q68 0 106.5 -29t38.5 -80zM281 408q0 33 -35 33q-29 0 -42 -30
q-4 -10 -12 -44l-54 -233q-5 -20 -5 -31q0 -32 36 -32q21 0 32.5 13t18.5 46l54 237q7 28 7 41z" />
    <glyph glyph-name="divide" unicode="&#xf7;" horiz-adv-x="559" 
d="M410 533l-29 -128h-112l29 128h112zM517 349l-23 -101h-410l23 101h410zM333 192l-29 -128h-112l29 128h112z" />
    <glyph glyph-name="oslash" unicode="&#xf8;" 
d="M442 473l-45 -46v-12q0 -25 -6 -53l-51 -222q-18 -80 -59 -116t-114 -36q-89 0 -130 48l-35 -35l-35 31l50 55v16q0 27 7 55l50 215q17 76 60.5 112t117.5 36q81 0 124 -47l31 33zM282 408q0 33 -36 33q-24 0 -35 -16q-5 -7 -8 -14q-5 -13 -12 -44l-29 -124l113 122l2 8
q5 23 5 35zM254 274l-113 -126l-4 -15q-5 -19 -5 -31q0 -32 37 -32q17 0 28 10q10 10 13 16q4 8 11 36z" />
    <glyph glyph-name="ugrave" unicode="&#xf9;" horiz-adv-x="417" 
d="M351 574h-86l-133 132h153zM437 508l-117 -508h-121l9 37q-41 -47 -103 -47q-43 0 -67.5 22t-24.5 60q0 28 13 84l82 352h118l-84 -364q-5 -23 -5 -32q0 -37 36 -37q45 0 61 68l84 365h119z" />
    <glyph glyph-name="uacute" unicode="&#xfa;" horiz-adv-x="417" 
d="M441 706l-146 -132h-90l90 132h146zM437 508l-117 -508h-121l9 37q-41 -47 -103 -47q-43 0 -67.5 22t-24.5 60q0 28 13 84l82 352h118l-84 -364q-5 -23 -5 -32q0 -37 36 -37q45 0 61 68l84 365h119z" />
    <glyph glyph-name="ucircumflex" unicode="&#xfb;" horiz-adv-x="417" 
d="M430 574h-100l-27 73l-65 -73h-109l117 132h129zM437 508l-117 -508h-121l9 37q-41 -47 -103 -47q-43 0 -67.5 22t-24.5 60q0 28 13 84l82 352h118l-84 -364q-5 -23 -5 -32q0 -37 36 -37q45 0 61 68l84 365h119z" />
    <glyph glyph-name="udieresis" unicode="&#xfc;" horiz-adv-x="417" 
d="M470 715l-28 -120h-116l28 120h116zM273 715l-28 -120h-117l28 120h117zM437 508l-117 -508h-121l9 37q-41 -47 -103 -47q-43 0 -67.5 22t-24.5 60q0 28 13 84l82 352h118l-84 -364q-5 -23 -5 -32q0 -37 36 -37q45 0 61 68l84 365h119z" />
    <glyph glyph-name="yacute" unicode="&#xfd;" horiz-adv-x="354" 
d="M422 706l-146 -132h-90l90 132h146zM418 508l-243 -546q-2 -5 -7.5 -16.5t-9.5 -18.5q-24 -48 -44 -68q-36 -36 -106 -36q-40 0 -83 9l39 93q27 -7 42 -7q51 0 75 81l-14 509h116l-8 -327l124 327h119z" />
    <glyph glyph-name="thorn" unicode="&#xfe;" horiz-adv-x="417" 
d="M419 426q0 -27 -13 -83l-47 -205q-19 -78 -49 -110q-38 -39 -94 -39q-68 0 -93 55l-51 -220h-119l204 882h120l-58 -245q41 57 104 57q46 0 71 -24t25 -68zM294 382q0 35 -38 35q-17 0 -32 -10q-20 -15 -31 -62l-46 -198q-4 -17 -4 -27q0 -41 43 -41q23 0 36 15t21 51
l45 199q6 25 6 38z" />
    <glyph glyph-name="ydieresis" unicode="&#xff;" horiz-adv-x="354" 
d="M437 715l-28 -120h-116l28 120h116zM240 715l-28 -120h-117l28 120h117zM418 508l-243 -546q-2 -5 -7.5 -16.5t-9.5 -18.5q-24 -48 -44 -68q-36 -36 -106 -36q-40 0 -83 9l39 93q27 -7 42 -7q51 0 75 81l-14 509h116l-8 -327l124 327h119z" />
    <glyph glyph-name="OE" unicode="&#x152;" horiz-adv-x="688" 
d="M753 706l-26 -109h-206l-38 -165h203l-24 -104h-203l-50 -217h231l-26 -111h-305l7 34q-55 -49 -138 -49q-71 0 -112 33.5t-41 91.5q0 25 18 102l72 312q18 76 44 118q51 79 161 79q43 0 67 -8q13 -4 34 -15q20 -11 41 -36l10 44h281zM381 574q0 22 -15 34.5t-41 12.5
q-35 0 -52 -23q-15 -20 -29 -83l-77 -335q-7 -30 -7 -42q0 -48 58 -48q30 0 46.5 18.5t27.5 62.5l78 341q11 50 11 62z" />
    <glyph glyph-name="oe" unicode="&#x153;" horiz-adv-x="593" 
d="M595 403q0 -24 -11 -71l-24 -104h-203l-18 -77q-7 -32 -7 -42q0 -33 37 -33q20 0 32 12.5t19 42.5l9 35h115l-4 -19q-2 -12 -7 -26q-11 -40 -22 -62q-38 -72 -147 -72q-22 0 -43 3q-34 6 -58 23q-44 -25 -98 -25q-71 0 -110 30t-39 85q0 20 8 55l50 215q17 76 60.5 112
t117.5 36q60 0 99 -29q45 26 103 26q69 0 105 -29.5t36 -85.5zM478 395q0 33 -37 33q-39 0 -50 -51l-15 -67h85l13 59q4 19 4 26zM282 407q0 33 -36 33q-21 0 -34 -16q-3 -4 -7 -14q-6 -15 -13 -44l-54 -233q-5 -20 -5 -32q0 -14 10 -22.5t27 -8.5q21 0 32 12.5t18 46.5
l55 236q7 28 7 42z" />
    <glyph glyph-name="Scaron" unicode="&#x160;" horiz-adv-x="448" 
d="M495 894l-110 -133h-129l-62 133h100l34 -73l58 73h109zM491 605q0 -21 -6 -46l-13 -60h-130l11 49q4 16 4 32q0 42 -51 42q-36 0 -52 -30q-21 -37 -21 -76q0 -37 24 -57l82 -69q46 -40 59 -63q18 -33 18 -78q0 -54 -29 -138q-44 -126 -197 -126q-87 0 -134 33.5
t-47 95.5q0 28 11 73l15 62h129l-14 -57q-10 -41 -10 -63q0 -20 16 -32t42 -12q37 0 53 25q7 14 15 36q16 51 16 82q0 42 -41 74l-70 56q-20 16 -24 20q-17 16 -30 41q-15 30 -15 67q0 93 50 163q50 72 165 72q174 0 174 -116z" />
    <glyph glyph-name="scaron" unicode="&#x161;" horiz-adv-x="375" 
d="M429 707l-116 -132h-129l-56 132h101l27 -73l65 73h108zM384 424q0 -15 -5 -37l-9 -40h-103l8 36q3 13 3 23q0 33 -38 33q-23 0 -36.5 -17t-13.5 -46q0 -22 22 -40l58 -48q61 -51 61 -119q0 -86 -47.5 -132.5t-136.5 -46.5q-139 0 -139 100q0 23 11 71l4 18h110l-6 -24
q-7 -27 -7 -45q0 -16 10.5 -25.5t28.5 -9.5q26 0 42.5 22.5t16.5 57.5q0 17 -9 30t-37 37l-45 38q-53 44 -53 106q0 71 47.5 112.5t128.5 41.5q63 0 98.5 -25t35.5 -71z" />
    <glyph glyph-name="Ydieresis" unicode="&#x178;" horiz-adv-x="417" 
d="M513 883l-28 -121h-116l28 121h116zM313 883l-28 -121h-117l28 121h117zM528 706l-255 -497l-49 -209h-133l51 218l-29 488h133l-6 -356l148 356h140z" />
    <glyph glyph-name="florin" unicode="&#x192;" horiz-adv-x="327" 
d="M387 672l-23 -97q-24 2 -25 2q-17 0 -27 -10q-5 -5 -8 -12q-1 -3 -9 -32l-4 -15h52l-18 -79h-53l-115 -485q-14 -59 -47.5 -82.5t-103.5 -23.5q-4 0 -18.5 1t-22.5 1h-9l24 97q12 -1 21 -1q20 0 30 9.5t16 33.5l106 450h-52l17 79h54l14 60q14 57 49 83q32 23 109 23
q25 0 43 -2z" />
    <glyph glyph-name="circumflex" unicode="&#x2c6;" horiz-adv-x="208" 
d="M255 574h-100l-27 73l-65 -73h-110l117 132h129z" />
    <glyph glyph-name="tilde" unicode="&#x2dc;" horiz-adv-x="208" 
d="M267 698q-26 -126 -98 -126q-8 0 -18 2q-5 1 -25 10q-5 2 -35 18q-29 14 -45 14q-27 0 -45 -42h-60q13 50 32 79q34 46 79 46q16 0 23 -3q7 -1 17 -6q31 -14 39 -19q29 -15 39 -15q13 0 21.5 9.5t15.5 32.5h60z" />
    <glyph glyph-name="endash" unicode="&#x2013;" horiz-adv-x="421" 
d="M416 341l-23 -98h-356l23 98h356z" />
    <glyph glyph-name="emdash" unicode="&#x2014;" horiz-adv-x="626" 
d="M620 341l-22 -99h-561l23 99h560z" />
    <glyph glyph-name="quoteleft" unicode="&#x2018;" horiz-adv-x="195" 
d="M281 706l-104 -136h59l-30 -130h-118l30 130l115 136h48z" />
    <glyph glyph-name="quoteright" unicode="&#x2019;" horiz-adv-x="193" 
d="M269 706l-30 -130l-111 -136h-50l100 136h-59l30 130h120z" />
    <glyph glyph-name="quotesinglbase" unicode="&#x201a;" horiz-adv-x="193" 
d="M136 130l-30 -130l-111 -136h-50l100 136h-59l30 130h120z" />
    <glyph glyph-name="quotedblleft" unicode="&#x201c;" horiz-adv-x="375" 
d="M461 706l-99 -136h58l-30 -130h-120l30 130l112 136h49zM281 706l-104 -136h59l-30 -130h-118l30 130l115 136h48z" />
    <glyph glyph-name="quotedblright" unicode="&#x201d;" horiz-adv-x="375" 
d="M451 706l-30 -130l-114 -136h-49l105 136h-60l30 130h118zM269 706l-30 -130l-111 -136h-50l100 136h-59l30 130h120z" />
    <glyph glyph-name="quotedblbase" unicode="&#x201e;" horiz-adv-x="375" 
d="M318 130l-30 -130l-114 -136h-49l105 136h-60l30 130h118zM136 130l-30 -130l-111 -136h-50l100 136h-59l30 130h120z" />
    <glyph glyph-name="dagger" unicode="&#x2020;" horiz-adv-x="437" 
d="M491 535l-25 -111h-136l-98 -424h-119l98 424h-139l25 111h139l40 171h119l-40 -171h136z" />
    <glyph glyph-name="daggerdbl" unicode="&#x2021;" horiz-adv-x="437" 
d="M491 535l-25 -111h-137l-29 -128h136l-25 -111h-137l-42 -185h-117l43 185h-141l25 111h141l30 128h-141l25 111h141l40 171h117l-41 -171h137z" />
    <glyph glyph-name="bullet" unicode="&#x2022;" horiz-adv-x="333" 
d="M357 478l-59 -258h-257l59 258h257z" />
    <glyph glyph-name="ellipsis" unicode="&#x2026;" horiz-adv-x="1000" 
d="M859 100l-22 -100h-97l22 100h97zM526 100l-22 -100h-97l23 100h96zM193 100l-23 -100h-96l22 100h97z" />
    <glyph glyph-name="perthousand" unicode="&#x2030;" horiz-adv-x="1002" 
d="M1010 370q0 -30 -7 -58l-46 -199q-15 -64 -44 -89q-32 -29 -87 -29q-112 0 -112 85q0 18 7 52l46 200q14 63 43 89q34 28 88 28q52 0 82 -21t30 -58zM716 370q0 -30 -7 -58l-46 -199q-15 -64 -44 -89q-32 -29 -87 -29q-112 0 -112 85q0 18 7 52l46 200q14 63 43 89
q34 28 88 28q53 0 82.5 -21t29.5 -58zM626 693l-423 -738l-59 22l424 739zM349 592q0 -30 -7 -58l-46 -199q-15 -64 -43 -89q-34 -29 -88 -29q-112 0 -112 85q0 20 8 52l46 200q15 65 43 89q32 28 87 28q53 0 82.5 -21t29.5 -58zM930 358q0 29 -36 29q-20 0 -29.5 -10.5
t-16.5 -39.5l-50 -224q-4 -22 -4 -26q0 -30 36 -30q19 0 28.5 10.5t16.5 39.5l51 224q4 15 4 27zM636 358q0 29 -36 29q-20 0 -29.5 -10.5t-16.5 -39.5l-50 -224q-4 -22 -4 -26q0 -30 36 -30q19 0 28.5 11t16.5 40l51 223q4 15 4 27zM269 580q0 29 -36 29q-20 0 -29 -10.5
t-16 -39.5l-51 -224q-4 -20 -4 -26q0 -29 36 -29q20 0 29.5 10.5t16.5 39.5l50 224q4 20 4 26z" />
    <glyph glyph-name="guilsinglleft" unicode="&#x2039;" horiz-adv-x="168" 
d="M178 410l-24 -103l-54 -44l35 -41l-22 -94l-81 93l22 92z" />
    <glyph glyph-name="guilsinglright" unicode="&#x203a;" horiz-adv-x="168" 
d="M163 315l-21 -92l-125 -97l24 103l54 44l-34 41l21 94z" />
    <glyph glyph-name="Euro" unicode="&#x20ac;" horiz-adv-x="481" 
d="M554 657l-49 -105q-19 21 -38 32q-30 18 -70 18q-33 0 -53 -14q-15 -12 -23 -25q-14 -23 -27 -80l-11 -47h167l-30 -67h-152l-12 -49h139l-29 -67h-125l-11 -48q-7 -31 -7 -51q0 -66 73 -66q35 0 77 17q27 12 64 39l-29 -126q-24 -10 -30 -12q-57 -21 -129 -21
q-77 0 -119.5 35.5t-42.5 99.5q0 33 16 102l7 31h-59l29 67h45l11 48h-61l31 68h46l12 49q19 78 37 116t49 62q51 39 135 39q94 0 169 -45z" />
    <glyph glyph-name="trademark" unicode="&#x2122;" horiz-adv-x="631" 
d="M669 706l-77 -331h-64l63 262l-116 -262h-51l8 266l-60 -266h-65l78 331h96l-3 -212l95 212h96zM354 706l-14 -61h-73l-62 -270h-68l62 270h-75l15 61h215z" />
    </font>
</defs>
</svg>
