<?xml version="1.0" standalone="no"?>
<!DOCTYPE svg PUBLIC "-//W3C//DTD SVG 1.1//EN" "http://www.w3.org/Graphics/SVG/1.1/DTD/svg11.dtd" >
<svg xmlns="http://www.w3.org/2000/svg" xmlns:xlink="http://www.w3.org/1999/xlink" version="1.1">
<metadata>
Created by FontForge 20170731 at Thu May 17 19:59:57 2007
 By Aleksey,,,
Copyright  1997, 2001, Berthold LLC. All rights reserved. Akzidenz-Grotesk is a trademark of Berthold Types Limited.
</metadata>
<defs>
<font id="AkzidenzGroteskBQ-BdCndAlt" horiz-adv-x="396" >
  <font-face 
    font-family="Akzidenz-Grotesk BQ Condensed A"
    font-weight="700"
    font-stretch="condensed"
    units-per-em="1000"
    panose-1="0 0 0 0 0 0 0 0 0 0"
    ascent="800"
    descent="-200"
    x-height="512"
    cap-height="706"
    bbox="-51 -221 974 919"
    underline-thickness="92"
    underline-position="-452"
    unicode-range="U+0020-2122"
  />
<missing-glyph horiz-adv-x="500" 
 />
    <glyph glyph-name=".notdef" horiz-adv-x="500" 
 />
    <glyph glyph-name=".null" horiz-adv-x="0" 
 />
    <glyph glyph-name="nonmarkingreturn" horiz-adv-x="333" 
 />
    <glyph glyph-name="space" unicode=" " horiz-adv-x="229" 
 />
    <glyph glyph-name="exclam" unicode="!" horiz-adv-x="229" 
d="M191 393l-19 -203h-78l-16 197v319h113v-313zM194 0h-119v132h119v-132z" />
    <glyph glyph-name="quotedbl" unicode="&#x22;" horiz-adv-x="300" 
d="M276 741l-34 -289h-33l-38 289h105zM129 741l-34 -289h-33l-37 289h104z" />
    <glyph glyph-name="numbersign" unicode="#" horiz-adv-x="537" 
d="M522 405h-109l-9 -89h106v-96h-114l-21 -220h-95l20 220h-71l-21 -220h-96l20 220h-117v96h126l8 89h-122v96h132l19 205h96l-19 -205h71l19 205h96l-20 -205h101v-96zM317 405h-72l-7 -89h71z" />
    <glyph glyph-name="dollar" unicode="$" horiz-adv-x="417" 
d="M384 176q0 -99 -51 -145q-35 -30 -94 -37v-94h-51v94q-66 3 -102 35q-24 21 -36 53q-10 27 -10 74v78h111v-79q0 -19 5 -33q13 -33 55 -33q20 0 35 9q25 18 25 76q0 49 -32 81l-141 144q-18 18 -32 38q-29 43 -29 100q0 74 32 114q36 45 119 51v81h51v-81q51 -7 81 -31
q27 -21 39 -53.5t12 -92.5q0 -7 -0.5 -22t-0.5 -23h-112v66q0 39 -14 53t-38 14q-34 0 -48 -28q-5 -9 -6 -28q0 -3 -0.5 -9t-0.5 -10q0 -31 26 -59l149 -155q18 -18 30 -35q28 -40 28 -113z" />
    <glyph glyph-name="percent" unicode="%" horiz-adv-x="708" 
d="M683 102q0 -43 -23 -71q-30 -37 -95 -37q-74 0 -104 40q-7 7 -13 23q-6 17 -6 47v226q0 31 7 52q9 27 36.5 46t76.5 19q90 0 113 -60q8 -19 8 -50v-235zM519 692l-265 -737l-64 22l266 738zM266 326q0 -45 -24 -73q-31 -35 -94 -35q-97 0 -117 66q-5 15 -5 44v226
q0 33 6 51q22 66 113 66q89 0 113 -59q8 -21 8 -51v-235zM601 101v237v5v5.5t-0.5 6t-1 6.5t-2 6t-3.5 6t-5 4.5t-6.5 4t-9 2.5t-11.5 1q-20 0 -29.5 -10.5t-10 -17t-0.5 -20.5v-241q0 -28 20 -35q8 -3 20 -3q14 0 24 5q15 9 15 38zM185 325v237v5v5.5t-0.5 6t-1 6.5t-2 6
t-3.5 6t-5 4.5t-6.5 4t-9 2.5t-11.5 1q-20 0 -29.5 -10.5t-10 -17t-0.5 -20.5v-241q0 -28 20 -35q8 -3 20 -3q14 0 24 5q15 9 15 38z" />
    <glyph glyph-name="ampersand" unicode="&#x26;" horiz-adv-x="521" 
d="M506 82l-1 -85q-48 -6 -56 -6q-55 0 -92 37q-40 -22 -68 -31t-66 -9q-42 0 -78 13q-57 21 -87.5 70t-30.5 111q0 44 14 79q24 67 109 146q-8 14 -14 26q-38 76 -38 138q0 42 20 79.5t57 54.5q28 13 69 13q37 0 63 -11q73 -34 73 -116q0 -14 -1.5 -27t-6 -26.5t-7.5 -23
t-11.5 -23.5t-12 -20t-15.5 -21.5t-15 -19t-17.5 -20.5t-16.5 -20l92 -180l6 15q14 34 15 95h103q-7 -132 -64 -212q13 -15 29 -21t48 -5zM275 590q0 20 -10.5 28.5t-22.5 8.5q-18 -1 -27.5 -16t-9.5 -34q0 -33 24 -81q5 7 14 20.5t13 20.5q19 31 19 53zM299 115l-103 187
q-26 -33 -39 -59.5t-13 -59.5q0 -21 6 -36q9 -24 31.5 -38.5t48.5 -14.5q34 0 69 21z" />
    <glyph glyph-name="quotesingle" unicode="'" horiz-adv-x="154" 
d="M129 741l-34 -289h-33l-37 289h104z" />
    <glyph glyph-name="parenleft" unicode="(" horiz-adv-x="292" 
d="M272 -182q-50 18 -95 49q-123 86 -123 222v411q0 178 218 274v-93q-56 -32 -77.5 -81t-21.5 -120v-397q0 -60 23.5 -99.5t75.5 -78.5v-87z" />
    <glyph glyph-name="parenright" unicode=")" horiz-adv-x="292" 
d="M238 91q0 -177 -218 -273v93q57 31 78 80.5t21 120.5v397q0 62 -22.5 97.5t-76.5 80.5v87q47 -15 95 -50q63 -45 93 -97.5t30 -124.5v-411z" />
    <glyph glyph-name="asterisk" unicode="*" horiz-adv-x="378" 
d="M358 557l-98 -34l60 -79l-68 -53l-64 83l-58 -83l-70 51l56 80l-96 28l25 83l98 -28v103h87v-104l100 34z" />
    <glyph glyph-name="plus" unicode="+" horiz-adv-x="558" 
d="M476 249h-137v-158h-119v158h-138v100h138v157h119v-157h137v-100z" />
    <glyph glyph-name="comma" unicode="," horiz-adv-x="187" 
d="M153 0l-83 -135h-44l68 135h-58v129h117v-129z" />
    <glyph glyph-name="hyphen" unicode="-" horiz-adv-x="314" 
d="M281 242h-248v99h248v-99z" />
    <glyph glyph-name="period" unicode="." horiz-adv-x="187" 
d="M152 0h-117v129h117v-129z" />
    <glyph glyph-name="slash" unicode="/" horiz-adv-x="250" 
d="M240 706l-129 -706h-99l130 706h98z" />
    <glyph glyph-name="zero" unicode="0" 
d="M366 152q0 -30 -6 -53q-19 -79 -97 -101q-28 -7 -62 -7q-89 0 -132 42q-20 20 -30 49q-10 32 -10 73v344q0 4 0.5 13.5t0.5 14.5q3 56 28 89q44 58 138 58q127 0 160 -89q10 -27 10 -76v-357zM251 151v361q0 32 -4 44q-9 31 -48 31q-9 0 -16 -2t-12.5 -4.5t-9.5 -6.5
t-7 -8t-4.5 -9.5t-2.5 -9t-1.5 -9.5t-0.5 -8.5v-7v-5.5v-374q0 -62 51 -62q20 0 34 9q21 15 21 61z" />
    <glyph glyph-name="one" unicode="1" 
d="M265 0h-117v507q-10 -8 -16 -12q-33 -20 -84 -29l1 92q1 0 9.5 2.5t14.5 5.5q43 16 80 54q13 14 34 45h78v-665z" />
    <glyph glyph-name="two" unicode="2" 
d="M371 0h-350v16q0 97 34 168q12 25 30.5 49t31 37t41.5 41l9.5 9.5t12 11.5t9.5 10q43 43 52 64q8 17 8 45v76q0 34 -17 49q-12 9 -32 9q-18 0 -29 -5q-27 -14 -27 -59v-79h-109v81q0 67 32 104q43 47 129 47q122 0 155 -78q13 -33 13 -66v-88q0 -38 -9 -63
q-6 -19 -25 -43.5t-37 -43.5t-60 -60l-14 -14q-14 -13 -16.5 -16t-13.5 -15t-15 -19t-10 -17t-9 -20q-4 -15 -5 -31h221v-100z" />
    <glyph glyph-name="three" unicode="3" 
d="M367 143q0 -36 -9 -61q-15 -37 -54 -64t-105 -27q-13 0 -28 2t-43 8.5t-52 25.5t-36 48q-11 26 -11 53v81h115v-71q0 -22 3 -29q12 -29 54 -29q17 0 29 7q21 13 21 47v100q0 49 -20 66q-19 16 -66 16h-24v78h24q46 0 66 21q16 16 16 61v50v4v6t-0.5 7.5t-1.5 8.5t-3 8.5
t-5 8t-8 6.5t-11 5q-12 4 -22 4q-40 0 -49 -32q-2 -7 -2 -17v-69h-110v83q0 31 13 56q35 69 153 69q115 0 149 -75q13 -28 13 -62v-75q0 -50 -20 -71q-20 -22 -75 -32q66 -10 84 -36q15 -22 15 -79v-101z" />
    <glyph glyph-name="four" unicode="4" 
d="M371 126h-40v-126h-107v126h-203v93l171 449h139v-449h40v-93zM231 550l-112 -331h105z" />
    <glyph glyph-name="five" unicode="5" 
d="M367 155q0 -38 -9 -70q-29 -94 -157 -94q-78 0 -121 31q-52 37 -52 116v69h115v-68q0 -18 2 -25q10 -32 49 -32t50 27q5 11 5 28v165q0 53 -23 66q-12 8 -30 8q-40 0 -56 -38q-6 -14 -8 -29h-92l7 356h310v-100h-216l-2 -136q48 35 98 35q54 -1 83.5 -26.5t39.5 -56.5
q7 -21 7 -61v-165z" />
    <glyph glyph-name="six" unicode="6" 
d="M367 145q0 -45 -9 -68q-33 -86 -158 -86q-87 0 -132 45q-20 20 -29 46q-8 21 -8 65v383q0 46 21 80q39 64 152 64q40 0 80 -13t58 -42q20 -32 20 -84v-46h-110v36q0 43 -21 54q-12 6 -30 6q-16 0 -28 -5.5t-17 -11.5t-8 -17.5t-3 -16v-14.5v-131q50 41 106 41
q52 0 78 -25t33 -55q5 -20 5 -50v-155zM253 142v121q0 47 -19 61q-12 10 -32 10q-17 0 -32 -8q-16 -9 -20.5 -22.5t-4.5 -35.5v-109q0 -46 17 -63q15 -14 40 -14q34 0 46 29q5 12 5 31z" />
    <glyph glyph-name="seven" unicode="7" 
d="M379 566q-18 -30 -26 -46q-51 -91 -86 -212q-50 -167 -49 -308h-125q1 61 23 157q43 190 129 359q5 10 14.5 27t13.5 24h-156v-78h-97v176h359v-99z" />
    <glyph glyph-name="eight" unicode="8" 
d="M365 153q0 -41 -8 -68.5t-33 -50.5q-47 -43 -125 -43q-120 0 -158 82q-13 32 -13 70v85q0 31 4 48q7 31 23 46.5t50 32.5l-6 3q-6 3 -14 7.5t-13 8.5q-35 27 -35 88v70q0 59 26 92q11 15 34 29q38 21 101 21q119 0 150 -76q10 -23 10 -70v-58q0 -47 -12 -69
q-13 -23 -58 -46q33 -15 47 -27q30 -25 30 -85v-90zM248 459v70q0 35 -22 47q-12 7 -28 7q-39 0 -49 -31q-2 -8 -2 -19v-81q0 -26 8 -39q11 -18 44 -18q25 0 37 14q12 13 12 50zM252 147v100q0 42 -20 56q-13 9 -33 9q-56 0 -56 -66v-93q0 -51 25 -63q14 -7 29 -7q17 0 31 7
q24 13 24 57z" />
    <glyph glyph-name="nine" unicode="9" 
d="M364 142q0 -57 -25 -92q-43 -59 -151 -59q-90 0 -131 47q-18 21 -26 47q-5 22 -5 41v53h115v-42q0 -18 4 -31q10 -27 49 -27q45 0 54 33q2 6 2 24v141q-1 -1 -7 -5.5t-9 -6.5t-9.5 -6t-11.5 -6.5t-13 -5.5t-15 -5t-16.5 -3t-19.5 -1q-91 1 -115 69q-8 24 -8 48v164
q0 58 22 93q12 21 34 36q43 26 117 26q119 0 153 -74q12 -27 12 -72v-386zM250 402v123q0 39 -21 53q-14 9 -32 9q-56 -1 -56 -69v-116q0 -41 13 -56t40 -15q26 0 38 12q18 15 18 59z" />
    <glyph glyph-name="colon" unicode=":" horiz-adv-x="229" 
d="M196 381h-120v131h120v-131zM196 0h-120v130h120v-130z" />
    <glyph glyph-name="semicolon" unicode=";" horiz-adv-x="229" 
d="M194 382h-119v130h119v-130zM194 0l-82 -135h-45l71 135h-63v130h119v-130z" />
    <glyph glyph-name="less" unicode="&#x3c;" horiz-adv-x="559" 
d="M445 76l-358 193v107l358 195v-114l-249 -130l249 -127v-124z" />
    <glyph glyph-name="equal" unicode="=" horiz-adv-x="559" 
d="M474 354h-389v98h389v-98zM474 162h-389v98h389v-98z" />
    <glyph glyph-name="greater" unicode="&#x3e;" horiz-adv-x="559" 
d="M472 271l-358 -195v113l249 131l-249 127v124l358 -194v-106z" />
    <glyph glyph-name="question" unicode="?" horiz-adv-x="417" 
d="M389 521q0 -60 -23 -94l-68 -99q-38 -56 -41 -81q-2 -12 -2 -35v-22h-113v35q0 25 1 33q4 36 33 80l66 102q2 2 6 8.5t5.5 9t4.5 8t4 8.5l3 9t3 11.5t1.5 12.5t0.5 15v63q0 49 -45 49q-49 0 -49 -54v-117h-111v74q0 40 4 67q9 51 44.5 81t117.5 30q75 0 115 -30
q19 -13 30 -36q13 -27 13 -88v-40zM258 0h-116v130h116v-130z" />
    <glyph glyph-name="at" unicode="@" horiz-adv-x="834" 
d="M793 432q0 -93 -34 -177.5t-90 -135.5t-118 -51q-36 0 -59.5 18t-29.5 50q-56 -68 -126 -68q-62 0 -98.5 44t-36.5 120q0 116 66.5 204t154.5 88q25 0 47 -9q29 -11 56 -51l10 40h89l-35 -159q-31 -142 -31 -166q0 -27 20 -27q17 0 44 27q39 42 63 110t24 136
q0 100 -58.5 157t-162.5 57q-148 0 -256.5 -120t-108.5 -283q0 -127 75 -200q39 -38 96.5 -59t120.5 -21q177 0 325 146l45 -62q-66 -60 -122 -94q-117 -68 -253 -68q-62 0 -120 16q-97 28 -159 90q-93 90 -93 249q0 202 131.5 341.5t321.5 139.5q134 0 218 -78.5t84 -203.5
zM490 350q0 39 -18 62t-48 23q-46 0 -83 -60t-37 -135q0 -38 16.5 -60t44.5 -22q45 0 81 52q19 26 31.5 66.5t12.5 73.5z" />
    <glyph glyph-name="A" unicode="A" horiz-adv-x="437" 
d="M428 0h-132l-17 115h-120l-19 -115h-130l137 706h149zM265 224l-43 303l-47 -303h90z" />
    <glyph glyph-name="B" unicode="B" horiz-adv-x="479" 
d="M436 151q0 -6 -0.5 -16.5t-0.5 -15.5q-5 -79 -62 -105q-31 -14 -100 -14h-223v706h219q29 0 43 -0.5t36 -7t38 -19.5q27 -21 34.5 -48t7.5 -69v-63q0 -31 -4 -50q-5 -21 -14 -35t-23 -20.5t-20.5 -8.5t-20.5 -5q50 -10 70 -34q4 -5 6.5 -9.5t4.5 -10.5t3.5 -10t2.5 -11
t1.5 -10t1 -11.5t0.5 -10v-11.5v-11v-100zM299 492v48q0 18 -3 31q-3 12 -9.5 19t-16.5 10t-17.5 4t-20.5 1h-52v-178h47q19 0 35 2q37 7 37 63zM308 173v83q0 29 -4 39q-10 30 -68 30h-56v-223h55q23 0 33 2q21 3 30.5 18.5t9.5 50.5z" />
    <glyph glyph-name="C" unicode="C" horiz-adv-x="458" 
d="M430 165q0 -55 -10 -84q-12 -34 -38.5 -56t-60.5 -29.5t-49.5 -9t-31.5 -1.5q-36 0 -67 7q-92 18 -119 84q-10 26 -10 74v384q0 13 2 37q3 71 50 109q52 41 146 41q84 0 132 -32q31 -21 44 -52q12 -25 12 -80v-108h-128v89q0 44 -13 63.5t-54 19.5q-35 0 -47.5 -19.5
t-12.5 -57.5v-378q0 -39 13.5 -59.5t50.5 -20.5q40 0 51.5 20t11.5 67v92h128v-100z" />
    <glyph glyph-name="D" unicode="D" horiz-adv-x="479" 
d="M438 190q0 -26 -1 -39q-5 -94 -66 -129q-38 -22 -112 -22h-209v706h239q55 0 97 -35q33 -28 42.5 -63t9.5 -88v-330zM308 179v352q0 45 -18 60q-15 12 -59 12h-51v-500h46q25 0 37 2q20 4 30.5 16t12.5 24.5t2 33.5z" />
    <glyph glyph-name="E" unicode="E" horiz-adv-x="417" 
d="M402 0h-352v706h342v-107h-212v-166h200v-107h-200v-217h222v-109z" />
    <glyph glyph-name="F" unicode="F" 
d="M396 597h-215v-177h202v-105h-202v-315h-131v706h346v-109z" />
    <glyph glyph-name="G" unicode="G" horiz-adv-x="479" 
d="M433 0h-111v42q-18 -19 -28 -27q-39 -30 -98 -30t-94 24.5t-48 57.5q-10 25 -10 62v402q0 59 13 94q36 96 188 96q126 0 169 -65q19 -29 19 -75v-103h-130v68v5q0 15 -0.5 22.5t-6 18t-15.5 17.5q-15 10 -39 10q-26 0 -41 -11q-25 -18 -25 -80v-373q0 -24 5 -37
q13 -32 56 -32q36 0 51 18q15 16 15 63v110h-80v106h210v-383z" />
    <glyph glyph-name="H" unicode="H" horiz-adv-x="479" 
d="M429 0h-130v323h-119v-323h-130v706h130v-277h119v277h130v-706z" />
    <glyph glyph-name="I" unicode="I" horiz-adv-x="229" 
d="M179 0h-129v706h129v-706z" />
    <glyph glyph-name="J" unicode="J" 
d="M346 160q0 -45 -8 -75q-29 -100 -172 -100q-74 0 -117 31q-27 19 -39 54q-9 28 -9 59v95h121v-67q0 -51 22 -63q12 -6 24 -6q16 0 28 9q19 14 19 64v545h131v-546z" />
    <glyph glyph-name="K" unicode="K" horiz-adv-x="458" 
d="M461 0h-141l-138 345v-345h-132v706h132v-275l141 275h134l-161 -305z" />
    <glyph glyph-name="L" unicode="L" horiz-adv-x="375" 
d="M371 0h-321v706h130v-599h191v-107z" />
    <glyph glyph-name="M" unicode="M" horiz-adv-x="688" 
d="M638 0h-130l12 612l-114 -612h-121l-117 612l10 -612h-128v706h212l83 -494l84 494h209v-706z" />
    <glyph glyph-name="N" unicode="N" horiz-adv-x="500" 
d="M450 0h-164l-125 529l11 -529h-122v706h167l127 -518l-13 518h119v-706z" />
    <glyph glyph-name="O" unicode="O" horiz-adv-x="479" 
d="M435 151q0 -79 -41 -119q-51 -47 -153 -47q-96 0 -147 41q-26 21 -35 44q-15 31 -15 81v396q0 89 44 128q52 46 154 46q71 0 115 -24t62 -59q16 -33 16 -94v-393zM304 170v365q0 42 -8 57q-14 31 -54 31q-25 0 -42 -13q-6 -4 -10.5 -9t-7 -11t-4.5 -10.5t-2.5 -12.5
t-0.5 -11.5v-13.5v-12v-357q0 -48 12 -65q15 -21 53 -21q24 0 41 12q11 8 16.5 21.5t6 22t0.5 27.5z" />
    <glyph glyph-name="P" unicode="P" horiz-adv-x="458" 
d="M431 454q0 -53 -4.5 -79.5t-20.5 -45.5q-28 -35 -115 -35h-110v-294h-131v706h262q21 0 35 -3q49 -11 69 -50q15 -30 15 -106v-93zM303 458v72q0 45 -10 57q-12 15 -48 15h-64v-207h63q40 0 50 14q9 12 9 49z" />
    <glyph glyph-name="Q" unicode="Q" horiz-adv-x="479" 
d="M485 -14l-80 -79l-89 91q-2 0 -6 -2t-6 -2q-36 -9 -76 -9q-98 0 -147 50q-18 19 -25 38q-12 27 -12 65v412q0 53 15 85q18 37 63 61.5t118 24.5q92 0 144 -43q22 -19 33 -41q16 -33 16 -93v-397q0 -51 -19 -87zM302 167v391q0 64 -62 64q-18 0 -34 -7q-31 -14 -31 -74
v-390q0 -62 63 -62q19 0 32.5 7t19.5 14t9 22t3 18.5v16.5z" />
    <glyph glyph-name="R" unicode="R" horiz-adv-x="479" 
d="M472 0h-143q-1 2 -3 5.5t-3 5.5q-13 29 -13 57v161q0 22 -1 34q-5 48 -67 48h-62v-311h-130v706h260q56 0 86 -23q20 -14 29.5 -38t10.5 -40t1 -48v-76q0 -51 -14 -76q-9 -14 -15 -19q-17 -14 -62 -25q14 0 39 -14q57 -31 57 -109v-144q0 -59 18 -83q2 -3 12 -11z
M308 479v68q0 32 -15 47q-13 11 -45 11h-68v-193h68q35 0 49 17q11 13 11 50z" />
    <glyph glyph-name="S" unicode="S" horiz-adv-x="458" 
d="M424 197q0 -77 -7 -104q-30 -108 -183 -108q-94 0 -145 40q-24 18 -37 48q-14 35 -14 73v103h129v-82v-5q0 -52 23 -67q16 -10 40 -10q30 0 45 13q13 10 16 30t3 64t-14 65q-6 9 -30 28l-123 83q-39 26 -59 58q-25 42 -25 112q0 62 17 97q14 30 40.5 49.5t58 26t47 8.5
t29.5 2q134 0 171 -93q11 -28 11 -59v-70h-130v72q0 51 -58 51t-58 -70q0 -48 14 -68q5 -7 27 -23l126 -87q34 -22 58 -55q5 -7 9 -13t7 -13.5t5 -12t3.5 -13t2 -12t1 -14t0.5 -13v-15.5v-16z" />
    <glyph glyph-name="T" unicode="T" 
d="M394 604h-131v-604h-131v604h-130v102h392v-102z" />
    <glyph glyph-name="U" unicode="U" horiz-adv-x="479" 
d="M431 159q0 -72 -32 -113q-47 -61 -163 -61q-96 0 -144 51q-19 19 -30 48q-13 32 -13 78v544h130v-525q0 -38 7 -55q13 -30 54 -30q23 0 38 11q5 3 8.5 7t5.5 8t4 10t2.5 9.5t1 10.5t0.5 10v10.5v9.5v524h131v-547z" />
    <glyph glyph-name="V" unicode="V" horiz-adv-x="417" 
d="M410 706l-133 -706h-131l-140 706h138l69 -467l64 467h133z" />
    <glyph glyph-name="W" unicode="W" horiz-adv-x="708" 
d="M697 706l-136 -706h-137l-68 482l-76 -482h-139l-129 706h135l71 -532l76 532h123l74 -532l74 532h132z" />
    <glyph glyph-name="X" unicode="X" horiz-adv-x="479" 
d="M465 0h-143l-83 245l-84 -245h-141l156 376l-139 330h142l67 -199l68 199h142l-141 -334z" />
    <glyph glyph-name="Y" unicode="Y" horiz-adv-x="417" 
d="M416 706l-141 -497v-209h-133v218l-141 488h137l72 -356l69 356h137z" />
    <glyph glyph-name="Z" unicode="Z" horiz-adv-x="417" 
d="M396 636l-231 -526h227v-110h-369v82l225 515h-196v109h344v-70z" />
    <glyph glyph-name="bracketleft" unicode="[" horiz-adv-x="333" 
d="M291 -172h-241v931h240v-89h-122v-752h123v-90z" />
    <glyph glyph-name="backslash" unicode="\" horiz-adv-x="250" 
d="M240 0h-98l-130 706h99z" />
    <glyph glyph-name="bracketright" unicode="]" horiz-adv-x="333" 
d="M284 -172h-240v90h122v752h-123v89h241v-931z" />
    <glyph glyph-name="asciicircum" unicode="^" horiz-adv-x="559" 
d="M508 358h-122l-105 242l-107 -242h-123l174 348h110z" />
    <glyph glyph-name="underscore" unicode="_" horiz-adv-x="500" 
d="M510 -221h-520v92h520v-92z" />
    <glyph glyph-name="grave" unicode="`" horiz-adv-x="250" 
d="M235 574h-87l-133 132h153z" />
    <glyph glyph-name="a" unicode="a" 
d="M375 0h-125q-11 13 -14 45q-2 -2 -8 -9t-10 -10q-37 -37 -85 -37q-37 0 -62 19q-18 13 -27.5 38t-10.5 42.5t-1 48.5v8v7q0 70 24 98q15 19 54 38l124 62v30q0 43 -16 54q-12 7 -26 7q-28 0 -37 -20q-4 -9 -4 -48v-19h-109v58q0 45 29 73q38 38 129 38q105 0 140 -64
q12 -21 12 -49v-285q0 -95 15 -116q1 -4 8 -9zM233 108v150l-58 -38q-8 -6 -10 -8q-17 -16 -17 -74q0 -31 6 -45.5t23 -13.5q22 0 43 18z" />
    <glyph glyph-name="b" unicode="b" horiz-adv-x="417" 
d="M379 113q0 -29 -8 -53q-12 -33 -40 -52t-63 -19q-50 0 -86 35q-10 10 -18 23l-1 -47h-119v706h119v-234q19 16 20 17q49 33 87 33q33 0 61 -19t39 -49q9 -23 9 -51v-290zM258 158v215q0 33 -14 46q-12 12 -31 12q-36 0 -47 -31q-4 -12 -4 -35v-207q0 -13 1 -23
q6 -45 49 -45q22 0 33 14q13 17 13 54z" />
    <glyph glyph-name="c" unicode="c" 
d="M367 145q0 -67 -29 -103q-41 -52 -133 -52t-136 48q-14 18 -21 36q-10 26 -10 65v227q0 61 28 98q45 58 139 58q12 0 25.5 -1.5t41 -7.5t51 -23.5t34.5 -44.5q10 -25 10 -66v-61h-117v62q0 13 -2 25q-9 33 -43 32q-16 0 -28 -7q-21 -14 -21 -62v-223q0 -26 3 -35
q9 -32 44 -32q14 0 26 7q20 14 20 59v59h118v-58z" />
    <glyph glyph-name="d" unicode="d" horiz-adv-x="417" 
d="M372 0h-120l1 50q-25 -35 -47 -48q-24 -12 -53 -12q-38 0 -71 22q-27 20 -35 49t-8 93v233q0 87 52 119q31 17 59 17q47 0 103 -52v235h119v-706zM253 152v220q0 14 -1 21.5t-6 15.5t-15 14q-15 8 -29 8q-15 0 -26 -8q-19 -13 -19 -57v-218q0 -39 17 -50q11 -8 29 -8
q27 0 41 20q9 13 9 42z" />
    <glyph glyph-name="e" unicode="e" 
d="M360 230h-203v-84q0 -25 3 -34q9 -29 41 -29q29 0 38 28q4 11 4 58h115v-41q0 -29 -5 -46q-26 -92 -152 -92q-124 0 -154 98q-9 32 -9 67v216q0 40 13 69q17 42 59 62t92 20q56 0 93 -22.5t51 -50.5t14 -73v-146zM242 314v63q0 51 -41 51q-44 0 -44 -51v-63h85z" />
    <glyph glyph-name="f" unicode="f" horiz-adv-x="250" 
d="M240 608q-27 3 -35 1q-22 -5 -22 -34v-63h53v-79h-54v-433h-118v433h-53v79h53q0 92 3 114q4 34 30 57q29 25 99 25q16 0 44 -2v-98z" />
    <glyph glyph-name="g" unicode="g" horiz-adv-x="417" 
d="M373 -18q0 -11 -2 -33q-4 -68 -52 -101q-43 -30 -121 -30q-11 0 -41 3q-86 15 -108 74q-8 23 -8 63h118q0 -18 2 -24q8 -30 44 -30q15 0 27 7q21 12 21 54v79q-44 -50 -104 -50q-31 0 -61 15q-32 17 -41 44t-9 69v271q0 34 7 56q5 16 14 30t32.5 28.5t55.5 14.5
q52 0 106 -51v41h120v-530zM252 143v227q0 62 -48 62q-18 0 -29 -9q-19 -15 -19 -52v-228q0 -18 4 -30q9 -27 43 -27q49 0 49 57z" />
    <glyph glyph-name="h" unicode="h" horiz-adv-x="417" 
d="M373 0h-119v364q0 30 -4 40q-11 23 -40 23q-35 0 -45 -35q-2 -8 -2 -21v-371h-119v706h117l1 -235q47 51 104 51q35 0 62 -18.5t38 -51.5q7 -21 7 -51v-401z" />
    <glyph glyph-name="i" unicode="i" horiz-adv-x="208" 
d="M164 586h-120v120h120v-120zM164 0h-120v512h120v-512z" />
    <glyph glyph-name="j" unicode="j" horiz-adv-x="208" 
d="M164 587h-119v119h119v-119zM164 -48q0 -84 -45 -112q-27 -17 -79 -17q-26 0 -48 3v99q31 0 42 10l5 5t3 5.5t1.5 5.5t1 7t0.5 7v9.5v11.5v526h119v-560z" />
    <glyph glyph-name="k" unicode="k" 
d="M406 0h-134l-110 261v-261h-118v706h118v-369l98 175h132l-131 -213z" />
    <glyph glyph-name="l" unicode="l" horiz-adv-x="208" 
d="M164 0h-120v706h120v-706z" />
    <glyph glyph-name="m" unicode="m" horiz-adv-x="625" 
d="M581 0h-119v379q0 39 -18 52q-12 7 -25 7q-48 0 -48 -65v-373h-118v376v7.5v8t-0.5 7t-1 7.5t-1.5 6.5t-3 7t-4.5 5.5t-5.5 6q-10 9 -28 9q-46 0 -46 -61v-379h-118v512h119v-34q49 45 101 45t96 -51q29 25 45 33.5t39 13.5q17 3 33 3q35 0 62 -18.5t36 -51.5
q5 -16 5 -46v-406z" />
    <glyph glyph-name="n" unicode="n" horiz-adv-x="417" 
d="M373 0h-118v377q0 26 -3.5 37t-14.5 18q-8 6 -23 6q-51 0 -51 -69v-369h-119v512h121l-1 -37q26 25 48 36t54 11q37 0 65.5 -18.5t37.5 -53.5q4 -14 4 -50v-400z" />
    <glyph glyph-name="o" unicode="o" 
d="M358 132q0 -56 -29 -90q-43 -52 -136 -52q-28 0 -51 5q-73 15 -95 81q-9 26 -9 69v229q0 38 10 65q31 83 152 83q114 0 146 -75q12 -27 12 -68v-247zM240 126v260q0 44 -19 56q-8 6 -22 6q-15 0 -24 -7q-18 -13 -18 -56v-260q0 -53 41 -53q42 0 42 54z" />
    <glyph glyph-name="p" unicode="p" horiz-adv-x="417" 
d="M379 115q0 -44 -17 -76q-8 -14 -22 -27q-27 -22 -66 -22q-23 0 -43.5 8t-33.5 17.5t-34 27.5v-220h-119v689h119v-39l7 5q6 6 10 9t12.5 9.5t16.5 10t18 7.5t21 6t22 2q54 0 85 -41q24 -33 24 -94v-272zM259 140v237q0 35 -21 49q-14 7 -26 7q-16 0 -27 -7
q-22 -13 -22 -52v-230q0 -19 4 -29q11 -28 45 -28q32 0 42 24q5 11 5 29z" />
    <glyph glyph-name="q" unicode="q" horiz-adv-x="417" 
d="M373 -177h-118v220q-1 -1 -10.5 -9.5t-14.5 -12.5q-38 -32 -85 -32q-32 0 -55 14.5t-31.5 29t-13.5 29.5q-7 21 -7 50v279q0 32 8 56q12 35 42 55t68 20q54 -1 99 -46v36h118v-689zM254 149v236q0 13 -3 21q-11 30 -46 30q-13 0 -23 -5q-25 -11 -25 -46v-243
q0 -54 47 -54q50 0 50 61z" />
    <glyph glyph-name="r" unicode="r" horiz-adv-x="292" 
d="M279 521l-1 -118q-18 8 -39 8q-27 0 -45 -12q-15 -11 -22.5 -29.5t-8.5 -30.5t-1 -37v-302h-118v512h119l-1 -65q1 1 3.5 6.5t6.5 11.5l8 12q35 47 99 44z" />
    <glyph glyph-name="s" unicode="s" horiz-adv-x="375" 
d="M341 148q0 -79 -27 -112q-37 -46 -131 -46q-115 0 -145 71q-11 26 -11 66v53h110v-40q0 -18 3 -32q6 -33 43 -33q17 0 27 7q20 12 20 49q0 27 -6.5 38.5t-28.5 27.5l-100 71q-35 25 -48 51.5t-13 71.5q1 72 40.5 101.5t114.5 29.5q102 0 132 -55q14 -23 14 -62v-57h-103
v37q0 56 -44 56q-12 0 -22 -5q-19 -11 -19 -41q0 -21 7.5 -32t26.5 -24l110 -77q13 -9 31 -31q19 -27 19 -83z" />
    <glyph glyph-name="t" unicode="t" horiz-adv-x="271" 
d="M263 1q-26 -6 -61 -6q-98 0 -120 48q-10 20 -10 59v331h-65v79h64v186h118v-186h71v-79h-71v-292q0 -20 3 -28q8 -28 51 -28q6 0 20 2v-86z" />
    <glyph glyph-name="u" unicode="u" horiz-adv-x="417" 
d="M373 0h-120v42q-55 -51 -109 -51q-33 0 -60 18q-19 13 -28.5 35t-10.5 37t-1 45v386h120v-368q0 -38 11 -49q13 -13 32 -13q18 0 30 10q16 14 16 58v362h120v-512z" />
    <glyph glyph-name="v" unicode="v" horiz-adv-x="354" 
d="M353 512l-123 -512h-116l-113 512h119l53 -355l61 355h119z" />
    <glyph glyph-name="w" unicode="w" horiz-adv-x="562" 
d="M559 512l-116 -512h-112l-50 304l-60 -304h-113l-104 512h116l54 -338l60 338h97l54 -338l58 338h116z" />
    <glyph glyph-name="x" unicode="x" horiz-adv-x="375" 
d="M371 0h-128l-58 207l-58 -207h-123l111 278l-90 234h123l44 -171l46 171h115l-92 -234z" />
    <glyph glyph-name="y" unicode="y" horiz-adv-x="354" 
d="M353 512l-117 -549q-15 -72 -40 -103q-31 -37 -103 -37q-23 0 -77 9l18 94q28 -7 45 -7q27 0 39.5 21t14.5 46l1 14l-133 512h118l66 -329l51 329h117z" />
    <glyph glyph-name="z" unicode="z" horiz-adv-x="354" 
d="M333 0h-309v100l179 316h-160v96h282v-96l-177 -316h185v-100z" />
    <glyph glyph-name="braceleft" unicode="{" horiz-adv-x="354" 
d="M336 -182h-24q-36 0 -62 3.5t-52.5 14t-43.5 33t-25 57.5q-3 16 -5 42.5t-2 47t0.5 52.5t0.5 40q0 30 -0.5 43t-4.5 36.5t-12.5 34.5t-25.5 21.5t-42 13.5v77q30 4 46 14q19 12 28 39.5t10 44t1 50.5v91q0 71 7 98q9 33 26.5 54.5t43.5 31.5t51.5 13.5t60.5 3.5h24v-75
q-43 -2 -60 -9q-14 -6 -23 -17.5t-12 -30.5t-3.5 -29.5t-0.5 -31.5q0 -113 -1 -135q-3 -63 -23 -101t-76 -47v-5q32 -5 52.5 -19.5t30 -39t12.5 -46t4 -55.5q1 -42 1 -127q0 -20 1 -32t4.5 -30t14 -29t26.5 -16q12 -4 53 -6v-75z" />
    <glyph glyph-name="bar" unicode="|" horiz-adv-x="205" 
d="M160 -168h-114v930h114v-930z" />
    <glyph glyph-name="braceright" unicode="}" horiz-adv-x="354" 
d="M336 257q-30 -5 -40 -10q-21 -11 -31.5 -36t-12 -43.5t-1.5 -50.5v-8v-99q0 -64 -6 -88q-9 -33 -26 -54.5t-42.5 -32t-50.5 -14t-60 -3.5h-28v75q42 2 58 8q15 5 24.5 17t13 31t4 30t0.5 32q0 89 1 133q2 64 22 101.5t77 47.5v5q-40 7 -62.5 30t-28.5 49.5t-8 69.5
q-1 23 -1 138q0 24 -1 38t-9 33.5t-23 29.5q-17 11 -67 13v75h24q76 0 122 -21.5t62 -87.5q3 -14 4.5 -41t1.5 -49t-0.5 -53.5t-0.5 -37.5q0 -34 1 -53t12 -47.5t33 -39.5q12 -6 39 -10v-77z" />
    <glyph glyph-name="asciitilde" unicode="~" horiz-adv-x="563" 
d="M502 288q-67 -71 -127 -71q-31 0 -89 27l-26 12q-48 22 -73 22q-29 0 -54 -20q-19 -19 -30 -32l-42 91q27 30 45 44q34 27 78 27q31 0 80 -21l50 -22q41 -18 60 -18q38 0 85 51z" />
    <glyph glyph-name="exclamdown" unicode="&#xa1;" horiz-adv-x="229" 
d="M154 574h-119v132h119v-132zM151 0h-113v313l19 203h78l16 -197v-319z" />
    <glyph glyph-name="cent" unicode="&#xa2;" 
d="M367 317h-118v64q0 54 -45 54q-8 0 -15 -1.5t-11.5 -4.5t-8.5 -7t-6 -8.5l-4 -9t-2.5 -9t-0.5 -9v-7.5v-5v-3v-234q0 -56 47 -58q46 -1 46 57v68h117v-67q0 -139 -136 -149v-99h-50v99q-46 5 -76.5 21t-43.5 39.5t-17 43t-4 44.5v242q0 26 4 43q22 89 137 100v83h50v-83
q24 -2 40.5 -6.5t42 -17t40 -42t14.5 -72.5v-66z" />
    <glyph glyph-name="sterling" unicode="&#xa3;" horiz-adv-x="479" 
d="M457 122q0 -29 -6 -53q-23 -81 -108 -81q-21 0 -43 7q-44 13 -90 44q-51 -51 -100 -51q-18 0 -37 7q-51 21 -51 77q0 37 25.5 61t62.5 24q18 0 75 -19q9 21 9 36q0 36 -37 104h-111v61h86l-18 42q-33 77 -33 146q0 89 51 134q46 42 124 42q77 0 122 -37q27 -22 42 -61
q12 -35 12 -75v-49h-115v41q0 18 -2 30.5t-7 26t-17 21t-31 7.5q-22 0 -36 -12q-25 -21 -25 -77q0 -16 2.5 -33.5t5 -29t9 -31t9.5 -27t13 -30.5t12 -28h106v-61h-84q9 -33 9 -52q-1 -48 -30 -119q2 -1 6 -4t6 -4q32 -17 51 -17q13 0 21 6q21 16 21 61v48h101v-75zM149 74
q-24 20 -44 20q-11 0 -18.5 -7.5t-7.5 -17.5q1 -11 8.5 -18t18.5 -7q5 0 9.5 1.5t7.5 3.5t7.5 5.5t6.5 6t6 7t6 6.5z" />
    <glyph glyph-name="currency" unicode="&#xa4;" horiz-adv-x="658" 
d="M632 105l-81 -83l-77 81q-73 -45 -145 -45q-76 0 -147 46l-76 -80l-80 83l77 80q-45 67 -45 151q0 81 44 153l-75 79l80 83l75 -78q64 45 148 45q75 0 145 -45l77 79l80 -84l-76 -79q43 -74 43 -152q0 -82 -44 -153zM482 337q0 71 -44 120t-108 49q-65 0 -109.5 -48
t-44.5 -119q-1 -70 44 -118t110 -48q63 0 107.5 48t44.5 116z" />
    <glyph glyph-name="yen" unicode="&#xa5;" horiz-adv-x="417" 
d="M404 665l-90 -314h79v-73h-99l-18 -57h117v-71h-120v-150h-131v150h-120v71h118l-16 57h-102v73h81l-91 314h133l64 -316l60 316h135z" />
    <glyph glyph-name="brokenbar" unicode="&#xa6;" horiz-adv-x="205" 
d="M160 361h-114v401h114v-401zM160 -168h-114v402h114v-402z" />
    <glyph glyph-name="section" unicode="&#xa7;" horiz-adv-x="437" 
d="M421 260q0 -45 -19.5 -77t-59.5 -73q31 -33 39 -57.5t8 -74.5q0 -153 -172 -153q-126 0 -161 77q-10 21 -10 62v85h115v-71q0 -61 53 -61t53 51q0 31 -6 48t-13 24.5t-36 31.5l-126 108q-72 61 -72 130q0 41 21 74.5t60 72.5q-23 26 -30.5 45.5t-7.5 52.5
q0 88 38.5 125.5t129.5 37.5q131 0 160 -73q8 -19 8 -54v-79h-113v59q0 59 -56 59q-48 0 -48 -54q0 -11 3 -21t6.5 -16.5t12 -15.5t12 -13t15.5 -14t15 -12l120 -103q61 -51 61 -121zM316 233q0 24 -22 48q-18 20 -60 54q-13 11 -40 33t-40 33q-33 -42 -33 -68q0 -16 16 -38
q24 -33 146 -125q33 42 33 63z" />
    <glyph glyph-name="dieresis" unicode="&#xa8;" horiz-adv-x="250" 
d="M276 595h-119v124h119v-124zM93 595h-119v124h119v-124z" />
    <glyph glyph-name="copyright" unicode="&#xa9;" horiz-adv-x="799" 
d="M756 354q0 -151 -103 -254t-254 -103q-148 0 -251.5 104t-103.5 252q0 149 104 252.5t252 103.5q149 0 252.5 -103t103.5 -252zM710 353q0 133 -90 224.5t-220 91.5q-128 0 -219 -93t-91 -224q0 -132 90 -223.5t219 -91.5t220 92t91 224zM534 265q0 -78 -30.5 -110.5
t-102.5 -32.5q-39 0 -70 12q-38 14 -54.5 47.5t-16.5 95.5v158q0 79 28 112q34 43 113 43q72 0 102.5 -32.5t30.5 -109.5v-35h-92v40q0 29 -10 41.5t-33 12.5q-29 0 -40 -21q-6 -12 -6 -49v-162q0 -37 6 -49q10 -20 40 -20q23 0 33 12t10 42v44h92v-39z" />
    <glyph glyph-name="ordfeminine" unicode="&#xaa;" horiz-adv-x="229" 
d="M210 420h-68q-7 12 -9 25q-24 -29 -53 -29q-17 0 -29 6.5t-17.5 13t-8.5 22.5t-3 21.5v24.5q0 38 11.5 53.5t65.5 41.5q21 9 33 16v23q0 26 -22 26t-22 -38v-10h-61v17q0 28 5 38q20 41 77 41q36 0 63.5 -14.5t27.5 -51.5v-174q0 -40 10 -52zM131 482v79l-28 -19
q-11 -7 -13.5 -14t-2.5 -26q0 -36 15 -36q10 0 29 16z" />
    <glyph glyph-name="guillemotleft" unicode="&#xab;" horiz-adv-x="313" 
d="M278 127l-102 94v94l102 94v-97l-43 -45l43 -42v-98zM133 127l-102 93v92l102 97v-97l-39 -45l39 -40v-100z" />
    <glyph glyph-name="logicalnot" unicode="&#xac;" horiz-adv-x="559" 
d="M474 63h-120v186h-298v99h418v-285z" />
    <glyph glyph-name="registered" unicode="&#xae;" horiz-adv-x="799" 
d="M756 354q0 -151 -103 -254t-254 -103q-148 0 -251.5 104t-103.5 252q0 149 104 252.5t252 103.5q149 0 252.5 -103t103.5 -252zM710 353q0 133 -90 224.5t-220 91.5q-128 0 -219 -93t-91 -224q0 -132 90 -223.5t219 -91.5t220 92t91 224zM558 130h-100l-79 190h-26v-190
h-91v449h150q66 0 93.5 -20.5t27.5 -70.5v-69q0 -70 -65 -88zM443 443v23q0 37 -42 37h-48v-107h44q26 0 36 10.5t10 36.5z" />
    <glyph glyph-name="macron" unicode="&#xaf;" horiz-adv-x="250" 
d="M259 590h-268v81h268v-81z" />
    <glyph glyph-name="degree" unicode="&#xb0;" horiz-adv-x="354" 
d="M338 594q0 -67 -47 -114.5t-114 -47.5t-114 47.5t-47 114.5t47 114t114 47q68 0 114.5 -46.5t46.5 -114.5zM256 596q0 33 -23 56t-56 23t-56 -23t-23 -56q0 -32 23.5 -55.5t55.5 -23.5q33 0 56 23t23 56z" />
    <glyph glyph-name="plusminus" unicode="&#xb1;" horiz-adv-x="559" 
d="M477 315h-137v-157h-118v157h-139v101h139v157h118v-157h137v-101zM477 0h-394v101h394v-101z" />
    <glyph glyph-name="twosuperior" unicode="&#xb2;" horiz-adv-x="292" 
d="M269 224h-249v13q0 51 13.5 87.5t30 55.5t54.5 52q4 4 20 18t25.5 23.5t13.5 17.5q7 13 7 34v47q0 36 -36 36q-22 0 -32.5 -8.5t-10.5 -30.5v-55h-76v56q0 99 112 101q93 0 116 -58q7 -16 7 -41v-55q0 -40 -13 -58.5t-79 -78.5q-38 -34 -49.5 -49t-12.5 -37h159v-70z" />
    <glyph glyph-name="threesuperior" unicode="&#xb3;" horiz-adv-x="292" 
d="M266 320q0 -34 -15 -57t-38.5 -31.5t-37.5 -11t-26 -2.5q-89 0 -116 56q-8 17 -8 36v56h81v-49q0 -11 2 -17.5t11 -12.5t25 -6q25 0 33 7.5t8 25.5v65q0 15 -1 21t-5.5 15t-16 12.5t-31.5 3.5h-32v56h32q29 0 43 14q3 4 7 15q2 5 2 22v36q0 33 -39 33q-38 0 -38 -30v-47
h-77v56q0 22 10 39q27 46 109 46q76 0 104 -45q12 -18 12 -49v-41v-8.5v-10.5t-1 -10t-3 -10.5t-5.5 -9.5t-9 -9.5t-13.5 -8t-19 -7.5q24 -3 36.5 -15.5t14.5 -25t2 -35.5v-66z" />
    <glyph glyph-name="acute" unicode="&#xb4;" horiz-adv-x="250" 
d="M235 706l-133 -132h-87l67 132h153z" />
    <glyph glyph-name="mu" unicode="&#xb5;" horiz-adv-x="417" 
d="M396 0h-137l-3 42q-21 -44 -55 -44q-20 0 -37 16v-191h-120v689h120v-384q0 -46 43 -46q46 0 46 57v373h120v-422q0 -71 23 -90z" />
    <glyph glyph-name="paragraph" unicode="&#xb6;" horiz-adv-x="597" 
d="M503 627h-36v-794h-85v794h-91v-794h-85v468q-28 8 -40 13q-48 21 -75.5 69.5t-27.5 112.5q0 98 59 155q23 23 54 37q41 18 116 18h211v-79z" />
    <glyph glyph-name="periodcentered" unicode="&#xb7;" horiz-adv-x="187" 
d="M152 216h-117v130h117v-130z" />
    <glyph glyph-name="cedilla" unicode="&#xb8;" horiz-adv-x="250" 
d="M225 -121q0 -34 -29 -54q-28 -18 -86 -18q-10 0 -24 1t-24 2t-11 1q-8 2 -26 6v30q46 -6 63 0q13 4 18.5 12t4.5 15q0 12 -9 19t-15.5 8.5t-11.5 1.5v123h44v-79q67 0 91 -28q15 -15 15 -40z" />
    <glyph glyph-name="onesuperior" unicode="&#xb9;" horiz-adv-x="292" 
d="M199 224h-81v332q-21 -16 -78 -27v66q41 12 60.5 26.5t44.5 43.5h54v-441z" />
    <glyph glyph-name="ordmasculine" unicode="&#xba;" horiz-adv-x="229" 
d="M204 499q0 -25 -7 -39q-23 -43 -83 -43q-89 0 -89 87v127q0 81 92 81q64 0 83 -46q4 -11 4 -37v-130zM136 497v138v3q-4 30 -22 32q-21 0 -21 -33v-140q1 -1 -0.5 -8.5t4 -16t17.5 -8.5q22 0 22 33z" />
    <glyph glyph-name="guillemotright" unicode="&#xbb;" horiz-adv-x="313" 
d="M281 224l-102 -97v97l40 45l-40 40v100l102 -93v-92zM137 221l-103 -94v97l43 45l-43 42v98l103 -94v-94z" />
    <glyph glyph-name="onequarter" unicode="&#xbc;" horiz-adv-x="708" 
d="M686 83h-27v-83h-75v83h-147v64l127 296h95v-294h27v-66zM519 692l-265 -737l-64 22l266 738zM199 224h-81v332q-21 -16 -78 -27v66q41 12 60.5 26.5t44.5 43.5h54v-441zM589 348l-82 -200h77z" />
    <glyph glyph-name="onehalf" unicode="&#xbd;" horiz-adv-x="708" 
d="M686 0h-249v13q0 51 13.5 87.5t30 55.5t54.5 52q4 4 20 18t25.5 23.5t13.5 17.5q7 13 7 34v47q0 36 -36 36q-22 0 -32.5 -8.5t-10.5 -30.5v-55h-76v56q0 99 112 101q93 0 116 -58q7 -16 7 -41v-55q0 -40 -13 -58.5t-79 -78.5q-38 -34 -49.5 -49t-12.5 -37h159v-70z
M502 692l-266 -737l-63 22l265 738zM199 224h-81v332q-21 -16 -78 -27v66q41 12 60.5 26.5t44.5 43.5h54v-441z" />
    <glyph glyph-name="threequarters" unicode="&#xbe;" horiz-adv-x="708" 
d="M686 83h-27v-83h-75v83h-147v64l127 296h95v-294h27v-66zM546 692l-266 -737l-63 22l265 738zM266 320q0 -34 -15 -57t-38.5 -31.5t-37.5 -11t-26 -2.5q-89 0 -116 56q-8 17 -8 36v56h81v-49q0 -11 2 -17.5t11 -12.5t25 -6q25 0 33 7.5t8 25.5v65q0 15 -1 21t-5.5 15
t-16 12.5t-31.5 3.5h-32v56h32q29 0 43 14q3 4 7 15q2 5 2 22v36q0 33 -39 33q-38 0 -38 -30v-47h-77v56q0 22 10 39q27 46 109 46q76 0 104 -45q12 -18 12 -49v-41v-8.5v-10.5t-1 -10t-3 -10.5t-5.5 -9.5t-9 -9.5t-13.5 -8t-19 -7.5q24 -3 36.5 -15.5t14.5 -25t2 -35.5v-66
zM589 348l-82 -200h77z" />
    <glyph glyph-name="questiondown" unicode="&#xbf;" horiz-adv-x="417" 
d="M275 576h-117v130h117v-130zM351 170q0 -97 -28 -131q-39 -48 -134 -48q-112 -1 -148 65q-13 23 -13 89q0 90 16 123q7 13 24 38l50 72q23 34 32.5 53t10.5 28t1 35v22h113v-45q0 -11 -1 -20.5t-3.5 -18.5t-3.5 -14.5t-6 -14.5t-6.5 -11t-7.5 -12t-7 -11l-65 -102
q-3 -5 -8.5 -13t-7 -10.5t-5 -8.5t-4.5 -9t-2 -8.5t-1.5 -11t-0.5 -13.5v-59q0 -34 11 -48t35 -14q48 0 48 54v117h111v-73z" />
    <glyph glyph-name="Agrave" unicode="&#xc0;" horiz-adv-x="437" 
d="M283 762h-86l-134 133h154zM428 0h-132l-17 115h-120l-19 -115h-130l137 706h149zM265 224l-43 303l-47 -303h90z" />
    <glyph glyph-name="Aacute" unicode="&#xc1;" horiz-adv-x="437" 
d="M376 897l-127 -134h-93l64 134h156zM428 0h-132l-17 115h-120l-19 -115h-130l137 706h149zM265 224l-43 303l-47 -303h90z" />
    <glyph glyph-name="Acircumflex" unicode="&#xc2;" horiz-adv-x="437" 
d="M367 762h-104l-44 73l-48 -73h-104l86 133h128zM428 0h-132l-17 115h-120l-19 -115h-130l137 706h149zM265 224l-43 303l-47 -303h90z" />
    <glyph glyph-name="Atilde" unicode="&#xc3;" horiz-adv-x="437" 
d="M388 886q-1 -28 -2.5 -43.5t-10.5 -37.5t-27 -33q-20 -13 -45 -13q-30 0 -89 27q-34 17 -49 17q-34 0 -44 -40h-65q1 36 8.5 60.5t29.5 43.5q25 21 59 21q32 0 85 -24q40 -19 54 -19q7 0 13 3q13 7 19 38h64zM428 0h-132l-17 115h-120l-19 -115h-130l137 706h149z
M265 224l-43 303l-47 -303h90z" />
    <glyph glyph-name="Adieresis" unicode="&#xc4;" horiz-adv-x="437" 
d="M386 762h-116v121h116v-121zM186 762h-117v121h117v-121zM428 0h-132l-17 115h-120l-19 -115h-130l137 706h149zM265 224l-43 303l-47 -303h90z" />
    <glyph glyph-name="Aring" unicode="&#xc5;" horiz-adv-x="437" 
d="M315 829q0 -37 -26 -63t-63 -26t-63 26.5t-26 63.5t26 63t63 26t63 -26.5t26 -63.5zM428 0h-132l-17 115h-120l-19 -115h-130l137 706h149zM267 828q-1 17 -13 29t-29 12t-29 -12t-12 -29t12.5 -29t29.5 -12q16 0 28.5 12.5t12.5 28.5zM265 224l-43 303l-47 -303h90z" />
    <glyph glyph-name="AE" unicode="&#xc6;" horiz-adv-x="708" 
d="M686 0h-356v146h-138l-49 -146h-140l262 706h420v-109h-225v-163h212v-106h-212v-219h226v-109zM330 253v300l-102 -300h102z" />
    <glyph glyph-name="Ccedilla" unicode="&#xc7;" horiz-adv-x="458" 
d="M430 166q0 -22 -1 -35q-7 -108 -110 -136q-17 -5 -62 -9v-42q105 0 106 -67q1 -36 -30 -54.5t-85 -18.5q-48 0 -85 10v30q8 -2 37 -2q48 0 49 28q1 8 -2.5 14t-9 9t-10.5 4.5t-9 2.5l-5 1v86q-51 5 -75 14q-39 14 -61 39t-27.5 50t-5.5 60l1 395q0 61 14 89q42 85 179 87
q138 0 179 -81q13 -26 13 -75v-116h-128v89q0 21 -1.5 33t-8 25t-20.5 19t-36 6q-38 0 -49.5 -20t-11.5 -57v-378q0 -38 13 -59.5t52 -20.5q22 0 35.5 6t19 20t6.5 24t1 30v7v92h128v-99z" />
    <glyph glyph-name="Egrave" unicode="&#xc8;" horiz-adv-x="417" 
d="M273 762h-87l-133 133h153zM402 0h-352v706h342v-107h-212v-166h200v-107h-200v-217h222v-109z" />
    <glyph glyph-name="Eacute" unicode="&#xc9;" horiz-adv-x="417" 
d="M365 897l-127 -134h-92l64 134h155zM402 0h-352v706h342v-107h-212v-166h200v-107h-200v-217h222v-109z" />
    <glyph glyph-name="Ecircumflex" unicode="&#xca;" horiz-adv-x="417" 
d="M357 762h-105l-44 73l-48 -73h-104l86 133h129zM402 0h-352v706h342v-107h-212v-166h200v-107h-200v-217h222v-109z" />
    <glyph glyph-name="Edieresis" unicode="&#xcb;" horiz-adv-x="417" 
d="M369 762h-116v121h116v-121zM169 762h-117v121h117v-121zM402 0h-352v706h342v-107h-212v-166h200v-107h-200v-217h222v-109z" />
    <glyph glyph-name="Igrave" unicode="&#xcc;" horiz-adv-x="229" 
d="M179 762h-86l-134 133h154zM179 0h-129v706h129v-706z" />
    <glyph glyph-name="Iacute" unicode="&#xcd;" horiz-adv-x="229" 
d="M271 897l-126 -134h-93l64 134h155zM179 0h-129v706h129v-706z" />
    <glyph glyph-name="Icircumflex" unicode="&#xce;" horiz-adv-x="229" 
d="M263 762h-104l-44 73l-48 -73h-105l86 133h129zM179 0h-129v706h129v-706z" />
    <glyph glyph-name="Idieresis" unicode="&#xcf;" horiz-adv-x="229" 
d="M276 762h-116v121h116v-121zM75 762h-117v121h117v-121zM179 0h-129v706h129v-706z" />
    <glyph glyph-name="Eth" unicode="&#xd0;" horiz-adv-x="479" 
d="M438 190q0 -32 -1 -49.5t-10.5 -46.5t-28.5 -49q-42 -45 -139 -45h-209v334h-50v72h50v300h210q52 0 79 -9q63 -21 87 -82q11 -30 11 -70q0 -4 0.5 -12t0.5 -13v-330zM308 179v352q0 41 -14.5 56.5t-55.5 15.5h-58v-197h77v-72h-77v-231h46q47 0 64.5 14.5t17.5 61.5z
" />
    <glyph glyph-name="Ntilde" unicode="&#xd1;" horiz-adv-x="500" 
d="M419 886q-1 -28 -2.5 -43.5t-10.5 -37.5t-26 -33q-23 -13 -46 -13q-35 0 -89 27q-36 17 -49 17q-34 0 -44 -41l-65 1q2 37 9.5 61t29.5 43q24 21 59 21q31 0 84 -24q40 -19 54 -19q7 0 13 3q13 7 19 38h64zM450 0h-164l-125 529l11 -529h-122v706h167l127 -518l-13 518
h119v-706z" />
    <glyph glyph-name="Ograve" unicode="&#xd2;" horiz-adv-x="479" 
d="M304 762h-86l-134 133h154zM435 151q0 -79 -41 -119q-51 -47 -153 -47q-96 0 -147 41q-26 21 -35 44q-15 31 -15 81v396q0 89 44 128q52 46 154 46q71 0 115 -24t62 -59q16 -33 16 -94v-393zM304 170v365q0 42 -8 57q-14 31 -54 31q-25 0 -42 -13q-6 -4 -10.5 -9t-7 -11
t-4.5 -10.5t-2.5 -12.5t-0.5 -11.5v-13.5v-12v-357q0 -48 12 -65q15 -21 53 -21q24 0 41 12q11 8 16.5 21.5t6 22t0.5 27.5z" />
    <glyph glyph-name="Oacute" unicode="&#xd3;" horiz-adv-x="479" 
d="M396 897l-126 -134h-93l64 134h155zM435 151q0 -79 -41 -119q-51 -47 -153 -47q-96 0 -147 41q-26 21 -35 44q-15 31 -15 81v396q0 89 44 128q52 46 154 46q71 0 115 -24t62 -59q16 -33 16 -94v-393zM304 170v365q0 42 -8 57q-14 31 -54 31q-25 0 -42 -13q-6 -4 -10.5 -9
t-7 -11t-4.5 -10.5t-2.5 -12.5t-0.5 -11.5v-13.5v-12v-357q0 -48 12 -65q15 -21 53 -21q24 0 41 12q11 8 16.5 21.5t6 22t0.5 27.5z" />
    <glyph glyph-name="Ocircumflex" unicode="&#xd4;" horiz-adv-x="479" 
d="M388 762h-104l-44 73l-48 -73h-105l86 133h129zM435 151q0 -79 -41 -119q-51 -47 -153 -47q-96 0 -147 41q-26 21 -35 44q-15 31 -15 81v396q0 89 44 128q52 46 154 46q71 0 115 -24t62 -59q16 -33 16 -94v-393zM304 170v365q0 42 -8 57q-14 31 -54 31q-25 0 -42 -13
q-6 -4 -10.5 -9t-7 -11t-4.5 -10.5t-2.5 -12.5t-0.5 -11.5v-13.5v-12v-357q0 -48 12 -65q15 -21 53 -21q24 0 41 12q11 8 16.5 21.5t6 22t0.5 27.5z" />
    <glyph glyph-name="Otilde" unicode="&#xd5;" horiz-adv-x="479" 
d="M409 886q-1 -28 -2.5 -43.5t-10.5 -37.5t-27 -33q-19 -13 -45 -13q-30 0 -89 27q-34 17 -50 17q-33 0 -43 -41l-65 1q1 36 8.5 60.5t29.5 43.5q25 21 59 21q31 0 84 -24q41 -19 55 -19q7 0 13 3q12 6 19 38h64zM435 151q0 -79 -41 -119q-51 -47 -153 -47q-96 0 -147 41
q-26 21 -35 44q-15 31 -15 81v396q0 89 44 128q52 46 154 46q71 0 115 -24t62 -59q16 -33 16 -94v-393zM304 170v365q0 42 -8 57q-14 31 -54 31q-25 0 -42 -13q-6 -4 -10.5 -9t-7 -11t-4.5 -10.5t-2.5 -12.5t-0.5 -11.5v-13.5v-12v-357q0 -48 12 -65q15 -21 53 -21
q24 0 41 12q11 8 16.5 21.5t6 22t0.5 27.5z" />
    <glyph glyph-name="Odieresis" unicode="&#xd6;" horiz-adv-x="479" 
d="M401 762h-116v121h116v-121zM200 762h-117v121h117v-121zM435 151q0 -79 -41 -119q-51 -47 -153 -47q-96 0 -147 41q-26 21 -35 44q-15 31 -15 81v396q0 89 44 128q52 46 154 46q71 0 115 -24t62 -59q16 -33 16 -94v-393zM304 170v365q0 42 -8 57q-14 31 -54 31
q-25 0 -42 -13q-6 -4 -10.5 -9t-7 -11t-4.5 -10.5t-2.5 -12.5t-0.5 -11.5v-13.5v-12v-357q0 -48 12 -65q15 -21 53 -21q24 0 41 12q11 8 16.5 21.5t6 22t0.5 27.5z" />
    <glyph glyph-name="multiply" unicode="&#xd7;" horiz-adv-x="558" 
d="M472 205l-79 -90l-115 107l-99 -108l-75 67l100 109l-116 106l81 88l115 -106l99 107l73 -69l-98 -107z" />
    <glyph glyph-name="Oslash" unicode="&#xd8;" horiz-adv-x="479" 
d="M447 693l-33 -65q20 -33 20 -72v-403q0 -33 -8 -60q-14 -43 -58 -75.5t-121 -32.5q-76 0 -135 43l-20 -39l-59 31l33 62q-20 34 -20 76v395q0 65 33 104q55 64 157 64q79 0 134 -38l20 38zM303 545v19q0 19 -7 31q-13 24 -52 24q-23 0 -41 -11q-25 -16 -25 -76v-228z
M303 170v232l-125 -241v-16q0 -12 7 -28q14 -28 54 -28q26 0 42 12q22 17 22 69z" />
    <glyph glyph-name="Ugrave" unicode="&#xd9;" horiz-adv-x="479" 
d="M304 762h-86l-134 133h154zM431 159q0 -72 -32 -113q-47 -61 -163 -61q-96 0 -144 51q-19 19 -30 48q-13 32 -13 78v544h130v-525q0 -38 7 -55q13 -30 54 -30q23 0 38 11q5 3 8.5 7t5.5 8t4 10t2.5 9.5t1 10.5t0.5 10v10.5v9.5v524h131v-547z" />
    <glyph glyph-name="Uacute" unicode="&#xda;" horiz-adv-x="479" 
d="M396 897l-126 -134h-93l64 134h155zM431 159q0 -72 -32 -113q-47 -61 -163 -61q-96 0 -144 51q-19 19 -30 48q-13 32 -13 78v544h130v-525q0 -38 7 -55q13 -30 54 -30q23 0 38 11q5 3 8.5 7t5.5 8t4 10t2.5 9.5t1 10.5t0.5 10v10.5v9.5v524h131v-547z" />
    <glyph glyph-name="Ucircumflex" unicode="&#xdb;" horiz-adv-x="479" 
d="M388 762h-104l-44 73l-48 -73h-105l86 133h129zM431 159q0 -72 -32 -113q-47 -61 -163 -61q-96 0 -144 51q-19 19 -30 48q-13 32 -13 78v544h130v-525q0 -38 7 -55q13 -30 54 -30q23 0 38 11q5 3 8.5 7t5.5 8t4 10t2.5 9.5t1 10.5t0.5 10v10.5v9.5v524h131v-547z" />
    <glyph glyph-name="Udieresis" unicode="&#xdc;" horiz-adv-x="479" 
d="M402 762h-116v121h116v-121zM201 762h-117v121h117v-121zM431 159q0 -72 -32 -113q-47 -61 -163 -61q-96 0 -144 51q-19 19 -30 48q-13 32 -13 78v544h130v-525q0 -38 7 -55q13 -30 54 -30q23 0 38 11q5 3 8.5 7t5.5 8t4 10t2.5 9.5t1 10.5t0.5 10v10.5v9.5v524h131v-547
z" />
    <glyph glyph-name="Yacute" unicode="&#xdd;" horiz-adv-x="417" 
d="M365 897l-127 -134h-92l64 134h155zM416 706l-141 -497v-209h-133v218l-141 488h137l72 -356l69 356h137z" />
    <glyph glyph-name="Thorn" unicode="&#xde;" horiz-adv-x="458" 
d="M431 337v-17.5v-21.5t-1.5 -21t-4 -23.5t-7 -20.5t-11.5 -20.5t-17.5 -15t-23.5 -12.5q-25 -9 -75 -9h-110v-176h-131v706h131v-117h131q70 0 94.5 -37t24.5 -106v-109zM303 335v96q0 53 -50 53h-72v-207h63q19 0 24 0.5t16.5 5t15 17.5t3.5 35z" />
    <glyph glyph-name="germandbls" unicode="&#xdf;" horiz-adv-x="417" 
d="M381 116q0 -34 -6 -53q-21 -72 -117 -72q-25 0 -68 9l1 69q25 -3 30 -2q9 0 15.5 2.5t11 6t8 9t5 9.5t2 10.5t0.5 9.5v8v5v183q0 36 -12 52t-47 16h-18v81h14q32 0 43 10.5t11 44.5v73q0 49 -45 49q-34 0 -42 -19q-4 -8 -4 -26v-591h-119v589q0 58 23 86q37 46 132 46
q29 0 43 -2q84 -10 108 -66q10 -25 10 -60v-65q0 -53 -11 -69.5t-60 -25.5q20 -3 28 -5t23 -7.5t23.5 -15t12.5 -24.5q5 -18 5 -70v-195z" />
    <glyph glyph-name="agrave" unicode="&#xe0;" 
d="M262 574h-86l-133 132h153zM375 0h-125q-11 13 -14 45q-2 -2 -8 -9t-10 -10q-37 -37 -85 -37q-37 0 -62 19q-18 13 -27.5 38t-10.5 42.5t-1 48.5v8v7q0 70 24 98q15 19 54 38l124 62v30q0 43 -16 54q-12 7 -26 7q-28 0 -37 -20q-4 -9 -4 -48v-19h-109v58q0 45 29 73
q38 38 129 38q105 0 140 -64q12 -21 12 -49v-285q0 -95 15 -116q1 -4 8 -9zM233 108v150l-58 -38q-8 -6 -10 -8q-17 -16 -17 -74q0 -31 6 -45.5t23 -13.5q22 0 43 18z" />
    <glyph glyph-name="aacute" unicode="&#xe1;" 
d="M344 706l-133 -132h-87l67 132h153zM375 0h-125q-11 13 -14 45q-2 -2 -8 -9t-10 -10q-37 -37 -85 -37q-37 0 -62 19q-18 13 -27.5 38t-10.5 42.5t-1 48.5v8v7q0 70 24 98q15 19 54 38l124 62v30q0 43 -16 54q-12 7 -26 7q-28 0 -37 -20q-4 -9 -4 -48v-19h-109v58
q0 45 29 73q38 38 129 38q105 0 140 -64q12 -21 12 -49v-285q0 -95 15 -116q1 -4 8 -9zM233 108v150l-58 -38q-8 -6 -10 -8q-17 -16 -17 -74q0 -31 6 -45.5t23 -13.5q22 0 43 18z" />
    <glyph glyph-name="acircumflex" unicode="&#xe2;" 
d="M347 574h-105l-44 73l-48 -73h-104l86 132h129zM375 0h-125q-11 13 -14 45q-2 -2 -8 -9t-10 -10q-37 -37 -85 -37q-37 0 -62 19q-18 13 -27.5 38t-10.5 42.5t-1 48.5v8v7q0 70 24 98q15 19 54 38l124 62v30q0 43 -16 54q-12 7 -26 7q-28 0 -37 -20q-4 -9 -4 -48v-19h-109
v58q0 45 29 73q38 38 129 38q105 0 140 -64q12 -21 12 -49v-285q0 -95 15 -116q1 -4 8 -9zM233 108v150l-58 -38q-8 -6 -10 -8q-17 -16 -17 -74q0 -31 6 -45.5t23 -13.5q22 0 43 18z" />
    <glyph glyph-name="atilde" unicode="&#xe3;" 
d="M367 697q-1 -28 -2.5 -43.5t-10.5 -37t-27 -32.5q-21 -14 -45 -14q-30 1 -89 28q-36 17 -49 17q-34 -1 -44 -41h-65q2 37 9 61.5t29 43.5q25 21 60 21q31 0 84 -25q43 -19 54 -19q5 0 13 4q14 7 19 38zM375 0h-125q-11 13 -14 45q-2 -2 -8 -9t-10 -10q-37 -37 -85 -37
q-37 0 -62 19q-18 13 -27.5 38t-10.5 42.5t-1 48.5v8v7q0 70 24 98q15 19 54 38l124 62v30q0 43 -16 54q-12 7 -26 7q-28 0 -37 -20q-4 -9 -4 -48v-19h-109v58q0 45 29 73q38 38 129 38q105 0 140 -64q12 -21 12 -49v-285q0 -95 15 -116q1 -4 8 -9zM233 108v150l-58 -38
q-8 -6 -10 -8q-17 -16 -17 -74q0 -31 6 -45.5t23 -13.5q22 0 43 18z" />
    <glyph glyph-name="adieresis" unicode="&#xe4;" 
d="M348 595h-119v124h119v-124zM165 595h-119v124h119v-124zM375 0h-125q-11 13 -14 45q-2 -2 -8 -9t-10 -10q-37 -37 -85 -37q-37 0 -62 19q-18 13 -27.5 38t-10.5 42.5t-1 48.5v8v7q0 70 24 98q15 19 54 38l124 62v30q0 43 -16 54q-12 7 -26 7q-28 0 -37 -20q-4 -9 -4 -48
v-19h-109v58q0 45 29 73q38 38 129 38q105 0 140 -64q12 -21 12 -49v-285q0 -95 15 -116q1 -4 8 -9zM233 108v150l-58 -38q-8 -6 -10 -8q-17 -16 -17 -74q0 -31 6 -45.5t23 -13.5q22 0 43 18z" />
    <glyph glyph-name="aring" unicode="&#xe5;" 
d="M292 661q0 -36 -26.5 -62.5t-63.5 -26.5t-63 26.5t-26 63.5t26.5 63t63.5 26t63 -26t26 -64zM375 0h-125q-11 13 -14 45q-2 -2 -8 -9t-10 -10q-37 -37 -85 -37q-37 0 -62 19q-18 13 -27.5 38t-10.5 42.5t-1 48.5v8v7q0 70 24 98q15 19 54 38l124 62v30q0 43 -16 54
q-12 7 -26 7q-28 0 -37 -20q-4 -9 -4 -48v-19h-109v58q0 45 29 73q38 38 129 38q105 0 140 -64q12 -21 12 -49v-285q0 -95 15 -116q1 -4 8 -9zM243 660q0 18 -12 29.5t-29 11.5t-29 -12t-12 -29t12.5 -29t29.5 -12q16 0 28 12t12 29zM233 108v150l-58 -38q-8 -6 -10 -8
q-17 -16 -17 -74q0 -31 6 -45.5t23 -13.5q22 0 43 18z" />
    <glyph glyph-name="ae" unicode="&#xe6;" horiz-adv-x="604" 
d="M570 229h-212v-91q0 -22 1 -26q9 -30 45 -30q28 0 38 17q8 11 8 38v33h119v-35q0 -84 -52 -119q-41 -27 -108 -27q-38 0 -63 9t-61 32q-67 -40 -128 -40q-11 0 -22.5 1.5t-34 7.5t-39.5 22.5t-24 41.5q-6 25 -6 94q0 56 17 82q4 6 10.5 12.5t13.5 11.5t14 9.5t14 8
t11.5 6t8.5 4.5l5 2l114 47v43q0 28 -17 39q-11 8 -27 8q-46 0 -46 -50v-31h-107v56q0 51 29 80q37 37 110 37q46 0 85 -14q23 -9 35 -15q3 2 10.5 6t11.5 6q35 17 95 17q13 0 28.5 -2.5t39 -10t44 -27t30.5 -47.5q10 -27 10 -52v-154zM449 309v64q0 36 -17 48q-13 8 -28 8
q-32 0 -42 -25q-4 -11 -4 -28v-67h91zM238 108v143q-38 -16 -48 -22q-8 -5 -15 -10t-11.5 -10.5t-8 -10t-5.5 -11.5t-3.5 -10.5t-2 -11t-0.5 -9.5v-9.5v-8.5q0 -57 43 -57q28 0 51 27z" />
    <glyph glyph-name="ccedilla" unicode="&#xe7;" 
d="M367 145q0 -113 -89 -145q-14 -5 -59 -10v-46q105 0 106 -67q1 -36 -29.5 -54.5t-85.5 -18.5q-48 0 -85 10v30q10 -2 38 -2q47 0 48 28q1 8 -2.5 14t-9 9t-10.5 4.5t-9 2.5l-5 1v90q-107 11 -131 92q-6 20 -6 56v227q0 44 14 75q38 81 153 81q46 0 90.5 -18t62.5 -63
q9 -21 9 -62v-61h-117v62q0 58 -46 57q-25 0 -37 -17.5t-11 -34.5v-17v-223q0 -68 47 -67q46 0 46 66v59h118v-58z" />
    <glyph glyph-name="egrave" unicode="&#xe8;" 
d="M262 574h-86l-133 132h153zM360 230h-203v-84q0 -25 3 -34q9 -29 41 -29q29 0 38 28q4 11 4 58h115v-41q0 -29 -5 -46q-26 -92 -152 -92q-124 0 -154 98q-9 32 -9 67v216q0 40 13 69q17 42 59 62t92 20q56 0 93 -22.5t51 -50.5t14 -73v-146zM242 314v63q0 51 -41 51
q-44 0 -44 -51v-63h85z" />
    <glyph glyph-name="eacute" unicode="&#xe9;" 
d="M344 706l-133 -132h-87l67 132h153zM360 230h-203v-84q0 -25 3 -34q9 -29 41 -29q29 0 38 28q4 11 4 58h115v-41q0 -29 -5 -46q-26 -92 -152 -92q-124 0 -154 98q-9 32 -9 67v216q0 40 13 69q17 42 59 62t92 20q56 0 93 -22.5t51 -50.5t14 -73v-146zM242 314v63
q0 51 -41 51q-44 0 -44 -51v-63h85z" />
    <glyph glyph-name="ecircumflex" unicode="&#xea;" 
d="M347 574h-105l-44 73l-48 -73h-104l86 132h129zM360 230h-203v-84q0 -25 3 -34q9 -29 41 -29q29 0 38 28q4 11 4 58h115v-41q0 -29 -5 -46q-26 -92 -152 -92q-124 0 -154 98q-9 32 -9 67v216q0 40 13 69q17 42 59 62t92 20q56 0 93 -22.5t51 -50.5t14 -73v-146zM242 314
v63q0 51 -41 51q-44 0 -44 -51v-63h85z" />
    <glyph glyph-name="edieresis" unicode="&#xeb;" 
d="M347 595h-119v124h119v-124zM164 595h-119v124h119v-124zM360 230h-203v-84q0 -25 3 -34q9 -29 41 -29q29 0 38 28q4 11 4 58h115v-41q0 -29 -5 -46q-26 -92 -152 -92q-124 0 -154 98q-9 32 -9 67v216q0 40 13 69q17 42 59 62t92 20q56 0 93 -22.5t51 -50.5t14 -73v-146z
M242 314v63q0 51 -41 51q-44 0 -44 -51v-63h85z" />
    <glyph glyph-name="igrave" unicode="&#xec;" horiz-adv-x="208" 
d="M168 574h-86l-133 132h153zM164 0h-120v512h120v-512z" />
    <glyph glyph-name="iacute" unicode="&#xed;" horiz-adv-x="208" 
d="M251 706l-133 -132h-87l67 132h153zM164 0h-120v512h120v-512z" />
    <glyph glyph-name="icircumflex" unicode="&#xee;" horiz-adv-x="208" 
d="M253 574h-105l-44 72l-48 -72h-104l86 132h129zM164 0h-120v512h120v-512z" />
    <glyph glyph-name="idieresis" unicode="&#xef;" horiz-adv-x="208" 
d="M253 595h-119v124h119v-124zM70 595h-119v124h119v-124zM164 0h-120v512h120v-512z" />
    <glyph glyph-name="eth" unicode="&#xf0;" 
d="M374 635l-61 -19q20 -37 30.5 -78t12 -69.5t1.5 -77.5l1 -258q0 -40 -12 -66q-37 -77 -147 -77q-123 0 -153 88q-8 26 -8 67v229q0 39 9 64q16 42 52.5 63.5t73.5 21.5q45 0 70 -33q-12 55 -31 93l-113 -38l-23 53l103 35q-30 30 -50 46l99 41q19 -17 53 -53l70 23z
M240 122v264q0 17 -1.5 28t-11.5 22.5t-29 11.5q-16 0 -26 -10q-15 -13 -15 -53v-260q0 -54 43 -53q40 2 40 50z" />
    <glyph glyph-name="ntilde" unicode="&#xf1;" horiz-adv-x="417" 
d="M378 698q-2 -90 -40 -114q-21 -14 -45 -14q-28 1 -90 28q-36 17 -49 17q-6 0 -11.5 -1.5t-9 -4t-7 -6t-5.5 -6.5t-4.5 -7t-3 -6l-1.5 -6l-2 -4h-65q2 37 9.5 61.5t29.5 43.5q24 21 59 21q28 0 84 -25q41 -19 54 -19q6 0 14 4q12 7 19 38h64zM373 0h-118v377q0 26 -3.5 37
t-14.5 18q-8 6 -23 6q-51 0 -51 -69v-369h-119v512h121l-1 -37q26 25 48 36t54 11q37 0 65.5 -18.5t37.5 -53.5q4 -14 4 -50v-400z" />
    <glyph glyph-name="ograve" unicode="&#xf2;" 
d="M262 574h-86l-133 132h153zM358 132q0 -56 -29 -90q-43 -52 -136 -52q-28 0 -51 5q-73 15 -95 81q-9 26 -9 69v229q0 38 10 65q31 83 152 83q114 0 146 -75q12 -27 12 -68v-247zM240 126v260q0 44 -19 56q-8 6 -22 6q-15 0 -24 -7q-18 -13 -18 -56v-260q0 -53 41 -53
q42 0 42 54z" />
    <glyph glyph-name="oacute" unicode="&#xf3;" 
d="M344 706l-133 -132h-87l67 132h153zM358 132q0 -56 -29 -90q-43 -52 -136 -52q-28 0 -51 5q-73 15 -95 81q-9 26 -9 69v229q0 38 10 65q31 83 152 83q114 0 146 -75q12 -27 12 -68v-247zM240 126v260q0 44 -19 56q-8 6 -22 6q-15 0 -24 -7q-18 -13 -18 -56v-260
q0 -53 41 -53q42 0 42 54z" />
    <glyph glyph-name="ocircumflex" unicode="&#xf4;" 
d="M347 574h-105l-44 73l-48 -73h-104l86 132h129zM358 132q0 -56 -29 -90q-43 -52 -136 -52q-28 0 -51 5q-73 15 -95 81q-9 26 -9 69v229q0 38 10 65q31 83 152 83q114 0 146 -75q12 -27 12 -68v-247zM240 126v260q0 44 -19 56q-8 6 -22 6q-15 0 -24 -7q-18 -13 -18 -56
v-260q0 -53 41 -53q42 0 42 54z" />
    <glyph glyph-name="otilde" unicode="&#xf5;" 
d="M367 698q-1 -28 -2.5 -43.5t-10.5 -37.5t-27 -33q-21 -14 -45 -14q-30 1 -89 28q-36 17 -49 17q-34 -1 -44 -41h-65q2 37 9 61.5t29 43.5q25 21 60 21q31 0 84 -25q43 -19 54 -19q5 0 13 4q14 7 19 38h64zM358 132q0 -56 -29 -90q-43 -52 -136 -52q-28 0 -51 5
q-73 15 -95 81q-9 26 -9 69v229q0 38 10 65q31 83 152 83q114 0 146 -75q12 -27 12 -68v-247zM240 126v260q0 44 -19 56q-8 6 -22 6q-15 0 -24 -7q-18 -13 -18 -56v-260q0 -53 41 -53q42 0 42 54z" />
    <glyph glyph-name="odieresis" unicode="&#xf6;" 
d="M345 595h-119v124h119v-124zM162 595h-119v124h119v-124zM358 132q0 -56 -29 -90q-43 -52 -136 -52q-28 0 -51 5q-73 15 -95 81q-9 26 -9 69v229q0 38 10 65q31 83 152 83q114 0 146 -75q12 -27 12 -68v-247zM240 126v260q0 44 -19 56q-8 6 -22 6q-15 0 -24 -7
q-18 -13 -18 -56v-260q0 -53 41 -53q42 0 42 54z" />
    <glyph glyph-name="divide" unicode="&#xf7;" horiz-adv-x="559" 
d="M336 405h-112v128h112v-128zM485 248h-411v101h411v-101zM336 64h-112v128h112v-128z" />
    <glyph glyph-name="oslash" unicode="&#xf8;" 
d="M379 501l-36 -52q14 -24 14 -74v-243q0 -64 -39 -102q-40 -40 -116 -40q-41 0 -66 8.5t-59 33.5l-28 -41l-40 25l36 57q-6 15 -6 59v247q0 73 42 107q42 36 117 36q59 0 115 -33l25 38zM248 388l-1 11q-3 41 -47 41q-18 0 -30 -8q-23 -15 -23 -57v-143zM246 134v165
l-100 -158v-14q0 -29 19 -41q10 -8 30 -8q35 0 46 25q5 10 5 31z" />
    <glyph glyph-name="ugrave" unicode="&#xf9;" horiz-adv-x="417" 
d="M273 574h-86l-133 132h153zM373 0h-120v42q-55 -51 -109 -51q-33 0 -60 18q-19 13 -28.5 35t-10.5 37t-1 45v386h120v-368q0 -38 11 -49q13 -13 32 -13q18 0 30 10q16 14 16 58v362h120v-512z" />
    <glyph glyph-name="uacute" unicode="&#xfa;" horiz-adv-x="417" 
d="M354 706l-133 -132h-87l67 132h153zM373 0h-120v42q-55 -51 -109 -51q-33 0 -60 18q-19 13 -28.5 35t-10.5 37t-1 45v386h120v-368q0 -38 11 -49q13 -13 32 -13q18 0 30 10q16 14 16 58v362h120v-512z" />
    <glyph glyph-name="ucircumflex" unicode="&#xfb;" horiz-adv-x="417" 
d="M358 574h-105l-44 72l-48 -72h-104l86 132h129zM373 0h-120v42q-55 -51 -109 -51q-33 0 -60 18q-19 13 -28.5 35t-10.5 37t-1 45v386h120v-368q0 -38 11 -49q13 -13 32 -13q18 0 30 10q16 14 16 58v362h120v-512z" />
    <glyph glyph-name="udieresis" unicode="&#xfc;" horiz-adv-x="417" 
d="M355 595h-119v124h119v-124zM172 595h-119v124h119v-124zM373 0h-120v42q-55 -51 -109 -51q-33 0 -60 18q-19 13 -28.5 35t-10.5 37t-1 45v386h120v-368q0 -38 11 -49q13 -13 32 -13q18 0 30 10q16 14 16 58v362h120v-512z" />
    <glyph glyph-name="yacute" unicode="&#xfd;" horiz-adv-x="354" 
d="M323 706l-133 -132h-87l67 132h153zM353 512l-117 -549q-15 -72 -40 -103q-31 -37 -103 -37q-23 0 -77 9l18 94q28 -7 45 -7q27 0 39.5 21t14.5 46l1 14l-133 512h118l66 -329l51 329h117z" />
    <glyph glyph-name="thorn" unicode="&#xfe;" horiz-adv-x="417" 
d="M379 116q0 -66 -30.5 -96t-75.5 -30q-10 0 -20 1.5t-17 3.5t-16 6.5t-13.5 7t-13 9t-11 8.5t-10.5 9.5t-9 7.5v-220h-119v883h119v-233q52 49 106 49q38 0 63 -19q22 -16 33 -41.5t12.5 -41.5t1.5 -45v-259zM259 140v237q0 56 -47 56q-49 0 -49 -59v-237q0 -28 15.5 -39
t32.5 -11q48 0 48 53z" />
    <glyph glyph-name="ydieresis" unicode="&#xff;" horiz-adv-x="354" 
d="M326 595h-119v124h119v-124zM143 595h-119v124h119v-124zM353 512l-117 -549q-15 -72 -40 -103q-31 -37 -103 -37q-23 0 -77 9l18 94q28 -7 45 -7q27 0 39.5 21t14.5 46l1 14l-133 512h118l66 -329l51 329h117z" />
    <glyph glyph-name="OE" unicode="&#x152;" horiz-adv-x="688" 
d="M664 0h-305l-1 31q-13 -12 -31 -22q-44 -24 -107 -24q-16 0 -32.5 2.5t-46 10.5t-53.5 30.5t-35 56.5q-9 30 -9 73v366q0 26 1 39q5 100 80 137q42 21 96 21q66 0 111 -31q10 -7 27 -24v40h297v-109h-223v-165h211v-104h-211v-217h231v-111zM302 171v360q0 47 -12 66
q-15 23 -52 23q-36 0 -51 -25q-12 -19 -12 -65v-366q0 -19 3 -31q15 -45 61 -44q23 0 39 12q12 9 17.5 22t6 21.5t0.5 26.5z" />
    <glyph glyph-name="oe" unicode="&#x153;" horiz-adv-x="604" 
d="M566 130q0 -36 -6 -58q-24 -83 -143 -83q-64 0 -118 34q-53 -33 -113 -33q-48 0 -86 22t-53 65q-9 24 -9 67v219q0 40 8 64q14 46 55.5 70.5t91.5 24.5q54 0 107 -38q65 38 120 38q45 0 82.5 -22t53.5 -62q10 -23 10 -65v-143h-203v-94q0 -35 18 -47q11 -8 28 -8
q14 0 23 6q18 12 18 48l1 37h115v-42zM449 310v68q0 36 -20 49q-14 7 -23 7q-11 0 -22 -6q-22 -12 -22 -49v-69h87zM244 130v248q0 36 -17 47q-10 7 -24 7q-15 0 -24 -6q-20 -13 -20 -48v-251q0 -14 2 -20q8 -29 38 -29q11 0 23 6q22 13 22 46z" />
    <glyph glyph-name="Scaron" unicode="&#x160;" horiz-adv-x="458" 
d="M379 895l-85 -133h-132l-85 133h105l45 -74l48 74h104zM424 197q0 -77 -7 -104q-30 -108 -183 -108q-94 0 -145 40q-24 18 -37 48q-14 35 -14 73v103h129v-82v-5q0 -52 23 -67q16 -10 40 -10q30 0 45 13q13 10 16 30t3 64t-14 65q-6 9 -30 28l-123 83q-39 26 -59 58
q-25 42 -25 112q0 62 17 97q14 30 40.5 49.5t58 26t47 8.5t29.5 2q134 0 171 -93q11 -28 11 -59v-70h-130v72q0 51 -58 51t-58 -70q0 -48 14 -68q5 -7 27 -23l126 -87q34 -22 58 -55q5 -7 9 -13t7 -13.5t5 -12t3.5 -13t2 -12t1 -14t0.5 -13v-15.5v-16z" />
    <glyph glyph-name="scaron" unicode="&#x161;" horiz-adv-x="375" 
d="M337 706l-85 -132h-132l-85 132h105l45 -73l48 73h104zM341 148q0 -79 -27 -112q-37 -46 -131 -46q-115 0 -145 71q-11 26 -11 66v53h110v-40q0 -18 3 -32q6 -33 43 -33q17 0 27 7q20 12 20 49q0 27 -6.5 38.5t-28.5 27.5l-100 71q-35 25 -48 51.5t-13 71.5
q1 72 40.5 101.5t114.5 29.5q102 0 132 -55q14 -23 14 -62v-57h-103v37q0 56 -44 56q-12 0 -22 -5q-19 -11 -19 -41q0 -21 7.5 -32t26.5 -24l110 -77q13 -9 31 -31q19 -27 19 -83z" />
    <glyph glyph-name="Ydieresis" unicode="&#x178;" horiz-adv-x="417" 
d="M369 762h-116v121h116v-121zM169 762h-117v121h117v-121zM416 706l-141 -497v-209h-133v218l-141 488h137l72 -356l69 356h137z" />
    <glyph glyph-name="florin" unicode="&#x192;" horiz-adv-x="354" 
d="M323 673l-11 -98q-20 2 -26 2q-30 0 -35 -36l-3 -29h52l-9 -79h-53l-56 -489q-4 -34 -17 -56t-34.5 -32.5t-43 -14t-51.5 -3.5q-10 0 -42 2l12 97q9 -1 25 -1q31 0 36 35l52 462h-52l8 79h54l6 56q9 82 82 101q19 5 64 5q8 0 21.5 -0.5t20.5 -0.5z" />
    <glyph glyph-name="circumflex" unicode="&#x2c6;" horiz-adv-x="250" 
d="M276 574h-105l-44 73l-48 -73h-105l86 132h129z" />
    <glyph glyph-name="tilde" unicode="&#x2dc;" horiz-adv-x="250" 
d="M291 697q-1 -28 -2.5 -43.5t-10.5 -37t-26 -32.5q-21 -14 -46 -14q-30 1 -89 28q-36 17 -49 17q-6 0 -11.5 -1.5t-9 -4t-7 -6t-5.5 -6.5t-4.5 -7t-3 -6l-1.5 -6l-2 -4h-65q2 37 9.5 61.5t29.5 43.5q24 21 59 21q31 0 84 -25q43 -19 54 -19q5 0 13 4q14 7 19 38z" />
    <glyph glyph-name="endash" unicode="&#x2013;" horiz-adv-x="421" 
d="M388 243h-355v98h355v-98z" />
    <glyph glyph-name="emdash" unicode="&#x2014;" horiz-adv-x="626" 
d="M593 242h-560v99h560v-99z" />
    <glyph glyph-name="quoteleft" unicode="&#x2018;" horiz-adv-x="187" 
d="M152 438h-118v134l75 134h43l-61 -134h61v-134z" />
    <glyph glyph-name="quoteright" unicode="&#x2019;" horiz-adv-x="187" 
d="M150 573l-80 -135h-46l70 135h-62v133h118v-133z" />
    <glyph glyph-name="quotesinglbase" unicode="&#x201a;" horiz-adv-x="187" 
d="M153 0l-83 -135h-44l68 135h-58v129h117v-129z" />
    <glyph glyph-name="quotedblleft" unicode="&#x201c;" horiz-adv-x="375" 
d="M343 706l-68 -136h61v-130h-120v130l80 136h47zM163 706l-73 -136h62v-130h-118v130l83 136h46z" />
    <glyph glyph-name="quotedblright" unicode="&#x201d;" horiz-adv-x="375" 
d="M339 576l-84 -136h-46l74 136h-62v130h118v-130zM157 576l-80 -136h-47l68 136h-62v130h121v-130z" />
    <glyph glyph-name="quotedblbase" unicode="&#x201e;" horiz-adv-x="375" 
d="M337 0l-73 -137h-45l64 137h-64v130h118v-130zM155 0l-69 -137h-43l58 137h-63v130h117v-130z" />
    <glyph glyph-name="dagger" unicode="&#x2020;" horiz-adv-x="437" 
d="M417 423h-139v-423h-119v423h-136v113h136v170h119v-170h139v-113z" />
    <glyph glyph-name="daggerdbl" unicode="&#x2021;" horiz-adv-x="437" 
d="M418 142h-140v-142h-116v142h-139v108h139v209h-139v109h139v138h116v-138h140v-109h-140v-209h140v-108z" />
    <glyph glyph-name="bullet" unicode="&#x2022;" horiz-adv-x="333" 
d="M282 214h-231v276h231v-276z" />
    <glyph glyph-name="ellipsis" unicode="&#x2026;" horiz-adv-x="1000" 
d="M886 0h-106v125h106v-125zM553 0h-106v125h106v-125zM220 0h-107v125h107v-125z" />
    <glyph glyph-name="perthousand" unicode="&#x2030;" horiz-adv-x="1000" 
d="M974 102q0 -45 -27 -77t-94 -31q-70 1 -94.5 31.5t-24.5 78.5v226q0 38 8 56q26 61 111 61q91 0 115 -61q6 -14 6 -49v-235zM683 102q0 -45 -27.5 -77t-93.5 -31q-70 1 -95 31.5t-25 78.5v226q0 38 8 56q26 61 111 61q91 0 115 -61q7 -17 7 -49v-235zM519 692l-265 -737
l-64 22l266 738zM266 326q0 -45 -27 -77t-94 -31q-70 1 -94.5 31t-24.5 79v225q0 38 8 57q27 61 111 61q86 0 113 -57q8 -18 8 -53v-235zM894 102v236q0 25 -7 35.5t-32 11.5q-23 0 -32 -10.5t-9 -33.5v-245q0 -11 2 -18t11.5 -13.5t26.5 -6.5q41 0 40 42v2zM602 102v236
q0 25 -7 35.5t-32 11.5q-23 0 -31.5 -10.5t-8.5 -33.5v-245q0 -11 1.5 -18t11 -13.5t27.5 -6.5q12 0 20 4t12 7t5.5 12.5t1.5 10.5v10zM185 325v237v7v8.5t-1 8.5t-3.5 9t-6.5 6.5t-11 5.5t-16 2q-15 0 -24.5 -4t-12.5 -13.5t-3.5 -13t-0.5 -13.5v-245q0 -11 1.5 -18
t11 -13.5t27.5 -6.5q40 0 39 41v0.5v1.5z" />
    <glyph glyph-name="guilsinglleft" unicode="&#x2039;" horiz-adv-x="167" 
d="M132 127l-101 93v92l101 97v-97l-39 -45l39 -40v-100z" />
    <glyph glyph-name="guilsinglright" unicode="&#x203a;" horiz-adv-x="167" 
d="M136 221l-102 -94v97l43 45l-43 42v98l102 -94v-94z" />
    <glyph glyph-name="Euro" unicode="&#x20ac;" horiz-adv-x="481" 
d="M445 667l-26 -109q-48 44 -109 44q-55 0 -71 -28.5t-16 -90.5v-47h167l-15 -67h-152v-49h139l-14 -67h-125v-63q0 -54 18.5 -78t71.5 -24q41 0 69.5 12t61.5 42v-124q-61 -33 -162 -33q-53 0 -89.5 12.5t-56.5 30.5t-30 52.5t-12 63t-2 78.5v31h-59l14 67h45v48h-61
l15 68h46v49q0 45 1 65t12.5 52t35.5 53q53 46 155 46q86 0 149 -34z" />
    <glyph glyph-name="trademark" unicode="&#x2122;" horiz-adv-x="627" 
d="M580 374h-71l1 253l-52 -253h-63l-57 257l4 -257h-73v332h115l42 -195l40 195h114v-332zM240 638h-73v-264h-81v264h-77v68h231v-68z" />
    </font>
</defs>
</svg>
